osu file format v14

[General]
AudioFilename: etude.mp3
AudioLeadIn: 2000
PreviewTime: 668
Countdown: 0
SampleSet: Normal
StackLeniency: 0.6
Mode: 0
LetterboxInBreaks: 0
WidescreenStoryboard: 1

[Editor]
Bookmarks: 8013
DistanceSpacing: 1.2
BeatDivisor: 4
GridSize: 4
TimelineZoom: 1.6

[Metadata]
Title:"Revolutionary Etude"
TitleUnicode:"Revolutionary Etude"
Artist:Shoji Meguro
ArtistUnicode:目黒 将司
Creator:negusver
Version:Normal
Source:Catherine
Tags:Frederic Francois Classical Classic Fryderyk Franciszek Szopen Nicolas piano fortepiano grand Franz Ferencz ritter von liszt Ludwig van Beethoven Bombardment of Warsaw son ami Virtuoso Atlus shin megami tensei SMT PS3 Playstation Xbox 360 Deep Silver horror Vincent Brookes Kyasarin insento Burukkusu Kenichi Tsuchiya Atsushi Kitajoh Pablo de Sarasate Shoji Meguro Étude Op. 10 No. 12 in C minor Frédéric
BeatmapID:1749909
BeatmapSetID:816578

[Difficulty]
HPDrainRate:4
CircleSize:2.5
OverallDifficulty:4
ApproachRate:5
SliderMultiplier:1.1
SliderTickRate:1

[Events]
//Background and Video events
0,0,"catherinebg2.jpg",0,0
//Break Periods
//Storyboard Layer 0 (Background)
//Storyboard Layer 1 (Fail)
//Storyboard Layer 2 (Pass)
//Storyboard Layer 3 (Foreground)
//Storyboard Sound Samples

[TimingPoints]
979,413.793103448276,4,1,1,70,1,0
1082,-100,4,1,1,30,0,0
1185,-100,4,1,1,70,0,0
1392,-100,4,1,1,60,0,0
1599,-100,4,1,1,50,0,0
1703,-100,4,1,1,48,0,0
1806,-100,4,1,1,46,0,0
1910,-100,4,1,1,44,0,0
2013,-100,4,1,1,42,0,0
2116,-100,4,1,1,40,0,0
2220,-100,4,1,1,38,0,0
2323,-100,4,1,1,36,0,0
2427,-100,4,1,1,34,0,0
2530,-100,4,1,1,32,0,0
2634,-100,4,1,1,30,0,0
2737,-100,4,1,1,28,0,0
2841,-100,4,1,1,26,0,0
3047,-100,4,1,1,24,0,0
3875,-100,4,1,1,70,0,0
3979,-100,4,1,1,30,0,0
4185,-100,4,1,1,50,0,0
4289,-100,4,1,1,70,0,0
4392,-100,4,1,1,30,0,0
4496,-100,4,1,1,70,0,0
4599,-100,4,1,1,67,0,0
4703,-100,4,1,1,65,0,0
4806,-100,4,1,1,63,0,0
4910,-100,4,1,1,60,0,0
5013,-100,4,1,1,57,0,0
5116,-100,4,1,1,55,0,0
5220,-100,4,1,1,53,0,0
5323,-100,4,1,1,50,0,0
5427,-100,4,1,1,47,0,0
5530,-100,4,1,1,45,0,0
5634,-100,4,1,1,43,0,0
5737,-100,4,1,1,40,0,0
5841,-100,4,1,1,47,0,0
5944,-100,4,1,1,35,0,0
6047,-100,4,1,1,43,0,0
6151,-100,4,1,1,30,0,0
6565,-100,4,1,1,25,0,0
7185,-100,4,1,1,70,0,0
7289,-100,4,1,1,30,0,0
7599,-100,4,1,1,70,0,0
7703,-100,4,1,1,30,0,0
7806,-100,4,1,1,85,0,0
7910,-100,4,1,1,83,0,0
8013,-100,4,1,1,80,0,0
8116,-100,4,1,1,78,0,0
8220,-100,4,1,1,75,0,0
8323,-100,4,1,1,72,0,0
8427,-100,4,1,1,70,0,0
8530,-100,4,1,1,67,0,0
8634,-100,4,1,1,65,0,0
8737,-100,4,1,1,63,0,0
8841,-100,4,1,1,60,0,0
8944,-100,4,1,1,57,0,0
9047,-100,4,1,1,55,0,0
9151,-100,4,1,1,53,0,0
9254,-100,4,1,1,50,0,0
9358,-100,4,1,1,47,0,0
9461,-100,4,1,1,45,0,0
9565,-100,4,1,1,43,0,0
9668,-100,4,1,1,40,0,0
9772,-100,4,1,1,37,0,0
9875,-100,4,1,1,35,0,0
9979,-100,4,1,1,33,0,0
10289,-100,4,1,1,30,0,0
10496,-100,4,1,1,28,0,0
10806,-100,4,1,1,27,0,0
10910,-100,4,1,1,35,0,0
11323,-100,4,1,1,37,0,0
11530,-100,4,1,1,40,0,0
11737,-100,4,1,1,43,0,0
11944,-100,4,1,1,45,0,0
12151,-100,4,1,1,50,0,0
12358,-100,4,1,1,55,0,0
12565,-100,4,1,1,60,0,0
12772,-100,4,1,1,65,0,0
12979,-100,4,1,1,67,0,0
13185,-100,4,1,1,70,0,0
13392,-100,4,1,1,73,0,0
13599,-100,4,1,1,75,0,0
13806,-100,4,1,1,80,0,0
14323,-100,4,1,1,35,0,0
14634,-100,4,1,1,42,0,0
14841,-100,4,1,1,50,0,0
14944,-100,4,1,1,57,0,0
15047,-100,4,1,1,65,0,0
15254,-100,4,1,1,57,0,0
15358,-100,4,1,1,42,0,0
15668,-100,4,1,1,35,0,0
15875,-100,4,1,1,30,0,0
16185,-100,4,1,1,40,0,0
16289,-100,4,1,1,50,0,0
16392,-100,4,1,1,40,0,0
16703,-100,4,1,1,30,0,0
17013,-100,4,1,1,50,0,0
17116,-100,4,1,1,70,0,0
17220,-100,4,1,1,30,0,0
17427,-100,4,1,1,50,0,0
17530,-100,4,1,1,70,0,0
17634,-100,4,1,1,30,0,0
17737,-100,4,1,1,35,0,0
17944,-100,4,1,1,42,0,0
18151,-100,4,1,1,50,0,0
18254,-100,4,1,1,57,0,0
18358,-100,4,1,1,65,0,0
18565,-100,4,1,1,57,0,0
18668,-100,4,1,1,50,0,0
18875,-100,4,1,1,45,0,0
19082,-100,4,1,1,50,0,0
19185,-100,4,1,1,70,0,0
19289,-100,4,1,1,30,0,0
20013,-100,4,1,1,50,0,0
20116,-100,4,1,1,30,0,0
20323,-100,4,1,1,50,0,0
20427,-100,4,1,1,70,0,0
20530,-100,4,1,1,45,0,0
20737,-100,4,1,1,50,0,0
20841,-100,4,1,1,70,0,0
20944,-100,4,1,1,45,0,0
21047,-100,4,1,1,35,0,0
21254,-100,4,1,1,42,0,0
21461,-100,4,1,1,50,0,0
21565,-100,4,1,1,57,0,0
21668,-100,4,1,1,65,0,0
21875,-100,4,1,1,57,0,0
21979,-100,4,1,1,50,0,0
22082,-100,4,1,1,70,0,0
22185,-100,4,1,1,45,0,0
22392,-100,4,1,1,50,0,0
22496,-100,4,1,1,70,0,0
22599,-100,4,1,1,30,0,0
22806,-100,4,1,1,40,0,0
22910,-100,4,1,1,50,0,0
23013,-100,4,1,1,40,0,0
23324,-100,4,1,1,30,0,0
23634,-100,4,1,1,40,0,0
23737,-100,4,1,1,50,0,0
23841,-100,4,1,1,40,0,0
23944,-100,4,1,1,30,0,0
24151,-100,4,1,1,70,0,0
24254,-100,4,1,1,30,0,0
24461,-100,4,1,1,40,0,0
24565,-100,4,1,1,70,0,0
24668,-100,4,1,1,50,0,0
24772,-100,4,1,1,40,0,0
24979,-100,4,1,1,30,0,0
25185,-100,4,1,1,40,0,0
25289,-100,4,1,1,50,0,0
25392,-100,4,1,1,70,0,0
25496,-100,4,1,1,40,0,0
25599,-100,4,1,1,30,0,0
25703,-100,4,1,1,50,0,0
25806,-100,4,1,1,70,0,0
25910,-100,4,1,1,30,0,0
26013,-100,4,1,1,70,0,0
26116,-100,4,1,1,40,0,0
26220,-100,4,1,1,70,0,0
26323,-100,4,1,1,50,0,0
26427,-100,4,1,1,40,0,0
26634,-100,4,1,1,30,0,0
26944,-100,4,1,1,50,0,0
27047,-100,4,1,1,70,0,0
27151,-100,4,1,1,30,0,0
27358,-100,4,1,1,50,0,0
27461,-100,4,1,1,70,0,0
27565,-100,4,1,1,22,0,0
27668,-100,4,1,1,25,0,0
27772,-100,4,1,1,28,0,0
27875,-100,4,1,1,31,0,0
27979,-100,4,1,1,34,0,0
28082,-100,4,1,1,37,0,0
28185,-100,4,1,1,40,0,0
28289,-100,4,1,1,43,0,0
28392,-100,4,1,1,46,0,0
28496,-100,4,1,1,49,0,0
28599,-100,4,1,1,52,0,0
28703,-100,4,1,1,55,0,0
28806,-100,4,1,1,56,0,0
28910,-100,4,1,1,57,0,0
29013,-100,4,1,1,58,0,0
29116,-100,4,1,1,59,0,0
29220,-100,4,1,1,58,0,0
29323,-100,4,1,1,57,0,0
29427,-100,4,1,1,56,0,0
29530,-100,4,1,1,60,0,0
29634,-100,4,1,1,55,0,0
29737,-100,4,1,1,51,0,0
29841,-100,4,1,1,47,0,0
29944,-100,4,1,1,44,0,0
30047,-100,4,1,1,41,0,0
30151,-100,4,1,1,38,0,0
30254,-100,4,1,1,35,0,0
30358,-100,4,1,1,32,0,0
30461,-100,4,1,1,29,0,0
30565,-100,4,1,1,26,0,0
30668,-100,4,1,1,23,0,0
30772,-100,4,1,1,20,0,0
30979,-100,4,1,1,35,0,0
31185,-100,4,1,1,42,0,0
31392,-100,4,1,1,50,0,0
31496,-100,4,1,1,57,0,0
31599,-100,4,1,1,65,0,0
31806,-100,4,1,1,57,0,0
31910,-100,4,1,1,42,0,0
32220,-100,4,1,1,35,0,0
32427,-100,4,1,1,30,0,0
32634,-100,4,1,1,35,0,0
32737,-100,4,1,1,40,0,0
32841,-100,4,1,1,50,0,0
32943,-100,4,1,1,40,0,0
33047,-100,4,1,1,37,0,0
33151,-100,4,1,1,33,0,0
33254,-100,4,1,1,30,0,0
33565,-100,4,1,1,50,0,0
33668,-100,4,1,1,70,0,0
33772,-100,4,1,1,40,0,0
33979,-100,4,1,1,50,0,0
34082,-100,4,1,1,70,0,0
34185,-100,4,1,1,45,0,0
34288,-100,4,1,1,35,0,0
34496,-100,4,1,1,42,0,0
34703,-100,4,1,1,50,0,0
34806,-100,4,1,1,57,0,0
34910,-100,4,1,1,65,0,0
35116,-100,4,1,1,57,0,0
35220,-100,4,1,1,50,0,0
35323,-100,4,1,1,70,0,0
35427,-100,4,1,1,45,0,0
35633,-100,4,1,1,50,0,0
35737,-100,4,1,1,70,0,0
35841,-100,4,1,1,30,0,0
35944,-100,4,1,1,35,0,0
36047,-100,4,1,1,40,0,0
36151,-100,4,1,1,50,0,0
36254,-100,4,1,1,40,0,0
36358,-100,4,1,1,35,0,0
36461,-100,4,1,1,30,0,0
36565,-100,4,1,1,70,0,0
36668,-100,4,1,1,30,0,0
36874,-100,4,1,1,50,0,0
36979,-100,4,1,1,70,0,0
37082,-100,4,1,1,45,0,0
37289,-100,4,1,1,50,0,0
37392,-100,4,1,1,70,0,0
37496,-100,4,1,1,45,0,0
37598,-100,4,1,1,35,0,0
37806,-100,4,1,1,42,0,0
38013,-100,4,1,1,50,0,0
38116,-100,4,1,1,57,0,0
38220,-100,4,1,1,65,0,0
38427,-100,4,1,1,57,0,0
38530,-100,4,1,1,45,0,0
38634,-100,4,1,1,70,0,0
38737,-100,4,1,1,45,0,0
38943,-100,4,1,1,50,0,0
39047,-100,4,1,1,70,0,0
39151,-100,4,1,1,30,0,0
39254,-100,4,1,1,35,0,0
39358,-100,4,1,1,40,0,0
39461,-100,4,1,1,50,0,0
39565,-100,4,1,1,40,0,0
39668,-100,4,1,1,35,0,0
39979,-100,4,1,1,30,0,0
40082,-100,4,1,1,35,0,0
40185,-100,4,1,1,40,0,0
40289,-100,4,1,1,50,0,0
40392,-100,4,1,1,42,0,0
40496,-100,4,1,1,35,0,0
40599,-100,4,1,1,25,0,0
40703,-100,4,1,1,40,0,0
40806,-100,4,1,1,25,0,0
41323,-100,4,1,1,45,0,0
41427,-100,4,1,1,30,0,0
41737,-100,4,1,1,55,0,0
41841,-100,4,1,1,40,0,0
42151,-100,4,1,1,65,0,0
42254,-100,4,1,1,50,0,0
42565,-100,4,1,1,70,0,0
42668,-100,4,1,1,60,0,0
42979,-100,4,1,1,80,0,0
43082,-100,4,1,1,70,0,0
43392,-100,4,1,1,60,0,0
43496,-100,4,1,1,45,0,0
43599,-100,4,1,1,70,0,0
43703,-100,4,1,1,55,0,0
43806,-100,4,1,1,75,0,0
43910,-100,4,1,1,65,0,0
44013,-100,4,1,1,80,0,0
44116,-100,4,1,1,75,0,0
44220,-100,4,1,1,30,0,0
44323,-100,4,1,1,36,0,0
44427,-100,4,1,1,42,0,0
44530,-100,4,1,1,48,0,0
44634,-100,4,1,1,54,0,0
44737,-100,4,1,1,60,0,0
44841,-100,4,1,1,65,0,0
44944,-100,4,1,1,60,0,0
45047,-100,4,1,1,50,0,0
45151,-100,4,1,1,40,0,0
45254,-100,4,1,1,70,0,0
45358,-100,4,1,1,48,0,0
45565,-100,4,1,1,50,0,0
45668,-100,4,1,1,65,0,0
45772,-100,4,1,1,55,0,0
45875,-100,4,1,1,45,0,0
46082,-100,4,1,1,40,0,0
46496,-100,4,1,1,35,0,0
46910,-100,4,1,1,30,0,0
47323,-100,4,1,1,70,0,0
47427,-100,4,1,1,30,0,0
47530,-100,4,1,1,35,0,0
47737,-100,4,1,1,40,0,0
47944,-100,4,1,1,50,0,0
48151,-100,4,1,1,60,0,0
48254,-100,4,1,1,52,0,0
48358,-100,4,1,1,45,0,0
48461,-100,4,1,1,35,0,0
48565,-100,4,1,1,70,0,0
48668,-100,4,1,1,30,0,0
48875,-100,4,1,1,50,0,0
48979,-100,4,1,1,70,0,0
49082,-100,4,1,1,50,0,0
49185,-100,4,1,1,35,0,0
49289,-100,4,1,1,40,0,0
49392,-100,4,1,1,50,0,0
49599,-100,4,1,1,40,0,0
49806,-100,4,1,1,30,0,0
50220,-100,4,1,1,70,0,0
50323,-100,4,1,1,30,0,0
50530,-100,4,1,1,50,0,0
50634,-100,4,1,1,70,0,0
50737,-100,4,1,1,30,0,0
51047,-100,4,1,1,35,0,0
51254,-100,4,1,1,40,0,0
51461,-100,4,1,1,50,0,0
51668,-100,4,1,1,40,0,0
51875,-100,4,1,1,70,0,0
51979,-100,4,1,1,30,0,0
52185,-100,4,1,1,50,0,0
52289,-100,4,1,1,70,0,0
52392,-100,4,1,1,30,0,0
52496,-100,4,1,1,40,0,0
52599,-100,4,1,1,50,0,0
52703,-100,4,1,1,60,0,0
52910,-100,4,1,1,50,0,0
53116,-100,4,1,1,40,0,0
53530,-100,4,1,1,70,0,0
53634,-100,4,1,1,30,0,0
53841,-100,4,1,1,50,0,0
53944,-100,4,1,1,70,0,0
54047,-100,4,1,1,40,0,0
54151,-100,4,1,1,50,0,0
54254,-100,4,1,1,55,0,0
54358,-100,4,1,1,60,0,0
54461,-100,4,1,1,55,0,0
54565,-100,4,1,1,50,0,0
54668,-100,4,1,1,45,0,0
54772,-100,4,1,1,35,0,0
54875,-100,4,1,1,30,0,0
54979,-100,4,1,1,25,0,0
55082,-100,4,1,1,20,0,0
55185,-100,4,1,1,70,0,0
55289,-100,4,1,1,20,0,0
55392,-100,4,1,1,40,0,0
55496,-100,4,1,1,50,0,0
55599,-100,4,1,1,70,0,0
55703,-100,4,1,1,40,0,0
55806,-100,4,1,1,50,0,0
55910,-100,4,1,1,60,0,0
56013,-100,4,1,1,70,0,0
56116,-100,4,1,1,60,0,0
56220,-100,4,1,1,55,0,0
56323,-100,4,1,1,50,0,0
56427,-100,4,1,1,45,0,0
56530,-100,4,1,1,40,0,0
56634,-100,4,1,1,35,0,0
56737,-100,4,1,1,30,0,0
56841,-100,4,1,1,70,0,0
56944,-100,4,1,1,30,0,0
57151,-100,4,1,1,50,0,0
57254,-100,4,1,1,70,0,0
57358,-100,4,1,1,50,0,0
57461,-100,4,1,1,60,0,0
57565,-100,4,1,1,70,0,0
57668,-100,4,1,1,80,0,0
57772,-100,4,1,1,77,0,0
57875,-100,4,1,1,74,0,0
57979,-100,4,1,1,71,0,0
58082,-100,4,1,1,68,0,0
58185,-100,4,1,1,70,0,0
58289,-100,4,1,1,65,0,0
58392,-100,4,1,1,62,0,0
58496,-100,4,1,1,59,0,0
58599,-100,4,1,1,56,0,0
58703,-100,4,1,1,53,0,0
58806,-100,4,1,1,50,0,0
58910,-100,4,1,1,40,0,0
59013,-100,4,1,1,39,0,0
59116,-100,4,1,1,38,0,0
59220,-100,4,1,1,37,0,0
59323,-100,4,1,1,36,0,0
59427,-100,4,1,1,35,0,0
59530,-100,4,1,1,34,0,0
59634,-100,4,1,1,33,0,0
59737,-100,4,1,1,32,0,0
59841,-100,4,1,1,31,0,0
59944,-100,4,1,1,30,0,0
60047,-100,4,1,1,29,0,0
60151,-100,4,1,1,28,0,0
60254,-100,4,1,1,27,0,0
60358,-100,4,1,1,26,0,0
60461,-100,4,1,1,25,0,0
60565,-100,4,1,2,75,0,1
60668,-100,4,1,2,50,0,1
61392,-100,4,1,2,75,0,1
61496,-100,4,1,2,50,0,1
61806,-100,4,1,2,75,0,1
61910,-100,4,1,2,50,0,1
62220,-100,4,1,2,75,0,1
62323,-100,4,1,2,50,0,1
63047,-100,4,1,2,75,0,1
63151,-100,4,1,2,50,0,1
63875,-100,4,1,2,75,0,1
63979,-100,4,1,2,50,0,1
64703,-100,4,1,2,75,0,1
64806,-100,4,1,2,50,0,1
65116,-100,4,1,2,75,0,1
65220,-100,4,1,2,50,0,1
65530,-100,4,1,2,75,0,1
65634,-100,4,1,2,50,0,1
66358,-100,4,1,2,40,0,1
66772,-100,4,1,2,75,0,1
66875,-100,4,1,2,40,0,1
67082,-100,4,1,2,50,0,1
67185,-100,4,1,1,75,0,0
67289,-100,4,1,1,40,0,0
67392,-100,4,1,1,70,0,0
67496,-100,4,1,1,67,0,0
67599,-100,4,1,1,64,0,0
67703,-100,4,1,1,61,0,0
67806,-100,4,1,1,58,0,0
67910,-100,4,1,1,55,0,0
68013,-100,4,1,1,52,0,0
68116,-100,4,1,1,49,0,0
68220,-100,4,1,1,46,0,0
68323,-100,4,1,1,43,0,0
68427,-100,4,1,1,40,0,0
68530,-100,4,1,1,37,0,0
68634,-100,4,1,1,34,0,0
68737,-100,4,1,1,31,0,0
68841,-100,4,1,1,30,0,0
69254,-100,4,1,1,50,0,0
69358,-100,4,1,1,30,0,0
69668,-100,4,1,1,50,0,0
69772,-100,4,1,1,30,0,0
70082,-100,4,1,1,70,0,0
70185,-100,4,1,1,30,0,0
70392,-100,4,1,1,50,0,0
70496,-100,4,1,1,70,0,0
70599,-100,4,1,1,40,0,0
70702,-100,4,1,1,70,0,0
70806,-100,4,1,1,67,0,0
70910,-100,4,1,1,64,0,0
71013,-100,4,1,1,61,0,0
71116,-100,4,1,1,58,0,0
71220,-100,4,1,1,55,0,0
71323,-100,4,1,1,52,0,0
71426,-100,4,1,1,49,0,0
71530,-100,4,1,1,46,0,0
71633,-100,4,1,1,43,0,0
71737,-100,4,1,1,40,0,0
71840,-100,4,1,1,37,0,0
71944,-100,4,1,1,34,0,0
72047,-100,4,1,1,31,0,0
72151,-100,4,1,1,30,0,0
72565,-100,4,1,1,50,0,0
72668,-100,4,1,1,30,0,0
72979,-100,4,1,1,50,0,0
73082,-100,4,1,1,30,0,0
73392,-100,4,1,1,70,0,0
73496,-100,4,1,1,30,0,0
73703,-100,4,1,1,50,0,0
73806,-100,4,1,1,70,0,0
73910,-100,4,1,1,30,0,0
74013,-100,4,1,1,85,0,0
74116,-100,4,1,1,83,0,0
74220,-100,4,1,1,80,0,0
74323,-100,4,1,1,78,0,0
74427,-100,4,1,1,75,0,0
74530,-100,4,1,1,72,0,0
74634,-100,4,1,1,70,0,0
74737,-100,4,1,1,67,0,0
74841,-100,4,1,1,65,0,0
74944,-100,4,1,1,63,0,0
75047,-100,4,1,1,60,0,0
75151,-100,4,1,1,57,0,0
75254,-100,4,1,1,55,0,0
75358,-100,4,1,1,53,0,0
75461,-100,4,1,1,50,0,0
75565,-100,4,1,1,47,0,0
75668,-100,4,1,1,45,0,0
75772,-100,4,1,1,43,0,0
75875,-100,4,1,1,40,0,0
75979,-100,4,1,1,37,0,0
76082,-100,4,1,1,35,0,0
76186,-100,4,1,1,33,0,0
76496,-100,4,1,1,30,0,0
76703,-100,4,1,1,28,0,0
77013,-100,4,1,1,27,0,0
77117,-100,4,1,1,26,0,0
77323,-100,4,1,1,35,0,0
77530,-100,4,1,1,37,0,0
77737,-100,4,1,1,40,0,0
77944,-100,4,1,1,43,0,0
78151,-100,4,1,1,45,0,0
78358,-100,4,1,1,50,0,0
78565,-100,4,1,1,55,0,0
78772,-100,4,1,1,60,0,0
78979,-100,4,1,1,65,0,0
79186,-100,4,1,1,67,0,0
79392,-100,4,1,1,70,0,0
79599,-100,4,1,1,73,0,0
79806,-100,4,1,1,75,0,0
80013,-100,4,1,1,80,0,0

[Colours]
Combo1 : 255,153,204
Combo2 : 253,62,105

[HitObjects]
47,108,979,6,0,L|178:115,1,110,6|4,3:3|3:3,0:0:0:0:
290,90,1806,1,4,3:3:0:0:
290,90,2013,2,0,P|271:138|280:207,1,110,4|0,1:1|0:0,0:0:0:0:
291,231,2634,6,0,P|234:235|186:277,2,110,4|4|4,3:3|3:3|3:3,0:0:0:0:
403,301,3875,1,6,3:3:0:0:
500,211,4289,6,0,L|485:83,1,110,6|4,3:3|3:3,0:0:0:0:
373,34,5116,1,4,3:3:0:0:
373,34,5323,2,0,P|338:24|314:24,1,55,4|4,1:1|3:3,0:0:0:0:
284,41,5737,2,0,P|249:50|225:50,1,55,0|4,0:0|3:3,0:0:0:0:
100,27,6358,6,0,L|116:160,1,110,4|4,3:3|3:3,0:0:0:0:
191,243,7185,1,6,3:3:0:0:
302,170,7599,5,6,3:3:0:0:
302,170,7806,2,0,P|338:175|392:233,1,110,8|8,0:0|0:2,0:0:0:0:
397,262,8427,2,0,P|373:276|358:299,1,55,4|4,3:3|1:1,0:0:0:0:
350,338,8841,1,4,3:3:0:0:
254,247,9254,6,0,P|218:228|149:240,1,110,4|4,3:3|3:3,0:0:0:0:
24,201,10082,1,4,3:3:0:0:
24,201,10289,2,0,P|40:172|69:146,1,55,4|4,1:1|3:3,0:0:0:0:
179,112,10910,6,0,P|142:45|142:-6,1,110,4|4,3:3|3:3,0:0:0:0:
272,18,11737,1,4,3:3:0:0:
272,18,11944,2,0,P|288:54|289:85,1,55,4|4,1:1|3:3,0:0:0:0:
405,134,12565,5,4,3:3:0:0:
405,134,12772,2,0,P|420:106|425:73,2,55,8|4|8,0:2|3:3|0:3,0:0:0:0:
377,160,13392,2,0,P|324:153|265:175,1,110,4|4,3:3|3:3,0:0:0:0:
173,260,14220,5,4,3:3:0:0:
289,334,14634,1,4,3:3:0:0:
289,334,14841,2,0,P|323:327|359:328,1,55,8|4,0:2|3:3,0:0:0:0:
475,325,15461,2,0,P|449:265|452:202,1,110,4|4,3:3|3:3,0:0:0:0:
510,104,16289,6,0,P|481:98|449:84,1,55,4|8,3:3|0:3,0:0:0:0:
426,65,16703,1,4,3:3:0:0:
314,134,17116,2,0,P|288:129|255:136,1,55,6|8,3:3|0:3,0:0:0:0:
222,143,17530,6,0,P|196:148|163:141,1,55,6|8,3:3|0:0,0:0:0:0:
36,129,18151,2,0,L|35:206,1,55,8|4,0:2|3:3,0:0:0:0:
123,282,18772,2,0,P|153:271|181:275,1,55,6|0,3:3|0:0,0:0:0:0:
208,292,19185,6,0,L|326:283,1,110,6|4,3:3|3:3,0:0:0:0:
439,336,20013,1,6,3:3:0:0:
495,216,20427,2,0,P|487:185|489:158,1,55,6|8,3:3|0:2,0:0:0:0:
503,126,20841,6,0,P|511:95|509:68,1,55,6|8,3:3|0:0,0:0:0:0:
378,89,21461,2,0,L|294:82,1,55,8|4,0:2|3:3,0:0:0:0:
194,117,22082,2,0,P|206:143|210:179,1,55,6|0,3:3|0:0,0:0:0:0:
206,207,22496,6,0,P|139:198|70:237,1,110,6|4,3:3|3:3,0:0:0:0:
168,324,23323,2,0,P|261:310|337:346,1,165,4|8,3:3|0:2,0:0:0:0:
340,372,24151,5,6,3:3:0:0:
460,318,24565,2,0,P|457:267|469:188,1,110,6|8,3:3|0:2,0:0:0:0:
346,147,25392,2,0,P|329:187|327:217,1,55,6|0,3:3|0:0,0:0:0:0:
316,235,25806,6,0,L|260:240,1,55,6|10,3:3|0:3,0:0:0:0:
224,252,26220,1,6,3:3:0:0:
100,205,26634,1,4,3:3:0:0:
140,79,27047,2,0,P|181:70|223:82,1,55,6|8,3:3|0:3,0:0:0:0:
230,85,27461,5,6,3:3:0:0:
340,159,27875,1,4,3:3:0:0:
458,101,28289,2,0,P|459:65|446:27,2,55,4|4|4,3:3|1:1|3:3,0:0:0:0:
433,230,29116,6,0,P|432:266|445:304,1,55,6|8,3:3|0:2,0:0:0:0:
455,317,29530,2,0,L|304:311,1,110,6|4,3:3|3:3,0:0:0:0:
226,371,30358,2,0,P|196:378|150:371,1,55,4|8,3:3|0:2,0:0:0:0:
61,316,30979,5,4,1:1:0:0:
61,316,31185,2,0,P|73:276|63:216,1,55,4|8,3:3|0:2,0:0:0:0:
75,224,31599,2,0,P|65:183|27:136,1,55,4|4,3:3|1:1,0:0:0:0:
43,136,32013,2,0,P|41:94|66:38,1,55,4|0,3:3|0:0,0:0:0:0:
172,50,32634,5,8,0:2:0:0:
172,50,32841,2,0,P|203:72|288:71,1,110,4|4,3:3|3:3,0:0:0:0:
403,98,33668,2,0,P|414:126|411:169,1,55,6|8,3:3|0:3,0:0:0:0:
401,186,34082,6,0,P|390:214|393:257,1,55,6|8,3:3|0:0,0:0:0:0:
401,275,34496,1,4,3:3:0:0:
305,366,34910,1,4,3:3:0:0:
194,293,35323,2,0,P|189:257|196:221,1,55,6|0,3:3|0:0,0:0:0:0:
214,207,35737,6,0,L|87:200,1,110,6|4,3:3|3:3,0:0:0:0:
5,113,36565,1,6,3:3:0:0:
121,51,36979,2,0,P|159:45|205:64,1,55,6|8,3:3|0:2,0:0:0:0:
210,63,37392,6,0,P|248:68|294:49,1,55,6|8,3:3|0:0,0:0:0:0:
392,32,38013,1,8,0:2:0:0:
392,32,38220,2,0,L|400:127,1,55,4|4,3:3|1:1,0:0:0:0:
413,121,38634,1,6,3:3:0:0:
325,219,39047,6,0,P|296:210|195:233,1,110,6|4,3:3|3:3,0:0:0:0:
127,315,39875,2,0,P|153:325|197:369,1,55,4|4,3:3|1:1,0:0:0:0:
197,372,40289,1,4,3:3:0:0:
315,313,40703,6,0,L|458:325,1,110,6|4,3:3|3:3,0:0:0:0:
458,304,41323,2,0,P|475:270|472:225,1,55,10|4,0:3|3:3,0:0:0:0:
477,214,41737,2,0,P|461:179|425:152,1,55,2|4,1:3|3:3,0:0:0:0:
416,148,42151,1,2,0:3:0:0:
327,246,42565,1,10,0:3:0:0:
216,173,42979,1,10,0:3:0:0:
94,229,43392,1,2,1:3:0:0:
94,229,43599,2,0,P|64:209|42:174,1,55,6|10,3:3|0:3,0:0:0:0:
34,161,44013,6,0,P|54:130|58:26,1,110,6|4,3:3|3:3,0:0:0:0:
197,73,44841,2,0,P|220:84|257:88,1,55,6|4,3:3|1:1,0:0:0:0:
287,83,45254,1,6,3:3:0:0:
257,211,45668,5,6,3:3:0:0:
464,299,47323,5,6,3:3:0:0:
342,350,47737,2,0,L|269:344,1,55,4|8,3:3|0:2,0:0:0:0:
255,322,48151,1,4,3:3:0:0:
322,208,48565,2,0,P|354:201|388:211,1,55,6|0,3:3|0:0,0:0:0:0:
407,226,48979,6,0,L|404:109,1,110,6|4,3:3|3:3,0:0:0:0:
304,29,49806,1,4,3:3:0:0:
223,134,50220,2,0,P|188:138|151:122,1,55,6|0,3:3|0:0,0:0:0:0:
140,107,50634,6,0,L|136:231,1,110,6|4,3:3|3:3,0:0:0:0:
39,306,51461,1,4,3:3:0:0:
166,341,51875,2,0,P|196:330|236:337,1,55,6|0,3:3|0:0,0:0:0:0:
250,353,52289,6,0,L|368:347,1,110,6|4,3:3|3:3,0:0:0:0:
472,278,53116,1,4,3:3:0:0:
379,184,53530,2,0,P|348:196|303:191,1,55,6|8,3:3|0:2,0:0:0:0:
296,188,53944,6,0,P|270:172|184:165,1,110,6|4,3:3|3:3,0:0:0:0:
165,167,54565,2,0,P|129:158|102:135,1,55,8|4,0:2|3:3,0:0:0:0:
190,42,55185,2,0,P|215:33|243:34,1,55,6|0,3:3|0:0,0:0:0:0:
276,53,55599,5,6,3:3:0:0:
395,109,56013,2,0,L|390:230,1,110,6|4,3:3|3:3,0:0:0:0:
268,270,56841,2,0,P|241:258|202:259,1,55,6|0,3:3|0:0,0:0:0:0:
182,274,57254,6,0,P|155:286|116:285,1,55,6|8,3:3|0:0,0:0:0:0:
96,267,57668,1,6,3:3:0:0:
256,192,57875,12,12,59530,0:3:0:0:
116,70,60565,6,0,B|111:101|111:101|123:148,1,55,14|0,3:3|0:0,0:0:0:0:
238,189,61185,1,8,0:2:0:0:
238,189,61392,2,0,P|268:177|300:179,1,55,14|4,3:3|1:1,0:0:0:0:
326,191,61806,2,0,P|351:200|378:201,1,55,6|0,3:3|0:0,0:0:0:0:
413,184,62220,5,6,3:3:0:0:
342,292,62634,2,0,B|338:319|338:319|346:355,1,55,0|8,3:3|0:3,0:0:0:0:
357,382,63047,1,6,3:3:0:0:
432,128,63875,6,0,B|439:163|439:163|420:205|420:205|425:239,1,110,14|0,3:3|3:3,0:0:0:0:
294,260,64703,2,0,P|269:241|225:235,1,55,6|4,3:3|1:1,0:0:0:0:
212,216,65116,2,0,P|208:184|224:143,1,55,6|0,3:3|0:0,0:0:0:0:
237,131,65530,6,0,B|199:139|199:139|114:119,1,110,6|0,3:3|3:3,0:0:0:0:
20,198,66358,1,4,3:3:0:0:
110,293,66772,1,6,3:3:0:0:
219,219,67185,5,6,3:3:0:0:
219,219,67392,2,0,P|260:205|287:207,1,55,8|4,0:0|3:3,0:0:0:0:
395,250,68013,1,4,3:3:0:0:
395,250,68220,2,0,P|409:291|406:318,2,55,4|4|0,1:1|3:3|0:0,0:0:0:0:
367,222,68841,6,0,L|377:110,1,110,4|4,3:3|3:3,0:0:0:0:
274,29,69668,2,0,P|251:45|234:69,1,55,4|4,3:3|1:1,0:0:0:0:
226,104,70082,1,6,3:3:0:0:
123,187,70496,5,6,3:3:0:0:
123,187,70703,2,0,P|100:160|93:131,1,55,8|4,0:0|3:3,0:0:0:0:
214,208,71323,1,4,3:3:0:0:
214,208,71530,2,0,P|202:241|180:261,2,55,4|4|0,1:1|3:3|0:0,0:0:0:0:
216,169,72151,6,0,L|351:183,1,110,4|4,3:3|3:3,0:0:0:0:
453,214,72979,2,0,P|461:176|480:151,1,55,4|4,3:3|1:1,0:0:0:0:
500,139,73392,1,6,3:3:0:0:
411,41,73806,5,6,3:3:0:0:
411,41,74013,2,0,P|390:63|379:87,1,55,8|4,0:0|3:3,0:0:0:0:
357,116,74427,2,0,P|329:129|303:132,1,55,8|4,0:2|3:3,0:0:0:0:
267,125,74841,1,4,1:1:0:0:
267,125,75047,2,0,L|257:184,1,55,4|0,3:3|0:0,0:0:0:0:
234,210,75461,5,4,3:3:0:0:
338,290,75875,2,0,L|394:296,1,55,4|8,3:3|0:3,0:0:0:0:
429,285,76289,2,0,P|448:254|451:225,1,55,4|4,3:3|1:1,0:0:0:0:
456,197,76703,2,0,P|439:164|415:147,1,55,4|0,3:3|0:0,0:0:0:0:
389,137,77116,5,4,3:3:0:0:
267,189,77530,1,4,3:3:0:0:
267,189,77737,2,0,P|226:183|202:173,1,55,8|4,0:2|3:3,0:0:0:0:
177,163,78151,1,4,1:1:0:0:
177,163,78358,2,0,P|141:159|106:170,1,55,4|0,3:3|0:0,0:0:0:0:
92,187,78772,5,4,3:3:0:0:
176,334,79185,2,0,P|210:325|246:328,1,55,4|8,3:3|0:3,0:0:0:0:
268,322,79599,2,0,P|292:297|308:264,1,55,4|4,3:3|1:1,0:0:0:0:
316,243,80013,1,4,3:3:0:0:
263,121,80427,5,4,3:3:0:0:
