osu file format v14

[General]
AudioFilename: etude.mp3
AudioLeadIn: 2000
PreviewTime: 668
Countdown: 0
SampleSet: Normal
StackLeniency: 0.4
Mode: 0
LetterboxInBreaks: 0
WidescreenStoryboard: 1

[Editor]
Bookmarks: 8013
DistanceSpacing: 1
BeatDivisor: 4
GridSize: 8
TimelineZoom: 1.6

[Metadata]
Title:"Revolutionary Etude"
TitleUnicode:"Revolutionary Etude"
Artist:Shoji Meguro
ArtistUnicode:目黒 将司
Creator:negusver
Version:Expert
Source:Catherine
Tags:Frederic Francois Classical Classic Fryderyk Franciszek Szopen Nicolas piano fortepiano grand Franz Ferencz ritter von liszt Ludwig van Beethoven Bombardment of Warsaw son ami Virtuoso Atlus shin megami tensei SMT PS3 Playstation Xbox 360 Deep Silver horror Vincent Brookes Kyasarin insento Burukkusu Kenichi Tsuchiya Atsushi Kitajoh Pablo de Sarasate Shoji Meguro Étude Op. 10 No. 12 in C minor Frédéric
BeatmapID:1746233
BeatmapSetID:816578

[Difficulty]
HPDrainRate:6
CircleSize:4.2
OverallDifficulty:9.4
ApproachRate:9.5
SliderMultiplier:2
SliderTickRate:1

[Events]
//Background and Video events
0,0,"catherinebg2.jpg",0,0
//Break Periods
//Storyboard Layer 0 (Background)
//Storyboard Layer 1 (Fail)
//Storyboard Layer 2 (Pass)
//Storyboard Layer 3 (Foreground)
//Storyboard Sound Samples

[TimingPoints]
979,413.793103448276,4,1,1,70,1,0
979,-73.5294117647059,4,1,1,70,0,0
1082,-73.5294117647059,4,1,1,30,0,0
1185,-73.5294117647059,4,1,1,70,0,0
1392,-78.125,4,1,1,60,0,0
1599,-78.125,4,1,1,50,0,0
1703,-78.125,4,1,1,48,0,0
1806,-83.3333333333333,4,1,1,46,0,0
1910,-83.3333333333333,4,1,1,44,0,0
2013,-83.3333333333333,4,1,1,42,0,0
2116,-83.3333333333333,4,1,1,40,0,0
2220,-90.9090909090909,4,1,1,38,0,0
2323,-90.9090909090909,4,1,1,36,0,0
2427,-90.9090909090909,4,1,1,34,0,0
2530,-90.9090909090909,4,1,1,32,0,0
2634,-100,4,1,1,30,0,0
2737,-100,4,1,1,28,0,0
2841,-100,4,1,1,26,0,0
3047,-100,4,1,1,24,0,0
3875,-117.647058823529,4,1,1,70,0,0
3979,-117.647058823529,4,1,1,30,0,0
4185,-117.647058823529,4,1,1,50,0,0
4289,-73.5294117647059,4,1,1,70,0,0
4392,-73.5294117647059,4,1,1,30,0,0
4496,-73.5294117647059,4,1,1,70,0,0
4599,-73.5294117647059,4,1,1,67,0,0
4703,-78.125,4,1,1,65,0,0
4806,-78.125,4,1,1,63,0,0
4910,-78.125,4,1,1,60,0,0
5013,-78.125,4,1,1,57,0,0
5116,-83.3333333333333,4,1,1,55,0,0
5220,-83.3333333333333,4,1,1,53,0,0
5323,-83.3333333333333,4,1,1,50,0,0
5427,-83.3333333333333,4,1,1,47,0,0
5530,-90.9090909090909,4,1,1,45,0,0
5634,-90.9090909090909,4,1,1,43,0,0
5737,-90.9090909090909,4,1,1,40,0,0
5841,-90.9090909090909,4,1,1,47,0,0
5944,-100,4,1,1,35,0,0
6047,-100,4,1,1,43,0,0
6151,-100,4,1,1,30,0,0
6565,-100,4,1,1,25,0,0
7185,-117.647058823529,4,1,1,70,0,0
7289,-117.647058823529,4,1,1,30,0,0
7599,-73.5294117647059,4,1,1,70,0,0
7703,-73.5294117647059,4,1,1,30,0,0
7806,-73.5294117647059,4,1,1,85,0,0
7910,-73.5294117647059,4,1,1,83,0,0
8013,-78.125,4,1,1,80,0,0
8116,-78.125,4,1,1,78,0,0
8220,-78.125,4,1,1,75,0,0
8323,-78.125,4,1,1,72,0,0
8427,-83.3333333333333,4,1,1,70,0,0
8530,-83.3333333333333,4,1,1,67,0,0
8634,-83.3333333333333,4,1,1,65,0,0
8737,-83.3333333333333,4,1,1,63,0,0
8841,-90.9090909090909,4,1,1,60,0,0
8944,-90.9090909090909,4,1,1,57,0,0
9047,-90.9090909090909,4,1,1,55,0,0
9151,-90.9090909090909,4,1,1,53,0,0
9254,-100,4,1,1,50,0,0
9358,-100,4,1,1,47,0,0
9461,-100,4,1,1,45,0,0
9565,-100,4,1,1,43,0,0
9668,-100,4,1,1,40,0,0
9772,-100,4,1,1,37,0,0
9875,-100,4,1,1,35,0,0
9979,-100,4,1,1,33,0,0
10082,-117.647058823529,4,1,1,33,0,0
10289,-117.647058823529,4,1,1,30,0,0
10496,-83.3333333333333,4,1,1,28,0,0
10806,-83.3333333333333,4,1,1,27,0,0
10910,-117.647058823529,4,1,1,35,0,0
11323,-117.647058823529,4,1,1,37,0,0
11530,-117.647058823529,4,1,1,40,0,0
11737,-90.9090909090909,4,1,1,43,0,0
11944,-90.9090909090909,4,1,1,45,0,0
12151,-90.9090909090909,4,1,1,50,0,0
12358,-90.9090909090909,4,1,1,55,0,0
12565,-78.125,4,1,1,60,0,0
12772,-78.125,4,1,1,65,0,0
12979,-78.125,4,1,1,67,0,0
13185,-78.125,4,1,1,70,0,0
13392,-83.3333333333333,4,1,1,73,0,0
13599,-83.3333333333333,4,1,1,75,0,0
13806,-100,4,1,1,80,0,0
14220,-73.5294117647059,4,1,1,80,0,0
14323,-73.5294117647059,4,1,1,35,0,0
14530,-83.3333333333333,4,1,1,35,0,0
14634,-83.3333333333333,4,1,1,42,0,0
14841,-83.3333333333333,4,1,1,50,0,0
14944,-83.3333333333333,4,1,1,57,0,0
15047,-73.5294117647059,4,1,1,65,0,0
15254,-73.5294117647059,4,1,1,57,0,0
15358,-73.5294117647059,4,1,1,42,0,0
15461,-90.9090909090909,4,1,1,42,0,0
15668,-90.9090909090909,4,1,1,35,0,0
15875,-117.647058823529,4,1,1,30,0,0
16185,-117.647058823529,4,1,1,40,0,0
16289,-90.9090909090909,4,1,1,50,0,0
16392,-90.9090909090909,4,1,1,40,0,0
16703,-117.647058823529,4,1,1,30,0,0
17013,-117.647058823529,4,1,1,50,0,0
17116,-100,4,1,1,70,0,0
17220,-100,4,1,1,30,0,0
17427,-100,4,1,1,50,0,0
17530,-90.9090909090909,4,1,1,70,0,0
17634,-90.9090909090909,4,1,1,30,0,0
17737,-90.9090909090909,4,1,1,35,0,0
17841,-83.3333333333333,4,1,1,35,0,0
17944,-83.3333333333333,4,1,1,42,0,0
18151,-83.3333333333333,4,1,1,50,0,0
18254,-83.3333333333333,4,1,1,57,0,0
18358,-73.5294117647059,4,1,1,65,0,0
18565,-73.5294117647059,4,1,1,57,0,0
18668,-73.5294117647059,4,1,1,50,0,0
18772,-100,4,1,1,50,0,0
18875,-100,4,1,1,45,0,0
19082,-100,4,1,1,50,0,0
19185,-117.647058823529,4,1,1,70,0,0
19289,-117.647058823529,4,1,1,30,0,0
19599,-83.3333333333333,4,1,1,30,0,0
20013,-117.647058823529,4,1,1,50,0,0
20116,-117.647058823529,4,1,1,30,0,0
20323,-117.647058823529,4,1,1,50,0,0
20427,-100,4,1,1,70,0,0
20530,-100,4,1,1,45,0,0
20737,-100,4,1,1,50,0,0
20841,-90.9090909090909,4,1,1,70,0,0
20944,-90.9090909090909,4,1,1,45,0,0
21047,-90.9090909090909,4,1,1,35,0,0
21151,-83.3333333333333,4,1,1,35,0,0
21254,-83.3333333333333,4,1,1,42,0,0
21461,-83.3333333333333,4,1,1,50,0,0
21565,-83.3333333333333,4,1,1,57,0,0
21668,-73.5294117647059,4,1,1,65,0,0
21875,-73.5294117647059,4,1,1,57,0,0
21979,-73.5294117647059,4,1,1,50,0,0
22082,-100,4,1,1,70,0,0
22185,-100,4,1,1,45,0,0
22392,-100,4,1,1,50,0,0
22496,-117.647058823529,4,1,1,70,0,0
22599,-117.647058823529,4,1,1,30,0,0
22703,-100,4,1,1,30,0,0
22806,-100,4,1,1,40,0,0
22910,-100,4,1,1,50,0,0
23013,-100,4,1,1,40,0,0
23323,-117.647058823529,4,1,1,30,0,0
23634,-117.647058823529,4,1,1,40,0,0
23737,-100,4,1,1,50,0,0
23841,-100,4,1,1,40,0,0
23944,-100,4,1,1,30,0,0
24151,-117.647058823529,4,1,1,70,0,0
24254,-117.647058823529,4,1,1,30,0,0
24461,-117.647058823529,4,1,1,40,0,0
24565,-83.3333333333333,4,1,1,70,0,0
24668,-83.3333333333333,4,1,1,50,0,0
24772,-83.3333333333333,4,1,1,40,0,0
24979,-117.647058823529,4,1,1,30,0,0
25185,-117.647058823529,4,1,1,40,0,0
25289,-117.647058823529,4,1,1,50,0,0
25392,-117.647058823529,4,1,1,70,0,0
25496,-117.647058823529,4,1,1,40,0,0
25599,-117.647058823529,4,1,1,30,0,0
25703,-117.647058823529,4,1,1,50,0,0
25806,-100,4,1,1,70,0,0
25910,-100,4,1,1,30,0,0
26013,-100,4,1,1,70,0,0
26116,-100,4,1,1,40,0,0
26220,-117.647058823529,4,1,1,70,0,0
26323,-117.647058823529,4,1,1,50,0,0
26427,-117.647058823529,4,1,1,40,0,0
26634,-117.647058823529,4,1,1,30,0,0
26944,-117.647058823529,4,1,1,50,0,0
27047,-117.647058823529,4,1,1,70,0,0
27151,-117.647058823529,4,1,1,30,0,0
27358,-117.647058823529,4,1,1,50,0,0
27461,-105.263157894737,4,1,1,70,0,0
27565,-105.263157894737,4,1,1,22,0,0
27668,-105.263157894737,4,1,1,25,0,0
27772,-105.263157894737,4,1,1,28,0,0
27875,-100,4,1,1,31,0,0
27979,-100,4,1,1,34,0,0
28082,-100,4,1,1,37,0,0
28185,-100,4,1,1,40,0,0
28289,-90.9090909090909,4,1,1,43,0,0
28392,-90.9090909090909,4,1,1,46,0,0
28496,-90.9090909090909,4,1,1,49,0,0
28599,-90.9090909090909,4,1,1,52,0,0
28703,-83.3333333333333,4,1,1,55,0,0
28806,-83.3333333333333,4,1,1,56,0,0
28910,-83.3333333333333,4,1,1,57,0,0
29013,-83.3333333333333,4,1,1,58,0,0
29116,-78.125,4,1,1,59,0,0
29220,-78.125,4,1,1,58,0,0
29323,-78.125,4,1,1,57,0,0
29427,-78.125,4,1,1,56,0,0
29530,-73.5294117647059,4,1,1,60,0,0
29634,-73.5294117647059,4,1,1,55,0,0
29737,-100,4,1,1,51,0,0
29841,-100,4,1,1,47,0,0
29944,-100,4,1,1,44,0,0
30047,-100,4,1,1,41,0,0
30151,-100,4,1,1,38,0,0
30254,-100,4,1,1,35,0,0
30358,-117.647058823529,4,1,1,32,0,0
30461,-117.647058823529,4,1,1,29,0,0
30565,-117.647058823529,4,1,1,26,0,0
30668,-117.647058823529,4,1,1,23,0,0
30772,-117.647058823529,4,1,1,20,0,0
30979,-117.647058823529,4,1,1,35,0,0
31185,-90.9090909090909,4,1,1,42,0,0
31392,-90.9090909090909,4,1,1,50,0,0
31496,-90.9090909090909,4,1,1,57,0,0
31599,-73.5294117647059,4,1,1,65,0,0
31806,-83.3333333333333,4,1,1,57,0,0
31910,-83.3333333333333,4,1,1,42,0,0
32013,-100,4,1,1,42,0,0
32220,-100,4,1,1,35,0,0
32427,-117.647058823529,4,1,1,30,0,0
32634,-100,4,1,1,35,0,0
32737,-100,4,1,1,40,0,0
32841,-83.3333333333333,4,1,1,50,0,0
32943,-83.3333333333333,4,1,1,40,0,0
33047,-100,4,1,1,37,0,0
33151,-100,4,1,1,33,0,0
33254,-117.647058823529,4,1,1,30,0,0
33565,-117.647058823529,4,1,1,50,0,0
33668,-100,4,1,1,70,0,0
33772,-100,4,1,1,40,0,0
33979,-100,4,1,1,50,0,0
34082,-90.9090909090909,4,1,1,70,0,0
34185,-90.9090909090909,4,1,1,45,0,0
34288,-90.9090909090909,4,1,1,35,0,0
34496,-83.3333333333333,4,1,1,42,0,0
34703,-83.3333333333333,4,1,1,50,0,0
34806,-83.3333333333333,4,1,1,57,0,0
34910,-73.5294117647059,4,1,1,65,0,0
35116,-73.5294117647059,4,1,1,57,0,0
35220,-73.5294117647059,4,1,1,50,0,0
35323,-100,4,1,1,70,0,0
35427,-100,4,1,1,45,0,0
35633,-100,4,1,1,50,0,0
35737,-117.647058823529,4,1,1,70,0,0
35841,-117.647058823529,4,1,1,30,0,0
35944,-117.647058823529,4,1,1,35,0,0
36047,-117.647058823529,4,1,1,40,0,0
36151,-83.3333333333333,4,1,1,50,0,0
36254,-83.3333333333333,4,1,1,40,0,0
36358,-83.3333333333333,4,1,1,35,0,0
36461,-83.3333333333333,4,1,1,30,0,0
36565,-117.647058823529,4,1,1,70,0,0
36668,-117.647058823529,4,1,1,30,0,0
36874,-117.647058823529,4,1,1,50,0,0
36979,-100,4,1,1,70,0,0
37082,-100,4,1,1,45,0,0
37289,-100,4,1,1,50,0,0
37392,-90.9090909090909,4,1,1,70,0,0
37496,-90.9090909090909,4,1,1,45,0,0
37598,-90.9090909090909,4,1,1,35,0,0
37806,-83.3333333333333,4,1,1,42,0,0
38013,-83.3333333333333,4,1,1,50,0,0
38116,-83.3333333333333,4,1,1,57,0,0
38220,-73.5294117647059,4,1,1,65,0,0
38427,-73.5294117647059,4,1,1,57,0,0
38530,-73.5294117647059,4,1,1,45,0,0
38634,-100,4,1,1,70,0,0
38737,-100,4,1,1,45,0,0
38943,-100,4,1,1,50,0,0
39047,-117.647058823529,4,1,1,70,0,0
39151,-117.647058823529,4,1,1,30,0,0
39254,-100,4,1,1,35,0,0
39358,-100,4,1,1,40,0,0
39461,-100,4,1,1,50,0,0
39565,-100,4,1,1,40,0,0
39668,-100,4,1,1,35,0,0
39875,-117.647058823529,4,1,1,35,0,0
39979,-117.647058823529,4,1,1,30,0,0
40082,-100,4,1,1,35,0,0
40185,-100,4,1,1,40,0,0
40289,-100,4,1,1,50,0,0
40392,-100,4,1,1,42,0,0
40496,-100,4,1,1,35,0,0
40599,-100,4,1,1,25,0,0
40703,-117.647058823529,4,1,1,40,0,0
40806,-117.647058823529,4,1,1,25,0,0
41323,-105.263157894737,4,1,1,45,0,0
41427,-105.263157894737,4,1,1,30,0,0
41737,-105.263157894737,4,1,1,55,0,0
41841,-105.263157894737,4,1,1,40,0,0
42151,-117.647058823529,4,1,1,65,0,0
42254,-117.647058823529,4,1,1,50,0,0
42565,-90.9090909090909,4,1,1,70,0,0
42668,-90.9090909090909,4,1,1,60,0,0
42979,-78.125,4,1,1,80,0,0
43082,-78.125,4,1,1,70,0,0
43392,-117.647058823529,4,1,1,60,0,0
43496,-117.647058823529,4,1,1,45,0,0
43599,-100,4,1,1,70,0,0
43703,-100,4,1,1,55,0,0
43806,-83.3333333333333,4,1,1,75,0,0
43910,-83.3333333333333,4,1,1,65,0,0
44013,-73.5294117647059,4,1,1,80,0,0
44116,-73.5294117647059,4,1,1,75,0,0
44220,-90.9090909090909,4,1,1,30,0,0
44323,-90.9090909090909,4,1,1,36,0,0
44427,-78.125,4,1,1,42,0,0
44530,-78.125,4,1,1,48,0,0
44634,-68.9655172413793,4,1,1,54,0,0
44737,-68.9655172413793,4,1,1,60,0,0
44841,-78.125,4,1,1,65,0,0
44944,-78.125,4,1,1,60,0,0
45047,-83.3333333333333,4,1,1,50,0,0
45151,-83.3333333333333,4,1,1,40,0,0
45254,-100,4,1,1,70,0,0
45358,-100,4,1,1,48,0,0
45565,-100,4,1,1,50,0,0
45668,-83.3333333333333,4,1,1,65,0,0
45772,-83.3333333333333,4,1,1,55,0,0
45875,-83.3333333333333,4,1,1,45,0,0
46082,-95.2380952380952,4,1,1,40,0,0
46496,-105.263157894737,4,1,1,35,0,0
46910,-117.647058823529,4,1,1,30,0,0
47323,-90.9090909090909,4,1,1,70,0,0
47427,-90.9090909090909,4,1,1,30,0,0
47530,-90.9090909090909,4,1,1,35,0,0
47737,-117.647058823529,4,1,1,40,0,0
47944,-100,4,1,1,50,0,0
48151,-90.9090909090909,4,1,1,60,0,0
48254,-90.9090909090909,4,1,1,52,0,0
48358,-100,4,1,1,45,0,0
48461,-100,4,1,1,35,0,0
48565,-117.647058823529,4,1,1,70,0,0
48668,-117.647058823529,4,1,1,30,0,0
48875,-117.647058823529,4,1,1,50,0,0
48979,-90.9090909090909,4,1,1,70,0,0
49082,-90.9090909090909,4,1,1,50,0,0
49185,-90.9090909090909,4,1,1,35,0,0
49289,-90.9090909090909,4,1,1,40,0,0
49392,-100,4,1,1,50,0,0
49599,-100,4,1,1,40,0,0
49806,-117.647058823529,4,1,1,30,0,0
50220,-117.647058823529,4,1,1,70,0,0
50323,-117.647058823529,4,1,1,30,0,0
50530,-117.647058823529,4,1,1,50,0,0
50634,-90.9090909090909,4,1,1,70,0,0
50737,-90.9090909090909,4,1,1,30,0,0
51047,-100,4,1,1,35,0,0
51254,-100,4,1,1,40,0,0
51461,-100,4,1,1,50,0,0
51668,-100,4,1,1,40,0,0
51875,-117.647058823529,4,1,1,70,0,0
51979,-117.647058823529,4,1,1,30,0,0
52185,-117.647058823529,4,1,1,50,0,0
52289,-100,4,1,1,70,0,0
52392,-100,4,1,1,30,0,0
52496,-100,4,1,1,40,0,0
52599,-100,4,1,1,50,0,0
52703,-83.3333333333333,4,1,1,60,0,0
52910,-100,4,1,1,50,0,0
53116,-90.9090909090909,4,1,1,40,0,0
53323,-105.263157894737,4,1,1,40,0,0
53530,-117.647058823529,4,1,1,70,0,0
53634,-117.647058823529,4,1,1,30,0,0
53841,-117.647058823529,4,1,1,50,0,0
53944,-100,4,1,1,70,0,0
54047,-100,4,1,1,40,0,0
54151,-100,4,1,1,50,0,0
54254,-100,4,1,1,55,0,0
54358,-83.3333333333333,4,1,1,60,0,0
54461,-83.3333333333333,4,1,1,55,0,0
54565,-83.3333333333333,4,1,1,50,0,0
54668,-83.3333333333333,4,1,1,45,0,0
54772,-100,4,1,1,35,0,0
54875,-100,4,1,1,30,0,0
54979,-100,4,1,1,25,0,0
55082,-100,4,1,1,20,0,0
55185,-105.263157894737,4,1,1,70,0,0
55289,-105.263157894737,4,1,1,20,0,0
55392,-105.263157894737,4,1,1,40,0,0
55496,-105.263157894737,4,1,1,50,0,0
55599,-90.9090909090909,4,1,1,70,0,0
55703,-90.9090909090909,4,1,1,40,0,0
55806,-90.9090909090909,4,1,1,50,0,0
55910,-90.9090909090909,4,1,1,60,0,0
56013,-78.125,4,1,1,70,0,0
56116,-78.125,4,1,1,60,0,0
56220,-78.125,4,1,1,55,0,0
56323,-78.125,4,1,1,50,0,0
56427,-90.9090909090909,4,1,1,45,0,0
56530,-90.9090909090909,4,1,1,40,0,0
56634,-90.9090909090909,4,1,1,35,0,0
56737,-90.9090909090909,4,1,1,30,0,0
56841,-100,4,1,1,70,0,0
56944,-100,4,1,1,30,0,0
57151,-100,4,1,1,50,0,0
57254,-83.3333333333333,4,1,1,70,0,0
57358,-83.3333333333333,4,1,1,50,0,0
57461,-83.3333333333333,4,1,1,60,0,0
57565,-83.3333333333333,4,1,1,70,0,0
57668,-73.5294117647059,4,1,1,80,0,0
57772,-73.5294117647059,4,1,1,77,0,0
57875,-73.5294117647059,4,1,1,74,0,0
57979,-73.5294117647059,4,1,1,71,0,0
58082,-83.3333333333333,4,1,1,68,0,0
58185,-83.3333333333333,4,1,1,70,0,0
58289,-83.3333333333333,4,1,1,65,0,0
58392,-83.3333333333333,4,1,1,62,0,0
58496,-100,4,1,1,59,0,0
58599,-100,4,1,1,56,0,0
58703,-100,4,1,1,53,0,0
58806,-100,4,1,1,50,0,0
58910,-117.647058823529,4,1,1,40,0,0
59013,-117.647058823529,4,1,1,39,0,0
59116,-117.647058823529,4,1,1,38,0,0
59220,-117.647058823529,4,1,1,37,0,0
59323,-105.263157894737,4,1,1,36,0,0
59427,-105.263157894737,4,1,1,35,0,0
59530,-105.263157894737,4,1,1,34,0,0
59634,-105.263157894737,4,1,1,33,0,0
59737,-100,4,1,1,32,0,0
59841,-100,4,1,1,31,0,0
59944,-100,4,1,1,30,0,0
60047,-100,4,1,1,29,0,0
60151,-90.9090909090909,4,1,1,28,0,0
60254,-90.9090909090909,4,1,1,27,0,0
60358,-90.9090909090909,4,1,1,26,0,0
60461,-90.9090909090909,4,1,1,25,0,0
60565,-73.5294117647059,4,1,2,75,0,1
60668,-73.5294117647059,4,1,2,50,0,1
60772,-83.3333333333333,4,1,2,50,0,1
61392,-90.9090909090909,4,1,2,75,0,1
61496,-90.9090909090909,4,1,2,50,0,1
61806,-105.263157894737,4,1,2,75,0,1
61910,-105.263157894737,4,1,2,50,0,1
62220,-78.125,4,1,2,75,0,1
62323,-78.125,4,1,2,50,0,1
62634,-90.9090909090909,4,1,2,50,0,1
63047,-105.263157894737,4,1,2,75,0,1
63151,-105.263157894737,4,1,2,50,0,1
63461,-117.647058823529,4,1,2,50,0,1
63875,-73.5294117647059,4,1,2,75,0,1
63979,-73.5294117647059,4,1,2,50,0,1
64082,-83.3333333333333,4,1,2,50,0,1
64703,-90.9090909090909,4,1,2,75,0,1
64806,-90.9090909090909,4,1,2,50,0,1
65116,-105.263157894737,4,1,2,75,0,1
65220,-105.263157894737,4,1,2,50,0,1
65530,-90.9090909090909,4,1,2,75,0,1
65634,-90.9090909090909,4,1,2,50,0,1
65944,-83.3333333333333,4,1,2,50,0,1
66358,-117.647058823529,4,1,2,40,0,1
66772,-166.666666666667,4,1,2,75,0,1
66875,-166.666666666667,4,1,2,40,0,1
67082,-166.666666666667,4,1,2,50,0,1
67185,-73.5294117647059,4,1,1,75,0,0
67289,-73.5294117647059,4,1,1,40,0,0
67392,-73.5294117647059,4,1,1,70,0,0
67496,-73.5294117647059,4,1,1,67,0,0
67599,-78.125,4,1,1,64,0,0
67703,-78.125,4,1,1,61,0,0
67806,-78.125,4,1,1,58,0,0
67910,-78.125,4,1,1,55,0,0
68013,-83.3333333333333,4,1,1,52,0,0
68116,-83.3333333333333,4,1,1,49,0,0
68220,-83.3333333333333,4,1,1,46,0,0
68323,-83.3333333333333,4,1,1,43,0,0
68427,-100,4,1,1,40,0,0
68530,-100,4,1,1,37,0,0
68634,-100,4,1,1,34,0,0
68737,-100,4,1,1,31,0,0
68841,-117.647058823529,4,1,1,30,0,0
69254,-105.263157894737,4,1,1,50,0,0
69358,-105.263157894737,4,1,1,30,0,0
69668,-100,4,1,1,50,0,0
69772,-100,4,1,1,30,0,0
70082,-100,4,1,1,70,0,0
70185,-100,4,1,1,30,0,0
70392,-100,4,1,1,50,0,0
70496,-73.5294117647059,4,1,1,70,0,0
70599,-73.5294117647059,4,1,1,40,0,0
70702,-73.5294117647059,4,1,1,70,0,0
70806,-73.5294117647059,4,1,1,67,0,0
70910,-78.125,4,1,1,64,0,0
71013,-78.125,4,1,1,61,0,0
71116,-78.125,4,1,1,58,0,0
71220,-78.125,4,1,1,55,0,0
71323,-83.3333333333333,4,1,1,52,0,0
71426,-83.3333333333333,4,1,1,49,0,0
71530,-83.3333333333333,4,1,1,46,0,0
71633,-83.3333333333333,4,1,1,43,0,0
71737,-100,4,1,1,40,0,0
71840,-100,4,1,1,37,0,0
71944,-100,4,1,1,34,0,0
72047,-100,4,1,1,31,0,0
72151,-117.647058823529,4,1,1,30,0,0
72565,-105.263157894737,4,1,1,50,0,0
72668,-105.263157894737,4,1,1,30,0,0
72979,-100,4,1,1,50,0,0
73082,-100,4,1,1,30,0,0
73392,-100,4,1,1,70,0,0
73496,-100,4,1,1,30,0,0
73703,-100,4,1,1,50,0,0
73806,-83.3333333333333,4,1,1,70,0,0
73910,-83.3333333333333,4,1,1,30,0,0
74013,-68.9655172413793,4,1,1,85,0,0
74116,-68.9655172413793,4,1,1,83,0,0
74220,-68.9655172413793,4,1,1,80,0,0
74323,-68.9655172413793,4,1,1,78,0,0
74427,-68.9655172413793,4,1,1,75,0,0
74530,-68.9655172413793,4,1,1,72,0,0
74634,-78.125,4,1,1,70,0,0
74737,-78.125,4,1,1,67,0,0
74841,-78.125,4,1,1,65,0,0
74944,-78.125,4,1,1,63,0,0
75047,-83.3333333333333,4,1,1,60,0,0
75151,-83.3333333333333,4,1,1,57,0,0
75254,-83.3333333333333,4,1,1,55,0,0
75358,-83.3333333333333,4,1,1,53,0,0
75461,-90.9090909090909,4,1,1,50,0,0
75565,-90.9090909090909,4,1,1,47,0,0
75668,-90.9090909090909,4,1,1,45,0,0
75772,-90.9090909090909,4,1,1,43,0,0
75875,-100,4,1,1,40,0,0
75979,-100,4,1,1,37,0,0
76082,-100,4,1,1,35,0,0
76186,-100,4,1,1,33,0,0
76289,-105.263157894737,4,1,1,33,0,0
76496,-105.263157894737,4,1,1,30,0,0
76703,-117.647058823529,4,1,1,28,0,0
77013,-117.647058823529,4,1,1,27,0,0
77117,-117.647058823529,4,1,1,26,0,0
77323,-117.647058823529,4,1,1,35,0,0
77530,-90.9090909090909,4,1,1,37,0,0
77737,-90.9090909090909,4,1,1,40,0,0
77944,-105.263157894737,4,1,1,43,0,0
78151,-83.3333333333333,4,1,1,45,0,0
78358,-83.3333333333333,4,1,1,50,0,0
78565,-83.3333333333333,4,1,1,55,0,0
78772,-100,4,1,1,60,0,0
78979,-73.5294117647059,4,1,1,65,0,0
79185,-78.125,4,1,1,67,0,0
79392,-78.125,4,1,1,70,0,0
79599,-86.9565217391304,4,1,1,73,0,0
79806,-86.9565217391304,4,1,1,75,0,0
80013,-100,4,1,1,80,0,0

[Colours]
Combo1 : 255,153,204
Combo2 : 253,62,105

[HitObjects]
191,76,979,6,0,P|222:84|255:125,1,68.0000004150391,6|0,3:3|0:0,0:0:0:0:
278,264,1185,2,0,P|275:231|302:186,1,68.0000004150391,8|2,0:0|0:0,0:0:0:0:
430,206,1392,2,0,P|444:238|488:270,1,64,4|0,3:3|0:0,0:0:0:0:
349,62,1599,1,8,0:2:0:0:
431,123,1703,1,2,0:2:0:0:
288,126,1806,6,0,P|326:139|358:174,1,59.9999981689454,4|2,3:3|0:0,0:0:0:0:
356,285,2013,2,0,P|317:293|281:314,1,59.9999981689454,4|8,1:1|0:3,0:0:0:0:
147,218,2220,1,4,3:3:0:0:
228,255,2323,1,8,0:3:0:0:
80,270,2427,1,0,0:0:0:0:
27,198,2530,1,8,0:3:0:0:
114,116,2634,6,0,P|99:151|83:176,1,50,4|0,3:3|0:0,0:0:0:0:
80,270,2841,2,0,P|48:283|16:291,1,50,8|0,0:2|0:0,0:0:0:0:
177,337,3047,2,0,L|238:345,1,50,4|4,3:3|1:1,0:0:0:0:
348,280,3254,2,0,L|287:288,1,50,8|0,0:3|0:0,0:0:0:0:
147,215,3461,6,0,P|201:187|238:129,1,100,4|4,3:3|1:1,0:0:0:0:
333,123,3772,1,8,0:3:0:0:
245,69,3875,2,0,P|299:56|339:24,1,85.0000016212464,6|8,3:3|0:3,0:0:0:0:
433,104,4185,1,2,0:3:0:0:
481,30,4289,6,0,P|467:69|469:149,1,68.0000004150391,6|0,3:3|0:0,0:0:0:0:
373,195,4496,2,0,P|356:156|312:133,1,68.0000004150391,8|2,0:0|0:0,0:0:0:0:
503,208,4703,2,0,P|474:225|450:280,1,64,4|0,3:3|0:0,0:0:0:0:
366,354,4910,1,8,0:2:0:0:
387,265,5013,1,2,0:2:0:0:
286,355,5116,6,0,P|252:353|204:334,1,59.9999981689454,4|2,3:3|0:0,0:0:0:0:
72,221,5323,2,0,P|105:222|153:241,1,59.9999981689454,4|8,1:1|0:3,0:0:0:0:
288,248,5530,1,4,3:3:0:0:
206,195,5634,1,8,0:3:0:0:
302,176,5737,1,0,0:0:0:0:
216,268,5841,1,8,0:3:0:0:
119,181,5944,6,0,P|130:213|129:251,1,50,4|0,3:3|0:0,0:0:0:0:
170,324,6151,2,0,P|152:352|121:375,1,50,8|0,0:2|0:0,0:0:0:0:
336,321,6358,2,0,L|389:325,1,50,4|4,3:3|1:1,0:0:0:0:
512,236,6565,2,0,L|459:240,1,50,8|0,0:3|0:0,0:0:0:0:
287,186,6772,6,0,P|333:171|381:134,1,100,4|4,3:3|1:1,0:0:0:0:
486,134,7082,1,8,0:3:0:0:
463,13,7185,2,0,P|434:50|429:109,1,85.0000016212464,6|8,3:3|0:2,0:0:0:0:
428,256,7496,1,2,0:2:0:0:
512,230,7599,6,0,P|481:197|477:154,1,68.0000004150391,6|0,3:3|0:0,0:0:0:0:
324,134,7806,1,8,0:0:0:0:
390,187,7910,1,2,0:0:0:0:
333,286,8013,1,4,3:3:0:0:
313,210,8116,1,0,0:0:0:0:
405,324,8220,2,0,P|390:357|389:385,1,64,8|2,0:2|0:2,0:0:0:0:
257,384,8427,6,0,P|248:346|223:313,1,59.9999981689454,4|2,3:3|0:0,0:0:0:0:
98,239,8634,1,4,1:1:0:0:
184,273,8737,1,8,0:3:0:0:
49,316,8841,2,0,P|28:302|-12:294,1,55.0000016784668,4|8,3:3|0:3,0:0:0:0:
107,215,9047,2,0,P|128:201|168:193,1,55.0000016784668,0|8,0:0|0:3,0:0:0:0:
30,108,9254,6,0,P|33:134|31:159,1,50,4|0,3:3|0:0,0:0:0:0:
145,101,9461,2,0,P|120:90|100:76,1,50,8|0,0:2|0:0,0:0:0:0:
277,25,9668,1,4,3:3:0:0:
231,108,9772,1,4,1:1:0:0:
189,31,9875,1,8,0:3:0:0:
248,109,9979,1,0,0:0:0:0:
231,205,10082,6,0,P|278:178|323:178,1,85.0000016212464,4|4,3:3|1:1,0:0:0:0:
398,274,10392,1,8,0:3:0:0:
480,243,10496,2,0,P|467:298|477:341,1,59.9999981689454,4|0,3:3|0:0,0:0:0:0:
343,375,10703,2,0,P|341:346|333:317,1,59.9999981689454,8|0,0:3|0:3,0:0:0:0:
502,219,10910,6,0,P|478:265|477:319,1,85.0000016212464,4|4,3:3|1:1,0:0:0:0:
354,383,11220,1,8,0:3:0:0:
283,292,11323,2,0,P|306:306|333:315,1,42.5000008106232,4|0,3:3|0:0,0:0:0:0:
406,225,11530,2,0,P|400:252|401:281,1,42.5000008106232,8|2,0:2|0:2,0:0:0:0:
258,214,11737,6,0,P|251:183|256:137,1,55.0000016784668,4|2,3:3|0:0,0:0:0:0:
203,329,11944,2,0,P|172:322|126:327,1,55.0000016784668,4|8,1:1|0:3,0:0:0:0:
149,193,12151,1,4,3:3:0:0:
231,215,12254,1,8,0:3:0:0:
102,260,12358,1,0,0:0:0:0:
63,179,12461,1,8,0:3:0:0:
112,92,12565,6,0,P|103:133|86:155,1,64,4|0,3:3|0:0,0:0:0:0:
0,299,12772,2,0,P|39:283|66:284,1,64,8|0,0:2|0:0,0:0:0:0:
255,309,12979,2,0,P|234:347|228:391,1,64,4|4,3:3|1:1,0:0:0:0:
224,176,13185,2,0,P|246:153|274:138,1,64,8|0,0:3|0:0,0:0:0:0:
456,252,13392,6,0,P|403:225|332:220,1,119.999996337891,4|4,3:3|1:1,0:0:0:0:
392,110,13703,1,8,0:3:0:0:
450,164,13806,2,0,P|475:148|508:140,1,50,4|0,3:3|0:0,0:0:0:0:
410,15,14013,2,0,P|413:44|407:77,1,50,8|0,0:3|0:3,0:0:0:0:
239,149,14220,6,0,P|197:139|93:166,1,136.000000830078,4|8,3:3|0:0,0:0:0:0:
183,317,14530,1,2,0:0:0:0:
239,247,14634,2,0,P|201:228|179:194,1,59.9999981689454,4|0,3:3|0:0,0:0:0:0:
327,329,14841,2,0,P|350:294|352:253,1,59.9999981689454,8|2,0:2|0:2,0:0:0:0:
441,153,15047,5,4,3:3:0:0:
358,200,15151,1,2,0:0:0:0:
455,239,15254,1,4,1:1:0:0:
358,177,15358,1,8,0:3:0:0:
257,227,15461,2,0,P|226:213|177:209,1,55.0000016784668,4|8,3:3|0:3,0:0:0:0:
180,91,15668,2,0,P|146:94|101:115,1,55.0000016784668,0|8,0:0|0:3,0:0:0:0:
282,144,15875,6,0,P|296:77|319:48,1,85.0000016212464,4|8,3:3|0:2,0:0:0:0:
200,17,16185,1,0,0:0:0:0:
126,101,16289,2,0,P|117:69|84:21,1,55.0000016784668,4|4,3:3|1:1,0:0:0:0:
183,210,16496,2,0,P|192:178|224:130,1,55.0000016784668,8|0,0:3|0:0,0:0:0:0:
61,204,16703,6,0,P|86:259|85:316,1,85.0000016212464,4|4,3:3|1:1,0:0:0:0:
230,331,17013,1,10,0:3:0:0:
163,239,17116,2,0,P|218:251|279:230,1,100,6|8,3:3|0:3,0:0:0:0:
345,301,17427,1,2,0:3:0:0:
438,198,17530,6,0,P|436:228|419:261,1,55.0000016784668,6|0,3:3|0:0,0:0:0:0:
266,131,17737,1,8,0:0:0:0:
366,132,17841,1,2,0:0:0:0:
450,65,17944,2,0,P|459:98|487:128,1,59.9999981689454,4|0,3:3|0:0,0:0:0:0:
484,256,18151,2,0,P|450:247|410:257,1,59.9999981689454,8|2,0:2|0:2,0:0:0:0:
255,325,18358,5,4,3:3:0:0:
355,316,18461,1,2,0:0:0:0:
261,244,18565,1,4,1:1:0:0:
172,294,18668,1,10,0:3:0:0:
79,242,18772,2,0,P|97:188|84:112,1,100,6|0,3:3|0:0,0:0:0:0:
164,42,19082,1,10,0:3:0:0:
263,121,19185,6,0,P|242:114|202:116,1,42.5000008106232,6|8,3:3|0:2,0:0:0:0:
233,0,19392,2,0,P|245:18|279:39,1,42.5000008106232,8|0,0:2|0:0,0:0:0:0:
367,105,19599,2,0,P|371:82|392:44,1,59.9999981689454,4|4,3:3|1:1,0:0:0:0:
270,137,19806,2,0,P|287:151|310:189,1,59.9999981689454,8|0,0:3|0:0,0:0:0:0:
424,258,20013,6,0,P|471:241|535:240,1,85.0000016212464,6|4,3:3|1:1,0:0:0:0:
378,327,20323,1,10,0:3:0:0:
287,252,20427,2,0,P|295:294|278:350,1,100,6|8,3:3|0:2,0:0:0:0:
134,358,20737,1,2,0:3:0:0:
171,238,20841,6,0,P|194:286|193:307,1,55.0000016784668,6|0,3:3|0:0,0:0:0:0:
303,253,21047,1,8,0:0:0:0:
269,159,21151,1,2,0:0:0:0:
313,73,21254,2,0,P|279:79|227:62,1,59.9999981689454,4|0,3:3|0:0,0:0:0:0:
103,126,21461,2,0,P|131:144|157:192,1,59.9999981689454,8|2,0:2|0:2,0:0:0:0:
299,227,21668,5,4,3:3:0:0:
199,243,21772,1,2,0:0:0:0:
275,141,21875,1,4,1:1:0:0:
366,167,21979,1,10,0:3:0:0:
458,117,22082,2,0,P|449:178|476:235,1,100,6|0,3:3|0:0,0:0:0:0:
410,384,22392,1,10,0:3:0:0:
485,281,22496,6,0,P|447:303|419:308,1,42.5000008106232,6|0,3:3|0:0,0:0:0:0:
321,317,22703,2,0,P|364:321|390:333,1,50,8|0,0:2|0:0,0:0:0:0:
435,221,22910,1,4,3:3:0:0:
359,231,23013,1,4,1:1:0:0:
308,140,23116,1,8,0:3:0:0:
385,154,23220,1,0,0:0:0:0:
264,206,23323,6,0,P|211:192|162:201,1,85.0000016212464,4|0,3:3|0:0,0:0:0:0:
97,281,23634,1,8,0:3:0:0:
82,147,23737,2,0,P|92:173|90:225,1,50,4|0,3:3|0:0,0:0:0:0:
173,323,23944,2,0,P|176:294|204:250,1,50,8|2,0:2|0:2,0:0:0:0:
333,227,24151,6,0,P|344:264|392:306,1,85.0000016212464,6|8,3:3|0:0,0:0:0:0:
486,283,24461,1,2,0:0:0:0:
410,362,24565,2,0,P|447:368|495:418,1,59.9999981689454,6|0,3:3|0:0,0:0:0:0:
465,214,24772,2,0,P|435:215|408:227,1,59.9999981689454,8|2,0:2|0:2,0:0:0:0:
253,272,24979,6,0,P|261:238|247:164,1,85.0000016212464,4|4,3:3|1:1,0:0:0:0:
179,99,25289,1,10,0:3:0:0:
303,107,25392,2,0,P|259:77|236:21,1,85.0000016212464,6|0,3:3|0:0,0:0:0:0:
130,20,25703,1,10,0:3:0:0:
95,150,25806,6,0,P|92:121|72:84,1,50,6|0,3:3|0:0,0:0:0:0:
271,140,26013,2,0,P|266:165|256:188,1,50,10|0,0:3|0:0,0:0:0:0:
89,159,26220,2,0,P|75:193|92:292,1,127.50000243187,6|0,3:3|0:0,0:0:0:0:
6,292,26634,6,0,P|31:286|106:303,1,85.0000016212464,4|4,3:3|1:1,0:0:0:0:
217,358,26944,1,8,0:3:0:0:
170,245,27047,2,0,P|225:285|258:285,1,85.0000016212464,6|8,3:3|0:3,0:0:0:0:
367,338,27358,1,2,0:3:0:0:
361,220,27461,6,0,P|344:237|331:274,1,47.4999987316132,6|0,3:3|0:0,0:0:0:0:
239,208,27668,2,0,P|261:199|288:170,1,47.4999987316132,8|2,0:0|0:0,0:0:0:0:
135,306,27875,2,0,P|128:281|133:247,1,50,4|0,3:3|0:0,0:0:0:0:
291,362,28082,2,0,P|266:368|232:364,1,50,8|2,0:2|0:2,0:0:0:0:
218,157,28289,6,0,P|235:188|236:235,1,55.0000016784668,4|2,3:3|0:0,0:0:0:0:
383,303,28496,2,0,P|389:268|419:231,1,55.0000016784668,4|8,1:1|0:3,0:0:0:0:
380,106,28703,1,4,3:3:0:0:
441,178,28806,1,8,0:3:0:0:
308,237,28910,1,0,0:0:0:0:
360,179,29013,1,10,0:3:0:0:
297,323,29116,6,0,P|272:305|221:297,1,64,6|0,3:3|0:0,0:0:0:0:
127,232,29323,2,0,P|153:214|171:188,1,64,8|0,0:2|0:0,0:0:0:0:
319,114,29530,1,6,3:3:0:0:
218,118,29634,1,4,1:1:0:0:
298,30,29737,1,8,0:3:0:0:
383,60,29841,1,0,0:0:0:0:
441,129,29944,6,0,P|415:139|395:160,1,50,4|0,3:3|0:0,0:0:0:0:
302,205,30151,2,0,P|309:231|328:253,1,50,4|8,1:1|0:3,0:0:0:0:
410,343,30358,2,0,L|339:337,1,42.5000008106232,4|0,3:3|0:0,0:0:0:0:
224,314,30565,2,0,L|295:308,1,42.5000008106232,8|2,0:2|0:2,0:0:0:0:
150,374,30772,6,0,P|124:361|91:356,1,42.5000008106232,4|0,3:3|0:0,0:0:0:0:
6,272,30979,1,4,1:1:0:0:
88,282,31082,1,8,0:3:0:0:
30,196,31185,2,0,P|47:171|75:153,1,55.0000016784668,4|0,3:3|0:0,0:0:0:0:
268,185,31392,1,8,0:2:0:0:
172,206,31496,1,2,0:2:0:0:
112,86,31599,5,4,3:3:0:0:
213,110,31703,1,2,0:0:0:0:
260,201,31806,2,0,P|250:227|254:299,1,59.9999981689454,4|8,1:1|0:3,0:0:0:0:
146,189,32013,1,4,3:3:0:0:
176,262,32116,1,8,0:3:0:0:
74,232,32220,2,0,P|63:258|39:281,1,50,0|8,0:0|0:3,0:0:0:0:
192,253,32427,6,0,P|218:249|261:258,1,42.5,4|0,3:3|0:0,0:0:0:0:
369,313,32634,2,0,P|334:298|298:251,1,50,8|0,0:2|0:0,0:0:0:0:
373,150,32841,1,4,3:3:0:0:
412,247,32944,1,4,1:1:0:0:
246,254,33047,1,8,0:3:0:0:
328,217,33151,1,0,0:0:0:0:
406,232,33254,6,0,P|445:219|512:222,1,85.0000016212464,4|4,3:3|1:1,0:0:0:0:
512,128,33565,1,10,0:3:0:0:
404,145,33668,2,0,P|439:88|428:10,1,100,6|8,3:3|0:3,0:0:0:0:
318,0,33979,1,2,0:3:0:0:
335,94,34082,6,0,P|293:85|265:93,1,55.0000016784668,6|0,3:3|0:0,0:0:0:0:
152,143,34289,2,0,P|187:142|226:120,1,55.0000016784668,8|2,0:0|0:0,0:0:0:0:
297,193,34496,2,0,P|275:222|271:276,1,59.9999981689454,4|0,3:3|0:0,0:0:0:0:
473,243,34703,2,0,P|453:220|443:193,1,59.9999981689454,8|2,0:2|0:2,0:0:0:0:
324,332,34910,5,4,3:3:0:0:
418,311,35013,1,2,0:0:0:0:
268,265,35116,1,4,1:1:0:0:
180,322,35220,1,10,0:3:0:0:
91,270,35323,2,0,P|101:226|84:146,1,100,6|0,3:3|0:0,0:0:0:0:
0,87,35634,1,10,0:3:0:0:
94,36,35737,6,0,P|122:54|146:58,1,42.5000008106232,6|0,3:3|0:0,0:0:0:0:
197,174,35944,2,0,P|184:142|167:124,1,42.5000008106232,8|0,0:2|0:0,0:0:0:0:
260,36,36151,1,4,3:3:0:0:
278,125,36254,1,4,1:1:0:0:
359,171,36358,2,0,P|398:158|432:160,1,59.9999981689454,8|0,0:3|0:0,0:0:0:0:
231,276,36565,6,0,P|198:264|113:264,1,85.0000016212464,6|4,3:3|1:1,0:0:0:0:
21,193,36875,1,10,0:3:0:0:
128,174,36979,2,0,P|101:142|94:66,1,100,6|8,3:3|0:2,0:0:0:0:
176,0,37289,1,2,0:3:0:0:
197,98,37392,6,0,P|211:75|237:55,1,55.0000016784668,6|0,3:3|0:0,0:0:0:0:
49,50,37599,2,0,P|71:64|92:89,1,55.0000016784668,8|2,0:0|0:0,0:0:0:0:
276,197,37806,2,0,P|276:160|300:127,1,59.9999981689454,4|0,3:3|0:0,0:0:0:0:
453,136,38013,2,0,P|461:164|480:187,1,59.9999981689454,8|2,0:2|0:2,0:0:0:0:
350,291,38220,5,4,3:3:0:0:
453,273,38323,1,2,0:0:0:0:
398,360,38427,1,4,1:1:0:0:
287,347,38530,1,10,0:3:0:0:
179,378,38634,2,0,P|179:330|156:269,1,100,6|0,3:3|0:0,0:0:0:0:
48,183,38944,1,10,0:3:0:0:
171,198,39047,6,0,P|189:186|225:182,1,42.5000008106232,6|0,3:3|0:0,0:0:0:0:
200,86,39254,2,0,P|176:77|151:77,1,50,8|0,0:2|0:0,0:0:0:0:
305,191,39461,2,0,P|294:209|288:250,1,50,4|4,3:3|1:1,0:0:0:0:
469,271,39668,2,0,P|458:252|426:226,1,50,8|0,0:3|0:0,0:0:0:0:
286,347,39875,6,0,P|263:340|209:351,1,42.5000008106232,4|0,3:3|0:0,0:0:0:0:
87,326,40082,1,4,1:1:0:0:
167,273,40185,1,8,0:3:0:0:
1,238,40289,1,4,3:3:0:0:
88,243,40392,1,0,0:0:0:0:
161,185,40496,2,0,P|193:180|236:185,1,50,8|2,0:2|0:2,0:0:0:0:
307,284,40703,6,0,P|261:314|232:366,1,85.0000016212464,6|8,3:3|0:0,0:0:0:0:
408,311,41013,1,2,0:0:0:0:
330,361,41116,2,0,P|357:366|390:399,1,42.5000008106232,4|0,3:3|0:0,0:0:0:0:
505,258,41323,2,0,P|483:302|487:362,1,94.9999974632264,10|4,0:3|3:3,0:0:0:0:
395,226,41737,6,0,P|373:227|341:244,1,47.4999987316132,2|8,1:3|0:3,0:0:0:0:
482,177,41944,2,0,P|468:160|436:143,1,47.4999987316132,4|8,3:3|0:3,0:0:0:0:
260,216,42151,2,0,P|231:199|152:201,1,85.0000016212464,2|4,0:3|3:3,0:0:0:0:
363,89,42565,6,0,P|337:107|317:142,1,55.0000016784668,10|0,0:3|0:0,0:0:0:0:
401,252,42772,2,0,P|372:239|331:239,1,55.0000016784668,4|4,3:3|1:1,0:0:0:0:
179,306,42979,2,0,P|119:268|41:262,1,128,10|4,0:3|3:3,0:0:0:0:
276,114,43392,6,0,P|270:141|275:182,1,42.5000008106232,2|8,1:3|0:3,0:0:0:0:
442,224,43599,2,0,P|417:237|388:267,1,50,6|0,3:3|0:0,0:0:0:0:
298,360,43806,2,0,P|280:337|246:314,1,59.9999981689454,10|2,0:3|0:2,0:0:0:0:
30,218,44013,6,0,P|69:232|106:230,1,68.0000004150391,6|0,3:3|0:0,0:0:0:0:
278,199,44220,2,0,P|242:177|220:147,1,55.0000016784668,8|2,0:0|0:0,0:0:0:0:
130,90,44427,2,0,P|158:57|190:42,1,64,4|0,3:3|0:0,0:0:0:0:
348,55,44634,1,8,0:2:0:0:
261,133,44737,1,2,0:2:0:0:
426,113,44841,6,0,P|406:148|408:195,1,64,6|2,3:3|0:0,0:0:0:0:
400,319,45047,1,4,1:1:0:0:
453,252,45151,1,8,0:3:0:0:
308,293,45254,2,0,P|261:273|191:279,1,100,6|0,3:3|0:0,0:0:0:0:
96,253,45565,1,10,0:3:0:0:
174,142,45668,6,0,P|174:174|162:202,1,59.9999981689454,6|0,3:3|0:0,0:0:0:0:
69,145,45875,2,0,P|41:161|11:164,1,59.9999981689454,8|0,0:2|0:0,0:0:0:0:
96,11,46082,1,4,3:3:0:0:
123,81,46185,1,4,1:1:0:0:
30,75,46289,1,8,0:3:0:0:
107,84,46392,1,0,0:0:0:0:
174,142,46496,6,0,P|174:174|162:202,1,47.4999987316132,4|0,3:3|0:0,0:0:0:0:
247,65,46703,2,0,P|278:54|308:55,1,47.4999987316132,4|8,1:1|0:3,0:0:0:0:
348,143,46910,2,0,P|328:157|308:190,1,42.5000008106232,6|0,3:3|0:0,0:0:0:0:
273,285,47116,1,8,0:2:0:0:
347,245,47220,1,2,0:2:0:0:
425,282,47323,6,0,P|464:282|497:266,1,55.0000016784668,6|0,3:3|0:0,0:0:0:0:
457,129,47530,6,0,P|437:162|407:183,1,55.0000016784668,8|2,0:0|0:0,0:0:0:0:
316,171,47737,2,0,P|315:142|302:107,1,42.5000008106232,4|0,3:3|0:0,0:0:0:0:
180,209,47944,2,0,P|214:206|245:219,1,50,8|2,0:2|0:2,0:0:0:0:
67,101,48151,5,4,3:3:0:0:
104,176,48254,1,2,0:0:0:0:
16,181,48358,1,4,1:1:0:0:
85,258,48461,1,8,0:3:0:0:
66,356,48565,2,0,P|116:337|173:341,1,85.0000016212464,6|0,3:3|0:0,0:0:0:0:
299,248,48875,1,10,0:3:0:0:
256,345,48979,6,0,P|237:316|211:297,1,55.0000016784668,6|0,3:3|0:0,0:0:0:0:
387,250,49185,2,0,P|373:278|368:312,1,55.0000016784668,8|0,0:2|0:0,0:0:0:0:
302,148,49392,2,0,P|331:147|367:176,1,50,4|4,3:3|1:1,0:0:0:0:
169,198,49599,1,8,0:3:0:0:
219,134,49703,1,0,0:0:0:0:
92,178,49806,6,0,P|64:166|27:172,1,42.5000008106232,4|0,3:3|0:0,0:0:0:0:
159,309,50013,2,0,P|175:284|208:265,1,42.5000008106232,4|8,1:1|0:3,0:0:0:0:
289,107,50220,2,0,P|302:146|296:203,1,85.0000016212464,6|0,3:3|0:0,0:0:0:0:
370,305,50530,1,2,0:3:0:0:
413,189,50634,6,0,P|394:215|368:230,1,55.0000016784668,6|0,3:3|0:0,0:0:0:0:
297,327,50841,2,0,P|277:298|252:285,1,55.0000016784668,0|0,0:0|0:0,0:0:0:0:
455,288,51047,2,0,P|460:255|472:229,1,50,4|0,3:3|0:0,0:0:0:0:
463,106,51254,2,0,P|431:118|403:119,1,50,8|2,0:2|0:2,0:0:0:0:
236,120,51461,5,4,3:3:0:0:
324,85,51565,1,2,0:0:0:0:
276,186,51668,1,4,1:1:0:0:
170,162,51772,1,8,0:3:0:0:
75,217,51875,2,0,P|91:257|80:330,1,85.0000016212464,6|0,3:3|0:0,0:0:0:0:
170,371,52185,1,10,0:3:0:0:
233,271,52289,6,0,P|234:307|250:339,1,50,6|0,3:3|0:0,0:0:0:0:
378,312,52496,2,0,P|354:304|335:287,1,50,8|0,0:2|0:0,0:0:0:0:
452,179,52703,2,0,P|427:178|394:193,1,59.9999981689454,4|4,3:3|1:1,0:0:0:0:
258,98,52910,1,8,0:3:0:0:
343,124,53013,1,0,0:0:0:0:
216,172,53116,6,0,P|180:152|144:153,1,55.0000016784668,4|0,3:3|0:0,0:0:0:0:
216,299,53323,2,0,P|233:261|263:242,1,47.4999987316132,4|8,1:1|0:3,0:0:0:0:
372,104,53530,2,0,P|311:125|274:126,1,85.0000016212464,6|8,3:3|0:2,0:0:0:0:
134,47,53841,1,2,0:3:0:0:
238,68,53944,6,0,P|227:33|232:3,1,50,6|0,3:3|0:0,0:0:0:0:
112,128,54151,2,0,P|148:128|174:144,1,50,8|2,0:0|0:0,0:0:0:0:
166,247,54358,2,0,P|141:252|110:273,1,59.9999981689454,4|0,3:3|0:0,0:0:0:0:
21,188,54565,2,0,P|28:211|19:249,1,59.9999981689454,8|2,0:2|0:2,0:0:0:0:
197,356,54772,5,4,3:3:0:0:
84,363,54875,1,2,0:0:0:0:
190,281,54979,1,4,1:1:0:0:
277,315,55082,1,8,0:3:0:0:
360,277,55185,2,0,P|339:207|354:166,1,94.9999974632264,6|0,3:3|0:0,0:0:0:0:
438,102,55496,1,8,0:3:0:0:
319,60,55599,6,0,P|342:90|374:102,1,55.0000016784668,6|0,3:3|0:0,0:0:0:0:
221,155,55806,2,0,P|238:121|236:86,1,55.0000016784668,8|0,0:2|0:0,0:0:0:0:
109,48,56013,2,0,P|134:76|139:119,1,64,6|4,3:3|1:1,0:0:0:0:
30,203,56220,2,0,P|69:193|108:203,1,64,8|0,0:3|0:0,0:0:0:0:
264,332,56427,5,4,3:3:0:0:
164,377,56530,1,0,0:0:0:0:
48,297,56634,1,4,1:1:0:0:
150,303,56737,1,8,0:3:0:0:
245,258,56841,2,0,P|260:216|246:126,1,100,6|0,3:3|0:0,0:0:0:0:
339,24,57151,1,2,0:2:0:0:
397,121,57254,6,0,P|359:102|328:104,1,59.9999981689454,6|0,3:3|0:0,0:0:0:0:
197,103,57461,2,0,P|219:67|221:36,1,59.9999981689454,8|2,0:0|0:0,0:0:0:0:
349,186,57668,2,0,P|366:209|372:248,1,68.0000004150391,6|0,3:3|0:0,0:0:0:0:
157,281,57875,2,0,P|190:278|222:290,1,68.0000004150391,8|2,0:2|0:2,0:0:0:0:
396,365,58082,5,4,3:3:0:0:
279,371,58185,1,2,0:0:0:0:
391,290,58289,1,4,1:1:0:0:
508,322,58392,1,8,0:3:0:0:
451,174,58496,6,0,P|473:202|477:246,1,50,4|8,3:3|0:3,0:0:0:0:
302,249,58703,2,0,P|315:218|309:173,1,50,0|8,0:0|0:3,0:0:0:0:
291,67,58910,5,4,3:3:0:0:
283,63,59013,1,0,0:0:0:0:
270,60,59116,1,8,0:2:0:0:
252,58,59220,1,0,0:0:0:0:
224,64,59323,1,4,3:3:0:0:
195,89,59427,1,4,1:1:0:0:
185,135,59530,1,8,0:3:0:0:
215,183,59634,1,0,0:0:0:0:
284,187,59737,5,4,3:3:0:0:
221,155,59841,1,0,0:0:0:0:
163,194,59944,1,4,1:1:0:0:
168,263,60047,1,8,0:3:0:0:
235,292,60151,6,0,P|202:299|168:329,1,55.0000016784668,4|0,3:3|0:0,0:0:0:0:
62,320,60358,2,0,P|63:353|86:392,1,55.0000016784668,0|0,0:0|0:0,0:0:0:0:
149,164,60565,6,0,B|149:148|149:148|101:156|101:156|45:148|45:148|45:172,1,136.000000830078,14|0,3:3|0:0,0:0:0:0:
128,253,60875,1,2,0:0:0:0:
262,219,60979,2,0,B|234:204|234:204|216:174,1,59.9999981689454,0|0,0:0|0:0,0:0:0:0:
257,57,61185,2,0,B|242:84|242:84|212:102,1,59.9999981689454,8|2,0:2|0:2,0:0:0:0:
338,151,61392,6,0,B|368:146|368:146|419:109,1,55.0000016784668,14|2,3:3|0:0,0:0:0:0:
490,72,61599,1,4,1:1:0:0:
464,156,61703,1,8,0:3:0:0:
512,238,61806,2,0,B|472:250|472:250|462:267,1,47.4999987316132,6|8,3:3|0:3,0:0:0:0:
338,310,62013,2,0,B|377:320|377:320|392:336,1,47.4999987316132,0|8,0:0|0:3,0:0:0:0:
319,185,62220,6,0,B|306:160|306:160|222:158|222:158|224:142|224:142|172:149|172:149|128:129,1,192,6|0,3:3|0:0,0:0:0:0:
83,207,62634,2,0,B|106:229|106:229|112:262,1,55.0000016784668,0|4,3:3|1:1,0:0:0:0:
26,123,62841,2,0,B|54:138|54:138|87:133,1,55.0000016784668,8|0,0:3|0:0,0:0:0:0:
198,220,63047,6,0,B|186:250|186:250|202:295|202:295|203:313,1,94.9999974632264,6|4,3:3|1:1,0:0:0:0:
288,341,63358,1,8,0:3:0:0:
391,262,63461,2,0,B|368:265|368:265|320:251,1,42.5000008106232,0|0,3:3|0:0,0:0:0:0:
462,344,63668,2,0,B|473:323|473:323|489:312,1,42.5000008106232,8|2,0:2|0:2,0:0:0:0:
490,122,63875,6,0,B|490:185|490:185|480:181|480:181|459:224|459:224|467:256,1,136.000000830078,14|8,3:3|0:0,0:0:0:0:
308,260,64185,1,2,0:0:0:0:
374,183,64289,2,0,B|344:174|344:174|309:143,1,59.9999981689454,0|0,3:3|0:0,0:0:0:0:
207,157,64496,2,0,B|223:185|223:185|225:223,1,59.9999981689454,8|2,0:2|0:2,0:0:0:0:
160,312,64703,6,0,B|164:301|164:301|152:249,1,55.0000016784668,6|2,3:3|0:0,0:0:0:0:
65,195,64910,2,0,B|73:207|73:207|74:258,1,55.0000016784668,4|8,1:1|0:3,0:0:0:0:
157,380,65116,1,6,3:3:0:0:
49,364,65220,1,8,0:3:0:0:
164,249,65323,1,0,0:0:0:0:
231,329,65427,1,8,0:3:0:0:
320,369,65530,6,0,B|353:342|353:342|412:349|412:349|408:340|408:340|484:330,1,165.000005035401,6|0,3:3|0:0,0:0:0:0:
491,246,65944,2,0,B|470:205|470:205|470:179,1,59.9999981689454,0|4,3:3|1:1,0:0:0:0:
349,183,66151,2,0,B|385:210|385:210|397:234,1,59.9999981689454,8|0,0:3|0:0,0:0:0:0:
296,273,66358,2,0,B|270:274|270:274|248:262|248:262|193:262,1,85.0000016212464,4|4,3:3|1:1,0:0:0:0:
117,208,66668,1,8,0:3:0:0:
117,208,66772,2,0,B|146:228|146:228|149:202,1,59.9999981689454,6|0,3:3|0:0,0:0:0:0:
157,109,67082,1,2,0:3:0:0:
228,187,67185,6,0,P|242:159|292:139,1,68.0000004150391,6|0,3:3|0:0,0:0:0:0:
334,45,67392,2,0,P|348:72|391:99,1,68.0000004150391,8|2,0:0|0:0,0:0:0:0:
369,252,67599,2,0,P|344:235|293:229,1,64,4|0,3:3|0:0,0:0:0:0:
488,144,67806,2,0,P|464:168|424:190,1,64,8|2,0:2|0:2,0:0:0:0:
272,316,68013,6,0,P|255:289|207:256,1,59.9999981689454,4|2,3:3|0:0,0:0:0:0:
111,304,68220,2,0,P|115:341|103:391,1,59.9999981689454,4|8,1:1|0:3,0:0:0:0:
221,201,68427,1,4,3:3:0:0:
142,234,68530,1,8,0:3:0:0:
311,227,68634,1,0,0:0:0:0:
241,131,68737,1,8,0:3:0:0:
242,285,68841,5,4,3:3:0:0:
253,295,68944,1,0,0:0:0:0:
273,303,69047,1,8,0:2:0:0:
303,298,69151,1,0,0:0:0:0:
334,260,69254,2,0,P|327:232|300:198,1,47.4999987316132,4|4,3:3|1:1,0:0:0:0:
288,78,69461,2,0,P|268:98|228:113,1,47.4999987316132,8|0,0:3|0:0,0:0:0:0:
107,188,69668,6,0,P|155:198|171:211,1,50,4|0,3:3|0:0,0:0:0:0:
331,145,69875,1,4,1:1:0:0:
248,203,69979,1,8,0:3:0:0:
401,215,70082,2,0,P|451:192|523:198,1,100,6|0,3:3|0:0,0:0:0:0:
420,106,70392,1,2,0:2:0:0:
335,174,70496,6,0,P|329:138|304:101,1,68.0000004150391,6|0,3:3|0:0,0:0:0:0:
198,59,70703,2,0,P|191:94|159:131,1,68.0000004150391,8|2,0:0|0:0,0:0:0:0:
60,209,70910,2,0,P|101:201|141:214,1,64,4|0,3:3|0:0,0:0:0:0:
229,298,71116,2,0,P|206:318|185:370,1,64,8|2,0:2|0:2,0:0:0:0:
244,177,71323,6,0,P|265:205|273:261,1,59.9999981689454,4|2,3:3|0:0,0:0:0:0:
354,317,71530,2,0,P|367:284|412:249,1,59.9999981689454,4|8,1:1|0:3,0:0:0:0:
486,155,71737,1,4,3:3:0:0:
493,255,71841,1,8,0:3:0:0:
362,189,71944,1,0,0:0:0:0:
428,100,72047,1,8,0:3:0:0:
282,195,72151,5,4,3:3:0:0:
278,181,72254,1,0,0:0:0:0:
282,159,72357,1,8,0:2:0:0:
302,137,72461,1,0,0:0:0:0:
352,128,72564,2,0,P|326:114|300:80,1,42.5000008106232,4|4,3:3|1:1,0:0:0:0:
186,171,72772,2,0,P|198:196|199:240,1,47.4999987316132,8|0,0:3|0:0,0:0:0:0:
128,301,72979,6,0,P|87:276|17:280,1,100,4|4,3:3|1:1,0:0:0:0:
28,166,73289,1,8,0:3:0:0:
128,214,73392,2,0,P|112:163|125:111,1,100,6|8,3:3|0:2,0:0:0:0:
243,56,73703,1,2,0:2:0:0:
217,162,73806,6,0,P|244:135|273:126,1,59.9999981689454,6|0,3:3|0:0,0:0:0:0:
396,215,74013,2,0,P|376:245|379:280,1,72.5000022125245,8|2,0:0|0:0,0:0:0:0:
222,243,74220,2,0,P|263:250|290:282,1,72.5000022125245,4|0,3:3|0:0,0:0:0:0:
114,362,74427,2,0,P|137:327|178:315,1,72.5000022125245,8|2,0:2|0:2,0:0:0:0:
139,189,74634,2,0,P|120:219|82:235,1,64,4|2,3:3|0:0,0:0:0:0:
57,82,74841,2,0,P|88:82|116:98,1,64,4|8,1:1|0:3,0:0:0:0:
259,155,75047,2,0,P|300:142|340:148,1,59.9999981689454,4|8,3:3|0:3,0:0:0:0:
311,22,75254,2,0,P|285:56|249:75,1,59.9999981689454,0|8,0:0|0:3,0:0:0:0:
188,217,75461,6,0,P|219:249|227:292,1,55.0000016784668,4|0,3:3|0:0,0:0:0:0:
353,265,75668,2,0,P|384:233|392:189,1,55.0000016784668,8|0,0:2|0:0,0:0:0:0:
439,93,75875,1,4,3:3:0:0:
460,168,75979,1,4,1:1:0:0:
356,115,76082,1,8,0:3:0:0:
389,26,76185,1,0,0:0:0:0:
265,102,76289,6,0,P|244:92|200:88,1,47.4999987316132,4|0,3:3|0:0,0:0:0:0:
69,40,76496,1,4,1:1:0:0:
137,110,76599,1,8,0:3:0:0:
75,193,76703,2,0,P|100:217|108:247,1,42.5000008106232,4|0,3:3|0:0,0:0:0:0:
212,293,76910,2,0,P|227:261|253:244,1,42.5000008106232,0|0,0:0|0:0,0:0:0:0:
355,265,77116,6,0,P|362:285|387:310,1,42.5000008106232,4|0,3:3|0:0,0:0:0:0:
280,337,77323,1,8,0:0:0:0:
348,372,77427,1,2,0:0:0:0:
189,366,77530,2,0,P|200:352|208:314,1,55.0000016784668,4|0,3:3|0:0,0:0:0:0:
243,216,77737,2,0,P|248:232|277:258,1,55.0000016784668,8|2,0:2|0:2,0:0:0:0:
466,181,77944,6,0,P|443:181|403:199,1,47.4999987316132,4|2,3:3|0:0,0:0:0:0:
257,109,78151,1,4,1:1:0:0:
339,169,78254,1,8,0:3:0:0:
365,45,78358,2,0,P|368:73|401:112,1,59.9999981689454,4|8,3:3|0:3,0:0:0:0:
253,204,78565,2,0,P|232:182|183:170,1,59.9999981689454,0|8,0:0|0:3,0:0:0:0:
6,101,78772,6,0,P|30:102|65:88,1,50,4|0,3:3|0:0,0:0:0:0:
130,198,78979,1,8,0:2:0:0:
23,181,79082,1,0,0:0:0:0:
145,296,79185,2,0,P|182:283|225:286,1,64,4|4,3:3|1:1,0:0:0:0:
217,102,79392,2,0,P|239:133|276:156,1,64,8|0,0:3|0:0,0:0:0:0:
482,206,79599,6,0,P|489:162|519:130,1,57.5000010967255,4|0,3:3|0:0,0:0:0:0:
333,185,79806,2,0,P|353:224|347:268,1,57.5000010967255,4|8,1:1|0:3,0:0:0:0:
233,350,80013,1,4,3:3:0:0:
283,264,80116,1,0,0:0:0:0:
410,366,80220,1,8,0:2:0:0:
319,336,80323,1,2,0:2:0:0:
508,299,80427,5,4,3:3:0:0:
