osu file format v14

[General]
AudioFilename: Persona 3 OST - Persona Invocation.mp3
AudioLeadIn: 0
PreviewTime: 13265
Countdown: 0
SampleSet: Soft
StackLeniency: 0.7
Mode: 2
LetterboxInBreaks: 0
WidescreenStoryboard: 0

[Editor]
DistanceSpacing: 1.4
BeatDivisor: 4
GridSize: 8
TimelineZoom: 1.8

[Metadata]
Title:Persona Invocation
TitleUnicode:Persona Invocation
Artist:Shoji Meguro
ArtistUnicode:目黒 将司
Creator:- Magic Bomb -
Version:Imagination
Source:ペルソナ3
Tags:MBomb JBHyperion Withered Lotus Persona 3 Shadow Makoto Yuki Honorable Man Atlus Gekkoukan High School Thanatos Junpei Iori Shin Megami Tensei
BeatmapID:802609
BeatmapSetID:349296

[Difficulty]
HPDrainRate:7
CircleSize:4.5
OverallDifficulty:9.3
ApproachRate:9.3
SliderMultiplier:2
SliderTickRate:2

[Events]
//Background and Video events
0,0,"persona-3-01-artwork.jpg",0,0
//Break Periods
//Storyboard Layer 0 (Background)
//Storyboard Layer 1 (Fail)
//Storyboard Layer 2 (Pass)
//Storyboard Layer 3 (Foreground)
//Storyboard Sound Samples

[TimingPoints]
1265,375,4,2,1,30,1,0
2765,-100,4,2,1,25,0,0
3515,-100,4,2,1,20,0,0
4265,-100,4,2,1,15,0,0
6515,-100,4,2,1,30,0,0
6702,-100,4,2,1,15,0,0
7077,-100,4,2,1,25,0,0
7265,-100,4,2,1,30,0,0
8765,-100,4,2,1,25,0,0
9515,-100,4,2,1,20,0,0
10265,-100,4,3,1,10,0,0
13265,-100,4,3,1,40,0,0
37077,-100,4,2,1,50,0,1
37358,-100,4,3,1,50,0,1
39140,-100,4,2,2,60,0,1
40171,-100,4,2,2,60,0,0

[Colours]
Combo1 : 223,0,0
Combo2 : 0,0,160
Combo3 : 0,134,198
Combo4 : 140,255,255

[HitObjects]
112,192,515,6,0,P|16:120|112:8,1,300,2|0,0:0|0:0,0:0:0:0:
352,192,1265,2,0,P|464:112|448:64,1,200,2|0,0:0|0:0,0:0:0:0:
136,192,1827,1,0,0:0:0:0:
416,192,2015,2,0,P|440:104|352:64,1,200,2|0,0:0|0:0,0:0:0:0:
80,192,2577,1,0,0:0:0:0:
352,192,2765,6,0,P|248:112|152:96,1,200,2|0,0:0|0:0,0:0:0:0:
336,192,3327,1,0,0:0:0:0:
80,192,3515,2,0,P|24:128|104:88,1,200,2|0,0:0|0:0,0:0:0:0:
216,192,4077,1,0,0:0:0:0:
336,192,4265,6,0,L|48:104,1,300,2|0,0:0|0:0,0:0:0:0:
192,192,5015,2,0,P|264:120|136:120,1,300
224,192,5671,1,0,0:0:0:0:
352,192,5765,2,0,L|440:144,1,100,2|0,0:0|0:0,0:0:0:0:
160,192,6140,2,0,L|72:144,1,100
160,192,6421,1,0,0:0:0:0:
352,192,6515,5,2,0:0:0:0:
256,320,6702,2,0,L|152:320,1,100
416,320,7077,1,0,0:0:0:0:
96,192,7265,6,0,P|56:136|144:72,1,200,2|0,0:0|0:0,0:0:0:0:
448,192,7827,1,0,0:0:0:0:
168,192,8015,2,0,P|288:112|352:112,1,200,2|0,0:0|0:0,0:0:0:0:
64,192,8577,1,0,0:0:0:0:
352,192,8765,6,0,P|425:159|432:144,1,100
176,192,9140,1,0,0:0:0:0:
72,192,9327,1,0,0:0:0:0:
28,169,9420,1,0,0:0:0:0:
8,124,9514,1,0,0:0:0:0:
20,76,9608,1,0,0:0:0:0:
58,46,9702,1,0,0:0:0:0:
107,46,9795,1,0,0:0:0:0:
312,192,9890,1,0,0:0:0:0:
440,192,10077,1,0,0:0:0:0:
376,192,10171,1,0,0:0:0:0:
168,192,10265,6,0,L|64:192,1,100,4|0,0:0|0:0,0:0:0:0:
368,192,10640,1,8,0:0:0:0:
256,192,10827,1,0,0:0:0:0:
207,181,10921,1,0,0:0:0:0:
173,146,11014,1,2,0:2:0:0:
163,98,11108,1,0,0:0:0:0:
181,52,11202,1,2,0:2:0:0:
221,24,11295,1,0,0:0:0:0:
384,192,11390,1,8,0:0:0:0:
240,192,11577,2,0,L|184:192,1,50
352,192,11765,6,0,P|432:144|432:136,1,100,4|0,0:0|0:0,0:0:0:0:
136,192,12140,1,8,0:0:0:0:
16,192,12327,1,0,0:0:0:0:
35,146,12420,1,0,0:0:0:0:
68,108,12515,1,2,0:2:0:0:
110,82,12608,1,0,0:0:0:0:
158,69,12702,1,2,0:2:0:0:
208,72,12795,1,0,0:0:0:0:
384,192,12890,1,8,0:0:0:0:
480,192,13077,1,0,0:0:0:0:
416,192,13171,1,0,0:0:0:0:
224,192,13265,6,0,L|120:192,1,100,4|0,0:2|0:0,0:0:0:0:
448,192,13640,1,6,0:0:0:0:
352,192,13827,2,0,L|288:192,1,50,2|2,0:0|0:0,0:0:0:0:
124,192,14015,1,8,0:0:0:0:
83,166,14108,1,0,0:0:0:0:
84,118,14202,1,0,0:0:0:0:
126,96,14296,1,0,0:0:0:0:
320,192,14390,1,4,0:0:0:0:
430,192,14577,2,0,L|494:192,1,50,2|2,0:0|0:0,0:0:0:0:
288,192,14765,6,0,P|320:128|352:128,1,100,2|0,0:0|0:0,0:0:0:0:
48,192,15140,1,6,0:0:0:0:
160,192,15327,2,0,L|216:192,1,50,2|2,0:0|0:0,0:0:0:0:
384,192,15515,1,8,0:0:0:0:
382,142,15608,1,0,0:0:0:0:
353,103,15702,1,0,0:0:0:0:
306,87,15796,1,0,0:0:0:0:
128,192,15890,1,4,0:0:0:0:
210,192,16077,2,0,L|154:192,1,50,2|2,0:0|0:0,0:0:0:0:
336,192,16265,6,0,L|440:192,1,100,2|0,0:0|0:0,0:0:0:0:
128,192,16640,1,6,0:0:0:0:
264,192,16827,2,0,L|336:192,1,50,2|2,0:0|0:0,0:0:0:0:
136,192,17015,1,8,0:0:0:0:
89,178,17108,1,0,0:0:0:0:
72,133,17202,1,0,0:0:0:0:
98,93,17296,1,0,0:0:0:0:
312,192,17390,1,4,0:0:0:0:
448,192,17577,2,0,L|392:192,1,50,2|2,0:0|0:0,0:0:0:0:
224,192,17765,6,0,L|328:192,1,100,2|0,0:0|0:0,0:0:0:0:
32,192,18140,1,6,0:0:0:0:
128,192,18327,2,0,B|80:192|64:192|64:192,1,50
256,192,18515,1,8,0:0:0:0:
304,199,18608,1,0,0:0:0:0:
347,175,18702,1,0,0:0:0:0:
367,131,18796,1,0,0:0:0:0:
176,192,18890,1,4,0:0:0:0:
64,192,19077,2,0,L|64:128,1,50,2|2,0:0|0:0,0:0:0:0:
256,192,19265,6,0,L|360:192,1,100,2|0,0:0|0:0,0:0:0:0:
78,192,19640,1,6,0:0:0:0:
208,192,19827,2,0,L|272:192,1,50,2|2,0:0|0:0,0:0:0:0:
432,192,20015,1,8,0:0:0:0:
476,175,20108,1,0,0:0:0:0:
486,128,20202,1,0,0:0:0:0:
450,96,20296,1,0,0:0:0:0:
256,192,20390,1,4,0:0:0:0:
128,192,20577,2,0,L|72:192,1,50,2|2,0:0|0:0,0:0:0:0:
256,192,20765,6,0,P|320:144|312:96,1,100,2|0,0:0|0:0,0:0:0:0:
32,192,21140,1,6,0:0:0:0:
160,192,21327,2,0,L|216:192,1,50,2|2,0:0|0:0,0:0:0:0:
32,192,21515,1,8,0:0:0:0:
47,144,21608,1,0,0:0:0:0:
81,108,21702,1,0,0:0:0:0:
126,89,21796,1,0,0:0:0:0:
296,192,21890,1,4,0:0:0:0:
416,192,22077,2,0,L|464:192|480:192,1,50,2|2,0:0|0:0,0:0:0:0:
256,192,22265,6,0,L|152:192,1,100,2|0,0:0|0:0,0:0:0:0:
448,192,22640,1,6,0:0:0:0:
344,192,22827,2,0,L|400:192,1,50,2|2,0:0|0:0,0:0:0:0:
224,192,23015,1,8,0:0:0:0:
175,192,23108,1,0,0:0:0:0:
143,156,23202,1,0,0:0:0:0:
149,108,23296,1,0,0:0:0:0:
320,192,23390,1,4,0:0:0:0:
448,192,23577,2,0,L|392:192,1,50,2|2,0:0|0:0,0:0:0:0:
224,192,23765,6,0,L|120:192,1,100,2|0,0:0|0:0,0:0:0:0:
398,192,24140,1,6,0:0:0:0:
304,192,24327,2,0,L|240:192,1,50,2|2,0:0|0:0,0:0:0:0:
416,192,24515,1,8,0:0:0:0:
463,191,24608,1,0,0:0:0:0:
482,148,24702,1,0,0:0:0:0:
451,112,24796,1,0,0:0:0:0:
224,192,24890,1,4,0:0:0:0:
96,192,25077,2,0,L|46:192,1,50,2|2,0:0|0:0,0:0:0:0:
416,192,25265,5,4,0:2:0:0:
368,192,25452,1,2,0:0:0:0:
96,192,25640,1,6,0:0:0:0:
16,192,25827,2,0,L|80:192,1,50,2|2,0:0|0:0,0:0:0:0:
256,192,26015,1,8,0:0:0:0:
249,143,26108,1,0,0:0:0:0:
216,106,26202,1,2,0:0:0:0:
168,93,26296,1,2,0:0:0:0:
336,192,26390,1,4,0:0:0:0:
448,192,26577,2,0,L|392:192,1,50,2|2,0:0|0:0,0:0:0:0:
224,192,26765,6,0,L|328:192,1,100,2|0,0:0|0:0,0:0:0:0:
32,192,27140,1,6,0:0:0:0:
128,192,27327,2,0,L|184:192,1,50,2|2,0:0|0:0,0:0:0:0:
344,192,27515,1,8,0:0:0:0:
391,187,27608,1,0,0:0:0:0:
412,144,27702,1,2,0:0:0:0:
385,104,27796,1,2,0:0:0:0:
224,192,27890,1,4,0:0:0:0:
324,192,28077,2,0,L|268:192,1,50,2|2,0:0|0:0,0:0:0:0:
112,192,28265,6,0,L|8:192,1,100,2|0,0:0|0:0,0:0:0:0:
304,192,28640,1,6,0:0:0:0:
424,192,28827,2,0,L|480:192,1,50,2|2,0:0|0:0,0:0:0:0:
320,192,29015,1,8,0:0:0:0:
356,160,29108,1,0,0:0:0:0:
351,112,29202,1,2,0:0:0:0:
310,88,29296,1,2,0:0:0:0:
128,192,29390,1,4,0:0:0:0:
48,192,29577,2,0,L|104:192,1,50,2|2,0:0|0:0,0:0:0:0:
288,192,29765,6,0,L|392:192,1,100,2|0,0:0|0:0,0:0:0:0:
112,192,30140,1,6,0:0:0:0:
16,192,30327,2,0,L|72:192,1,50,2|2,0:0|0:0,0:0:0:0:
256,192,30515,1,8,0:0:0:0:
302,181,30608,1,0,0:0:0:0:
319,136,30702,1,2,0:0:0:0:
292,97,30796,1,2,0:0:0:0:
112,192,30890,1,4,0:0:0:0:
16,192,31077,2,0,L|72:192,1,50
384,192,31265,5,4,0:2:0:0:
464,192,31358,1,0,0:0:0:0:
496,192,31452,1,2,0:0:0:0:
440,192,31546,1,0,0:0:0:0:
256,192,31640,1,6,0:0:0:0:
192,192,31733,1,0,0:0:0:0:
192,192,31827,1,2,0:0:0:0:
256,192,31921,1,2,0:0:0:0:
448,192,32015,5,8,0:0:0:0:
440,144,32108,1,2,0:0:0:0:
408,104,32202,1,2,0:0:0:0:
368,80,32296,1,2,0:0:0:0:
176,192,32390,2,0,P|120:168|112:128,1,100,4|2,0:0|0:0,0:0:0:0:
144,192,32671,1,2,0:0:0:0:
304,192,32765,5,2,0:0:0:0:
346,170,32858,1,0,0:0:0:0:
349,122,32952,1,2,0:0:0:0:
310,96,33046,1,0,0:0:0:0:
464,192,33140,1,6,0:0:0:0:
505,168,33233,1,0,0:0:0:0:
505,120,33327,1,2,0:0:0:0:
464,95,33421,1,2,0:0:0:0:
288,192,33515,5,8,0:0:0:0:
242,179,33608,1,2,0:0:0:0:
233,132,33702,1,2,0:0:0:0:
270,104,33796,1,2,0:0:0:0:
432,192,33890,1,8,0:0:0:0:
445,145,33983,1,0,0:0:0:0:
419,104,34077,1,2,0:0:0:0:
371,95,34171,1,2,0:0:0:0:
192,192,34265,6,0,L|128:192,1,50,2|0,0:0|0:0,0:0:0:0:
320,192,34452,2,0,L|384:192,1,50,2|0,0:0|0:0,0:0:0:0:
192,192,34640,1,6,0:0:0:0:
144,185,34733,1,0,0:0:0:0:
122,142,34827,1,2,0:0:0:0:
145,99,34921,1,2,0:0:0:0:
320,192,35015,5,8,0:0:0:0:
277,170,35108,1,2,0:0:0:0:
274,122,35202,1,2,0:0:0:0:
313,96,35296,1,2,0:0:0:0:
152,192,35390,2,0,P|72:152|72:144,1,100,4|2,0:0|0:0,0:0:0:0:
120,192,35671,1,2,0:0:0:0:
280,192,35765,6,0,L|336:192,1,50,2|0,0:0|0:0,0:0:0:0:
488,192,35952,2,0,L|432:192,1,50,2|0,0:0|0:0,0:0:0:0:
256,192,36140,1,6,0:0:0:0:
207,191,36233,1,0,0:0:0:0:
179,153,36327,1,2,0:0:0:0:
193,106,36421,1,2,0:0:0:0:
352,192,36515,5,8,0:0:0:0:
360,143,36608,1,2,0:0:0:0:
333,103,36702,1,2,0:0:0:0:
286,92,36796,1,2,0:0:0:0:
96,192,36890,1,4,0:0:0:0:
416,192,37077,2,0,L|472:192,1,50,2|2,0:0|0:0,0:0:0:0:
312,192,37265,5,4,0:0:0:0:
66,192,37452,2,0,L|16:192,1,50,2|0,0:0|0:0,0:0:0:0:
232,192,37640,1,6,0:0:0:0:
496,192,37827,2,0,L|440:192,1,50,2|2,0:0|0:0,0:0:0:0:
272,192,38015,5,8,0:0:0:0:
225,181,38108,1,0,0:0:0:0:
208,136,38202,1,2,0:0:0:0:
235,97,38296,1,2,0:0:0:0:
416,192,38390,1,4,0:3:0:0:
144,192,38577,2,0,L|88:192,1,50,2|2,0:0|0:0,0:0:0:0:
368,192,38765,6,0,L|424:192,1,50,2|0,0:0|0:0,0:0:0:0:
256,192,38952,2,0,L|200:192,1,50,2|0,0:0|0:0,0:0:0:0:
156,192,39140,2,0,L|212:192,1,50,12|2,0:0|0:0,0:0:0:0:
368,192,39327,2,0,L|424:192,1,50,4|0,0:0|0:0,0:0:0:0:
144,192,39515,6,0,L|88:192,1,50,12|0,0:0|0:0,0:0:0:0:
368,192,39702,1,2,0:0:0:0:
416,193,39795,1,0,0:0:0:0:
451,159,39889,1,12,0:0:0:0:
432,112,39983,1,0,0:0:0:0:
256,192,40077,1,6,0:0:0:0:
80,192,40171,1,6,0:0:0:0:
