osu file format v14

[General]
AudioFilename: audio.mp3
AudioLeadIn: 0
PreviewTime: 18079
Countdown: 1
SampleSet: None
StackLeniency: 0.7
Mode: 0
LetterboxInBreaks: 0
WidescreenStoryboard: 0

[Editor]
Bookmarks: 79,760,16442,18629,31715,36079,40442,49170,53533,66624,84079,101533,118988,136442
DistanceSpacing: 1.2
BeatDivisor: 8
GridSize: 8
TimelineZoom: 1.8

[Metadata]
Title:Life Goes On
TitleUnicode:Life Goes On
Artist:Shoji Meguro
ArtistUnicode:Shoji Meguro
Creator:HonourBound
Version:Extra
Source:Persona 5
Tags:Funk,Fusion,Jazz,Bass,Persona,Drums,Instrumental
BeatmapID:2033887
BeatmapSetID:971391

[Difficulty]
HPDrainRate:6
CircleSize:4
OverallDifficulty:9
ApproachRate:9
SliderMultiplier:2
SliderTickRate:2

[Events]
//Background and Video events
0,0,"p5.png",0,0
//Break Periods
//Storyboard Layer 0 (Background)
//Storyboard Layer 1 (Fail)
//Storyboard Layer 2 (Pass)
//Storyboard Layer 3 (Foreground)
//Storyboard Sound Samples

[TimingPoints]
1170,545.454545454546,4,3,1,40,1,0
1579,-100,4,3,1,5,0,0
1715,-100,4,3,1,40,0,0
2260,-100,4,3,1,5,0,0
2397,-100,4,3,1,40,0,0
2533,-100,4,3,1,5,0,0
2670,-100,4,3,1,40,0,0
2806,-100,4,3,1,5,0,0
2942,-100,4,3,1,40,0,0
3079,-100,4,3,1,5,0,0
3215,-100,4,3,1,40,0,0
4442,-100,4,3,1,20,0,0
4988,-100,4,3,1,40,0,0
5942,-100,4,3,1,5,0,0
6079,-100,4,3,1,40,0,0
8942,-100,4,3,1,20,0,0
9215,-100,4,3,1,40,0,0
9351,-100,4,3,1,30,0,0
9488,-100,4,3,1,40,0,0
10306,-100,4,3,1,5,0,0
10442,-100,4,3,1,40,0,0
10988,-100,4,3,1,5,0,0
11124,-100,4,3,1,40,0,0
11260,-100,4,3,1,5,0,0
11397,-100,4,3,1,40,0,0
11533,-100,4,3,1,20,0,0
11670,-100,4,3,1,40,0,0
11806,-100,4,3,1,20,0,0
11942,-100,4,3,1,40,0,0
12215,-100,4,3,1,20,0,0
12624,-100,4,3,1,40,0,0
13715,-100,4,3,1,30,0,0
13988,-100,4,3,1,40,0,0
16442,-100,4,3,1,80,0,0
17124,-100,4,3,1,60,0,0
17397,-100,4,3,1,80,0,0
17465,-100,4,3,1,5,0,0
17533,-100,4,3,1,80,0,0
17670,-100,4,3,1,80,0,0
17738,-100,4,3,1,5,0,0
17806,-100,4,3,1,80,0,0
18488,-100,4,3,1,40,0,0
18624,-76.9230769230769,4,3,1,80,0,0
19170,-76.9230769230769,4,3,1,60,0,0
19306,-76.9230769230769,4,3,1,40,0,0
19442,-76.9230769230769,4,3,1,80,0,0
19851,-76.9230769230769,4,3,1,5,0,0
19988,-76.9230769230769,4,3,1,80,0,0
20397,-76.9230769230769,4,3,1,5,0,0
20533,-76.9230769230769,4,3,1,80,0,0
30079,-76.9230769230769,4,3,1,60,0,0
30351,-76.9230769230769,4,3,1,80,0,0
32260,-55.5555555555556,4,3,1,80,0,0
32533,-76.9230769230769,4,3,1,80,0,0
34033,-76.9230769230769,4,3,1,40,0,0
34170,-76.9230769230769,4,3,1,80,0,0
42624,-66.6666666666667,4,3,1,80,0,0
43033,-76.9230769230769,4,3,1,80,0,0
43170,-76.9230769230769,4,3,1,80,0,0
43306,-76.9230769230769,4,3,1,60,0,0
43442,-76.9230769230769,4,3,1,80,0,0
46033,-76.9230769230769,4,3,1,5,0,0
46170,-76.9230769230769,4,3,1,80,0,0
46579,-76.9230769230769,4,3,1,5,0,0
46715,-76.9230769230769,4,3,1,80,0,0
49715,-55.5555555555556,4,3,1,80,0,0
49988,-76.9230769230769,4,3,1,80,0,0
52306,-76.9230769230769,4,3,1,80,0,0
53124,-76.9230769230769,4,3,1,60,0,0
53533,-83.3333333333333,4,3,1,70,0,0
56260,-58.8235294117647,4,3,1,70,0,0
56533,-83.3333333333333,4,3,1,70,0,0
57897,-83.3333333333333,4,3,1,85,0,0
58033,-83.3333333333333,4,3,1,5,0,0
58306,-83.3333333333333,4,3,1,70,0,0
59260,-83.3333333333333,4,3,1,5,0,0
59397,-83.3333333333333,4,3,1,50,0,0
59533,-83.3333333333333,4,3,1,70,0,0
62260,-83.3333333333333,4,3,1,85,0,0
62806,-58.8235294117647,4,3,1,70,0,0
62942,-58.8235294117647,4,3,1,50,0,0
63079,-83.3333333333333,4,3,1,70,0,0
63760,-83.3333333333333,4,3,1,50,0,0
63897,-83.3333333333333,4,3,1,70,0,0
64306,-83.3333333333333,4,3,1,50,0,0
64442,-83.3333333333333,4,3,1,70,0,0
66624,-76.9230769230769,4,3,1,70,0,0
68533,-76.9230769230769,4,3,1,30,0,0
68806,-76.9230769230769,4,3,1,70,0,0
68942,-76.9230769230769,4,3,1,50,0,0
69215,-76.9230769230769,4,3,1,70,0,0
70715,-76.9230769230769,4,3,1,50,0,0
70988,-76.9230769230769,4,3,1,70,0,0
71260,-76.9230769230769,4,3,1,5,0,0
71397,-76.9230769230769,4,3,1,70,0,0
71670,-76.9230769230769,4,3,1,5,0,0
71806,-76.9230769230769,4,3,1,70,0,0
77670,-76.9230769230769,4,3,1,30,0,0
77806,-76.9230769230769,4,3,1,70,0,0
82988,-66.6666666666667,4,3,1,70,0,0
83124,-66.6666666666667,4,3,1,5,0,0
83260,-66.6666666666667,4,3,1,70,0,0
83670,-66.6666666666667,4,3,1,5,0,0
83806,-66.6666666666667,4,3,1,30,0,0
84079,-76.9230769230769,4,3,1,60,0,0
85988,-76.9230769230769,4,3,1,40,0,0
86124,-76.9230769230769,4,3,1,60,0,0
86942,-76.9230769230769,4,3,1,60,0,0
87351,-76.9230769230769,4,3,1,40,0,0
87488,-76.9230769230769,4,3,1,60,0,0
87624,-76.9230769230769,4,3,1,40,0,0
87760,-76.9230769230769,4,3,1,60,0,0
89124,-76.9230769230769,4,3,1,60,0,0
89260,-76.9230769230769,4,3,1,60,0,0
90760,-66.6666666666667,4,3,1,60,0,0
91033,-66.6666666666667,4,3,1,60,0,0
91306,-66.6666666666667,4,3,1,60,0,0
91442,-76.9230769230769,4,3,1,60,0,0
92533,-76.9230769230769,4,3,1,40,0,0
92806,-76.9230769230769,4,3,1,60,0,0
93624,-76.9230769230769,4,3,1,30,0,0
93760,-76.9230769230769,4,3,1,60,0,0
99351,-76.9230769230769,4,3,1,70,0,0
101124,-58.8235294117647,4,3,1,70,0,0
101533,-76.9230769230769,4,2,1,80,0,0
101670,-76.9230769230769,4,2,1,70,0,0
103851,-76.9230769230769,4,2,1,40,0,0
103988,-76.9230769230769,4,2,1,70,0,0
104942,-76.9230769230769,4,2,1,40,0,0
105079,-76.9230769230769,4,2,1,70,0,0
108215,-76.9230769230769,4,2,1,40,0,0
108351,-76.9230769230769,4,2,1,70,0,0
109306,-76.9230769230769,4,2,1,40,0,0
109442,-76.9230769230769,4,2,1,70,0,0
109988,-76.9230769230769,4,2,1,50,0,0
110260,-76.9230769230769,4,2,1,85,0,0
110397,-76.9230769230769,4,2,1,70,0,0
112579,-76.9230769230769,4,2,1,40,0,0
112715,-76.9230769230769,4,2,1,70,0,0
114351,-76.9230769230769,4,2,1,50,0,0
114624,-76.9230769230769,4,2,1,70,0,0
115715,-58.8235294117647,4,2,1,80,0,0
115988,-76.9230769230769,4,2,1,70,0,0
116806,-66.6666666666667,4,2,1,70,0,0
118715,-66.6666666666667,4,3,1,70,0,0
118988,-76.9230769230769,4,3,1,80,0,0
119533,-76.9230769230769,4,3,1,60,0,0
119806,-76.9230769230769,4,3,1,80,0,0
120215,-76.9230769230769,4,3,1,5,0,0
120351,-76.9230769230769,4,3,1,80,0,0
120760,-76.9230769230769,4,3,1,5,0,0
120897,-76.9230769230769,4,3,1,80,0,0
124988,-76.9230769230769,4,3,1,60,0,0
125124,-76.9230769230769,4,3,1,80,0,0
125260,-76.9230769230769,4,3,1,60,0,0
125397,-76.9230769230769,4,3,1,80,0,0
125670,-76.9230769230769,4,3,1,50,0,0
125806,-76.9230769230769,4,3,1,80,0,0
130579,-76.9230769230769,4,3,1,80,0,0
130715,-76.9230769230769,4,3,1,40,0,0
130851,-76.9230769230769,4,3,1,80,0,0
132079,-76.9230769230769,4,3,1,80,0,0
132624,-55.5555555555556,4,3,1,80,0,0
132897,-76.9230769230769,4,3,1,80,0,0
134397,-76.9230769230769,4,3,1,40,0,0
134533,-76.9230769230769,4,3,1,80,0,0
136442,-76.9230769230769,4,3,1,90,0,0
136579,-76.9230769230769,4,3,1,80,0,0
142988,-76.9230769230769,4,3,1,5,0,0

[HitObjects]
90,110,760,5,0,0:0:0:0:
90,110,897,2,0,L|124:169,1,50,4|0,0:0|0:0,0:0:0:0:
165,231,1170,6,0,P|244:272|298:258,1,150,4|0,0:0|0:0,0:0:0:0:
386,208,1715,2,0,L|473:208,1,50,0|2,0:0|0:0,0:0:0:0:
385,63,2124,6,0,L|435:142,1,50,4|0,0:0|0:0,0:0:0:0:
343,141,2397,2,0,L|310:89,1,50
252,133,2670,2,0,L|285:190,1,50,4|0,0:0|0:0,0:0:0:0:
215,219,2942,2,0,L|178:158,1,50
135,124,3215,6,0,L|58:124,1,50,4|2,0:0|0:0,0:0:0:0:
35,124,3488,2,0,L|35:68,2,50
68,192,3897,1,4,0:0:0:0:
38,279,4033,1,8,0:0:0:0:
174,343,4306,5,0,0:0:0:0:
232,280,4442,2,0,L|271:232,3,50,4|0|0|0,0:0|0:0|0:0|0:0,0:0:0:0:
288,212,4988,1,6,0:0:0:0:
216,190,5124,1,0,0:0:0:0:
308,140,5260,5,4,0:0:0:0:
361,194,5397,1,0,0:0:0:0:
358,269,5533,2,0,P|313:329|242:351,1,150,4|0,0:0|0:0,0:0:0:0:
148,307,6079,2,0,L|199:261,1,50,4|2,0:0|0:0,0:0:0:0:
385,63,6488,6,0,L|435:142,1,50,4|0,0:0|0:0,0:0:0:0:
344,142,6760,2,0,L|311:90,1,50
249,173,7033,2,0,P|201:120|214:119,1,150,4|8,0:0|0:0,0:0:0:0:
156,46,7715,6,4,L|337:76,1,150,4|4,0:2|0:2,0:2:0:0:
225,230,8397,1,8,0:0:0:0:
407,54,8806,5,4,0:0:0:0:
407,54,8942,2,0,L|438:20,2,25
474,83,9215,5,4,0:0:0:0:
343,141,9351,1,12,0:0:0:0:
430,150,9488,1,0,0:0:0:0:
430,150,9624,2,0,L|401:209,1,50,4|0,0:0|0:0,0:0:0:0:
382,247,9897,6,0,P|303:288|242:289,1,150,4|0,0:0|0:0,0:0:0:0:
112,268,10442,2,0,L|184:278,1,50,4|2,0:0|0:0,0:0:0:0:
46,158,10851,6,0,L|72:201,1,50,4|0,0:0|0:0,0:0:0:0:
151,169,11124,2,0,L|177:212,1,50
136,282,11397,2,0,P|160:301|206:309,1,50,4|8,0:0|0:0,0:0:0:0:
253,252,11670,2,0,L|312:210,1,50,0|8,0:0|0:0,0:0:0:0:
372,169,11942,6,0,P|401:164|429:169,1,50,4|0,0:0|0:0,0:0:0:0:
456,176,12215,2,0,L|497:131,2,50
387,269,12624,1,4,0:0:0:0:
387,269,12760,1,8,0:0:0:0:
352,367,13033,5,0,0:0:0:0:
296,301,13170,2,0,L|256:257,3,50,4|0|0|0,0:0|0:0|0:0|0:0,0:0:0:0:
238,236,13715,1,12,0:0:0:0:
238,236,13851,1,0,0:0:0:0:
218,164,13988,5,4,0:0:0:0:
165,218,14124,1,0,0:0:0:0:
168,293,14260,2,0,P|213:353|284:375,1,150,4|0,0:0|0:0,0:0:0:0:
388,369,14806,2,0,L|462:369,1,50,4|10,0:0|0:0,0:0:0:0:
406,187,15215,6,0,L|456:266,1,50,4|0,0:0|0:0,0:0:0:0:
365,266,15488,2,0,L|332:214,1,50
269,260,15760,2,0,P|200:276|206:264,1,150,4|8,0:0|0:0,0:0:0:0:
141,107,16442,6,4,L|191:211,1,100,6|0,0:0|0:0,0:0:0:0:
243,77,16851,1,4,0:0:0:0:
301,240,16988,1,8,0:0:0:0:
301,240,17124,1,2,0:0:0:0:
184,197,17397,6,0,L|167:229,1,25,4|0,0:3|0:3,0:3:0:0:
70,118,17670,2,0,L|52:151,1,25,4|0,0:2|0:2,0:2:0:0:
164,317,17942,5,4,0:0:0:0:
252,237,18079,1,8,0:0:0:0:
317,327,18215,5,2,0:0:0:0:
358,280,18351,1,0,0:0:0:0:
390,226,18488,1,8,0:0:0:0:
423,173,18624,6,0,P|395:92|295:35,1,194.999991073609,4|0,0:0|0:0,0:0:0:0:
270,157,19170,1,8,0:0:0:0:
380,162,19306,1,8,0:0:0:0:
449,52,19442,5,0,0:0:0:0:
449,52,19579,2,0,L|377:169,1,129.999994049073,4|0,0:0|0:0,0:0:0:0:
324,243,19988,1,0,0:0:0:0:
308,145,20124,2,0,L|224:249,1,129.999994049073,4|0,0:0|0:0,0:0:0:0:
155,334,20533,1,0,0:0:0:0:
42,297,20670,6,0,L|94:240,1,64.9999970245363,4|0,0:0|0:0,0:0:0:0:
147,179,20942,1,0,0:0:0:0:
77,106,21079,1,0,0:0:0:0:
147,179,21215,1,0,0:0:0:0:
164,83,21351,2,0,P|251:69|315:86,1,129.999994049073,8|0,0:0|0:0,0:0:0:0:
419,123,21760,6,0,P|450:197|415:247,1,129.999994049073,4|0,0:0|0:0,0:0:0:0:
310,329,22170,1,0,0:0:0:0:
310,329,22306,2,0,P|279:255|314:205,1,129.999994049073,4|0,0:0|0:0,0:0:0:0:
384,275,22715,5,0,0:0:0:0:
299,215,22851,1,0,0:0:0:0:
384,275,22988,2,0,P|446:213|429:87,1,194.999991073609,4|0,0:0|0:0,0:0:0:0:
334,43,23533,2,0,L|278:125,1,64.9999970245363,8|0,0:0|0:0,0:0:0:0:
253,163,23806,1,0,0:0:0:0:
307,257,23942,2,0,P|219:258|158:222,1,129.999994049073,4|0,0:0|0:0,0:0:0:0:
74,148,24351,5,0,0:0:0:0:
74,148,24488,2,0,L|31:77,2,64.9999970245363,4|8|0,0:0|0:0|0:0,0:0:0:0:
77,254,24897,1,0,0:0:0:0:
170,226,25033,1,4,0:0:0:0:
170,226,25101,1,0,0:0:0:0:
170,226,25170,1,0,0:0:0:0:
227,139,25306,6,0,L|284:44,2,64.9999970245363,8|0|0,0:0|0:0|0:0,0:0:0:0:
170,226,25715,1,12,0:0:0:0:
122,316,25851,1,0,0:0:0:0:
212,351,25988,1,4,0:0:0:0:
294,294,26124,1,0,0:0:0:0:
473,178,26397,5,8,0:0:0:0:
403,213,26533,2,0,L|292:164,1,64.9999970245363,4|0,0:0|0:0,0:0:0:0:
424,93,26806,5,8,0:0:0:0:
360,126,26942,1,4,0:0:0:0:
319,67,27079,1,0,0:0:0:0:
371,22,27215,1,0,0:0:0:0:
319,67,27351,6,0,P|181:94|120:72,1,194.999991073609,4|0,0:0|0:0,0:0:0:0:
64,43,27897,2,0,P|45:137|51:152,1,64.9999970245363,8|0,0:0|0:0,0:0:0:0:
42,200,28170,1,0,0:0:0:0:
119,144,28306,2,0,P|143:188|133:311,1,129.999994049073,4|0,0:0|0:0,0:0:0:0:
39,294,28715,1,0,0:0:0:0:
39,294,28851,2,0,L|171:358,2,129.999994049073,0|0|4,0:0|0:0|0:0,0:0:0:0:
39,294,29465,5,0,0:0:0:0:
45,299,29533,2,0,P|49:224|96:167,2,129.999994049073,0|0|8,0:0|0:0|0:0,0:0:0:0:
158,342,30215,2,0,L|267:353,1,64.9999970245363,8|0,0:0|0:0,0:0:0:0:
337,344,30488,2,0,P|395:315|437:261,2,129.999994049073,4|0|0,0:0|0:0|0:0,0:0:0:0:
222,348,31170,2,0,P|164:299|156:243,1,129.999994049073,8|4,0:0|0:0,0:0:0:0:
190,94,31715,6,0,B|278:23|312:179|380:183,1,194.999991073609,4|0,0:0|0:0,0:0:0:0:
488,176,32260,6,0,L|381:247,1,89.9999972534181,8|8,0:0|0:0,0:0:0:0:
323,291,32533,1,0,0:0:0:0:
413,226,32670,1,4,0:0:0:0:
149,77,32942,6,0,L|189:153,1,64.9999970245363,8|0,0:0|0:0,0:0:0:0:
231,225,33215,1,0,0:0:0:0:
108,163,33351,2,0,P|85:234|67:300,1,129.999994049073,8|0,0:0|0:0,0:0:0:0:
70,287,33760,1,4,0:0:0:0:
191,233,33897,6,0,L|252:319,1,64.9999970245363
300,283,34170,1,4,0:0:0:0:
205,349,34306,1,0,0:0:0:0:
331,348,34442,2,0,L|418:348,1,64.9999970245363,8|0,0:0|0:0,0:0:0:0:
470,283,34715,5,0,0:0:0:0:
470,283,34851,2,0,L|431:215,1,64.9999970245363,4|0,0:0|0:0,0:0:0:0:
395,86,35124,6,0,L|339:165,1,64.9999970245363,8|0,0:0|0:0,0:0:0:0:
283,225,35397,1,0,0:0:0:0:
203,85,35533,2,0,L|149:8,1,64.9999970245363,8|0,0:0|0:0,0:0:0:0:
74,31,35806,5,4,0:0:0:0:
33,61,35942,1,0,0:0:0:0:
25,112,36079,6,0,P|69:209|163:264,1,194.999991073609,4|0,0:2|0:0,0:0:0:0:
237,297,36624,2,0,L|310:327,1,64.9999970245363,8|0,0:0|0:0,0:0:0:0:
430,226,36897,5,0,0:0:0:0:
430,226,37033,2,0,L|381:354,1,129.999994049073,4|0,0:0|0:0,0:0:0:0:
301,260,37442,1,0,0:0:0:0:
210,345,37579,1,0,0:0:0:0:
89,268,37715,2,0,L|66:163,1,64.9999970245363,8|0,0:0|0:0,0:0:0:0:
56,103,37988,2,0,L|41:40,2,64.9999970245363,0|4|0,0:0|0:0|0:0,0:0:0:0:
101,105,38397,5,0,0:0:0:0:
148,108,38533,1,0,0:0:0:0:
196,113,38670,1,0,0:0:0:0:
244,121,38806,2,0,P|298:193|307:253,1,129.999994049073,8|0,0:0|0:0,0:0:0:0:
332,316,39215,6,0,P|388:259|374:199,1,129.999994049073,4|0,0:0|0:0,0:0:0:0:
354,100,39624,1,0,0:0:0:0:
170,285,39897,1,8,0:0:0:0:
64,166,40033,5,0,0:0:0:0:
64,166,40170,2,0,L|146:106,1,64.9999970245363,4|0,0:0|0:0,0:0:0:0:
210,59,40442,2,0,P|297:59|374:160,1,194.999991073609,4|0,0:0|0:0,0:0:0:0:
380,276,40988,6,0,L|297:332,1,64.9999970245363,8|0,0:0|0:0,0:0:0:0:
259,356,41260,1,0,0:0:0:0:
265,226,41397,2,0,L|131:325,2,129.999994049073,4|0|0,0:0|0:0|0:0,0:0:0:0:
370,156,42079,1,8,0:0:0:0:
210,47,42351,5,0,0:0:0:0:
167,63,42488,1,4,0:0:0:0:
140,100,42624,2,0,B|81:260|81:260|121:362,1,225.000008583069
295,286,43170,5,8,0:0:0:0:
295,286,43306,1,8,0:0:0:0:
191,217,43442,5,0,0:0:0:0:
191,217,43579,2,0,L|223:112,1,64.9999970245363,4|0,0:0|0:0,0:0:0:0:
303,44,43851,2,0,L|271:149,1,64.9999970245363,8|0,0:0|0:0,0:0:0:0:
263,189,44124,1,0,0:0:0:0:
381,78,44260,1,8,0:0:0:0:
423,60,44397,5,0,0:0:0:0:
474,87,44533,1,4,0:0:0:0:
496,138,44670,1,0,0:0:0:0:
500,193,44806,6,0,P|481:278|387:352,1,194.999991073609,4|0,0:0|0:0,0:0:0:0:
247,345,45351,2,0,L|155:333,1,64.9999970245363,8|0,0:0|0:0,0:0:0:0:
45,330,45624,5,0,0:0:0:0:
45,330,45760,2,0,L|117:213,1,129.999994049073,4|0,0:0|0:0,0:0:0:0:
193,108,46170,1,0,0:0:0:0:
193,108,46306,2,0,L|237:296,1,129.999994049073,4|0,0:0|0:0,0:0:0:0:
247,345,46715,1,0,0:0:0:0:
400,280,46851,1,4,0:0:0:0:
442,210,46988,6,0,L|358:206,1,64.9999970245363
287,206,47260,2,0,P|245:215|209:239,1,64.9999970245363
134,299,47533,2,0,L|93:365,2,64.9999970245363,8|0|0,0:0|0:0|0:0,0:0:0:0:
104,178,47942,1,0,0:0:0:0:
104,178,48079,2,0,P|136:206|186:209,1,64.9999970245363,4|0,0:0|0:0,0:0:0:0:
275,213,48351,2,4,P|314:193|325:158,1,64.9999970245363,0|0,0:0|0:0,0:0:0:0:
174,86,48624,5,8,0:0:0:0:
107,137,48760,2,0,L|35:201,2,64.9999970245363
208,57,49170,2,0,B|296:-14|330:142|398:146,1,194.999991073609,4|0,0:0|0:0,0:0:0:0:
482,240,49715,6,0,L|394:303,1,89.9999972534181,8|8,0:0|0:0,0:0:0:0:
317,355,49988,1,0,0:0:0:0:
407,290,50124,1,4,0:0:0:0:
366,104,50397,6,0,L|298:157,1,64.9999970245363,8|0,0:0|0:0,0:0:0:0:
230,207,50670,1,0,0:0:0:0:
330,282,50806,2,0,P|394:303|498:262,1,129.999994049073,8|0,0:0|0:0,0:0:0:0:
388,213,51215,6,0,L|245:151,1,129.999994049073,6|0,0:0|0:0,0:0:0:0:
219,152,51624,1,0,0:0:0:0:
170,168,51760,2,0,L|63:227,2,64.9999970245363,0|8|0,0:0|0:0|0:0,0:0:0:0:
219,152,52170,1,0,0:0:0:0:
350,90,52306,6,0,P|340:174|312:186,1,64.9999970245363,6|0,0:0|0:0,0:0:0:0:
394,60,52579,2,0,P|384:144|356:156,1,64.9999970245363,8|0,0:0|0:0,0:0:0:0:
444,33,52851,2,0,P|434:117|406:129,1,64.9999970245363,2|8,0:0|0:0,0:0:0:0:
417,186,53124,2,0,P|419:225|453:272,2,64.9999970245363
312,180,53533,6,0,L|162:211,1,119.999996337891,4|0,0:2|0:0,0:0:0:0:
106,224,53942,1,0,0:0:0:0:
187,313,54079,2,0,L|294:286,1,59.9999981689454,8|0,0:0|0:0,0:0:0:0:
356,267,54351,1,0,0:0:0:0:
396,241,54488,2,0,P|449:169|424:41,1,179.999994506836,4|0,0:0|0:0,0:0:0:0:
334,196,55170,6,0,P|258:230|207:222,1,119.999996337891,8|0,0:0|0:0,0:0:0:0:
149,214,55579,1,4,0:0:0:0:
83,183,55715,2,0,P|96:94|198:23,1,179.999994506836,4|0,0:0|0:0,0:0:0:0:
233,95,56260,2,0,P|304:148|494:139,1,255.000004863739,8|4,0:0|0:0,0:0:0:0:
392,55,56806,2,0,P|340:57|239:93,1,119.999996337891
190,120,57215,1,0,0:0:0:0:
248,230,57351,1,8,0:0:0:0:
371,207,57488,2,0,L|419:154,2,59.9999981689454
290,297,57897,6,0,L|239:351,1,59.9999981689454,4|0,0:2|0:0,0:0:0:0:
349,72,58306,1,0,0:0:0:0:
349,72,58442,2,0,L|297:127,1,59.9999981689454,8|0,0:0|0:0,0:0:0:0:
233,180,58715,2,0,P|120:159|81:52,1,239.999992675781
223,32,59397,1,4,0:0:0:0:
268,30,59533,2,0,P|342:46|371:77,1,119.999996337891,8|0,0:0|0:0,0:0:0:0:
270,145,59942,6,0,P|314:184|373:193,1,119.999996337891,4|0,0:0|0:0,0:0:0:0:
458,191,60351,1,0,0:0:0:0:
458,191,60488,1,0,0:0:0:0:
401,261,60624,2,0,L|331:347,1,59.9999981689454,8|0,0:0|0:0,0:0:0:0:
246,341,60897,1,0,0:0:0:0:
246,341,61033,2,0,L|182:290,1,59.9999981689454,4|0,0:0|0:0,0:0:0:0:
73,190,61306,6,0,L|10:272,1,59.9999981689454,8|0,0:0|0:0,0:0:0:0:
51,344,61579,1,0,0:0:0:0:
160,308,61715,2,0,L|197:261,1,59.9999981689454,8|0,0:0|0:0,0:0:0:0:
169,164,61988,2,0,L|186:128,3,29.9999990844727,4|0|0|0,0:0|0:0|0:0|0:0,0:0:0:0:
192,116,62260,1,4,0:2:0:0:
468,63,62806,6,0,L|353:121,1,85.0000016212464,8|8,0:0|0:0,0:0:0:0:
315,136,63079,1,0,0:0:0:0:
315,136,63215,2,0,P|241:129|171:61,1,119.999996337891,4|0,0:0|0:0,0:0:0:0:
134,34,63624,1,0,0:0:0:0:
58,94,63760,5,4,0:0:0:0:
58,94,63897,2,0,L|116:160,1,59.9999981689454,8|0,0:0|0:0,0:0:0:0:
183,223,64170,1,0,0:0:0:0:
183,223,64238,1,0,0:0:0:0:
183,223,64306,1,4,0:0:0:0:
185,113,64442,6,0,P|242:65|339:64,1,119.999996337891,4|0,0:0|0:0,0:0:0:0:
394,69,64851,1,0,0:0:0:0:
394,69,64988,2,0,P|441:126|442:223,1,119.999996337891,12|0,0:0|0:0,0:0:0:0:
453,279,65397,1,0,0:0:0:0:
453,279,65533,2,0,P|395:326|298:327,1,119.999996337891,6|0,0:0|0:0,0:0:0:0:
60,259,66079,5,8,0:0:0:0:
46,346,66215,1,8,0:0:0:0:
60,259,66351,2,0,L|105:166,1,59.9999981689454
222,90,66624,6,0,P|288:60|392:71,1,129.999994049073,4|0,0:2|0:0,0:0:0:0:
457,70,67033,1,0,0:0:0:0:
480,176,67170,1,8,0:0:0:0:
484,208,67306,1,8,0:0:0:0:
486,241,67442,2,0,P|370:318|263:274,1,259.999988098145
101,149,68260,1,8,0:0:0:0:
32,64,68533,2,0,L|32:14,2,43.3333313496908,8|0|0,0:0|0:0|0:0,0:0:0:0:
32,112,68806,5,0,0:0:0:0:
33,169,68942,2,0,P|41:233|110:299,1,129.999994049073,8|0,0:0|0:0,0:0:0:0:
207,347,69351,1,8,0:0:0:0:
137,162,69624,5,0,0:0:0:0:
137,162,69760,2,0,L|216:226,1,64.9999970245363
276,270,70033,1,8,0:0:0:0:
369,152,70170,2,0,L|372:148|307:227,1,64.9999970245363
207,347,70442,1,8,0:0:0:0:
382,261,70715,2,0,L|403:235,3,32.4999985122681,4|0|0|0,0:0|0:0|0:0|0:0,0:0:0:0:
444,179,70988,6,0,P|444:101|402:63,1,129.999994049073,4|0,0:2|0:0,0:0:0:0:
327,29,71397,2,0,P|327:107|369:145,1,129.999994049073
444,179,71806,2,0,B|493:199|493:199|258:319,1,259.999988098145
90,141,72624,2,0,L|21:92,2,64.9999970245363,8|0|0,0:0|0:0|0:0,0:0:0:0:
177,196,73033,1,0,0:0:0:0:
177,196,73101,1,0,0:0:0:0:
177,196,73170,1,0,0:0:0:0:
87,235,73306,2,0,P|137:274|233:272,1,129.999994049073
364,268,73715,1,8,0:0:0:0:
227,84,73988,5,0,0:0:0:0:
227,84,74124,2,0,L|306:148,1,64.9999970245363
366,192,74397,1,8,0:0:0:0:
459,74,74534,2,0,L|462:70|397:149,1,64.9999970245363
297,269,74806,1,8,0:0:0:0:
68,226,75079,5,0,0:0:0:0:
68,226,75215,1,0,0:0:0:0:
68,226,75351,2,0,P|39:164|45:92,1,129.999994049073,4|0,0:2|0:0,0:0:0:0:
58,27,75760,2,0,P|122:50|169:105,1,129.999994049073
220,167,76170,2,0,B|327:297|479:272,1,259.999988098145
391,62,76988,1,8,0:0:0:0:
238,34,77260,5,0,0:0:0:0:
221,68,77351,1,0,0:0:0:0:
226,107,77442,1,0,0:0:0:0:
239,146,77533,2,0,L|292:210,1,64.9999970245363,0|8,0:0|0:0,0:0:0:0:
348,267,77806,1,0,0:0:0:0:
220,245,77942,1,0,0:0:0:0:
352,149,78079,2,0,L|422:96,1,64.9999970245363,8|0,0:0|0:0,0:0:0:0:
486,67,78351,5,0,0:0:0:0:
486,67,78488,2,0,L|473:153,1,64.9999970245363
395,300,78760,1,8,0:0:0:0:
352,149,78897,2,0,L|356:146|270:202,1,64.9999970245363
174,251,79170,2,0,P|120:314|112:376,2,129.999994049073,8|0|4,0:0|0:0|0:2,0:0:0:0:
260,76,79988,6,0,L|197:138,1,64.9999970245363
147,183,80261,1,8,0:0:0:0:
147,183,80397,1,8,0:0:0:0:
92,91,80533,2,0,P|45:205|126:298,1,259.999988098145
300,356,81351,1,8,0:0:0:0:
427,233,81624,2,0,L|468:270,2,43.3333313496908,8|0|0,0:0|0:0|0:0,0:0:0:0:
388,200,81897,5,0,0:0:0:0:
348,168,82033,2,0,P|296:135|197:153,1,129.999994049073
79,183,82442,1,8,0:0:0:0:
194,316,82715,1,4,0:0:0:0:
228,38,82988,6,0,L|183:128,1,75.0000028610231,4|0,0:0|0:0,0:0:0:0:
140,212,83260,1,0,0:0:0:0:
302,39,83533,6,0,L|347:129,1,75.0000028610231,4|0,0:0|0:0,0:0:0:0:
390,213,83806,2,0,L|421:268,3,37.5000014305115,4|0|0|0,0:0|0:0|0:0|0:0,0:0:0:0:
428,290,84079,6,0,P|395:320|302:291,1,129.999994049073,4|0,0:2|0:0,0:0:0:0:
253,218,84488,1,0,0:0:0:0:
150,229,84624,1,8,0:0:0:0:
121,271,84760,1,2,0:0:0:0:
131,321,84897,1,0,0:0:0:0:
181,327,85033,2,0,L|264:203,1,129.999994049073,4|0,0:0|0:0,0:0:0:0:
326,100,85442,5,0,0:0:0:0:
266,76,85579,1,0,0:0:0:0:
208,104,85715,2,0,L|71:188,1,129.999994049073,8|8,0:0|0:0,0:0:0:0:
56,46,86124,5,4,0:0:0:0:
56,46,86260,2,0,L|212:101,1,129.999994049073
290,129,86670,2,0,P|319:159|330:203,1,64.9999970245363,0|8,0:0|0:0,0:0:0:0:
357,280,86942,2,0,P|381:253|391:216,1,64.9999970245363,2|0,0:0|0:0,0:0:0:0:
468,35,87215,6,0,P|429:50|408:75,1,64.9999970245363,4|0,0:0|0:0,0:0:0:0:
355,145,87488,2,0,P|326:173|295:185,1,64.9999970245363
190,213,87760,2,0,L|111:232,2,64.9999970245363,4|8|0,0:0|0:0|0:0,0:0:0:0:
304,183,88170,1,4,0:0:0:0:
378,163,88306,1,4,0:0:0:0:
350,69,88442,6,0,P|272:73|198:139,1,129.999994049073
143,175,88851,1,0,0:0:0:0:
45,115,88988,2,0,P|66:74|108:54,1,64.9999970245363,8|2,0:0|0:0,0:0:0:0:
183,32,89260,1,0,0:0:0:0:
225,31,89397,2,0,L|275:90,1,64.9999970245363,4|0,0:0|0:0,0:0:0:0:
331,56,89670,2,0,L|381:115,1,64.9999970245363
433,182,89942,1,4,0:0:0:0:
363,310,90079,1,8,0:0:0:0:
367,315,90215,1,0,0:0:0:0:
242,256,90351,1,8,0:0:0:0:
242,256,90488,1,4,0:0:0:0:
142,333,90624,5,0,0:0:0:0:
123,240,90760,2,0,P|63:276|37:357,2,150.000005722046,8|2|0,0:0|0:0|0:0,0:0:0:0:
236,200,91442,1,0,0:0:0:0:
289,137,91579,2,0,P|244:122|193:130,1,64.9999970245363,4|0,0:0|0:0,0:0:0:0:
60,193,91851,1,8,0:0:0:0:
60,225,91988,2,0,P|105:240|155:231,1,64.9999970245363,4|0,0:0|0:0,0:0:0:0:
236,238,92260,1,8,0:0:0:0:
330,92,92533,2,0,L|355:58,3,32.4999985122681,4|0|0|0,0:0|0:0|0:0|0:0,0:0:0:0:
373,36,92806,5,4,0:0:0:0:
446,85,92942,1,0,0:0:0:0:
464,172,93079,1,0,0:0:0:0:
430,253,93215,1,0,0:0:0:0:
346,316,93351,2,0,L|274:373,2,64.9999970245363,8|0|4,0:0|0:0|0:0,0:0:0:0:
354,175,93760,2,0,P|291:176|238:244,1,129.999994049073,4|0,0:0|0:0,0:0:0:0:
212,317,94170,1,0,0:0:0:0:
212,317,94306,1,4,0:0:0:0:
66,222,94442,2,0,L|145:272,1,64.9999970245363,8|0,0:0|0:0,0:0:0:0:
259,236,94715,2,0,L|198:203,1,64.9999970245363,8|0,0:0|0:0,0:0:0:0:
83,130,94988,5,0,0:0:0:0:
47,92,95124,2,0,P|99:34|169:31,1,129.999994049073,4|0,0:0|0:0,0:0:0:0:
291,37,95533,2,0,L|206:76,1,64.9999970245363,8|0,0:0|0:0,0:0:0:0:
163,95,95806,5,0,0:0:0:0:
142,108,95942,2,0,P|194:166|264:169,2,129.999994049073,4|0|0,0:0|0:0|0:0,0:0:0:0:
291,37,96624,2,0,P|342:61|366:87,1,64.9999970245363,8|0,0:0|0:0,0:0:0:0:
438,145,96897,2,0,L|448:182,3,32.4999985122681,4|0|0|0,0:0|0:0|0:0|0:0,0:0:0:0:
455,223,97170,6,0,L|340:310,1,129.999994049073,4|0,0:0|0:0,0:0:0:0:
235,325,97579,1,0,0:0:0:0:
219,307,97715,2,0,L|291:257,1,64.9999970245363,8|0,0:0|0:0,0:0:0:0:
348,214,97988,1,4,0:0:0:0:
352,104,98124,2,0,P|290:117|246:164,1,129.999994049073
205,254,98533,1,0,0:0:0:0:
192,297,98670,1,4,0:0:0:0:
69,297,98806,1,8,0:0:0:0:
54,255,98942,2,0,L|49:167,1,64.9999970245363
54,41,99215,5,4,0:0:0:0:
54,41,99283,1,0,0:0:0:0:
54,41,99351,2,0,L|138:75,1,64.9999970245363,0|8,0:0|0:0,0:0:0:0:
253,113,99624,1,0,0:0:0:0:
323,88,99760,1,0,0:0:0:0:
205,27,99897,2,0,L|171:111,1,64.9999970245363,8|0,0:0|0:0,0:0:0:0:
130,215,100170,1,0,0:0:0:0:
168,296,100306,2,0,L|248:320,1,64.9999970245363,4|0,0:0|0:0,0:0:0:0:
392,296,100579,2,0,L|312:280,1,64.9999970245363,8|0,0:0|0:0,0:0:0:0:
224,216,100851,2,0,L|296:192,1,64.9999970245363,0|8,0:0|0:0,0:0:0:0:
436,141,101124,2,0,B|401:88|401:88|364:94|364:94|301:21,1,170.000003242493
264,88,101533,5,4,0:2:0:0:
216,144,101670,1,0,0:0:0:0:
168,200,101806,2,0,L|120:256,1,64.9999970245363,4|0,0:2|0:0,0:0:0:0:
128,360,102079,2,0,L|176:304,1,64.9999970245363,8|0,0:0|0:0,0:0:0:0:
224,240,102351,1,4,0:2:0:0:
272,184,102488,2,0,L|384:280,1,129.999994049073
440,344,102897,1,4,0:2:0:0:
489,282,103033,1,0,0:0:0:0:
448,158,103170,2,0,L|391:230,1,64.9999970245363,8|0,0:0|0:0,0:0:0:0:
322,319,103442,1,12,0:2:0:0:
228,322,103579,5,0,0:0:0:0:
161,261,103715,2,0,L|113:211,2,64.9999970245363,0|8|4,0:0|0:0|0:0,0:0:0:0:
228,322,104124,1,0,0:0:0:0:
311,171,104260,2,0,L|272:244,1,64.9999970245363,8|0,0:0|0:0,0:0:0:0:
228,322,104533,1,4,0:0:0:0:
111,318,104670,2,0,P|54:264|53:195,1,129.999994049073,0|8,0:0|0:0,0:0:0:0:
49,73,105079,1,4,0:0:0:0:
50,32,105215,1,0,0:0:0:0:
45,147,105351,2,0,L|132:147,1,64.9999970245363,8|0,0:0|0:0,0:0:0:0:
219,112,105624,6,0,L|255:83,3,32.4999985122681,4|0|0|0,0:0|0:0|0:0|0:0,0:0:0:0:
279,71,105897,2,0,P|329:52|367:52,1,64.9999970245363
448,45,106170,1,4,0:0:0:0:
448,45,106306,1,0,0:0:0:0:
388,155,106442,2,0,L|350:221,1,64.9999970245363,8|0,0:0|0:0,0:0:0:0:
299,306,106715,1,4,0:0:0:0:
238,220,106851,2,0,P|199:277|209:347,1,129.999994049073
299,306,107260,1,4,0:0:0:0:
326,191,107397,1,0,0:0:0:0:
427,301,107533,2,0,L|481:348,1,64.9999970245363,8|0,0:0|0:0,0:0:0:0:
299,306,107806,2,0,L|371:252,1,64.9999970245363,12|0,0:0|0:0,0:0:0:0:
457,169,108079,6,0,L|431:92,1,64.9999970245363,0|8,0:0|0:0,0:0:0:0:
412,33,108351,1,4,0:0:0:0:
364,108,108488,1,0,0:0:0:0:
276,36,108624,2,0,L|231:121,1,64.9999970245363,8|0,0:0|0:0,0:0:0:0:
189,211,108897,1,4,0:0:0:0:
170,251,109034,2,0,P|93:231|59:171,1,129.999994049073,0|8,0:0|0:0,0:0:0:0:
35,61,109442,2,0,L|97:133,1,64.9999970245363,4|0,0:0|0:0,0:0:0:0:
217,166,109715,2,0,L|157:97,1,64.9999970245363,8|0,0:0|0:0,0:0:0:0:
107,38,109988,6,0,L|161:38,3,32.4999985122681,4|0|0|0,0:0|0:0|0:0|0:0,0:0:0:0:
194,39,110260,2,0,L|284:39,1,64.9999970245363,4|0,0:0|0:0,0:0:0:0:
371,41,110533,1,4,0:0:0:0:
333,110,110669,1,0,0:0:0:0:
472,76,110806,2,0,L|434:142,1,64.9999970245363,8|0,0:0|0:0,0:0:0:0:
383,227,111078,1,4,0:0:0:0:
333,110,111215,2,0,P|289:168|272:236,1,129.999994049073
256,321,111623,1,4,0:0:0:0:
155,287,111760,1,0,0:0:0:0:
85,140,111896,2,0,L|115:203,1,64.9999970245363,8|0,0:0|0:0,0:0:0:0:
205,81,112170,2,0,L|244:161,1,64.9999970245363,12|0,0:0|0:0,0:0:0:0:
288,264,112442,6,0,L|367:246,1,64.9999970245363,0|8,0:0|0:0,0:0:0:0:
430,192,112715,1,4,0:0:0:0:
361,142,112851,1,0,0:0:0:0:
288,264,112988,2,0,L|247:336,1,64.9999970245363,8|0,0:0|0:0,0:0:0:0:
124,341,113260,1,4,0:0:0:0:
124,341,113397,2,0,L|80:264,1,64.9999970245363
25,170,113670,1,8,0:0:0:0:
143,121,113806,2,0,L|182:188,1,64.9999970245363,4|0,0:0|0:0,0:0:0:0:
255,320,114079,1,8,0:0:0:0:
349,172,114351,5,0,0:0:0:0:
349,172,114420,1,0,0:0:0:0:
349,172,114488,1,0,0:0:0:0:
349,172,114556,1,0,0:0:0:0:
349,172,114624,2,0,L|311:229,2,64.9999970245363,4|0|4,0:0|0:0|0:0,0:0:0:0:
407,92,115033,1,0,0:0:0:0:
458,206,115170,2,0,L|458:287,1,64.9999970245363,8|0,0:0|0:0,0:0:0:0:
461,349,115442,1,4,0:0:0:0:
347,306,115579,1,0,0:0:0:0:
322,289,115715,6,0,P|289:236|286:202,1,85.0000016212464
281,84,115988,1,4,0:0:0:0:
378,145,116124,1,0,0:0:0:0:
286,214,116260,2,0,L|214:239,1,64.9999970245363,8|0,0:0|0:0,0:0:0:0:
122,162,116533,2,0,L|39:192,1,64.9999970245363,12|0,0:0|0:0,0:0:0:0:
32,284,116806,6,0,P|78:344|166:330,1,150.000005722046,2|0,0:0|0:0,0:0:0:0:
269,255,117215,2,0,P|326:260|360:285,2,75.0000028610231,2|8|0,0:0|0:0|0:0,0:0:0:0:
164,246,117624,2,0,P|104:200|118:112,1,150.000005722046,2|0,0:0|0:0,0:0:0:0:
149,33,118033,2,0,P|217:65|221:154,1,150.000005722046,2|0,0:0|0:0,0:0:0:0:
211,303,118442,2,0,L|279:246,1,75.0000028610231,8|0,0:0|0:0,0:0:0:0:
355,194,118715,5,4,0:0:0:0:
365,298,118851,1,0,0:0:0:0:
444,242,118988,2,0,P|484:132|427:63,1,194.999991073609,4|0,0:2|0:0,0:0:0:0:
300,84,119533,1,8,0:0:0:0:
308,121,119670,1,8,0:0:0:0:
409,51,119805,5,0,0:0:0:0:
445,74,119942,2,0,L|373:191,1,129.999994049073,4|0,0:0|0:0,0:0:0:0:
327,269,120351,1,0,0:0:0:0:
406,300,120487,2,0,P|360:344|288:348,1,129.999994049073,4|0,0:0|0:0,0:0:0:0:
136,328,120896,1,0,0:0:0:0:
104,303,121033,6,0,L|104:236,1,64.9999970245363,4|0,0:0|0:0,0:0:0:0:
104,192,121306,1,0,0:0:0:0:
104,144,121442,1,0,0:0:0:0:
104,96,121579,1,0,0:0:0:0:
39,27,121715,2,0,L|111:27,1,64.9999970245363,8|0,0:0|0:0,0:0:0:0:
207,27,121988,1,0,0:0:0:0:
104,96,122124,2,0,P|176:131|238:130,1,129.999994049073,4|0,0:0|0:0,0:0:0:0:
354,131,122533,1,4,0:0:0:0:
405,36,122670,1,0,0:0:0:0:
338,160,122806,2,0,L|294:234,1,64.9999970245363,8|0,0:0|0:0,0:0:0:0:
267,275,123079,5,4,0:0:0:0:
177,340,123215,1,0,0:0:0:0:
92,237,123351,2,0,P|209:236|278:293,1,194.999991073609,4|0,0:0|0:0,0:0:0:0:
381,344,123897,2,0,P|433:322|441:310,1,64.9999970245363,8|0,0:0|0:0,0:0:0:0:
492,236,124170,1,4,0:0:0:0:
475,118,124306,2,0,L|367:229,2,129.999994049073,0|0|4,0:0|0:0|0:0,0:0:0:0:
359,44,124988,2,0,P|311:36|272:53,1,64.9999970245363,8|0,0:0|0:0,0:0:0:0:
193,110,125260,1,8,0:0:0:0:
261,89,125397,1,4,0:0:0:0:
323,121,125533,6,0,P|315:156|286:177,1,64.9999970245363,0|8,0:0|0:0,0:0:0:0:
193,228,125806,1,4,0:0:0:0:
85,193,125942,1,0,0:0:0:0:
120,67,126079,2,0,L|150:128,1,64.9999970245363,8|0,0:0|0:0,0:0:0:0:
193,228,126351,1,0,0:0:0:0:
219,270,126488,1,4,0:0:0:0:
244,312,126624,1,0,0:0:0:0:
335,198,126760,2,0,L|269:246,1,64.9999970245363,8|0,0:0|0:0,0:0:0:0:
153,307,127033,1,0,0:0:0:0:
153,307,127170,2,0,P|122:290|87:242,1,64.9999970245363,8|0,0:0|0:0,0:0:0:0:
40,194,127442,5,4,0:0:0:0:
20,146,127579,1,0,0:0:0:0:
37,97,127715,2,0,P|136:72|203:128,1,194.999991073609,4|0,0:0|0:0,0:0:0:0:
257,237,128260,2,0,P|333:295|349:296,1,64.9999970245363,8|0,0:0|0:0,0:0:0:0:
388,325,128533,1,0,0:0:0:0:
481,296,128669,2,0,P|433:238|366:235,1,129.999994049073,4|0,0:0|0:0,0:0:0:0:
257,237,129079,1,0,0:0:0:0:
192,299,129215,1,4,0:0:0:0:
102,275,129351,2,0,P|60:231|58:212,1,64.9999970245363,8|0,0:0|0:0,0:0:0:0:
60,92,129624,2,0,P|104:50|123:48,1,64.9999970245363,8|4,0:0|0:0,0:0:0:0:
242,36,129897,6,0,P|316:47|367:100,2,129.999994049073,0|0|8,0:0|0:0|0:0,0:0:0:0:
136,123,130579,2,0,L|193:181,1,64.9999970245363,8|0,0:0|0:0,0:0:0:0:
286,261,130852,2,0,P|344:232|386:178,2,129.999994049073,4|0|0,0:0|0:0|0:0,0:0:0:0:
171,265,131534,2,0,P|113:216|105:160,1,129.999994049073,8|4,0:0|0:0,0:0:0:0:
224,43,132079,6,0,B|335:21|291:175|349:210,1,194.999991073609,4|0,0:0|0:0,0:0:0:0:
448,255,132624,6,0,L|320:267,1,89.9999972534181,8|8,0:0|0:0,0:0:0:0:
248,279,132897,1,0,0:0:0:0:
358,264,133034,1,4,0:0:0:0:
110,80,133306,6,0,L|150:156,1,64.9999970245363,8|0,0:0|0:0,0:0:0:0:
192,228,133579,1,0,0:0:0:0:
69,166,133715,2,0,P|46:237|28:303,1,129.999994049073,8|0,0:0|0:0,0:0:0:0:
31,290,134124,1,4,0:0:0:0:
156,259,134260,6,0,L|259:238,1,64.9999970245363,0|8,0:0|0:0,0:0:0:0:
316,226,134534,1,4,0:0:0:0:
216,147,134670,1,0,0:0:0:0:
203,133,134806,2,0,L|290:112,1,64.9999970245363,8|0,0:0|0:0,0:0:0:0:
377,91,135079,5,0,0:0:0:0:
402,85,135215,2,0,L|441:153,1,64.9999970245363,4|0,0:0|0:0,0:0:0:0:
489,259,135488,6,0,L|403:303,1,64.9999970245363,8|0,0:0|0:0,0:0:0:0:
325,331,135761,1,0,0:0:0:0:
206,280,135897,2,0,L|127:319,1,64.9999970245363,8|0,0:0|0:0,0:0:0:0:
75,332,136170,5,4,0:0:0:0:
29,293,136306,1,0,0:0:0:0:
43,238,136442,5,4,0:2:0:0:
256,192,136715,12,0,142988,0:0:0:0:
