osu file format v14

[General]
AudioFilename: Shoji_Meguro-Memories_of_You_Aethral_Remix_.mp3
AudioLeadIn: 0
PreviewTime: 80930
Countdown: 0
SampleSet: Normal
StackLeniency: 0.7
Mode: 1
LetterboxInBreaks: 0
WidescreenStoryboard: 0

[Editor]
Bookmarks: 161632
DistanceSpacing: 0.8
BeatDivisor: 4
GridSize: 32
TimelineZoom: 3.399999

[Metadata]
Title:Kimi no Kioku (Aethral Remix)
TitleUnicode:キミの記憶 (Aethral Remix)
Artist:Shoji Meguro
ArtistUnicode:目黒 将司
Creator:JessiChan
Version:Shadow Oni
Source:ペルソナ3
Tags:persona 3 shin megami tensei memories of you PSP SMT P3 [_m_o_m_o_] dnb drum n' bass electronic Yumi Kawamura
BeatmapID:1028464
BeatmapSetID:481942

[Difficulty]
HPDrainRate:5
CircleSize:4
OverallDifficulty:6
ApproachRate:7
SliderMultiplier:1.4
SliderTickRate:1

[Events]
//Background and Video events
0,0,"BG.jpg",0,0
//Break Periods
//Storyboard Layer 0 (Background)
//Storyboard Layer 1 (Fail)
//Storyboard Layer 2 (Pass)
//Storyboard Layer 3 (Foreground)
//Storyboard Sound Samples

[TimingPoints]
3515,352.941176470588,4,1,0,60,1,0
71456,-125,4,1,0,50,0,0
79662,-121.951219512195,4,1,0,50,0,0
79750,-119.047619047619,4,1,0,50,0,0
79926,-116.279069767442,4,1,0,50,0,0
80103,-113.636363636364,4,1,0,50,0,0
80191,-111.111111111111,4,1,0,55,0,0
80367,-108.695652173913,4,1,0,55,0,0
80456,-106.382978723404,4,1,0,55,0,0
80632,-104.166666666667,4,1,0,55,0,0
80809,-102.040816326531,4,1,0,55,0,0
80985,-100,4,1,0,60,0,0
81515,-100,4,1,0,65,0,0
81603,-98.0392156862745,4,1,0,65,0,0
81691,-96.1538461538461,4,1,0,65,0,0
81867,-94.3396226415094,4,1,0,65,0,0
81956,-92.5925925925926,4,1,0,65,0,0
82044,-90.9090909090909,4,1,0,65,0,0
82221,-89.2857142857143,4,1,0,65,0,0
82310,-87.719298245614,4,1,0,65,0,0
82398,-86.2068965517241,4,1,0,65,0,0
82573,-83.3333333333333,4,1,0,70,0,1
105162,-83.3333333333333,4,1,0,70,0,0
105338,-100,4,1,0,70,0,0
127927,-100,4,1,0,60,0,0
150515,-125,4,1,0,40,0,0
157310,-125,4,1,0,50,0,0
158014,-121.951219512195,4,1,0,50,0,0
158103,-119.047619047619,4,1,0,50,0,0
158279,-116.279069767442,4,1,0,50,0,0
158456,-113.636363636364,4,1,0,50,0,0
158544,-111.111111111111,4,1,0,50,0,0
158633,-111.111111111111,4,1,0,55,0,0
158720,-108.695652173913,4,1,0,55,0,0
158809,-106.382978723404,4,1,0,55,0,0
158985,-104.166666666667,4,1,0,55,0,0
159162,-102.040816326531,4,1,0,55,0,0
159250,-100,4,1,0,55,0,0
160044,-100,4,1,0,60,0,0
160573,-100,4,1,0,65,0,0
160750,-98.0392156862745,4,1,0,55,0,0
160926,-96.1538461538461,4,1,0,55,0,0
161014,-94.3396226415094,4,1,0,55,0,0
161103,-92.5925925925926,4,1,0,55,0,0
161279,-90.9090909090909,4,1,0,55,0,0
161367,-89.2857142857143,4,1,0,55,0,0
161456,-87.719298245614,4,1,0,55,0,0
161632,-83.3333333333333,4,1,0,70,0,1
184220,-83.3333333333333,4,1,0,70,0,0
184397,-100,4,1,0,70,0,0
206809,-100,4,1,0,50,0,0
225692,-100,4,1,0,55,0,0
226397,-100,4,1,0,55,0,0
226574,-100,4,1,0,60,0,0
227632,-99.009900990099,4,1,0,60,0,0
227720,-98.0392156862745,4,1,0,60,0,0
227809,-97.0873786407767,4,1,0,60,0,0
227986,-96.1538461538461,4,1,0,65,0,0
228074,-95.2380952380952,4,1,0,65,0,0
228163,-94.3396226415094,4,1,0,65,0,0
228251,-93.4579439252336,4,1,0,65,0,0
228339,-92.5925925925926,4,1,0,65,0,0
228427,-91.743119266055,4,1,0,65,0,0
228515,-90.9090909090909,4,1,0,65,0,0
228604,-90.0900900900901,4,1,0,65,0,0
228692,-89.2857142857143,4,1,0,65,0,0
228780,-88.4955752212389,4,1,0,65,0,0
228868,-87.719298245614,4,1,0,65,0,0
228957,-86.9565217391304,4,1,0,65,0,0
229045,-86.2068965517241,4,1,0,65,0,0
229133,-85.4700854700855,4,1,0,65,0,0
229221,-84.7457627118644,4,1,0,65,0,0
229397,-83.3333333333333,4,1,0,65,0,1
251985,-83.3333333333333,4,1,0,65,0,0
252162,-100,4,1,0,65,0,0
268927,-100,4,1,0,60,0,0
271751,-100,4,1,0,50,0,0

[HitObjects]
256,192,3515,5,0,0:0:0:0:
256,192,3779,1,8,0:0:0:0:
256,192,3867,5,8,0:0:0:0:
256,192,4044,1,0,0:0:0:0:
256,192,4220,1,0,0:0:0:0:
256,192,4309,1,0,0:0:0:0:
256,192,4397,1,0,0:0:0:0:
256,192,4573,1,8,0:0:0:0:
256,192,4926,1,0,0:0:0:0:
256,192,5103,1,0,0:0:0:0:
256,192,5191,1,0,0:0:0:0:
256,192,5279,1,8,0:0:0:0:
256,192,5456,1,0,0:0:0:0:
256,192,5632,1,8,0:0:0:0:
256,192,5720,1,8,0:0:0:0:
256,192,5809,1,0,0:0:0:0:
256,192,5985,1,8,0:0:0:0:
256,192,6338,1,0,0:0:0:0:
256,192,6426,1,0,0:0:0:0:
256,192,6603,1,8,0:0:0:0:
256,192,6691,1,8,0:0:0:0:
256,192,6867,1,0,0:0:0:0:
256,192,7044,1,0,0:0:0:0:
256,192,7132,1,0,0:0:0:0:
256,192,7220,1,0,0:0:0:0:
256,192,7397,1,8,0:0:0:0:
256,192,7750,1,0,0:0:0:0:
256,192,7926,1,0,0:0:0:0:
256,192,8014,1,0,0:0:0:0:
256,192,8103,1,8,0:0:0:0:
256,192,8279,1,0,0:0:0:0:
256,192,8456,1,8,0:0:0:0:
256,192,8544,1,8,0:0:0:0:
256,192,8632,1,0,0:0:0:0:
256,192,8809,1,8,0:0:0:0:
256,192,9162,1,12,0:0:0:0:
256,192,9426,1,8,0:0:0:0:
256,192,9514,1,8,0:0:0:0:
256,192,9691,1,0,0:0:0:0:
256,192,9867,1,0,0:0:0:0:
256,192,9956,1,0,0:0:0:0:
256,192,10044,1,0,0:0:0:0:
256,192,10220,1,8,0:0:0:0:
256,192,10573,1,0,0:0:0:0:
256,192,10750,1,0,0:0:0:0:
256,192,10838,1,0,0:0:0:0:
256,192,10926,1,8,0:0:0:0:
256,192,11103,1,0,0:0:0:0:
256,192,11279,1,8,0:0:0:0:
256,192,11367,1,8,0:0:0:0:
256,192,11456,1,0,0:0:0:0:
256,192,11632,1,8,0:0:0:0:
256,192,11985,1,12,0:0:0:0:
256,192,12250,1,8,0:0:0:0:
256,192,12338,1,8,0:0:0:0:
256,192,12514,1,0,0:0:0:0:
256,192,12691,1,12,0:0:0:0:
256,192,12867,1,0,0:0:0:0:
256,192,12956,1,0,0:0:0:0:
256,192,13044,1,8,0:0:0:0:
256,192,13220,1,0,0:0:0:0:
256,192,13397,1,12,0:0:0:0:
256,192,13573,1,0,0:0:0:0:
256,192,13750,1,12,0:0:0:0:
256,192,13926,1,0,0:0:0:0:
256,192,14103,1,12,0:0:0:0:
256,192,14279,1,0,0:0:0:0:
256,192,14456,1,12,0:0:0:0:
256,192,14809,1,0,0:0:0:0:
256,192,14897,1,0,0:0:0:0:
256,192,15073,1,8,0:0:0:0:
256,192,15162,1,8,0:0:0:0:
256,192,15338,1,0,0:0:0:0:
256,192,15514,1,0,0:0:0:0:
256,192,15603,1,0,0:0:0:0:
256,192,15691,1,0,0:0:0:0:
256,192,15867,1,8,0:0:0:0:
256,192,16220,1,0,0:0:0:0:
256,192,16397,1,0,0:0:0:0:
256,192,16485,1,0,0:0:0:0:
256,192,16573,1,8,0:0:0:0:
256,192,16662,1,8,0:0:0:0:
256,192,16750,1,0,0:0:0:0:
256,192,16926,1,8,0:0:0:0:
256,192,17014,1,8,0:0:0:0:
256,192,17103,1,0,0:0:0:0:
256,192,17279,1,8,0:0:0:0:
256,192,17632,1,0,0:0:0:0:
256,192,17720,1,0,0:0:0:0:
256,192,17897,1,8,0:0:0:0:
256,192,17985,1,8,0:0:0:0:
256,192,18162,1,0,0:0:0:0:
256,192,18338,1,0,0:0:0:0:
256,192,18426,1,0,0:0:0:0:
256,192,18514,1,0,0:0:0:0:
256,192,18691,1,8,0:0:0:0:
256,192,19044,1,0,0:0:0:0:
256,192,19220,1,0,0:0:0:0:
256,192,19309,1,0,0:0:0:0:
256,192,19397,1,8,0:0:0:0:
256,192,19573,1,0,0:0:0:0:
256,192,19750,1,0,0:0:0:0:
256,192,19838,1,8,0:0:0:0:
256,192,19926,1,0,0:0:0:0:
256,192,20103,1,8,0:0:0:0:
256,192,20456,1,12,0:0:0:0:
256,192,20720,1,8,0:0:0:0:
256,192,20809,1,8,0:0:0:0:
256,192,20985,1,0,0:0:0:0:
256,192,21162,1,0,0:0:0:0:
256,192,21250,1,0,0:0:0:0:
256,192,21338,1,0,0:0:0:0:
256,192,21514,1,8,0:0:0:0:
256,192,21867,1,0,0:0:0:0:
256,192,22044,1,0,0:0:0:0:
256,192,22132,1,0,0:0:0:0:
256,192,22220,1,8,0:0:0:0:
256,192,22309,1,8,0:0:0:0:
256,192,22397,1,0,0:0:0:0:
256,192,22573,1,8,0:0:0:0:
256,192,22662,1,8,0:0:0:0:
256,192,22750,1,0,0:0:0:0:
256,192,22926,1,8,0:0:0:0:
256,192,23279,1,12,0:0:0:0:
256,192,23544,1,8,0:0:0:0:
256,192,23632,1,8,0:0:0:0:
256,192,23809,1,0,0:0:0:0:
256,192,23985,1,12,0:0:0:0:
256,192,24162,1,0,0:0:0:0:
256,192,24250,1,0,0:0:0:0:
256,192,24338,1,8,0:0:0:0:
256,192,24691,1,8,0:0:0:0:
256,192,24779,1,8,0:0:0:0:
256,192,24867,1,8,0:0:0:0:
256,192,25044,1,0,0:0:0:0:
256,192,25132,1,0,0:0:0:0:
256,192,25220,1,0,0:0:0:0:
256,192,25397,1,8,0:0:0:0:
256,192,25485,1,8,0:0:0:0:
256,192,25573,1,8,0:0:0:0:
256,192,25750,1,0,0:0:0:0:
256,192,25838,1,0,0:0:0:0:
256,192,25926,1,0,0:0:0:0:
256,192,26014,1,0,0:0:0:0:
256,192,26103,1,8,0:0:0:0:
256,192,26367,1,0,0:0:0:0:
256,192,26456,1,8,0:0:0:0:
256,192,26632,1,0,0:0:0:0:
256,192,26809,1,0,0:0:0:0:
256,192,26897,1,0,0:0:0:0:
256,192,26985,1,0,0:0:0:0:
256,192,27162,1,8,0:0:0:0:
256,192,27338,1,0,0:0:0:0:
256,192,27514,1,0,0:0:0:0:
256,192,27691,1,0,0:0:0:0:
256,192,27867,1,8,0:0:0:0:
256,192,28044,1,0,0:0:0:0:
256,192,28220,1,0,0:0:0:0:
256,192,28309,1,8,0:0:0:0:
256,192,28397,1,0,0:0:0:0:
256,192,28573,1,8,0:0:0:0:
256,192,28750,1,0,0:0:0:0:
256,192,28926,1,0,0:0:0:0:
256,192,29014,1,0,0:0:0:0:
256,192,29191,1,8,0:0:0:0:
256,192,29279,1,8,0:0:0:0:
256,192,29456,1,0,0:0:0:0:
256,192,29632,1,0,0:0:0:0:
256,192,29720,1,0,0:0:0:0:
256,192,29809,1,0,0:0:0:0:
256,192,29985,1,8,0:0:0:0:
256,192,30162,1,0,0:0:0:0:
256,192,30250,1,0,0:0:0:0:
256,192,30338,1,8,0:0:0:0:
256,192,30514,1,0,0:0:0:0:
256,192,30691,1,8,0:0:0:0:
256,192,30867,1,0,0:0:0:0:
256,192,31044,1,0,0:0:0:0:
256,192,31132,1,0,0:0:0:0:
256,192,31220,1,0,0:0:0:0:
256,192,31397,1,8,0:0:0:0:
256,192,31573,1,0,0:0:0:0:
256,192,31750,1,0,0:0:0:0:
256,192,31838,1,0,0:0:0:0:
256,192,32014,1,8,0:0:0:0:
256,192,32103,1,8,0:0:0:0:
256,192,32279,1,0,0:0:0:0:
256,192,32456,1,0,0:0:0:0:
256,192,32544,1,0,0:0:0:0:
256,192,32632,1,0,0:0:0:0:
256,192,32809,1,8,0:0:0:0:
256,192,32985,1,0,0:0:0:0:
256,192,33162,1,0,0:0:0:0:
256,192,33338,1,0,0:0:0:0:
256,192,33514,1,8,0:0:0:0:
256,192,33691,1,0,0:0:0:0:
256,192,33867,1,0,0:0:0:0:
256,192,33956,1,8,0:0:0:0:
256,192,34044,1,0,0:0:0:0:
256,192,34220,1,8,0:0:0:0:
256,192,34397,1,0,0:0:0:0:
256,192,34573,1,12,0:0:0:0:
256,192,34838,1,8,0:0:0:0:
256,192,34926,1,8,0:0:0:0:
256,192,35103,1,0,0:0:0:0:
256,192,35279,1,12,0:0:0:0:
256,192,35456,1,0,0:0:0:0:
256,192,35632,1,8,0:0:0:0:
256,192,35809,1,0,0:0:0:0:
256,192,35985,1,12,0:0:0:0:
256,192,36338,1,12,0:0:0:0:
256,192,36691,1,4,0:0:0:0:
256,192,37044,1,12,0:0:0:0:
256,192,37397,1,0,0:0:0:0:
256,192,37485,1,0,0:0:0:0:
256,192,37662,1,0,0:0:0:0:
256,192,37750,1,8,0:0:0:0:
256,192,37926,1,0,0:0:0:0:
256,192,38103,1,8,0:0:0:0:
256,192,38191,1,0,0:0:0:0:
256,192,38279,1,0,0:0:0:0:
256,192,38456,1,8,0:0:0:0:
256,192,38632,1,0,0:0:0:0:
256,192,38809,1,0,0:0:0:0:
256,192,38985,1,0,0:0:0:0:
256,192,39073,1,0,0:0:0:0:
256,192,39162,1,8,0:0:0:0:
256,192,39338,1,0,0:0:0:0:
256,192,39514,1,0,0:0:0:0:
256,192,39603,1,8,0:0:0:0:
256,192,39691,1,0,0:0:0:0:
256,192,39867,1,8,0:0:0:0:
256,192,40044,1,0,0:0:0:0:
256,192,40220,1,0,0:0:0:0:
256,192,40309,1,0,0:0:0:0:
256,192,40485,1,0,0:0:0:0:
256,192,40573,1,8,0:0:0:0:
256,192,40750,1,0,0:0:0:0:
256,192,40926,1,8,0:0:0:0:
256,192,41014,1,0,0:0:0:0:
256,192,41103,1,0,0:0:0:0:
256,192,41279,1,8,0:0:0:0:
256,192,41456,1,0,0:0:0:0:
256,192,41544,1,0,0:0:0:0:
256,192,41632,1,8,0:0:0:0:
256,192,41809,1,0,0:0:0:0:
256,192,41985,1,8,0:0:0:0:
256,192,42162,1,0,0:0:0:0:
256,192,42338,1,0,0:0:0:0:
256,192,42426,1,0,0:0:0:0:
256,192,42514,1,0,0:0:0:0:
256,192,42691,1,8,0:0:0:0:
256,192,42867,1,0,0:0:0:0:
256,192,43044,1,0,0:0:0:0:
256,192,43132,1,0,0:0:0:0:
256,192,43309,1,8,0:0:0:0:
256,192,43397,1,8,0:0:0:0:
256,192,43573,1,0,0:0:0:0:
256,192,43750,1,0,0:0:0:0:
256,192,43838,1,8,0:0:0:0:
256,192,43926,1,0,0:0:0:0:
256,192,44103,1,8,0:0:0:0:
256,192,44279,1,0,0:0:0:0:
256,192,44456,1,0,0:0:0:0:
256,192,44544,1,0,0:0:0:0:
256,192,44632,1,0,0:0:0:0:
256,192,44809,1,8,0:0:0:0:
256,192,44985,1,0,0:0:0:0:
256,192,45162,1,0,0:0:0:0:
256,192,45250,1,0,0:0:0:0:
256,192,45338,1,8,0:0:0:0:
256,192,45514,1,8,0:0:0:0:
256,192,45691,1,0,0:0:0:0:
256,192,45867,1,12,0:0:0:0:
256,192,46132,1,8,0:0:0:0:
256,192,46220,1,8,0:0:0:0:
256,192,46397,1,0,0:0:0:0:
256,192,46573,1,12,0:0:0:0:
256,192,46750,1,0,0:0:0:0:
256,192,46926,1,8,0:0:0:0:
256,192,47279,1,8,0:0:0:0:
256,192,47367,1,8,0:0:0:0:
256,192,47456,1,8,0:0:0:0:
256,192,47632,1,0,0:0:0:0:
256,192,47720,1,0,0:0:0:0:
256,192,47809,1,0,0:0:0:0:
256,192,47985,1,8,0:0:0:0:
256,192,48073,1,0,0:0:0:0:
256,192,48162,1,8,0:0:0:0:
256,192,48338,1,8,0:0:0:0:
256,192,48426,1,8,0:0:0:0:
256,192,48514,1,8,0:0:0:0:
256,192,48691,1,4,0:0:0:0:
256,192,48867,1,0,0:0:0:0:
256,192,49044,1,8,0:0:0:0:
256,192,49220,1,0,0:0:0:0:
256,192,49309,1,0,0:0:0:0:
256,192,49397,1,0,0:0:0:0:
256,192,49573,1,0,0:0:0:0:
256,192,49750,1,8,0:0:0:0:
256,192,49926,1,0,0:0:0:0:
256,192,50014,1,8,0:0:0:0:
256,192,50103,1,0,0:0:0:0:
256,192,50191,1,0,0:0:0:0:
256,192,50279,1,0,0:0:0:0:
256,192,50456,1,8,0:0:0:0:
256,192,50632,1,0,0:0:0:0:
256,192,50720,1,0,0:0:0:0:
256,192,50809,1,0,0:0:0:0:
256,192,50985,1,0,0:0:0:0:
256,192,51162,1,8,0:0:0:0:
256,192,51338,1,8,0:0:0:0:
256,192,51426,1,0,0:0:0:0:
256,192,51514,1,0,0:0:0:0:
256,192,51691,1,0,0:0:0:0:
256,192,51867,1,8,0:0:0:0:
256,192,52044,1,0,0:0:0:0:
256,192,52132,1,0,0:0:0:0:
256,192,52220,1,0,0:0:0:0:
256,192,52397,1,0,0:0:0:0:
256,192,52573,1,8,0:0:0:0:
256,192,52750,1,0,0:0:0:0:
256,192,52838,1,8,0:0:0:0:
256,192,52926,1,0,0:0:0:0:
256,192,53014,1,0,0:0:0:0:
256,192,53103,1,0,0:0:0:0:
256,192,53279,1,8,0:0:0:0:
256,192,53456,1,0,0:0:0:0:
256,192,53632,1,8,0:0:0:0:
256,192,53720,1,0,0:0:0:0:
256,192,53897,1,0,0:0:0:0:
256,192,53985,1,8,0:0:0:0:
256,192,54162,1,0,0:0:0:0:
256,192,54338,1,12,0:0:0:0:
256,192,54514,1,0,0:0:0:0:
256,192,54603,1,0,0:0:0:0:
256,192,54691,1,8,0:0:0:0:
256,192,54779,1,8,0:0:0:0:
256,192,54867,1,0,0:0:0:0:
256,192,54956,1,8,0:0:0:0:
256,192,55044,1,0,0:0:0:0:
256,192,55220,1,0,0:0:0:0:
256,192,55397,1,8,0:0:0:0:
256,192,55485,1,0,0:0:0:0:
256,192,55573,1,8,0:0:0:0:
256,192,55750,1,4,0:0:0:0:
256,192,55926,1,8,0:0:0:0:
256,192,56103,1,8,0:0:0:0:
256,192,56191,1,0,0:0:0:0:
256,192,56279,1,8,0:0:0:0:
256,192,56456,1,0,0:0:0:0:
256,192,56632,1,8,0:0:0:0:
256,192,56720,1,0,0:0:0:0:
256,192,56809,1,0,0:0:0:0:
256,192,56897,1,0,0:0:0:0:
256,192,56985,1,8,0:0:0:0:
256,192,57162,1,12,0:0:0:0:
256,192,57338,1,8,0:0:0:0:
256,192,57426,1,0,0:0:0:0:
256,192,57514,1,0,0:0:0:0:
256,192,57691,1,8,0:0:0:0:
256,192,57867,1,12,0:0:0:0:
256,192,58044,1,0,0:0:0:0:
256,192,58132,1,0,0:0:0:0:
256,192,58220,1,8,0:0:0:0:
256,192,58397,1,0,0:0:0:0:
256,192,58573,1,8,0:0:0:0:
256,192,58662,1,0,0:0:0:0:
256,192,58750,1,0,0:0:0:0:
256,192,58838,1,8,0:0:0:0:
256,192,58926,1,8,0:0:0:0:
256,192,59103,1,0,0:0:0:0:
256,192,59279,1,8,0:0:0:0:
256,192,59632,1,8,0:0:0:0:
256,192,59720,1,0,0:0:0:0:
256,192,59809,1,8,0:0:0:0:
256,192,59985,1,12,0:0:0:0:
256,192,60162,1,0,0:0:0:0:
256,192,60250,1,0,0:0:0:0:
256,192,60338,1,8,0:0:0:0:
256,192,60514,1,0,0:0:0:0:
256,192,60691,1,0,0:0:0:0:
256,192,60867,1,0,0:0:0:0:
256,192,60956,1,0,0:0:0:0:
256,192,61044,1,8,0:0:0:0:
256,192,61220,1,8,0:0:0:0:
256,192,61397,1,0,0:0:0:0:
256,192,61573,1,8,0:0:0:0:
256,192,61662,1,0,0:0:0:0:
256,192,61750,1,8,0:0:0:0:
256,192,61838,1,0,0:0:0:0:
256,192,61926,1,0,0:0:0:0:
256,192,62014,1,8,0:0:0:0:
256,192,62103,1,0,0:0:0:0:
256,192,62279,1,0,0:0:0:0:
256,192,62456,1,8,0:0:0:0:
256,192,62632,1,0,0:0:0:0:
256,192,62720,1,8,0:0:0:0:
256,192,62985,1,8,0:0:0:0:
256,192,63162,1,0,0:0:0:0:
256,192,63338,1,8,0:0:0:0:
256,192,63426,1,0,0:0:0:0:
256,192,63514,1,8,0:0:0:0:
256,192,63603,1,8,0:0:0:0:
256,192,63691,1,0,0:0:0:0:
256,192,63867,1,8,0:0:0:0:
256,192,64044,1,0,0:0:0:0:
256,192,64132,1,8,0:0:0:0:
256,192,64220,1,8,0:0:0:0:
256,192,64309,1,0,0:0:0:0:
256,192,64397,1,8,0:0:0:0:
256,192,64573,1,8,0:0:0:0:
256,192,64662,1,8,0:0:0:0:
256,192,64926,1,8,0:0:0:0:
256,192,65014,1,0,0:0:0:0:
256,192,65103,1,0,0:0:0:0:
256,192,65192,1,8,0:0:0:0:
256,192,65367,1,8,0:0:0:0:
256,192,65456,1,0,0:0:0:0:
256,192,65632,1,12,0:0:0:0:
256,192,65809,1,0,0:0:0:0:
256,192,65897,1,0,0:0:0:0:
256,192,65985,1,8,0:0:0:0:
256,192,66162,1,0,0:0:0:0:
256,192,66250,1,8,0:0:0:0:
256,192,66338,1,0,0:0:0:0:
256,192,66514,1,0,0:0:0:0:
256,192,66603,1,0,0:0:0:0:
256,192,66691,1,8,0:0:0:0:
256,192,66779,1,0,0:0:0:0:
256,192,66867,1,8,0:0:0:0:
256,192,67044,1,12,0:0:0:0:
256,192,67220,1,0,0:0:0:0:
256,192,67309,1,0,0:0:0:0:
256,192,67397,1,8,0:0:0:0:
256,192,67573,1,8,0:0:0:0:
256,192,67750,1,0,0:0:0:0:
256,192,67926,1,8,0:0:0:0:
256,192,68014,1,8,0:0:0:0:
256,192,68103,1,0,0:0:0:0:
256,192,68279,1,8,0:0:0:0:
256,192,68456,1,12,0:0:0:0:
256,192,68632,1,0,0:0:0:0:
256,192,68809,1,8,0:0:0:0:
256,192,68897,1,8,0:0:0:0:
256,192,68985,1,0,0:0:0:0:
256,192,69162,1,12,0:0:0:0:
256,192,69338,1,0,0:0:0:0:
256,192,69514,1,8,0:0:0:0:
256,192,69691,1,0,0:0:0:0:
256,192,69867,1,8,0:0:0:0:
256,192,69956,1,8,0:0:0:0:
256,192,70044,1,8,0:0:0:0:
256,192,70220,1,0,0:0:0:0:
256,192,70309,1,0,0:0:0:0:
256,192,70397,1,0,0:0:0:0:
256,192,70573,1,8,0:0:0:0:
256,192,70662,1,0,0:0:0:0:
256,192,70750,1,8,0:0:0:0:
256,192,70926,1,0,0:0:0:0:
256,192,71014,1,0,0:0:0:0:
256,192,71103,1,0,0:0:0:0:
256,192,71191,1,0,0:0:0:0:
256,192,71279,1,8,0:0:0:0:
256,192,71632,1,8,0:0:0:0:
256,192,71897,1,8,0:0:0:0:
256,192,71985,1,0,0:0:0:0:
256,192,72162,1,0,0:0:0:0:
256,192,72338,1,8,0:0:0:0:
256,192,72603,1,0,0:0:0:0:
256,192,72691,1,0,0:0:0:0:
256,192,73044,1,8,0:0:0:0:
256,192,73309,1,8,0:0:0:0:
256,192,73397,1,0,0:0:0:0:
256,192,73573,1,0,0:0:0:0:
256,192,73750,1,8,0:0:0:0:
256,192,73926,1,0,0:0:0:0:
256,192,74014,1,8,0:0:0:0:
256,192,74103,1,0,0:0:0:0:
256,192,74456,1,8,0:0:0:0:
256,192,74720,1,8,0:0:0:0:
256,192,74809,1,0,0:0:0:0:
256,192,74985,1,0,0:0:0:0:
256,192,75162,1,8,0:0:0:0:
256,192,75426,1,0,0:0:0:0:
256,192,75514,1,0,0:0:0:0:
256,192,75867,1,8,0:0:0:0:
256,192,76132,1,8,0:0:0:0:
256,192,76220,1,0,0:0:0:0:
256,192,76309,1,0,0:0:0:0:
256,192,76397,1,8,0:0:0:0:
256,192,76573,1,8,0:0:0:0:
256,192,76750,1,0,0:0:0:0:
256,192,76838,1,8,0:0:0:0:
256,192,76926,1,0,0:0:0:0:
256,192,77279,1,8,0:0:0:0:
256,192,77544,1,8,0:0:0:0:
256,192,77632,1,0,0:0:0:0:
256,192,77809,1,0,0:0:0:0:
256,192,77985,1,8,0:0:0:0:
256,192,78250,1,8,0:0:0:0:
256,192,78338,1,0,0:0:0:0:
256,192,78691,1,8,0:0:0:0:
256,192,78956,1,8,0:0:0:0:
256,192,79044,1,0,0:0:0:0:
256,192,79220,1,0,0:0:0:0:
256,192,79397,1,8,0:0:0:0:
256,192,79573,1,0,0:0:0:0:
256,192,79662,1,0,0:0:0:0:
256,192,79750,1,0,0:0:0:0:
256,192,79926,1,0,0:0:0:0:
256,192,80103,1,8,0:0:0:0:
256,192,80279,1,0,0:0:0:0:
256,192,80367,1,0,0:0:0:0:
256,192,80456,1,0,0:0:0:0:
256,192,80632,1,0,0:0:0:0:
256,192,80809,1,8,0:0:0:0:
256,192,80985,1,0,0:0:0:0:
256,192,81073,1,0,0:0:0:0:
256,192,81162,1,8,0:0:0:0:
256,192,81250,1,8,0:0:0:0:
256,192,81338,1,8,0:0:0:0:
256,192,81514,1,0,0:0:0:0:
256,192,81603,1,0,0:0:0:0:
256,192,81691,1,0,0:0:0:0:
256,192,81867,1,8,0:0:0:0:
256,192,81956,1,0,0:0:0:0:
256,192,82044,1,8,0:0:0:0:
256,192,82220,1,8,0:0:0:0:
256,192,82309,1,8,0:0:0:0:
256,192,82397,1,8,0:0:0:0:
256,192,82573,1,4,0:0:0:0:
256,192,82838,1,0,0:0:0:0:
256,192,82926,1,8,0:0:0:0:
256,192,83103,1,8,0:0:0:0:
256,192,83191,1,8,0:0:0:0:
256,192,83279,1,0,0:0:0:0:
256,192,83367,1,0,0:0:0:0:
256,192,83456,1,8,0:0:0:0:
256,192,83632,1,8,0:0:0:0:
256,192,83720,1,0,0:0:0:0:
256,192,83897,1,8,0:0:0:0:
256,192,83985,1,8,0:0:0:0:
256,192,84162,1,0,0:0:0:0:
256,192,84250,1,8,0:0:0:0:
256,192,84338,1,0,0:0:0:0:
256,192,84426,1,0,0:0:0:0:
256,192,84514,1,8,0:0:0:0:
256,192,84691,1,8,0:0:0:0:
256,192,84779,1,0,0:0:0:0:
256,192,84867,1,0,0:0:0:0:
256,192,84956,1,8,0:0:0:0:
256,192,85044,1,8,0:0:0:0:
256,192,85132,1,0,0:0:0:0:
256,192,85220,1,8,0:0:0:0:
256,192,85397,1,0,0:0:0:0:
256,192,85485,1,8,0:0:0:0:
256,192,85662,1,8,0:0:0:0:
256,192,85750,1,8,0:0:0:0:
256,192,85926,1,0,0:0:0:0:
256,192,86014,1,8,0:0:0:0:
256,192,86103,1,8,0:0:0:0:
256,192,86191,1,0,0:0:0:0:
256,192,86279,1,8,0:0:0:0:
256,192,86456,1,8,0:0:0:0:
256,192,86544,1,0,0:0:0:0:
256,192,86720,1,8,0:0:0:0:
256,192,86809,1,8,0:0:0:0:
256,192,86985,1,8,0:0:0:0:
256,192,87073,1,8,0:0:0:0:
256,192,87162,1,0,0:0:0:0:
256,192,87250,1,8,0:0:0:0:
256,192,87338,1,8,0:0:0:0:
256,192,87514,1,8,0:0:0:0:
256,192,87603,1,0,0:0:0:0:
256,192,87691,1,0,0:0:0:0:
256,192,87779,1,8,0:0:0:0:
256,192,87867,1,8,0:0:0:0:
256,192,87956,1,0,0:0:0:0:
256,192,88044,1,8,0:0:0:0:
256,192,88220,1,4,0:0:0:0:
256,192,88397,1,0,0:0:0:0:
256,192,88485,1,0,0:0:0:0:
256,192,88573,1,8,0:0:0:0:
256,192,88750,1,0,0:0:0:0:
256,192,88926,1,0,0:0:0:0:
256,192,89014,1,8,0:0:0:0:
256,192,89103,1,0,0:0:0:0:
256,192,89191,1,0,0:0:0:0:
256,192,89279,1,8,0:0:0:0:
256,192,89456,1,8,0:0:0:0:
256,192,89544,1,8,0:0:0:0:
256,192,89632,1,0,0:0:0:0:
256,192,89809,1,0,0:0:0:0:
256,192,89985,1,8,0:0:0:0:
256,192,90162,1,0,0:0:0:0:
256,192,90250,1,0,0:0:0:0:
256,192,90338,1,0,0:0:0:0:
256,192,90514,1,0,0:0:0:0:
256,192,90691,1,8,0:0:0:0:
256,192,90779,1,8,0:0:0:0:
256,192,90867,1,0,0:0:0:0:
256,192,90956,1,0,0:0:0:0:
256,192,91044,1,8,0:0:0:0:
256,192,91220,1,0,0:0:0:0:
256,192,91309,1,0,0:0:0:0:
256,192,91397,1,0,0:0:0:0:
256,192,91573,1,8,0:0:0:0:
256,192,91750,1,0,0:0:0:0:
256,192,91838,1,0,0:0:0:0:
256,192,91926,1,0,0:0:0:0:
256,192,92103,1,8,0:0:0:0:
256,192,92279,5,0,0:0:0:0:
256,192,92456,1,8,0:0:0:0:
256,192,92544,1,8,0:0:0:0:
256,192,92632,1,8,0:0:0:0:
256,192,92809,1,0,0:0:0:0:
256,192,92897,1,0,0:0:0:0:
256,192,92985,1,0,0:0:0:0:
256,192,93162,1,8,0:0:0:0:
256,192,93250,1,0,0:0:0:0:
256,192,93338,1,8,0:0:0:0:
256,192,93514,1,8,0:0:0:0:
256,192,93603,1,8,0:0:0:0:
256,192,93691,1,8,0:0:0:0:
256,192,93867,1,4,0:0:0:0:
256,192,94132,1,0,0:0:0:0:
256,192,94220,1,8,0:0:0:0:
256,192,94397,1,0,0:0:0:0:
256,192,94485,1,8,0:0:0:0:
256,192,94573,1,8,0:0:0:0:
256,192,94662,1,0,0:0:0:0:
256,192,94750,1,8,0:0:0:0:
256,192,94926,1,8,0:0:0:0:
256,192,95014,1,0,0:0:0:0:
256,192,95191,1,8,0:0:0:0:
256,192,95279,1,8,0:0:0:0:
256,192,95456,1,8,0:0:0:0:
256,192,95544,1,0,0:0:0:0:
256,192,95632,1,0,0:0:0:0:
256,192,95720,1,8,0:0:0:0:
256,192,95809,1,8,0:0:0:0:
256,192,95985,1,8,0:0:0:0:
256,192,96073,1,0,0:0:0:0:
256,192,96162,1,0,0:0:0:0:
256,192,96250,1,8,0:0:0:0:
256,192,96338,1,8,0:0:0:0:
256,192,96426,1,0,0:0:0:0:
256,192,96514,1,8,0:0:0:0:
256,192,96691,1,8,0:0:0:0:
256,192,96779,1,0,0:0:0:0:
256,192,96867,1,0,0:0:0:0:
256,192,96956,1,0,0:0:0:0:
256,192,97044,1,8,0:0:0:0:
256,192,97220,1,8,0:0:0:0:
256,192,97309,1,8,0:0:0:0:
256,192,97397,1,0,0:0:0:0:
256,192,97485,1,0,0:0:0:0:
256,192,97573,1,8,0:0:0:0:
256,192,97750,1,8,0:0:0:0:
256,192,97838,1,8,0:0:0:0:
256,192,97926,1,0,0:0:0:0:
256,192,98014,1,8,0:0:0:0:
256,192,98103,1,8,0:0:0:0:
256,192,98279,1,0,0:0:0:0:
256,192,98367,1,8,0:0:0:0:
256,192,98456,1,0,0:0:0:0:
256,192,98544,1,8,0:0:0:0:
256,192,98632,1,8,0:0:0:0:
256,192,98809,1,8,0:0:0:0:
256,192,98897,1,8,0:0:0:0:
256,192,98985,1,0,0:0:0:0:
256,192,99073,1,8,0:0:0:0:
256,192,99162,1,8,0:0:0:0:
256,192,99250,1,0,0:0:0:0:
256,192,99338,1,8,0:0:0:0:
256,192,99514,1,4,0:0:0:0:
256,192,99691,1,0,0:0:0:0:
256,192,99779,1,0,0:0:0:0:
256,192,99867,1,8,0:0:0:0:
256,192,100044,1,0,0:0:0:0:
256,192,100220,1,0,0:0:0:0:
256,192,100397,1,8,0:0:0:0:
256,192,100485,1,8,0:0:0:0:
256,192,100573,1,0,0:0:0:0:
256,192,100662,1,8,0:0:0:0:
256,192,100750,1,0,0:0:0:0:
256,192,100838,1,8,0:0:0:0:
256,192,100926,1,8,0:0:0:0:
256,192,101103,1,0,0:0:0:0:
256,192,101191,1,0,0:0:0:0:
256,192,101279,1,8,0:0:0:0:
256,192,101456,1,0,0:0:0:0:
256,192,101632,1,0,0:0:0:0:
256,192,101809,1,0,0:0:0:0:
256,192,101897,1,0,0:0:0:0:
256,192,101985,1,8,0:0:0:0:
256,192,102162,1,8,0:0:0:0:
256,192,102338,1,8,0:0:0:0:
256,192,102426,1,0,0:0:0:0:
256,192,102514,1,0,0:0:0:0:
256,192,102603,1,8,0:0:0:0:
256,192,102691,1,8,0:0:0:0:
256,192,102779,1,0,0:0:0:0:
256,192,102867,1,8,0:0:0:0:
256,192,102956,1,0,0:0:0:0:
256,192,103044,1,0,0:0:0:0:
256,192,103132,1,8,0:0:0:0:
256,192,103220,1,0,0:0:0:0:
256,192,103309,1,0,0:0:0:0:
256,192,103397,1,8,0:0:0:0:
256,192,103485,1,8,0:0:0:0:
256,192,103573,1,0,0:0:0:0:
256,192,103662,1,0,0:0:0:0:
256,192,103750,1,8,0:0:0:0:
256,192,103838,1,8,0:0:0:0:
256,192,103926,1,0,0:0:0:0:
256,192,104014,1,0,0:0:0:0:
256,192,104103,1,8,0:0:0:0:
256,192,104191,1,8,0:0:0:0:
256,192,104279,1,8,0:0:0:0:
256,192,104367,1,8,0:0:0:0:
256,192,104456,1,0,0:0:0:0:
256,192,104544,1,0,0:0:0:0:
256,192,104632,1,8,0:0:0:0:
256,192,104720,1,8,0:0:0:0:
256,192,104809,1,8,0:0:0:0:
256,192,104897,1,0,0:0:0:0:
256,192,104985,1,8,0:0:0:0:
256,192,105162,1,4,0:0:0:0:
256,192,105426,1,8,0:0:0:0:
256,192,105514,1,8,0:0:0:0:
256,192,105691,1,8,0:0:0:0:
256,192,105779,1,0,0:0:0:0:
256,192,105867,1,0,0:0:0:0:
256,192,105956,1,8,0:0:0:0:
256,192,106132,1,0,0:0:0:0:
256,192,106220,1,8,0:0:0:0:
256,192,106397,1,0,0:0:0:0:
256,192,106573,1,8,0:0:0:0:
256,192,106750,1,0,0:0:0:0:
256,192,106838,1,0,0:0:0:0:
256,192,106926,1,8,0:0:0:0:
256,192,107103,1,0,0:0:0:0:
256,192,107191,1,8,0:0:0:0:
256,192,107279,1,0,0:0:0:0:
256,192,107367,1,0,0:0:0:0:
256,192,107456,1,8,0:0:0:0:
256,192,107632,1,0,0:0:0:0:
256,192,107809,1,8,0:0:0:0:
256,192,107897,1,0,0:0:0:0:
256,192,107985,1,8,0:0:0:0:
256,192,108162,1,0,0:0:0:0:
256,192,108250,1,8,0:0:0:0:
256,192,108426,1,0,0:0:0:0:
256,192,108514,1,8,0:0:0:0:
256,192,108691,1,0,0:0:0:0:
256,192,108779,1,8,0:0:0:0:
256,192,108867,1,0,0:0:0:0:
256,192,108956,1,0,0:0:0:0:
256,192,109044,1,8,0:0:0:0:
256,192,109220,1,0,0:0:0:0:
256,192,109397,1,8,0:0:0:0:
256,192,109485,1,8,0:0:0:0:
256,192,109573,1,0,0:0:0:0:
256,192,109750,1,8,0:0:0:0:
256,192,109838,1,8,0:0:0:0:
256,192,109926,1,0,0:0:0:0:
256,192,110014,1,8,0:0:0:0:
256,192,110279,1,8,0:0:0:0:
256,192,110456,1,0,0:0:0:0:
256,192,110544,1,0,0:0:0:0:
256,192,110632,1,8,0:0:0:0:
256,192,110809,1,8,0:0:0:0:
256,192,110897,1,8,0:0:0:0:
256,192,111073,1,8,0:0:0:0:
256,192,111162,1,0,0:0:0:0:
256,192,111338,1,8,0:0:0:0:
256,192,111426,1,0,0:0:0:0:
256,192,111514,1,0,0:0:0:0:
256,192,111603,1,8,0:0:0:0:
256,192,111691,1,0,0:0:0:0:
256,192,111867,1,8,0:0:0:0:
256,192,112044,1,0,0:0:0:0:
256,192,112220,1,8,0:0:0:0:
256,192,112397,1,0,0:0:0:0:
256,192,112485,1,0,0:0:0:0:
256,192,112573,1,8,0:0:0:0:
256,192,112750,1,0,0:0:0:0:
256,192,112838,1,8,0:0:0:0:
256,192,112926,1,8,0:0:0:0:
256,192,113014,1,0,0:0:0:0:
256,192,113103,1,8,0:0:0:0:
256,192,113279,1,0,0:0:0:0:
256,192,113456,1,8,0:0:0:0:
256,192,113632,1,8,0:0:0:0:
256,192,113720,1,0,0:0:0:0:
256,192,113897,1,8,0:0:0:0:
256,192,113985,1,8,0:0:0:0:
256,192,114162,1,0,0:0:0:0:
256,192,114250,1,8,0:0:0:0:
256,192,114338,1,0,0:0:0:0:
256,192,114426,1,0,0:0:0:0:
256,192,114514,1,8,0:0:0:0:
256,192,114691,1,8,0:0:0:0:
256,192,114867,1,0,0:0:0:0:
256,192,115044,1,8,0:0:0:0:
256,192,115220,1,0,0:0:0:0:
256,192,115309,1,0,0:0:0:0:
256,192,115397,1,8,0:0:0:0:
256,192,115485,1,0,0:0:0:0:
256,192,115662,1,8,0:0:0:0:
256,192,115750,1,0,0:0:0:0:
256,192,115838,1,0,0:0:0:0:
256,192,115926,1,8,0:0:0:0:
256,192,116103,1,0,0:0:0:0:
256,192,116279,1,8,0:0:0:0:
256,192,116456,1,4,0:0:0:0:
256,192,116632,1,0,0:0:0:0:
256,192,116720,1,8,0:0:0:0:
256,192,116897,1,0,0:0:0:0:
256,192,116985,1,8,0:0:0:0:
256,192,117162,1,0,0:0:0:0:
256,192,117250,1,8,0:0:0:0:
256,192,117338,1,0,0:0:0:0:
256,192,117426,1,0,0:0:0:0:
256,192,117514,1,8,0:0:0:0:
256,192,117691,1,0,0:0:0:0:
256,192,117867,1,8,0:0:0:0:
256,192,117956,1,8,0:0:0:0:
256,192,118044,1,0,0:0:0:0:
256,192,118220,1,8,0:0:0:0:
256,192,118397,1,0,0:0:0:0:
256,192,118485,1,8,0:0:0:0:
256,192,118573,1,8,0:0:0:0:
256,192,118662,1,0,0:0:0:0:
256,192,118750,1,8,0:0:0:0:
256,192,118926,1,0,0:0:0:0:
256,192,119103,1,8,0:0:0:0:
256,192,119279,1,8,0:0:0:0:
256,192,119367,1,0,0:0:0:0:
256,192,119544,1,0,0:0:0:0:
256,192,119632,1,8,0:0:0:0:
256,192,119809,1,8,0:0:0:0:
256,192,119897,1,8,0:0:0:0:
256,192,119985,1,0,0:0:0:0:
256,192,120073,1,0,0:0:0:0:
256,192,120162,1,8,0:0:0:0:
256,192,120338,1,8,0:0:0:0:
256,192,120514,1,0,0:0:0:0:
256,192,120603,1,0,0:0:0:0:
256,192,120691,1,8,0:0:0:0:
256,192,120867,1,0,0:0:0:0:
256,192,121044,1,8,0:0:0:0:
256,192,121132,1,0,0:0:0:0:
256,192,121220,1,0,0:0:0:0:
256,192,121309,1,8,0:0:0:0:
256,192,121485,1,0,0:0:0:0:
256,192,121573,1,8,0:0:0:0:
256,192,121750,1,0,0:0:0:0:
256,192,121838,1,0,0:0:0:0:
256,192,121926,1,8,0:0:0:0:
256,192,122103,1,8,0:0:0:0:
256,192,122191,1,0,0:0:0:0:
256,192,122367,1,0,0:0:0:0:
256,192,122456,1,8,0:0:0:0:
256,192,122632,1,8,0:0:0:0:
256,192,122720,1,0,0:0:0:0:
256,192,122809,1,0,0:0:0:0:
256,192,122897,1,8,0:0:0:0:
256,192,122985,1,0,0:0:0:0:
256,192,123162,1,8,0:0:0:0:
256,192,123338,1,0,0:0:0:0:
256,192,123426,1,0,0:0:0:0:
256,192,123514,1,8,0:0:0:0:
256,192,123691,1,0,0:0:0:0:
256,192,123867,1,8,0:0:0:0:
256,192,123956,1,0,0:0:0:0:
256,192,124044,1,0,0:0:0:0:
256,192,124132,1,8,0:0:0:0:
256,192,124309,1,0,0:0:0:0:
256,192,124397,1,8,0:0:0:0:
256,192,124573,1,0,0:0:0:0:
256,192,124750,1,8,0:0:0:0:
256,192,124926,1,8,0:0:0:0:
256,192,125014,1,0,0:0:0:0:
256,192,125191,1,0,0:0:0:0:
256,192,125279,1,8,0:0:0:0:
256,192,125456,1,8,0:0:0:0:
256,192,125544,1,8,0:0:0:0:
256,192,125632,1,0,0:0:0:0:
256,192,125720,1,8,0:0:0:0:
256,192,125809,1,0,0:0:0:0:
256,192,125985,1,8,0:0:0:0:
256,192,126162,1,0,0:0:0:0:
256,192,126250,1,0,0:0:0:0:
256,192,126338,1,8,0:0:0:0:
256,192,126514,1,0,0:0:0:0:
256,192,126691,1,8,0:0:0:0:
256,192,126779,1,0,0:0:0:0:
256,192,126956,1,0,0:0:0:0:
256,192,127044,1,8,0:0:0:0:
256,192,127220,1,8,0:0:0:0:
256,192,127397,1,0,0:0:0:0:
256,192,127485,1,0,0:0:0:0:
256,192,127573,1,8,0:0:0:0:
256,192,127750,1,4,0:0:0:0:
256,192,127926,1,0,0:0:0:0:
256,192,128103,1,8,0:0:0:0:
256,192,128279,1,0,0:0:0:0:
256,192,128367,1,0,0:0:0:0:
256,192,128456,1,0,0:0:0:0:
256,192,128632,1,0,0:0:0:0:
256,192,128809,1,8,0:0:0:0:
256,192,128985,1,0,0:0:0:0:
256,192,129162,1,0,0:0:0:0:
256,192,129338,1,0,0:0:0:0:
256,192,129514,1,8,0:0:0:0:
256,192,129691,1,0,0:0:0:0:
256,192,129779,1,8,0:0:0:0:
256,192,129867,1,0,0:0:0:0:
256,192,130044,1,0,0:0:0:0:
256,192,130220,1,8,0:0:0:0:
256,192,130397,1,0,0:0:0:0:
256,192,130573,1,0,0:0:0:0:
256,192,130750,1,0,0:0:0:0:
256,192,130926,1,8,0:0:0:0:
256,192,131103,1,0,0:0:0:0:
256,192,131191,1,0,0:0:0:0:
256,192,131279,1,0,0:0:0:0:
256,192,131456,1,0,0:0:0:0:
256,192,131632,1,8,0:0:0:0:
256,192,131809,1,0,0:0:0:0:
256,192,131985,1,0,0:0:0:0:
256,192,132162,1,0,0:0:0:0:
256,192,132338,1,8,0:0:0:0:
256,192,132514,1,0,0:0:0:0:
256,192,132603,1,8,0:0:0:0:
256,192,132691,1,0,0:0:0:0:
256,192,132867,1,0,0:0:0:0:
256,192,133044,1,8,0:0:0:0:
256,192,133220,1,0,0:0:0:0:
256,192,133397,1,12,0:0:0:0:
256,192,133573,1,0,0:0:0:0:
256,192,133750,1,8,0:0:0:0:
256,192,133926,1,0,0:0:0:0:
256,192,134014,1,0,0:0:0:0:
256,192,134103,1,0,0:0:0:0:
256,192,134279,1,0,0:0:0:0:
256,192,134456,1,8,0:0:0:0:
256,192,134632,1,0,0:0:0:0:
256,192,134809,1,12,0:0:0:0:
256,192,134985,1,0,0:0:0:0:
256,192,135073,1,0,0:0:0:0:
256,192,135162,1,8,0:0:0:0:
256,192,135338,1,8,0:0:0:0:
256,192,135514,1,0,0:0:0:0:
256,192,135691,1,0,0:0:0:0:
256,192,135779,1,0,0:0:0:0:
256,192,135867,1,8,0:0:0:0:
256,192,136044,1,0,0:0:0:0:
256,192,136220,1,12,0:0:0:0:
256,192,136397,1,8,0:0:0:0:
256,192,136485,1,0,0:0:0:0:
256,192,136573,1,8,0:0:0:0:
256,192,136750,1,0,0:0:0:0:
256,192,136926,1,12,0:0:0:0:
256,192,137103,1,0,0:0:0:0:
256,192,137191,1,0,0:0:0:0:
256,192,137279,1,8,0:0:0:0:
256,192,137456,1,0,0:0:0:0:
256,192,137632,1,12,0:0:0:0:
256,192,137809,1,0,0:0:0:0:
256,192,137985,1,12,0:0:0:0:
256,192,138162,1,0,0:0:0:0:
256,192,138338,1,12,0:0:0:0:
256,192,138514,1,0,0:0:0:0:
256,192,138603,1,8,0:0:0:0:
256,192,138691,1,8,0:0:0:0:
256,192,138867,1,8,0:0:0:0:
256,192,139044,1,4,0:0:0:0:
256,192,139220,1,0,0:0:0:0:
256,192,139397,1,8,0:0:0:0:
256,192,139573,1,0,0:0:0:0:
256,192,139662,1,0,0:0:0:0:
256,192,139750,1,0,0:0:0:0:
256,192,139926,1,0,0:0:0:0:
256,192,140103,1,8,0:0:0:0:
256,192,140279,1,0,0:0:0:0:
256,192,140456,1,0,0:0:0:0:
256,192,140632,1,0,0:0:0:0:
256,192,140809,1,8,0:0:0:0:
256,192,140985,1,0,0:0:0:0:
256,192,141073,1,8,0:0:0:0:
256,192,141162,1,0,0:0:0:0:
256,192,141250,1,8,0:0:0:0:
256,192,141338,1,0,0:0:0:0:
256,192,141426,1,0,0:0:0:0:
256,192,141514,1,8,0:0:0:0:
256,192,141691,1,0,0:0:0:0:
256,192,141867,1,0,0:0:0:0:
256,192,142044,1,0,0:0:0:0:
256,192,142220,1,8,0:0:0:0:
256,192,142397,1,0,0:0:0:0:
256,192,142485,1,0,0:0:0:0:
256,192,142573,1,0,0:0:0:0:
256,192,142750,1,0,0:0:0:0:
256,192,142926,1,8,0:0:0:0:
256,192,143103,1,0,0:0:0:0:
256,192,143279,1,0,0:0:0:0:
256,192,143456,1,0,0:0:0:0:
256,192,143632,1,8,0:0:0:0:
256,192,143720,1,8,0:0:0:0:
256,192,143897,1,0,0:0:0:0:
256,192,143985,1,8,0:0:0:0:
256,192,144073,1,0,0:0:0:0:
256,192,144162,1,0,0:0:0:0:
256,192,144250,1,8,0:0:0:0:
256,192,144426,1,8,0:0:0:0:
256,192,144514,1,0,0:0:0:0:
256,192,144691,1,12,0:0:0:0:
256,192,144867,1,0,0:0:0:0:
256,192,145044,1,8,0:0:0:0:
256,192,145220,1,0,0:0:0:0:
256,192,145397,1,0,0:0:0:0:
256,192,145573,1,0,0:0:0:0:
256,192,145750,1,8,0:0:0:0:
256,192,145926,1,0,0:0:0:0:
256,192,146103,1,12,0:0:0:0:
256,192,146279,1,0,0:0:0:0:
256,192,146456,1,8,0:0:0:0:
256,192,146632,1,0,0:0:0:0:
256,192,146720,1,8,0:0:0:0:
256,192,146809,1,0,0:0:0:0:
256,192,146897,1,8,0:0:0:0:
256,192,146985,1,0,0:0:0:0:
256,192,147073,1,0,0:0:0:0:
256,192,147162,1,8,0:0:0:0:
256,192,147338,1,0,0:0:0:0:
256,192,147514,1,12,0:0:0:0:
256,192,147691,1,0,0:0:0:0:
256,192,147867,1,8,0:0:0:0:
256,192,147956,1,0,0:0:0:0:
256,192,148044,1,0,0:0:0:0:
256,192,148220,1,12,0:0:0:0:
256,192,148397,1,0,0:0:0:0:
256,192,148485,1,8,0:0:0:0:
256,192,148573,1,0,0:0:0:0:
256,192,148750,1,0,0:0:0:0:
256,192,148926,1,12,0:0:0:0:
256,192,149103,1,0,0:0:0:0:
256,192,149279,1,12,0:0:0:0:
256,192,149456,1,0,0:0:0:0:
256,192,149632,1,12,0:0:0:0:
256,192,149809,1,0,0:0:0:0:
256,192,149985,1,8,0:0:0:0:
256,192,150073,1,8,0:0:0:0:
256,192,150162,1,0,0:0:0:0:
256,192,150250,1,0,0:0:0:0:
256,192,150338,1,0,0:0:0:0:
256,192,150691,1,8,0:0:0:0:
256,192,150956,1,8,0:0:0:0:
256,192,151044,1,0,0:0:0:0:
256,192,151220,1,0,0:0:0:0:
256,192,151397,1,8,0:0:0:0:
256,192,151662,1,0,0:0:0:0:
256,192,151750,1,0,0:0:0:0:
256,192,152103,1,8,0:0:0:0:
256,192,152367,1,8,0:0:0:0:
256,192,152456,1,0,0:0:0:0:
256,192,152632,1,0,0:0:0:0:
256,192,152809,1,8,0:0:0:0:
256,192,152985,1,0,0:0:0:0:
256,192,153073,1,8,0:0:0:0:
256,192,153162,1,0,0:0:0:0:
256,192,153514,1,8,0:0:0:0:
256,192,153779,1,8,0:0:0:0:
256,192,153867,1,0,0:0:0:0:
256,192,154044,1,0,0:0:0:0:
256,192,154220,1,8,0:0:0:0:
256,192,154485,1,0,0:0:0:0:
256,192,154573,1,0,0:0:0:0:
256,192,154926,1,8,0:0:0:0:
256,192,155191,1,8,0:0:0:0:
256,192,155279,1,0,0:0:0:0:
256,192,155367,1,0,0:0:0:0:
256,192,155456,1,8,0:0:0:0:
256,192,155632,1,8,0:0:0:0:
256,192,155809,1,0,0:0:0:0:
256,192,155897,1,8,0:0:0:0:
256,192,155985,1,0,0:0:0:0:
256,192,156338,1,8,0:0:0:0:
256,192,156603,1,8,0:0:0:0:
256,192,156691,1,0,0:0:0:0:
256,192,156867,1,0,0:0:0:0:
256,192,157044,1,8,0:0:0:0:
256,192,157309,1,8,0:0:0:0:
256,192,157397,1,0,0:0:0:0:
256,192,157573,1,0,0:0:0:0:
256,192,157750,1,8,0:0:0:0:
256,192,157926,1,0,0:0:0:0:
256,192,158014,1,0,0:0:0:0:
256,192,158103,1,0,0:0:0:0:
256,192,158279,1,0,0:0:0:0:
256,192,158456,1,8,0:0:0:0:
256,192,158632,1,0,0:0:0:0:
256,192,158720,1,0,0:0:0:0:
256,192,158809,1,0,0:0:0:0:
256,192,158985,1,0,0:0:0:0:
256,192,159162,1,8,0:0:0:0:
256,192,159338,1,0,0:0:0:0:
256,192,159426,1,0,0:0:0:0:
256,192,159514,1,0,0:0:0:0:
256,192,159691,1,0,0:0:0:0:
256,192,159867,1,8,0:0:0:0:
256,192,160044,1,0,0:0:0:0:
256,192,160132,1,0,0:0:0:0:
256,192,160220,1,8,0:0:0:0:
256,192,160309,1,8,0:0:0:0:
256,192,160397,1,8,0:0:0:0:
256,192,160573,1,0,0:0:0:0:
256,192,160662,1,0,0:0:0:0:
256,192,160750,1,0,0:0:0:0:
256,192,160926,1,8,0:0:0:0:
256,192,161014,1,0,0:0:0:0:
256,192,161103,1,8,0:0:0:0:
256,192,161279,1,8,0:0:0:0:
256,192,161367,1,8,0:0:0:0:
256,192,161456,1,8,0:0:0:0:
256,192,161632,1,4,0:0:0:0:
256,192,161897,1,0,0:0:0:0:
256,192,161985,1,8,0:0:0:0:
256,192,162162,1,8,0:0:0:0:
256,192,162250,1,0,0:0:0:0:
256,192,162338,1,0,0:0:0:0:
256,192,162426,1,8,0:0:0:0:
256,192,162514,1,0,0:0:0:0:
256,192,162691,1,8,0:0:0:0:
256,192,162779,1,8,0:0:0:0:
256,192,162956,1,0,0:0:0:0:
256,192,163044,1,8,0:0:0:0:
256,192,163220,1,0,0:0:0:0:
256,192,163309,1,8,0:0:0:0:
256,192,163397,1,8,0:0:0:0:
256,192,163485,1,0,0:0:0:0:
256,192,163573,1,8,0:0:0:0:
256,192,163750,1,8,0:0:0:0:
256,192,163838,1,0,0:0:0:0:
256,192,164014,1,8,0:0:0:0:
256,192,164103,1,8,0:0:0:0:
256,192,164279,1,8,0:0:0:0:
256,192,164456,1,0,0:0:0:0:
256,192,164544,1,0,0:0:0:0:
256,192,164632,1,8,0:0:0:0:
256,192,164720,1,8,0:0:0:0:
256,192,164809,1,0,0:0:0:0:
256,192,164985,1,8,0:0:0:0:
256,192,165073,1,0,0:0:0:0:
256,192,165162,1,8,0:0:0:0:
256,192,165250,1,8,0:0:0:0:
256,192,165338,1,0,0:0:0:0:
256,192,165514,1,0,0:0:0:0:
256,192,165603,1,8,0:0:0:0:
256,192,165691,1,0,0:0:0:0:
256,192,165779,1,8,0:0:0:0:
256,192,165867,1,0,0:0:0:0:
256,192,166044,1,0,0:0:0:0:
256,192,166132,1,8,0:0:0:0:
256,192,166309,1,8,0:0:0:0:
256,192,166397,1,0,0:0:0:0:
256,192,166573,1,8,0:0:0:0:
256,192,166662,1,8,0:0:0:0:
256,192,166750,1,8,0:0:0:0:
256,192,166838,1,0,0:0:0:0:
256,192,166926,1,8,0:0:0:0:
256,192,167103,1,8,0:0:0:0:
256,192,167279,1,8,0:0:0:0:
256,192,167367,1,8,0:0:0:0:
256,192,167456,1,0,0:0:0:0:
256,192,167544,1,0,0:0:0:0:
256,192,167632,1,8,0:0:0:0:
256,192,167809,1,0,0:0:0:0:
256,192,167985,1,0,0:0:0:0:
256,192,168162,1,8,0:0:0:0:
256,192,168250,1,8,0:0:0:0:
256,192,168338,1,0,0:0:0:0:
256,192,168426,1,8,0:0:0:0:
256,192,168603,1,0,0:0:0:0:
256,192,168691,1,8,0:0:0:0:
256,192,168867,1,0,0:0:0:0:
256,192,169044,1,8,0:0:0:0:
256,192,169220,1,8,0:0:0:0:
256,192,169309,1,8,0:0:0:0:
256,192,169397,1,0,0:0:0:0:
256,192,169573,1,0,0:0:0:0:
256,192,169750,1,8,0:0:0:0:
256,192,169838,1,0,0:0:0:0:
256,192,169926,1,8,0:0:0:0:
256,192,170103,1,8,0:0:0:0:
256,192,170191,1,0,0:0:0:0:
256,192,170367,1,8,0:0:0:0:
256,192,170456,1,0,0:0:0:0:
256,192,170632,1,0,0:0:0:0:
256,192,170720,1,8,0:0:0:0:
256,192,170897,1,8,0:0:0:0:
256,192,170985,1,8,0:0:0:0:
256,192,171162,1,8,0:0:0:0:
256,192,171250,1,8,0:0:0:0:
256,192,171338,1,0,0:0:0:0:
256,192,171514,1,8,0:0:0:0:
256,192,171603,1,8,0:0:0:0:
256,192,171779,1,0,0:0:0:0:
256,192,171867,1,8,0:0:0:0:
256,192,172044,1,0,0:0:0:0:
256,192,172132,1,8,0:0:0:0:
256,192,172220,1,8,0:0:0:0:
256,192,172309,1,0,0:0:0:0:
256,192,172397,1,8,0:0:0:0:
256,192,172485,1,0,0:0:0:0:
256,192,172573,1,8,0:0:0:0:
256,192,172926,1,4,0:0:0:0:
256,192,173191,1,8,0:0:0:0:
256,192,173279,1,8,0:0:0:0:
256,192,173456,1,0,0:0:0:0:
256,192,173544,1,8,0:0:0:0:
256,192,173632,1,8,0:0:0:0:
256,192,173720,1,0,0:0:0:0:
256,192,173809,1,8,0:0:0:0:
256,192,173985,1,0,0:0:0:0:
256,192,174073,1,8,0:0:0:0:
256,192,174162,1,0,0:0:0:0:
256,192,174338,1,8,0:0:0:0:
256,192,174514,1,0,0:0:0:0:
256,192,174603,1,8,0:0:0:0:
256,192,174691,1,8,0:0:0:0:
256,192,174779,1,8,0:0:0:0:
256,192,174867,1,0,0:0:0:0:
256,192,175044,1,0,0:0:0:0:
256,192,175132,1,8,0:0:0:0:
256,192,175309,1,8,0:0:0:0:
256,192,175397,1,8,0:0:0:0:
256,192,175573,1,8,0:0:0:0:
256,192,175750,1,0,0:0:0:0:
256,192,175838,1,8,0:0:0:0:
256,192,175926,1,0,0:0:0:0:
256,192,176014,1,0,0:0:0:0:
256,192,176103,1,8,0:0:0:0:
256,192,176279,1,8,0:0:0:0:
256,192,176367,1,8,0:0:0:0:
256,192,176456,1,8,0:0:0:0:
256,192,176544,1,0,0:0:0:0:
256,192,176632,1,8,0:0:0:0:
256,192,176809,1,0,0:0:0:0:
256,192,176897,1,8,0:0:0:0:
256,192,176985,1,8,0:0:0:0:
256,192,177073,1,0,0:0:0:0:
256,192,177162,1,8,0:0:0:0:
256,192,177338,1,0,0:0:0:0:
256,192,177426,1,0,0:0:0:0:
256,192,177514,1,8,0:0:0:0:
256,192,177603,1,0,0:0:0:0:
256,192,177691,1,8,0:0:0:0:
256,192,177867,1,0,0:0:0:0:
256,192,177956,1,8,0:0:0:0:
256,192,178132,1,8,0:0:0:0:
256,192,178220,1,8,0:0:0:0:
256,192,178397,1,8,0:0:0:0:
256,192,178573,1,0,0:0:0:0:
256,192,178662,1,8,0:0:0:0:
256,192,178838,1,8,0:0:0:0:
256,192,178926,1,0,0:0:0:0:
256,192,179103,1,0,0:0:0:0:
256,192,179279,1,0,0:0:0:0:
256,192,179456,1,8,0:0:0:0:
256,192,179544,1,8,0:0:0:0:
256,192,179632,1,0,0:0:0:0:
256,192,179720,1,8,0:0:0:0:
256,192,179897,1,8,0:0:0:0:
256,192,179985,1,0,0:0:0:0:
256,192,180162,1,0,0:0:0:0:
256,192,180338,1,8,0:0:0:0:
256,192,180514,1,8,0:0:0:0:
256,192,180603,1,0,0:0:0:0:
256,192,180691,1,8,0:0:0:0:
256,192,180867,1,0,0:0:0:0:
256,192,181044,1,8,0:0:0:0:
256,192,181132,1,8,0:0:0:0:
256,192,181220,1,0,0:0:0:0:
256,192,181397,1,8,0:0:0:0:
256,192,181485,1,8,0:0:0:0:
256,192,181662,1,0,0:0:0:0:
256,192,181750,1,8,0:0:0:0:
256,192,181926,1,8,0:0:0:0:
256,192,182014,1,0,0:0:0:0:
256,192,182191,1,0,0:0:0:0:
256,192,182279,1,8,0:0:0:0:
256,192,182456,1,8,0:0:0:0:
256,192,182544,1,8,0:0:0:0:
256,192,182632,1,0,0:0:0:0:
256,192,182809,1,8,0:0:0:0:
256,192,182897,1,0,0:0:0:0:
256,192,182985,1,0,0:0:0:0:
256,192,183073,1,8,0:0:0:0:
256,192,183162,1,0,0:0:0:0:
256,192,183338,1,0,0:0:0:0:
256,192,183426,1,8,0:0:0:0:
256,192,183603,1,8,0:0:0:0:
256,192,183691,1,0,0:0:0:0:
256,192,183867,1,8,0:0:0:0:
256,192,183956,1,8,0:0:0:0:
256,192,184044,1,0,0:0:0:0:
256,192,184220,1,4,0:0:0:0:
256,192,184485,1,8,0:0:0:0:
256,192,184573,1,8,0:0:0:0:
256,192,184750,1,0,0:0:0:0:
256,192,184926,1,0,0:0:0:0:
256,192,185014,1,8,0:0:0:0:
256,192,185103,1,0,0:0:0:0:
256,192,185279,1,8,0:0:0:0:
256,192,185456,1,0,0:0:0:0:
256,192,185632,1,0,0:0:0:0:
256,192,185720,1,0,0:0:0:0:
256,192,185809,1,0,0:0:0:0:
256,192,185985,1,8,0:0:0:0:
256,192,186162,1,0,0:0:0:0:
256,192,186338,1,0,0:0:0:0:
256,192,186426,1,8,0:0:0:0:
256,192,186514,1,0,0:0:0:0:
256,192,186603,1,0,0:0:0:0:
256,192,186691,1,8,0:0:0:0:
256,192,186867,1,0,0:0:0:0:
256,192,187044,1,0,0:0:0:0:
256,192,187132,1,0,0:0:0:0:
256,192,187309,1,8,0:0:0:0:
256,192,187397,1,8,0:0:0:0:
256,192,187573,1,0,0:0:0:0:
256,192,187750,1,0,0:0:0:0:
256,192,187838,1,8,0:0:0:0:
256,192,187926,1,0,0:0:0:0:
256,192,188103,1,8,0:0:0:0:
256,192,188279,1,0,0:0:0:0:
256,192,188456,1,0,0:0:0:0:
256,192,188544,1,0,0:0:0:0:
256,192,188632,1,0,0:0:0:0:
256,192,188809,1,8,0:0:0:0:
256,192,188985,1,0,0:0:0:0:
256,192,189162,1,0,0:0:0:0:
256,192,189250,1,8,0:0:0:0:
256,192,189338,1,0,0:0:0:0:
256,192,189426,1,0,0:0:0:0:
256,192,189514,1,8,0:0:0:0:
256,192,189691,1,0,0:0:0:0:
256,192,189867,1,0,0:0:0:0:
256,192,189956,1,0,0:0:0:0:
256,192,190132,1,8,0:0:0:0:
256,192,190220,1,8,0:0:0:0:
256,192,190397,1,0,0:0:0:0:
256,192,190573,1,0,0:0:0:0:
256,192,190662,1,8,0:0:0:0:
256,192,190750,1,0,0:0:0:0:
256,192,190926,1,8,0:0:0:0:
256,192,191103,1,0,0:0:0:0:
256,192,191279,1,0,0:0:0:0:
256,192,191367,1,0,0:0:0:0:
256,192,191456,1,0,0:0:0:0:
256,192,191632,1,8,0:0:0:0:
256,192,191809,1,0,0:0:0:0:
256,192,191985,1,0,0:0:0:0:
256,192,192073,1,8,0:0:0:0:
256,192,192162,1,0,0:0:0:0:
256,192,192250,1,0,0:0:0:0:
256,192,192338,1,8,0:0:0:0:
256,192,192514,1,0,0:0:0:0:
256,192,192691,1,0,0:0:0:0:
256,192,192779,1,0,0:0:0:0:
256,192,192956,1,8,0:0:0:0:
256,192,193044,1,8,0:0:0:0:
256,192,193220,1,0,0:0:0:0:
256,192,193397,1,0,0:0:0:0:
256,192,193485,1,8,0:0:0:0:
256,192,193573,1,0,0:0:0:0:
256,192,193750,1,8,0:0:0:0:
256,192,193926,1,0,0:0:0:0:
256,192,194103,1,0,0:0:0:0:
256,192,194191,1,0,0:0:0:0:
256,192,194279,1,0,0:0:0:0:
256,192,194456,1,8,0:0:0:0:
256,192,194632,1,0,0:0:0:0:
256,192,194809,1,0,0:0:0:0:
256,192,194897,1,0,0:0:0:0:
256,192,194985,1,8,0:0:0:0:
256,192,195073,1,0,0:0:0:0:
256,192,195162,1,8,0:0:0:0:
256,192,195338,1,0,0:0:0:0:
256,192,195514,1,8,0:0:0:0:
256,192,195603,1,0,0:0:0:0:
256,192,195779,1,0,0:0:0:0:
256,192,195867,1,8,0:0:0:0:
256,192,196044,1,0,0:0:0:0:
256,192,196132,1,8,0:0:0:0:
256,192,196220,1,8,0:0:0:0:
256,192,196309,1,8,0:0:0:0:
256,192,196397,1,0,0:0:0:0:
256,192,196573,1,8,0:0:0:0:
256,192,196750,1,0,0:0:0:0:
256,192,196926,1,0,0:0:0:0:
256,192,197014,1,8,0:0:0:0:
256,192,197103,1,0,0:0:0:0:
256,192,197279,1,8,0:0:0:0:
256,192,197456,1,0,0:0:0:0:
256,192,197632,1,0,0:0:0:0:
256,192,197720,1,8,0:0:0:0:
256,192,197809,1,0,0:0:0:0:
256,192,197897,1,0,0:0:0:0:
256,192,197985,1,8,0:0:0:0:
256,192,198162,1,0,0:0:0:0:
256,192,198338,1,8,0:0:0:0:
256,192,198426,1,0,0:0:0:0:
256,192,198603,1,0,0:0:0:0:
256,192,198691,1,8,0:0:0:0:
256,192,198867,1,0,0:0:0:0:
256,192,198956,1,8,0:0:0:0:
256,192,199044,1,8,0:0:0:0:
256,192,199132,1,8,0:0:0:0:
256,192,199220,1,0,0:0:0:0:
256,192,199397,1,8,0:0:0:0:
256,192,199573,1,0,0:0:0:0:
256,192,199750,1,0,0:0:0:0:
256,192,199838,1,8,0:0:0:0:
256,192,199926,1,0,0:0:0:0:
256,192,200103,1,8,0:0:0:0:
256,192,200279,1,0,0:0:0:0:
256,192,200456,1,0,0:0:0:0:
256,192,200544,1,8,0:0:0:0:
256,192,200632,1,0,0:0:0:0:
256,192,200720,1,0,0:0:0:0:
256,192,200809,1,8,0:0:0:0:
256,192,200985,1,0,0:0:0:0:
256,192,201162,1,8,0:0:0:0:
256,192,201250,1,0,0:0:0:0:
256,192,201426,1,0,0:0:0:0:
256,192,201514,1,8,0:0:0:0:
256,192,201691,1,0,0:0:0:0:
256,192,201779,1,8,0:0:0:0:
256,192,201867,1,8,0:0:0:0:
256,192,201956,1,8,0:0:0:0:
256,192,202044,1,0,0:0:0:0:
256,192,202220,1,8,0:0:0:0:
256,192,202397,1,0,0:0:0:0:
256,192,202573,1,0,0:0:0:0:
256,192,202662,1,8,0:0:0:0:
256,192,202750,1,0,0:0:0:0:
256,192,202926,1,8,0:0:0:0:
256,192,203103,1,0,0:0:0:0:
256,192,203279,1,0,0:0:0:0:
256,192,203367,1,8,0:0:0:0:
256,192,203456,1,0,0:0:0:0:
256,192,203544,1,0,0:0:0:0:
256,192,203632,1,8,0:0:0:0:
256,192,203809,1,0,0:0:0:0:
256,192,203985,1,8,0:0:0:0:
256,192,204073,1,0,0:0:0:0:
256,192,204250,1,0,0:0:0:0:
256,192,204338,1,8,0:0:0:0:
256,192,204514,1,0,0:0:0:0:
256,192,204603,1,8,0:0:0:0:
256,192,204691,1,8,0:0:0:0:
256,192,204779,1,8,0:0:0:0:
256,192,204867,1,0,0:0:0:0:
256,192,205044,1,8,0:0:0:0:
256,192,205220,1,0,0:0:0:0:
256,192,205397,1,8,0:0:0:0:
256,192,205485,1,8,0:0:0:0:
256,192,205573,1,8,0:0:0:0:
256,192,205750,1,0,0:0:0:0:
256,192,205838,1,0,0:0:0:0:
256,192,205926,1,0,0:0:0:0:
256,192,206103,1,8,0:0:0:0:
256,192,206191,1,8,0:0:0:0:
256,192,206279,1,8,0:0:0:0:
256,192,206456,1,0,0:0:0:0:
256,192,206544,1,8,0:0:0:0:
256,192,206632,1,0,0:0:0:0:
256,192,206809,1,0,0:0:0:0:
256,192,206897,1,8,0:0:0:0:
256,192,206985,1,0,0:0:0:0:
256,192,207073,1,8,0:0:0:0:
256,192,207162,1,8,0:0:0:0:
256,192,207250,1,0,0:0:0:0:
256,192,207338,1,0,0:0:0:0:
256,192,207426,1,8,0:0:0:0:
256,192,207514,1,0,0:0:0:0:
256,192,207603,1,0,0:0:0:0:
256,192,207691,1,8,0:0:0:0:
256,192,207779,1,0,0:0:0:0:
256,192,207867,1,8,0:0:0:0:
256,192,207956,1,8,0:0:0:0:
256,192,208044,1,0,0:0:0:0:
256,192,208132,1,8,0:0:0:0:
256,192,208220,1,8,0:0:0:0:
256,192,208309,1,0,0:0:0:0:
256,192,208397,1,0,0:0:0:0:
256,192,208485,1,8,0:0:0:0:
256,192,208573,1,0,0:0:0:0:
256,192,208662,1,8,0:0:0:0:
256,192,208750,1,8,0:0:0:0:
256,192,208838,1,0,0:0:0:0:
256,192,208926,1,0,0:0:0:0:
256,192,209014,1,8,0:0:0:0:
256,192,209103,1,0,0:0:0:0:
256,192,209191,1,8,0:0:0:0:
256,192,209279,1,8,0:0:0:0:
256,192,209367,1,0,0:0:0:0:
256,192,209456,1,8,0:0:0:0:
256,192,209544,1,0,0:0:0:0:
256,192,209632,1,8,0:0:0:0:
256,192,209720,1,8,0:0:0:0:
256,192,209809,1,8,0:0:0:0:
256,192,209897,1,0,0:0:0:0:
256,192,209985,1,8,0:0:0:0:
256,192,210073,1,0,0:0:0:0:
256,192,210162,1,0,0:0:0:0:
256,192,210250,1,8,0:0:0:0:
256,192,210338,1,8,0:0:0:0:
256,192,210426,1,0,0:0:0:0:
256,192,210514,1,8,0:0:0:0:
256,192,210603,1,0,0:0:0:0:
256,192,210691,1,8,0:0:0:0:
256,192,210779,1,8,0:0:0:0:
256,192,210867,1,0,0:0:0:0:
256,192,210956,1,8,0:0:0:0:
256,192,211044,1,8,0:0:0:0:
256,192,211132,1,0,0:0:0:0:
256,192,211220,1,0,0:0:0:0:
256,192,211309,1,8,0:0:0:0:
256,192,211397,1,0,0:0:0:0:
256,192,211485,1,8,0:0:0:0:
256,192,211573,1,0,0:0:0:0:
256,192,211662,1,0,0:0:0:0:
256,192,211750,1,8,0:0:0:0:
256,192,211838,1,8,0:0:0:0:
256,192,211926,1,8,0:0:0:0:
256,192,212014,1,0,0:0:0:0:
256,192,212103,1,8,0:0:0:0:
256,192,212191,1,0,0:0:0:0:
256,192,212279,1,8,0:0:0:0:
256,192,212456,1,8,0:0:0:0:
256,192,212544,1,8,0:0:0:0:
256,192,212632,1,0,0:0:0:0:
256,192,212720,1,8,0:0:0:0:
256,192,212809,1,8,0:0:0:0:
256,192,212985,1,0,0:0:0:0:
256,192,213162,1,8,0:0:0:0:
256,192,213338,1,0,0:0:0:0:
256,192,213514,1,8,0:0:0:0:
256,192,213603,1,0,0:0:0:0:
256,192,213691,1,8,0:0:0:0:
256,192,213779,1,8,0:0:0:0:
256,192,213867,1,8,0:0:0:0:
256,192,214044,1,0,0:0:0:0:
256,192,214220,1,8,0:0:0:0:
256,192,214397,1,0,0:0:0:0:
256,192,214485,1,8,0:0:0:0:
256,192,214573,1,8,0:0:0:0:
256,192,214662,1,0,0:0:0:0:
256,192,214750,1,8,0:0:0:0:
256,192,214838,1,0,0:0:0:0:
256,192,214926,1,8,0:0:0:0:
256,192,215103,1,0,0:0:0:0:
256,192,215279,1,8,0:0:0:0:
256,192,215367,1,0,0:0:0:0:
256,192,215456,1,0,0:0:0:0:
256,192,215632,1,0,0:0:0:0:
256,192,215809,1,8,0:0:0:0:
256,192,215897,1,0,0:0:0:0:
256,192,215985,1,0,0:0:0:0:
256,192,216162,1,0,0:0:0:0:
256,192,216338,1,8,0:0:0:0:
256,192,216426,1,0,0:0:0:0:
256,192,216514,1,8,0:0:0:0:
256,192,216691,1,0,0:0:0:0:
256,192,216867,1,0,0:0:0:0:
256,192,216956,1,0,0:0:0:0:
256,192,217044,1,8,0:0:0:0:
256,192,217220,1,8,0:0:0:0:
256,192,217397,1,0,0:0:0:0:
256,192,217573,1,8,0:0:0:0:
256,192,217750,1,0,0:0:0:0:
256,192,218103,1,0,0:0:0:0:
256,192,218191,1,8,0:0:0:0:
256,192,218279,1,0,0:0:0:0:
256,192,218367,1,8,0:0:0:0:
256,192,218456,1,8,0:0:0:0:
256,192,218544,1,0,0:0:0:0:
256,192,218632,1,8,0:0:0:0:
256,192,218720,1,8,0:0:0:0:
256,192,218809,1,0,0:0:0:0:
256,192,218897,1,0,0:0:0:0:
256,192,218985,1,8,0:0:0:0:
256,192,219073,1,0,0:0:0:0:
256,192,219162,1,0,0:0:0:0:
256,192,219250,1,8,0:0:0:0:
256,192,219338,1,0,0:0:0:0:
256,192,219426,1,8,0:0:0:0:
256,192,219514,1,8,0:0:0:0:
256,192,219603,1,0,0:0:0:0:
256,192,219691,1,8,0:0:0:0:
256,192,219779,1,8,0:0:0:0:
256,192,219867,1,0,0:0:0:0:
256,192,219956,1,0,0:0:0:0:
256,192,220044,1,8,0:0:0:0:
256,192,220132,1,0,0:0:0:0:
256,192,220220,1,8,0:0:0:0:
256,192,220309,1,8,0:0:0:0:
256,192,220397,1,0,0:0:0:0:
256,192,220485,1,8,0:0:0:0:
256,192,220573,1,0,0:0:0:0:
256,192,220662,1,8,0:0:0:0:
256,192,220750,1,8,0:0:0:0:
256,192,220838,1,0,0:0:0:0:
256,192,220926,1,8,0:0:0:0:
256,192,221014,1,0,0:0:0:0:
256,192,221103,1,0,0:0:0:0:
256,192,221191,1,8,0:0:0:0:
256,192,221279,1,8,0:0:0:0:
256,192,221367,1,0,0:0:0:0:
256,192,221456,1,8,0:0:0:0:
256,192,221544,1,0,0:0:0:0:
256,192,221632,1,0,0:0:0:0:
256,192,221720,1,8,0:0:0:0:
256,192,221809,1,8,0:0:0:0:
256,192,221897,1,0,0:0:0:0:
256,192,221985,1,0,0:0:0:0:
256,192,222073,1,8,0:0:0:0:
256,192,222162,1,0,0:0:0:0:
256,192,222250,1,8,0:0:0:0:
256,192,222338,1,8,0:0:0:0:
256,192,222426,1,0,0:0:0:0:
256,192,222514,1,8,0:0:0:0:
256,192,222603,1,8,0:0:0:0:
256,192,222691,1,8,0:0:0:0:
256,192,222779,1,0,0:0:0:0:
256,192,222867,1,8,0:0:0:0:
256,192,222956,1,0,0:0:0:0:
256,192,223044,1,8,0:0:0:0:
256,192,223132,1,8,0:0:0:0:
256,192,223220,1,0,0:0:0:0:
256,192,223309,1,0,0:0:0:0:
256,192,223397,1,8,0:0:0:0:
256,192,223485,1,0,0:0:0:0:
256,192,223573,1,8,0:0:0:0:
256,192,223750,1,0,0:0:0:0:
256,192,223838,1,8,0:0:0:0:
256,192,223926,1,0,0:0:0:0:
256,192,224014,1,8,0:0:0:0:
256,192,224103,1,8,0:0:0:0:
256,192,224279,1,0,0:0:0:0:
256,192,224456,1,8,0:0:0:0:
256,192,224632,1,8,0:0:0:0:
256,192,224720,1,0,0:0:0:0:
256,192,224809,1,0,0:0:0:0:
256,192,224897,1,8,0:0:0:0:
256,192,225073,1,8,0:0:0:0:
256,192,225162,1,8,0:0:0:0:
256,192,225338,1,0,0:0:0:0:
256,192,225514,1,8,0:0:0:0:
256,192,225691,1,8,0:0:0:0:
256,192,225779,1,0,0:0:0:0:
256,192,225867,1,8,0:0:0:0:
256,192,226044,1,0,0:0:0:0:
256,192,226220,1,8,0:0:0:0:
256,192,226397,1,8,0:0:0:0:
256,192,226573,1,8,0:0:0:0:
256,192,226662,1,0,0:0:0:0:
256,192,226750,1,0,0:0:0:0:
256,192,226926,1,0,0:0:0:0:
256,192,227103,1,8,0:0:0:0:
256,192,227191,1,0,0:0:0:0:
256,192,227279,1,0,0:0:0:0:
256,192,227456,1,0,0:0:0:0:
256,192,227632,1,8,0:0:0:0:
256,192,227720,1,0,0:0:0:0:
256,192,227809,1,8,0:0:0:0:
256,192,227985,1,8,0:0:0:0:
256,192,228073,1,8,0:0:0:0:
256,192,228162,1,0,0:0:0:0:
256,192,228250,1,0,0:0:0:0:
256,192,228338,1,8,0:0:0:0:
256,192,228426,1,0,0:0:0:0:
256,192,228514,1,0,0:0:0:0:
256,192,228603,1,8,0:0:0:0:
256,192,228691,1,0,0:0:0:0:
256,192,228779,1,8,0:0:0:0:
256,192,228867,1,0,0:0:0:0:
256,192,228956,1,0,0:0:0:0:
256,192,229044,1,8,0:0:0:0:
256,192,229132,1,8,0:0:0:0:
256,192,229220,1,8,0:0:0:0:
256,192,229397,1,4,0:0:0:0:
256,192,229662,1,8,0:0:0:0:
256,192,229750,1,0,0:0:0:0:
256,192,229926,1,8,0:0:0:0:
256,192,230014,1,0,0:0:0:0:
256,192,230103,1,0,0:0:0:0:
256,192,230191,1,8,0:0:0:0:
256,192,230279,1,0,0:0:0:0:
256,192,230456,1,8,0:0:0:0:
256,192,230544,1,0,0:0:0:0:
256,192,230632,1,0,0:0:0:0:
256,192,230809,1,8,0:0:0:0:
256,192,230985,1,8,0:0:0:0:
256,192,231073,1,0,0:0:0:0:
256,192,231162,1,0,0:0:0:0:
256,192,231250,1,8,0:0:0:0:
256,192,231338,1,0,0:0:0:0:
256,192,231514,1,8,0:0:0:0:
256,192,231603,1,0,0:0:0:0:
256,192,231691,1,0,0:0:0:0:
256,192,231779,1,8,0:0:0:0:
256,192,231867,1,8,0:0:0:0:
256,192,232044,1,0,0:0:0:0:
256,192,232220,1,8,0:0:0:0:
256,192,232309,1,0,0:0:0:0:
256,192,232397,1,0,0:0:0:0:
256,192,232485,1,0,0:0:0:0:
256,192,232573,1,8,0:0:0:0:
256,192,232750,1,8,0:0:0:0:
256,192,232838,1,0,0:0:0:0:
256,192,232926,1,0,0:0:0:0:
256,192,233014,1,8,0:0:0:0:
256,192,233103,1,0,0:0:0:0:
256,192,233279,1,8,0:0:0:0:
256,192,233367,1,8,0:0:0:0:
256,192,233456,1,0,0:0:0:0:
256,192,233544,1,0,0:0:0:0:
256,192,233632,1,8,0:0:0:0:
256,192,233809,1,0,0:0:0:0:
256,192,233897,1,8,0:0:0:0:
256,192,233985,1,8,0:0:0:0:
256,192,234073,1,0,0:0:0:0:
256,192,234162,1,8,0:0:0:0:
256,192,234338,1,0,0:0:0:0:
256,192,234426,1,8,0:0:0:0:
256,192,234603,1,8,0:0:0:0:
256,192,234691,1,0,0:0:0:0:
256,192,234867,1,8,0:0:0:0:
256,192,235044,1,8,0:0:0:0:
256,192,235132,1,8,0:0:0:0:
256,192,235220,1,0,0:0:0:0:
256,192,235309,1,0,0:0:0:0:
256,192,235397,1,8,0:0:0:0:
256,192,235573,1,8,0:0:0:0:
256,192,235750,1,0,0:0:0:0:
256,192,235926,1,8,0:0:0:0:
256,192,236014,1,8,0:0:0:0:
256,192,236103,1,0,0:0:0:0:
256,192,236191,1,8,0:0:0:0:
256,192,236367,1,0,0:0:0:0:
256,192,236456,1,8,0:0:0:0:
256,192,236632,1,0,0:0:0:0:
256,192,236809,1,8,0:0:0:0:
256,192,236985,1,0,0:0:0:0:
256,192,237073,1,8,0:0:0:0:
256,192,237162,1,8,0:0:0:0:
256,192,237250,1,0,0:0:0:0:
256,192,237338,1,8,0:0:0:0:
256,192,237426,1,0,0:0:0:0:
256,192,237514,1,0,0:0:0:0:
256,192,237691,1,8,0:0:0:0:
256,192,237867,1,8,0:0:0:0:
256,192,237956,1,0,0:0:0:0:
256,192,238044,1,0,0:0:0:0:
256,192,238132,1,8,0:0:0:0:
256,192,238220,1,0,0:0:0:0:
256,192,238397,1,8,0:0:0:0:
256,192,238485,1,8,0:0:0:0:
256,192,238573,1,0,0:0:0:0:
256,192,238662,1,8,0:0:0:0:
256,192,238750,1,0,0:0:0:0:
256,192,238926,1,8,0:0:0:0:
256,192,239014,1,8,0:0:0:0:
256,192,239103,1,8,0:0:0:0:
256,192,239191,1,0,0:0:0:0:
256,192,239279,1,8,0:0:0:0:
256,192,239456,1,8,0:0:0:0:
256,192,239544,1,0,0:0:0:0:
256,192,239632,1,0,0:0:0:0:
256,192,239809,1,8,0:0:0:0:
256,192,239897,1,8,0:0:0:0:
256,192,239985,1,0,0:0:0:0:
256,192,240073,1,8,0:0:0:0:
256,192,240162,1,0,0:0:0:0:
256,192,240250,1,8,0:0:0:0:
256,192,240338,1,0,0:0:0:0:
256,192,240514,1,8,0:0:0:0:
256,192,240691,1,4,0:0:0:0:
256,192,240867,1,0,0:0:0:0:
256,192,240956,1,8,0:0:0:0:
256,192,241044,1,0,0:0:0:0:
256,192,241220,1,0,0:0:0:0:
256,192,241309,1,8,0:0:0:0:
256,192,241485,1,8,0:0:0:0:
256,192,241573,1,0,0:0:0:0:
256,192,241750,1,0,0:0:0:0:
256,192,241838,1,8,0:0:0:0:
256,192,241926,1,0,0:0:0:0:
256,192,242014,1,0,0:0:0:0:
256,192,242103,1,8,0:0:0:0:
256,192,242279,1,0,0:0:0:0:
256,192,242367,1,8,0:0:0:0:
256,192,242544,1,8,0:0:0:0:
256,192,242632,1,0,0:0:0:0:
256,192,242809,1,0,0:0:0:0:
256,192,242897,1,8,0:0:0:0:
256,192,242985,1,8,0:0:0:0:
256,192,243073,1,0,0:0:0:0:
256,192,243162,1,0,0:0:0:0:
256,192,243250,1,8,0:0:0:0:
256,192,243338,1,0,0:0:0:0:
256,192,243514,1,8,0:0:0:0:
256,192,243603,1,0,0:0:0:0:
256,192,243691,1,0,0:0:0:0:
256,192,243779,1,0,0:0:0:0:
256,192,243867,1,8,0:0:0:0:
256,192,244044,1,8,0:0:0:0:
256,192,244132,1,0,0:0:0:0:
256,192,244220,1,0,0:0:0:0:
256,192,244309,1,8,0:0:0:0:
256,192,244397,1,8,0:0:0:0:
256,192,244573,1,8,0:0:0:0:
256,192,244662,1,8,0:0:0:0:
256,192,244750,1,0,0:0:0:0:
256,192,244838,1,0,0:0:0:0:
256,192,244926,1,8,0:0:0:0:
256,192,245103,1,8,0:0:0:0:
256,192,245191,1,0,0:0:0:0:
256,192,245279,1,0,0:0:0:0:
256,192,245367,1,8,0:0:0:0:
256,192,245456,1,0,0:0:0:0:
256,192,245632,1,8,0:0:0:0:
256,192,245720,1,8,0:0:0:0:
256,192,245897,1,8,0:0:0:0:
256,192,245985,1,0,0:0:0:0:
256,192,246162,1,8,0:0:0:0:
256,192,246338,1,8,0:0:0:0:
256,192,246426,1,0,0:0:0:0:
256,192,246514,1,8,0:0:0:0:
256,192,246603,1,0,0:0:0:0:
256,192,246691,1,0,0:0:0:0:
256,192,246867,1,8,0:0:0:0:
256,192,247044,1,0,0:0:0:0:
256,192,247220,1,8,0:0:0:0:
256,192,247309,1,0,0:0:0:0:
256,192,247397,1,0,0:0:0:0:
256,192,247485,1,8,0:0:0:0:
256,192,247662,1,0,0:0:0:0:
256,192,247750,1,8,0:0:0:0:
256,192,247926,1,0,0:0:0:0:
256,192,248103,1,8,0:0:0:0:
256,192,248279,1,0,0:0:0:0:
256,192,248367,1,8,0:0:0:0:
256,192,248456,1,8,0:0:0:0:
256,192,248632,1,8,0:0:0:0:
256,192,248720,1,0,0:0:0:0:
256,192,248897,1,8,0:0:0:0:
256,192,248985,1,0,0:0:0:0:
256,192,249162,1,8,0:0:0:0:
256,192,249338,1,8,0:0:0:0:
256,192,249426,1,0,0:0:0:0:
256,192,249603,1,0,0:0:0:0:
256,192,249691,1,8,0:0:0:0:
256,192,249867,1,0,0:0:0:0:
256,192,249956,1,8,0:0:0:0:
256,192,250132,1,0,0:0:0:0:
256,192,250220,1,8,0:0:0:0:
256,192,250309,1,8,0:0:0:0:
256,192,250397,1,0,0:0:0:0:
256,192,250573,1,8,0:0:0:0:
256,192,250662,1,0,0:0:0:0:
256,192,250838,1,0,0:0:0:0:
256,192,250926,1,8,0:0:0:0:
256,192,251103,1,8,0:0:0:0:
256,192,251191,1,0,0:0:0:0:
256,192,251279,1,8,0:0:0:0:
256,192,251367,1,0,0:0:0:0:
256,192,251456,1,8,0:0:0:0:
256,192,251632,1,0,0:0:0:0:
256,192,251720,1,0,0:0:0:0:
256,192,251809,1,8,0:0:0:0:
256,192,251985,1,4,0:0:0:0:
256,192,252250,1,0,0:0:0:0:
256,192,252338,1,8,0:0:0:0:
256,192,252514,1,8,0:0:0:0:
256,192,252603,1,8,0:0:0:0:
256,192,252779,1,8,0:0:0:0:
256,192,252867,1,0,0:0:0:0:
256,192,253044,1,8,0:0:0:0:
256,192,253220,1,0,0:0:0:0:
256,192,253309,1,0,0:0:0:0:
256,192,253397,1,8,0:0:0:0:
256,192,253573,1,0,0:0:0:0:
256,192,253750,1,8,0:0:0:0:
256,192,253838,1,0,0:0:0:0:
256,192,253926,1,0,0:0:0:0:
256,192,254014,1,8,0:0:0:0:
256,192,254103,1,8,0:0:0:0:
256,192,254279,1,8,0:0:0:0:
256,192,254456,1,0,0:0:0:0:
256,192,254544,1,0,0:0:0:0:
256,192,254632,1,8,0:0:0:0:
256,192,254809,1,8,0:0:0:0:
256,192,254897,1,0,0:0:0:0:
256,192,255073,1,8,0:0:0:0:
256,192,255162,1,0,0:0:0:0:
256,192,255338,1,0,0:0:0:0:
256,192,255426,1,8,0:0:0:0:
256,192,255603,1,8,0:0:0:0:
256,192,255691,1,0,0:0:0:0:
256,192,255867,1,8,0:0:0:0:
256,192,256044,1,8,0:0:0:0:
256,192,256132,1,0,0:0:0:0:
256,192,256220,1,0,0:0:0:0:
256,192,256397,1,8,0:0:0:0:
256,192,256573,1,8,0:0:0:0:
256,192,256662,1,0,0:0:0:0:
256,192,256750,1,0,0:0:0:0:
256,192,256838,1,8,0:0:0:0:
256,192,256926,1,0,0:0:0:0:
256,192,257103,1,8,0:0:0:0:
256,192,257279,1,0,0:0:0:0:
256,192,257367,1,0,0:0:0:0:
256,192,257456,1,8,0:0:0:0:
256,192,257632,1,8,0:0:0:0:
256,192,257720,1,0,0:0:0:0:
256,192,257897,1,8,0:0:0:0:
256,192,257985,1,0,0:0:0:0:
256,192,258162,1,8,0:0:0:0:
256,192,258250,1,8,0:0:0:0:
256,192,258426,1,8,0:0:0:0:
256,192,258514,1,0,0:0:0:0:
256,192,258691,1,8,0:0:0:0:
256,192,258867,1,0,0:0:0:0:
256,192,258956,1,8,0:0:0:0:
256,192,259044,1,0,0:0:0:0:
256,192,259220,1,8,0:0:0:0:
256,192,259397,1,0,0:0:0:0:
256,192,259485,1,8,0:0:0:0:
256,192,259573,1,8,0:0:0:0:
256,192,259662,1,0,0:0:0:0:
256,192,259750,1,0,0:0:0:0:
256,192,259926,1,8,0:0:0:0:
256,192,260103,1,0,0:0:0:0:
256,192,260191,1,0,0:0:0:0:
256,192,260279,1,8,0:0:0:0:
256,192,260456,1,8,0:0:0:0:
256,192,260544,1,8,0:0:0:0:
256,192,260720,1,0,0:0:0:0:
256,192,260809,1,0,0:0:0:0:
256,192,260985,1,0,0:0:0:0:
256,192,261073,1,8,0:0:0:0:
256,192,261250,1,8,0:0:0:0:
256,192,261338,1,0,0:0:0:0:
256,192,261514,1,8,0:0:0:0:
256,192,261691,1,0,0:0:0:0:
256,192,261779,1,0,0:0:0:0:
256,192,261867,1,8,0:0:0:0:
256,192,262044,1,0,0:0:0:0:
256,192,262220,1,8,0:0:0:0:
256,192,262309,1,0,0:0:0:0:
256,192,262397,1,0,0:0:0:0:
256,192,262485,1,0,0:0:0:0:
256,192,262573,1,8,0:0:0:0:
256,192,262750,1,8,0:0:0:0:
256,192,262926,1,0,0:0:0:0:
256,192,263014,1,0,0:0:0:0:
256,192,263103,1,8,0:0:0:0:
256,192,263279,1,4,0:0:0:0:
256,192,263544,1,0,0:0:0:0:
256,192,263632,1,8,0:0:0:0:
256,192,263809,1,8,0:0:0:0:
256,192,263897,1,8,0:0:0:0:
256,192,264073,1,8,0:0:0:0:
256,192,264162,1,0,0:0:0:0:
256,192,264338,1,8,0:0:0:0:
256,192,264514,1,0,0:0:0:0:
256,192,264603,1,0,0:0:0:0:
256,192,264691,1,0,0:0:0:0:
256,192,264867,1,0,0:0:0:0:
256,192,265044,1,8,0:0:0:0:
256,192,265132,1,8,0:0:0:0:
256,192,265220,1,0,0:0:0:0:
256,192,265309,1,0,0:0:0:0:
256,192,265397,1,8,0:0:0:0:
256,192,265573,1,8,0:0:0:0:
256,192,265750,1,0,0:0:0:0:
256,192,265838,1,8,0:0:0:0:
256,192,265926,1,8,0:0:0:0:
256,192,266103,1,8,0:0:0:0:
256,192,266191,1,0,0:0:0:0:
256,192,266367,1,0,0:0:0:0:
256,192,266456,1,8,0:0:0:0:
256,192,266632,1,8,0:0:0:0:
256,192,266720,1,0,0:0:0:0:
256,192,266897,1,0,0:0:0:0:
256,192,266985,1,8,0:0:0:0:
256,192,267162,1,8,0:0:0:0:
256,192,267338,1,0,0:0:0:0:
256,192,267426,1,0,0:0:0:0:
256,192,267514,1,8,0:0:0:0:
256,192,267691,1,0,0:0:0:0:
256,192,267867,1,0,0:0:0:0:
256,192,267956,1,8,0:0:0:0:
256,192,268044,1,8,0:0:0:0:
256,192,268132,1,0,0:0:0:0:
256,192,268220,1,8,0:0:0:0:
256,192,268397,1,8,0:0:0:0:
256,192,268573,1,0,0:0:0:0:
256,192,268662,1,0,0:0:0:0:
256,192,268750,1,8,0:0:0:0:
256,192,268926,1,8,0:0:0:0:
256,192,269014,1,0,0:0:0:0:
256,192,269191,1,8,0:0:0:0:
256,192,269279,1,8,0:0:0:0:
256,192,269456,1,0,0:0:0:0:
256,192,269544,1,0,0:0:0:0:
256,192,269720,1,8,0:0:0:0:
256,192,269809,1,0,0:0:0:0:
256,192,269985,1,0,0:0:0:0:
256,192,270162,1,0,0:0:0:0:
256,192,270250,1,0,0:0:0:0:
256,192,270338,1,0,0:0:0:0:
256,192,270514,1,0,0:0:0:0:
256,192,270691,1,8,0:0:0:0:
256,192,270779,1,0,0:0:0:0:
256,192,270867,1,0,0:0:0:0:
256,192,270956,1,8,0:0:0:0:
256,192,271044,1,0,0:0:0:0:
256,192,271220,1,8,0:0:0:0:
256,192,271397,1,0,0:0:0:0:
256,192,271485,1,0,0:0:0:0:
256,192,271573,1,8,0:0:0:0:
256,192,271750,1,0,0:0:0:0:
256,192,271838,1,8,0:0:0:0:
256,192,272014,1,8,0:0:0:0:
256,192,272103,1,0,0:0:0:0:
256,192,272279,1,0,0:0:0:0:
256,192,272367,1,8,0:0:0:0:
256,192,272544,1,8,0:0:0:0:
256,192,272632,1,0,0:0:0:0:
256,192,272809,1,0,0:0:0:0:
256,192,272985,1,0,0:0:0:0:
256,192,273073,1,0,0:0:0:0:
256,192,273162,1,8,0:0:0:0:
256,192,273250,1,8,0:0:0:0:
256,192,273338,1,8,0:0:0:0:
256,192,273514,1,0,0:0:0:0:
256,192,273603,1,0,0:0:0:0:
256,192,273691,1,0,0:0:0:0:
256,192,273867,1,8,0:0:0:0:
256,192,273956,1,8,0:0:0:0:
256,192,274044,1,8,0:0:0:0:
256,192,274220,1,8,0:0:0:0:
256,192,274309,1,8,0:0:0:0:
256,192,274397,1,0,0:0:0:0:
256,192,274573,1,12,0:0:0:0:
256,192,274838,1,8,0:0:0:0:
256,192,275103,1,8,0:0:0:0:
256,192,275367,1,8,0:0:0:0:
256,192,275544,1,0,0:0:0:0:
256,192,275632,1,8,0:0:0:0:
256,192,275809,1,0,0:0:0:0:
256,192,275897,1,8,0:0:0:0:
256,192,276162,1,8,0:0:0:0:
256,192,276338,1,0,0:0:0:0:
256,192,276426,1,8,0:0:0:0:
256,192,276603,1,8,0:0:0:0:
256,192,276691,1,8,0:0:0:0:
256,192,276867,1,0,0:0:0:0:
256,192,276956,1,8,0:0:0:0:
256,192,277044,1,8,0:0:0:0:
256,192,277220,1,8,0:0:0:0:
256,192,277397,1,8,0:0:0:0:
256,192,277662,1,8,0:0:0:0:
256,192,277926,1,8,0:0:0:0:
256,192,278191,1,8,0:0:0:0:
256,192,278456,1,8,0:0:0:0:
256,192,278632,1,0,0:0:0:0:
256,192,278720,1,8,0:0:0:0:
256,192,278985,1,8,0:0:0:0:
256,192,279250,1,8,0:0:0:0:
256,192,279426,1,0,0:0:0:0:
256,192,279514,1,8,0:0:0:0:
256,192,279603,1,0,0:0:0:0:
256,192,279779,1,8,0:0:0:0:
256,192,279867,1,8,0:0:0:0:
256,192,280044,1,8,0:0:0:0:
256,192,280220,1,8,0:0:0:0:
256,192,280485,1,8,0:0:0:0:
256,192,280750,1,8,0:0:0:0:
256,192,281014,1,8,0:0:0:0:
256,192,281191,1,0,0:0:0:0:
256,192,281279,1,8,0:0:0:0:
256,192,281456,1,0,0:0:0:0:
256,192,281544,1,8,0:0:0:0:
256,192,281809,1,8,0:0:0:0:
256,192,281985,1,0,0:0:0:0:
256,192,282073,1,8,0:0:0:0:
256,192,282250,1,8,0:0:0:0:
256,192,282338,1,8,0:0:0:0:
256,192,282514,1,0,0:0:0:0:
256,192,282603,1,8,0:0:0:0:
256,192,282691,1,8,0:0:0:0:
256,192,282867,1,8,0:0:0:0:
256,192,283044,1,8,0:0:0:0:
256,192,283309,1,8,0:0:0:0:
256,192,283573,1,8,0:0:0:0:
256,192,283838,1,8,0:0:0:0:
256,192,284103,1,8,0:0:0:0:
256,192,284279,1,0,0:0:0:0:
256,192,284367,1,8,0:0:0:0:
256,192,284632,1,8,0:0:0:0:
256,192,284897,1,8,0:0:0:0:
256,192,285073,1,0,0:0:0:0:
256,192,285161,1,8,0:0:0:0:
256,192,285250,1,0,0:0:0:0:
256,192,285426,1,8,0:0:0:0:
256,192,285514,1,8,0:0:0:0:
256,192,285691,1,8,0:0:0:0:
256,192,285867,1,12,0:0:0:0:
256,192,286132,1,8,0:0:0:0:
256,192,286397,1,8,0:0:0:0:
256,192,286661,1,8,0:0:0:0:
256,192,286838,1,0,0:0:0:0:
256,192,286926,1,8,0:0:0:0:
256,192,287103,1,0,0:0:0:0:
256,192,287191,1,8,0:0:0:0:
256,192,287456,1,8,0:0:0:0:
256,192,287632,1,0,0:0:0:0:
256,192,287720,1,8,0:0:0:0:
256,192,287897,1,8,0:0:0:0:
256,192,287985,1,8,0:0:0:0:
256,192,288161,1,0,0:0:0:0:
256,192,288250,1,8,0:0:0:0:
256,192,288338,1,8,0:0:0:0:
256,192,288514,1,8,0:0:0:0:
256,192,288691,1,8,0:0:0:0:
256,192,288956,1,8,0:0:0:0:
256,192,289220,1,8,0:0:0:0:
256,192,289485,1,8,0:0:0:0:
256,192,289750,1,8,0:0:0:0:
256,192,289926,1,0,0:0:0:0:
256,192,290014,1,8,0:0:0:0:
256,192,290279,1,8,0:0:0:0:
256,192,290544,1,8,0:0:0:0:
256,192,290720,1,0,0:0:0:0:
256,192,290808,1,8,0:0:0:0:
256,192,290897,1,0,0:0:0:0:
256,192,291073,1,8,0:0:0:0:
256,192,291161,1,8,0:0:0:0:
256,192,291338,1,8,0:0:0:0:
256,192,291514,1,8,0:0:0:0:
256,192,291779,1,8,0:0:0:0:
256,192,292044,1,8,0:0:0:0:
256,192,292308,1,8,0:0:0:0:
256,192,292485,1,0,0:0:0:0:
256,192,292573,1,8,0:0:0:0:
256,192,292750,1,0,0:0:0:0:
256,192,292838,1,8,0:0:0:0:
256,192,293103,1,8,0:0:0:0:
256,192,293279,1,0,0:0:0:0:
256,192,293367,1,8,0:0:0:0:
256,192,293544,1,8,0:0:0:0:
256,192,293632,1,8,0:0:0:0:
256,192,293808,1,0,0:0:0:0:
256,192,293897,1,8,0:0:0:0:
256,192,293985,1,8,0:0:0:0:
256,192,294161,1,8,0:0:0:0:
256,192,294338,1,8,0:0:0:0:
256,192,294603,1,8,0:0:0:0:
256,192,294867,1,8,0:0:0:0:
256,192,295132,1,8,0:0:0:0:
256,192,295397,1,8,0:0:0:0:
256,192,295573,1,0,0:0:0:0:
256,192,295661,1,8,0:0:0:0:
256,192,295926,1,8,0:0:0:0:
256,192,296191,1,8,0:0:0:0:
256,192,296367,1,0,0:0:0:0:
256,192,296455,1,8,0:0:0:0:
256,192,296544,1,0,0:0:0:0:
256,192,296720,1,8,0:0:0:0:
256,192,296808,1,8,0:0:0:0:
256,192,296985,1,8,0:0:0:0:
256,192,297161,1,12,0:0:0:0:
256,192,297338,12,0,308279,0:0:0:0:
256,192,308456,5,4,0:0:0:0:
