osu file format v14

[General]
AudioFilename: Shoji_Meguro-Memories_of_You_Aethral_Remix_.mp3
AudioLeadIn: 0
PreviewTime: 80930
Countdown: 0
SampleSet: Soft
StackLeniency: 0.7
Mode: 3
LetterboxInBreaks: 0
SpecialStyle: 0
WidescreenStoryboard: 1

[Editor]
DistanceSpacing: 0.8
BeatDivisor: 4
GridSize: 32
TimelineZoom: 2.3

[Metadata]
Title:Kimi no Kioku (Aethral Remix)
TitleUnicode:キミの記憶 (Aethral Remix)
Artist:Shoji Meguro
ArtistUnicode:目黒 将司
Creator:JessiChan
Version:Memories
Source:ペルソナ3
Tags:persona 3 shin megami tensei memories of you PSP SMT P3 [_m_o_m_o_] dnb drum n' bass electronic Yumi Kawamura
BeatmapID:1064908
BeatmapSetID:481942

[Difficulty]
HPDrainRate:8.5
CircleSize:4
OverallDifficulty:8.5
ApproachRate:7
SliderMultiplier:1.40159980373383
SliderTickRate:1

[Events]
//Background and Video events
0,0,"BG.jpg",0,0
//Break Periods
//Storyboard Layer 0 (Background)
//Storyboard Layer 1 (Fail)
//Storyboard Layer 2 (Pass)
//Storyboard Layer 3 (Foreground)
//Storyboard Sound Samples

[TimingPoints]
3515,352.941176470588,4,2,1,40,1,0
3515,-100,4,2,1,40,0,0
24636,-100,4,2,2,70,0,0
26048,-100,4,2,1,40,0,0
30107,-100,4,2,1,40,0,0
30460,-100,4,2,1,40,0,0
31165,-100,4,2,1,40,0,0
31518,-100,4,2,1,40,0,0
31695,-100,4,2,1,40,0,0
41401,-100,4,2,1,40,0,0
41754,-100,4,2,1,40,0,0
42460,-100,4,2,1,40,0,0
42989,-100,4,2,1,40,0,0
43089,-100,4,2,1,40,0,0
47224,-100,4,2,2,70,0,0
48636,-100,4,2,1,40,0,0
69812,-100,4,2,2,70,0,0
71224,-119.047619047619,4,2,1,90,0,0
71224,-119.047619047619,4,2,1,90,0,0
78636,-116.279069767442,4,2,2,70,0,0
78636,-116.279069767442,4,2,2,70,0,0
78989,-113.636363636364,4,2,2,70,0,0
79165,-111.111111111111,4,2,2,70,0,0
79342,-108.695652173913,4,2,2,70,0,0
79518,-106.382978723404,4,2,2,70,0,0
79695,-104.166666666667,4,2,2,70,0,0
79871,-102.040816326531,4,2,2,70,0,0
80048,-100,4,2,2,70,0,0
80136,-100,4,2,2,70,0,0
80312,-100,4,2,2,70,0,0
80930,-100,4,2,2,70,0,0
82518,-100,4,2,1,40,0,0
92401,-100,4,2,2,70,0,0
93812,-100,4,2,1,40,0,0
103695,-100,4,2,2,70,0,0
105107,-100,4,2,1,40,0,0
105283,-100,4,2,1,40,0,0
127872,-100,4,2,1,40,0,0
150283,-119.047619047619,4,2,1,90,0,0
155930,-119.047619047619,4,2,1,40,0,0
156107,-119.047619047619,4,2,1,90,0,0
157255,-119.047619047619,4,2,1,90,0,0
157695,-116.279069767442,4,2,2,70,0,0
158048,-113.636363636364,4,2,2,70,0,0
158224,-111.111111111111,4,2,2,70,0,0
158401,-108.695652173913,4,2,2,70,0,0
158489,-106.382978723404,4,2,2,70,0,0
158578,-104.166666666667,4,2,2,70,0,0
158665,-102.040816326531,4,2,2,70,0,0
158754,-100,4,2,2,70,0,0
161632,-100,4,2,1,40,0,1
184220,-100,4,2,1,40,0,0
184309,-100,4,2,1,40,0,0
205342,-100,4,2,2,70,0,0
206755,-111.111111111111,4,2,1,90,0,0
218049,-111.111111111111,4,2,1,40,0,0
223696,-111.111111111111,4,2,1,40,0,0
225283,-111.111111111111,4,2,2,70,0,0
225637,-111.111111111111,4,2,2,70,0,0
226342,-109.89010989011,4,2,2,70,0,0
226519,-108.695652173913,4,2,2,70,0,0
226607,-107.52688172043,4,2,2,70,0,0
226695,-106.382978723404,4,2,2,70,0,0
226871,-105.263157894737,4,2,2,70,0,0
227048,-104.166666666667,4,2,2,70,0,0
227136,-103.092783505155,4,2,2,70,0,0
227224,-102.040816326531,4,2,2,70,0,0
227401,-101.010101010101,4,2,2,70,0,0
227577,-100,4,2,2,70,0,0
229397,-100,4,2,1,40,0,1
251985,-100,4,2,1,40,0,0
252073,-100,4,2,1,40,0,0
268872,-100,4,2,1,40,0,0
271696,-100,4,2,1,40,0,0
272931,-100,4,2,1,40,0,0
273107,-100,4,2,2,70,0,0
274506,-100,4,2,1,5,0,0

[HitObjects]
448,192,3515,5,4,0:0:0:0:
320,192,3515,1,0,0:0:0:0:
64,192,3515,1,0,0:0:0:0:
192,192,3603,1,0,0:0:0:0:
448,192,3779,1,0,0:0:0:0:
320,192,3867,1,8,0:0:0:0:
192,192,3867,1,0,0:0:0:0:
448,192,4044,1,0,0:0:0:0:
320,192,4132,1,0,0:0:0:0:
64,192,4220,1,0,0:0:0:0:
320,192,4309,1,0,0:0:0:0:
192,192,4397,1,0,0:0:0:0:
64,192,4485,1,0,0:0:0:0:
448,192,4573,1,0,0:0:0:0:
320,192,4573,1,8,0:0:0:0:
64,192,4750,1,0,0:0:0:0:
192,192,4838,1,0,0:0:0:0:
320,192,4926,1,0,0:0:0:0:
448,192,4926,1,0,0:0:0:0:
448,192,5103,1,0,0:0:0:0:
192,192,5191,1,0,0:0:0:0:
320,192,5279,1,8,0:0:0:0:
448,192,5279,1,0,0:0:0:0:
64,192,5456,1,0,0:0:0:0:
192,192,5544,1,0,0:0:0:0:
448,192,5632,1,0,0:0:0:0:
192,192,5720,1,0,0:0:0:0:
64,192,5809,1,0,0:0:0:0:
192,192,5897,1,0,0:0:0:0:
320,192,5985,1,8,0:0:0:0:
448,192,5985,1,0,0:0:0:0:
64,192,6162,1,0,0:0:0:0:
448,192,6250,1,0,0:0:0:0:
320,192,6338,1,0,0:0:0:0:
192,192,6338,1,0,0:0:0:0:
64,192,6426,1,0,0:0:0:0:
448,192,6514,1,0,0:0:0:0:
320,192,6603,1,0,0:0:0:0:
192,192,6691,1,8,0:0:0:0:
64,192,6691,1,0,0:0:0:0:
64,192,6867,1,0,0:0:0:0:
320,192,6956,1,0,0:0:0:0:
192,192,7044,1,0,0:0:0:0:
448,192,7132,1,0,0:0:0:0:
320,192,7220,1,0,0:0:0:0:
64,192,7309,1,0,0:0:0:0:
448,192,7397,1,0,0:0:0:0:
192,192,7397,1,8,0:0:0:0:
448,192,7573,1,0,0:0:0:0:
320,192,7662,1,0,0:0:0:0:
192,192,7750,1,0,0:0:0:0:
64,192,7750,1,0,0:0:0:0:
448,192,7838,1,0,0:0:0:0:
320,192,7926,1,0,0:0:0:0:
192,192,8014,1,0,0:0:0:0:
448,192,8103,1,8,0:0:0:0:
64,192,8103,1,0,0:0:0:0:
192,192,8279,1,0,0:0:0:0:
64,192,8367,1,0,0:0:0:0:
448,192,8456,1,0,0:0:0:0:
192,192,8544,1,0,0:0:0:0:
64,192,8632,1,0,0:0:0:0:
192,192,8720,1,0,0:0:0:0:
320,192,8809,1,0,0:0:0:0:
448,192,8809,1,8,0:0:0:0:
192,192,8985,1,0,0:0:0:0:
320,192,9073,1,0,0:0:0:0:
448,192,9162,1,0,0:0:0:0:
192,192,9162,1,4,0:0:0:0:
64,192,9162,1,0,0:0:0:0:
320,192,9250,1,0,0:0:0:0:
64,192,9426,1,0,0:0:0:0:
192,192,9514,1,0,0:0:0:0:
320,192,9514,1,8,0:0:0:0:
448,192,9691,1,0,0:0:0:0:
320,192,9779,1,0,0:0:0:0:
64,192,9867,1,0,0:0:0:0:
320,192,9956,1,0,0:0:0:0:
192,192,10044,1,0,0:0:0:0:
320,192,10220,1,8,0:0:0:0:
64,192,10220,1,0,0:0:0:0:
448,192,10397,1,0,0:0:0:0:
320,192,10485,1,0,0:0:0:0:
192,192,10573,1,0,0:0:0:0:
64,192,10573,1,0,0:0:0:0:
448,192,10662,1,0,0:0:0:0:
320,192,10750,1,0,0:0:0:0:
192,192,10838,1,0,0:0:0:0:
448,192,10926,1,0,0:0:0:0:
64,192,10926,1,8,0:0:0:0:
192,192,11103,1,0,0:0:0:0:
64,192,11191,1,0,0:0:0:0:
448,192,11279,1,0,0:0:0:0:
192,192,11367,1,0,0:0:0:0:
64,192,11456,1,0,0:0:0:0:
192,192,11632,1,8,0:0:0:0:
448,192,11632,1,0,0:0:0:0:
320,192,11809,1,0,0:0:0:0:
448,192,11897,1,0,0:0:0:0:
64,192,11985,1,0,0:0:0:0:
320,192,11985,1,4,0:0:0:0:
192,192,11985,1,0,0:0:0:0:
448,192,12073,1,0,0:0:0:0:
320,192,12250,1,0,0:0:0:0:
192,192,12338,1,8,0:0:0:0:
64,192,12338,1,0,0:0:0:0:
448,192,12514,1,0,0:0:0:0:
320,192,12603,1,0,0:0:0:0:
64,192,12691,1,0,0:0:0:0:
192,192,12691,1,0,0:0:0:0:
448,192,12691,1,4,0:0:0:0:
320,192,12867,1,0,0:0:0:0:
64,192,12956,1,0,0:0:0:0:
192,192,13044,1,8,0:0:0:0:
448,192,13044,1,0,0:0:0:0:
448,192,13220,1,0,0:0:0:0:
320,192,13309,1,0,0:0:0:0:
64,192,13397,1,0,0:0:0:0:
192,192,13397,1,4,0:0:0:0:
448,192,13397,1,0,0:0:0:0:
320,192,13573,1,0,0:0:0:0:
448,192,13662,1,0,0:0:0:0:
64,192,13750,1,0,0:0:0:0:
320,192,13750,1,4,0:0:0:0:
192,192,13750,1,0,0:0:0:0:
192,192,13926,1,0,0:0:0:0:
320,192,14014,1,0,0:0:0:0:
64,192,14103,1,0,0:0:0:0:
448,192,14103,1,4,0:0:0:0:
192,192,14103,1,0,0:0:0:0:
320,192,14191,1,0,0:0:0:0:
192,192,14279,1,0,0:0:0:0:
64,192,14367,1,0,0:0:0:0:
192,192,14456,1,0,0:0:0:0:
320,192,14456,1,0,0:0:0:0:
448,192,14456,1,4,0:0:0:0:
64,192,14632,1,0,0:0:0:0:
192,192,14720,1,0,0:0:0:0:
64,192,14809,1,0,0:0:0:0:
320,192,14809,1,4,0:0:0:0:
448,192,14809,1,0,0:0:0:0:
192,192,14897,1,0,0:0:0:0:
448,192,15073,1,0,0:0:0:0:
192,192,15162,1,2,0:0:0:0:
320,192,15162,1,0,0:0:0:0:
64,192,15338,1,0,0:0:0:0:
192,192,15426,1,0,0:0:0:0:
320,192,15514,1,0,0:0:0:0:
448,192,15514,1,0,0:0:0:0:
64,192,15603,1,0,0:0:0:0:
320,192,15691,1,0,0:0:0:0:
192,192,15867,1,2,0:0:0:0:
64,192,15867,1,0,0:0:0:0:
448,192,16044,1,0,0:0:0:0:
64,192,16132,1,0,0:0:0:0:
320,192,16220,1,0,0:0:0:0:
448,192,16309,1,0,0:0:0:0:
64,192,16397,1,0,0:0:0:0:
192,192,16485,1,0,0:0:0:0:
320,192,16573,1,2,0:0:0:0:
448,192,16573,1,0,0:0:0:0:
192,192,16750,1,0,0:0:0:0:
320,192,16838,1,0,0:0:0:0:
64,192,16926,1,0,0:0:0:0:
320,192,17014,1,0,0:0:0:0:
448,192,17103,1,0,0:0:0:0:
64,192,17279,1,2,0:0:0:0:
320,192,17279,1,0,0:0:0:0:
448,192,17456,1,0,0:0:0:0:
320,192,17544,1,0,0:0:0:0:
64,192,17632,1,0,0:0:0:0:
192,192,17632,1,0,0:0:0:0:
448,192,17720,1,0,0:0:0:0:
64,192,17897,1,0,0:0:0:0:
320,192,17985,1,2,0:0:0:0:
192,192,17985,1,0,0:0:0:0:
448,192,18162,1,0,0:0:0:0:
320,192,18250,1,0,0:0:0:0:
64,192,18338,1,0,0:0:0:0:
320,192,18426,1,0,0:0:0:0:
192,192,18514,1,0,0:0:0:0:
448,192,18691,1,0,0:0:0:0:
320,192,18691,1,2,0:0:0:0:
64,192,18867,1,0,0:0:0:0:
320,192,18956,1,0,0:0:0:0:
192,192,19044,1,0,0:0:0:0:
448,192,19132,1,0,0:0:0:0:
320,192,19220,1,0,0:0:0:0:
192,192,19309,1,0,0:0:0:0:
64,192,19397,1,2,0:0:0:0:
448,192,19397,1,0,0:0:0:0:
320,192,19573,1,0,0:0:0:0:
64,192,19662,1,0,0:0:0:0:
448,192,19750,1,0,0:0:0:0:
192,192,19838,1,0,0:0:0:0:
320,192,19926,1,0,0:0:0:0:
320,192,20103,1,2,0:0:0:0:
192,192,20103,1,0,0:0:0:0:
64,192,20279,1,0,0:0:0:0:
448,192,20367,1,0,0:0:0:0:
64,192,20456,1,0,0:0:0:0:
320,192,20456,1,4,0:0:0:0:
192,192,20456,1,0,0:0:0:0:
448,192,20544,1,0,0:0:0:0:
192,192,20720,1,0,0:0:0:0:
64,192,20809,1,0,0:0:0:0:
320,192,20809,1,2,0:0:0:0:
448,192,20985,1,0,0:0:0:0:
320,192,21073,1,0,0:0:0:0:
64,192,21162,1,0,0:0:0:0:
320,192,21250,1,0,0:0:0:0:
192,192,21338,1,0,0:0:0:0:
448,192,21514,1,2,0:0:0:0:
64,192,21514,1,0,0:0:0:0:
320,192,21691,1,0,0:0:0:0:
192,192,21779,1,0,0:0:0:0:
320,192,21867,1,0,0:0:0:0:
448,192,21867,1,0,0:0:0:0:
64,192,21956,1,0,0:0:0:0:
192,192,22044,1,0,0:0:0:0:
320,192,22132,1,0,0:0:0:0:
192,192,22220,1,2,0:0:0:0:
64,192,22220,1,0,0:0:0:0:
448,192,22397,1,0,0:0:0:0:
320,192,22485,1,0,0:0:0:0:
64,192,22573,1,0,0:0:0:0:
448,192,22662,1,0,0:0:0:0:
320,192,22750,1,0,0:0:0:0:
192,192,22926,1,2,0:0:0:0:
64,192,22926,1,0,0:0:0:0:
448,192,23103,1,0,0:0:0:0:
320,192,23191,1,0,0:0:0:0:
64,192,23279,1,0,0:0:0:0:
192,192,23279,1,0,0:0:0:0:
448,192,23279,1,4,0:0:0:0:
320,192,23367,1,0,0:0:0:0:
64,192,23544,1,0,0:0:0:0:
192,192,23632,1,0,0:0:0:0:
320,192,23632,1,2,0:0:0:0:
448,192,23809,1,0,0:0:0:0:
192,192,23897,1,0,0:0:0:0:
64,192,23985,1,0,0:0:0:0:
448,192,23985,1,0,0:0:0:0:
320,192,23985,1,4,0:0:0:0:
192,192,24162,1,0,0:0:0:0:
320,192,24250,1,0,0:0:0:0:
192,192,24338,1,2,0:0:0:0:
64,192,24338,1,0,0:0:0:0:
448,192,24514,1,0,0:0:0:0:
320,192,24603,1,0,0:0:0:0:
64,192,24691,1,0,0:0:0:0:
192,192,24691,1,4,0:0:0:0:
448,192,24779,1,0,0:0:0:0:
320,192,24779,1,4,0:0:0:0:
192,192,24867,1,4,0:0:0:0:
64,192,24867,1,0,0:0:0:0:
320,192,25044,1,0,0:0:0:0:
192,192,25044,1,4,0:0:0:0:
64,192,25132,1,0,0:0:0:0:
448,192,25132,1,4,0:0:0:0:
320,192,25220,1,4,0:0:0:0:
192,192,25220,1,0,0:0:0:0:
64,192,25397,1,0,0:0:0:0:
320,192,25397,1,4,0:0:0:0:
192,192,25485,1,0,0:0:0:0:
448,192,25485,1,4,0:0:0:0:
320,192,25573,1,4,0:0:0:0:
64,192,25573,1,0,0:0:0:0:
64,192,25750,1,0,0:0:0:0:
192,192,25750,1,0,0:0:0:0:
448,192,25838,1,0,0:0:0:0:
320,192,25838,1,0,0:0:0:0:
64,192,25926,1,0,0:0:0:0:
192,192,25926,1,0,0:0:0:0:
320,192,26014,1,0,0:0:0:0:
448,192,26014,1,0,0:0:0:0:
64,192,26103,1,0,0:0:0:0:
192,192,26103,1,4,0:0:0:0:
320,192,26103,1,0,0:0:0:0:
448,192,26191,1,0,0:0:0:0:
64,192,26367,1,0,0:0:0:0:
320,192,26456,1,2,0:0:0:0:
192,192,26456,1,0,0:0:0:0:
64,192,26632,1,0,0:0:0:0:
448,192,26809,1,0,0:0:0:0:
320,192,26809,1,0,0:0:0:0:
192,192,26985,1,0,0:0:0:0:
320,192,27073,1,0,0:0:0:0:
448,192,27162,1,2,0:0:0:0:
64,192,27162,1,0,0:0:0:0:
320,192,27338,1,0,0:0:0:0:
448,192,27514,1,0,0:0:0:0:
192,192,27514,1,0,0:0:0:0:
64,192,27691,1,0,0:0:0:0:
192,192,27867,1,0,0:0:0:0:
320,192,27867,1,2,0:0:0:0:
448,192,28044,1,0,0:0:0:0:
320,192,28220,1,0,0:0:0:0:
64,192,28220,1,0,0:0:0:0:
448,192,28397,1,0,0:0:0:0:
320,192,28485,1,0,0:0:0:0:
192,192,28573,1,2,0:0:0:0:
64,192,28573,1,0,0:0:0:0:
448,192,28750,1,0,0:0:0:0:
320,192,28926,1,0,0:0:0:0:
192,192,28926,1,0,0:0:0:0:
448,192,29014,1,0,0:0:0:0:
192,192,29191,1,0,0:0:0:0:
64,192,29279,1,0,0:0:0:0:
320,192,29279,1,2,0:0:0:0:
448,192,29456,1,0,0:0:0:0:
320,192,29632,1,0,0:0:0:0:
64,192,29632,1,0,0:0:0:0:
192,192,29809,1,0,0:0:0:0:
448,192,29897,1,0,0:0:0:0:
64,192,29985,1,0,0:0:0:0:
192,192,29985,1,2,0:0:0:0:
448,192,30162,1,0,0:0:0:0:
320,192,30206,1,0,0:0:0:0:
192,192,30250,1,0,0:0:0:0:
64,192,30294,1,0,0:0:0:0:
320,192,30338,1,0,0:0:0:0:
448,192,30338,1,0,0:0:0:0:
192,192,30514,1,0,0:0:0:0:
320,192,30691,1,2,0:0:0:0:
448,192,30691,1,0,0:0:0:0:
64,192,30867,1,0,0:0:0:0:
320,192,31044,1,0,0:0:0:0:
192,192,31044,1,0,0:0:0:0:
64,192,31220,1,0,0:0:0:0:
192,192,31264,1,0,0:0:0:0:
320,192,31309,1,0,0:0:0:0:
448,192,31353,1,0,0:0:0:0:
64,192,31397,1,0,0:0:0:0:
192,192,31397,1,2,0:0:0:0:
320,192,31573,1,0,0:0:0:0:
192,192,31750,1,0,0:0:0:0:
448,192,31750,1,4,0:0:0:0:
320,192,31750,1,0,0:0:0:0:
64,192,31838,1,0,0:0:0:0:
320,192,32014,1,0,0:0:0:0:
192,192,32103,1,2,0:0:0:0:
448,192,32103,1,0,0:0:0:0:
64,192,32279,1,0,0:0:0:0:
192,192,32456,1,0,0:0:0:0:
320,192,32456,1,0,0:0:0:0:
64,192,32632,1,0,0:0:0:0:
192,192,32720,1,0,0:0:0:0:
320,192,32809,1,2,0:0:0:0:
448,192,32809,1,0,0:0:0:0:
192,192,32985,1,0,0:0:0:0:
448,192,33162,1,0,0:0:0:0:
320,192,33162,1,0,0:0:0:0:
64,192,33338,1,0,0:0:0:0:
448,192,33426,1,0,0:0:0:0:
192,192,33514,1,0,0:0:0:0:
320,192,33514,1,2,0:0:0:0:
64,192,33691,1,0,0:0:0:0:
192,192,33867,1,0,0:0:0:0:
448,192,33867,1,0,0:0:0:0:
64,192,34044,1,0,0:0:0:0:
192,192,34132,1,0,0:0:0:0:
320,192,34220,1,2,0:0:0:0:
448,192,34220,1,0,0:0:0:0:
192,192,34397,1,0,0:0:0:0:
320,192,34573,1,0,0:0:0:0:
448,192,34573,1,0,0:0:0:0:
192,192,34573,1,4,0:0:0:0:
64,192,34662,1,0,0:0:0:0:
448,192,34838,1,0,0:0:0:0:
64,192,34926,1,0,0:0:0:0:
320,192,34926,1,2,0:0:0:0:
192,192,35103,1,0,0:0:0:0:
320,192,35279,1,4,0:0:0:0:
448,192,35279,1,0,0:0:0:0:
64,192,35279,1,0,0:0:0:0:
192,192,35456,1,0,0:0:0:0:
320,192,35544,1,0,0:0:0:0:
192,192,35632,1,2,0:0:0:0:
64,192,35632,1,0,0:0:0:0:
320,192,35809,1,0,0:0:0:0:
64,192,35985,1,4,0:0:0:0:
320,192,35985,1,0,0:0:0:0:
448,192,35985,128,0,36162:0:0:0:0:
192,192,36162,1,0,0:0:0:0:
448,192,36338,1,0,0:0:0:0:
192,192,36338,1,4,0:0:0:0:
64,192,36338,128,0,36514:0:0:0:0:
320,192,36514,1,0,0:0:0:0:
448,192,36691,128,0,36867:0:0:0:0:
64,192,36691,1,0,0:0:0:0:
192,192,36867,1,0,0:0:0:0:
64,192,37044,128,0,37220:0:0:0:0:
448,192,37044,1,0,0:0:0:0:
320,192,37220,1,0,0:0:0:0:
448,192,37397,1,0,0:0:0:0:
192,192,37397,1,4,0:0:0:0:
64,192,37397,1,0,0:0:0:0:
320,192,37485,1,0,0:0:0:0:
448,192,37662,1,0,0:0:0:0:
192,192,37750,1,2,0:0:0:0:
320,192,37750,1,0,0:0:0:0:
64,192,37926,1,0,0:0:0:0:
320,192,38103,1,0,0:0:0:0:
448,192,38103,1,0,0:0:0:0:
64,192,38279,1,0,0:0:0:0:
192,192,38367,1,0,0:0:0:0:
320,192,38456,1,2,0:0:0:0:
448,192,38456,1,0,0:0:0:0:
192,192,38632,1,0,0:0:0:0:
320,192,38809,1,0,0:0:0:0:
64,192,38809,1,0,0:0:0:0:
192,192,38985,1,0,0:0:0:0:
320,192,39162,1,2,0:0:0:0:
448,192,39162,1,0,0:0:0:0:
64,192,39338,1,0,0:0:0:0:
192,192,39514,1,0,0:0:0:0:
320,192,39514,1,0,0:0:0:0:
448,192,39691,1,0,0:0:0:0:
320,192,39779,1,0,0:0:0:0:
192,192,39867,1,2,0:0:0:0:
64,192,39867,1,0,0:0:0:0:
448,192,40044,1,0,0:0:0:0:
320,192,40220,1,0,0:0:0:0:
64,192,40220,1,0,0:0:0:0:
192,192,40309,1,0,0:0:0:0:
320,192,40485,1,0,0:0:0:0:
192,192,40573,1,2,0:0:0:0:
448,192,40573,1,0,0:0:0:0:
320,192,40750,1,0,0:0:0:0:
192,192,40926,1,0,0:0:0:0:
64,192,40926,1,0,0:0:0:0:
448,192,41103,1,0,0:0:0:0:
320,192,41191,1,0,0:0:0:0:
192,192,41279,1,2,0:0:0:0:
64,192,41279,1,0,0:0:0:0:
448,192,41456,1,0,0:0:0:0:
64,192,41544,1,0,0:0:0:0:
192,192,41588,1,0,0:0:0:0:
320,192,41632,1,0,0:0:0:0:
448,192,41632,1,0,0:0:0:0:
64,192,41809,1,0,0:0:0:0:
192,192,41985,1,2,0:0:0:0:
448,192,41985,1,0,0:0:0:0:
320,192,42162,1,0,0:0:0:0:
64,192,42338,1,0,0:0:0:0:
192,192,42338,1,0,0:0:0:0:
448,192,42514,1,0,0:0:0:0:
64,192,42603,1,0,0:0:0:0:
192,192,42647,1,0,0:0:0:0:
320,192,42691,1,2,0:0:0:0:
448,192,42691,1,0,0:0:0:0:
64,192,42867,1,0,0:0:0:0:
192,192,43044,1,0,0:0:0:0:
320,192,43044,1,0,0:0:0:0:
448,192,43044,1,4,0:0:0:0:
64,192,43132,1,0,0:0:0:0:
320,192,43309,1,0,0:0:0:0:
192,192,43397,1,2,0:0:0:0:
64,192,43397,1,0,0:0:0:0:
320,192,43573,1,0,0:0:0:0:
64,192,43750,1,0,0:0:0:0:
448,192,43750,1,0,0:0:0:0:
192,192,43926,1,0,0:0:0:0:
320,192,44014,1,0,0:0:0:0:
448,192,44103,1,0,0:0:0:0:
64,192,44103,1,2,0:0:0:0:
192,192,44279,1,0,0:0:0:0:
320,192,44456,1,0,0:0:0:0:
448,192,44456,1,0,0:0:0:0:
192,192,44632,1,0,0:0:0:0:
448,192,44720,1,0,0:0:0:0:
64,192,44809,1,0,0:0:0:0:
192,192,44809,1,2,0:0:0:0:
320,192,44985,1,0,0:0:0:0:
192,192,45162,1,0,0:0:0:0:
448,192,45162,1,0,0:0:0:0:
64,192,45338,1,0,0:0:0:0:
192,192,45426,1,0,0:0:0:0:
320,192,45514,1,2,0:0:0:0:
448,192,45514,1,0,0:0:0:0:
192,192,45691,1,0,0:0:0:0:
64,192,45867,1,0,0:0:0:0:
320,192,45867,1,4,0:0:0:0:
448,192,45867,1,0,0:0:0:0:
192,192,45956,1,0,0:0:0:0:
320,192,46132,1,0,0:0:0:0:
192,192,46220,1,2,0:0:0:0:
448,192,46220,1,0,0:0:0:0:
320,192,46397,1,0,0:0:0:0:
192,192,46573,1,4,0:0:0:0:
64,192,46573,1,0,0:0:0:0:
448,192,46573,1,0,0:0:0:0:
320,192,46750,1,0,0:0:0:0:
192,192,46926,1,2,0:0:0:0:
64,192,46926,1,0,0:0:0:0:
448,192,47103,1,0,0:0:0:0:
320,192,47279,1,4,0:0:0:0:
192,192,47279,1,0,0:0:0:0:
448,192,47367,1,4,0:0:0:0:
64,192,47367,1,0,0:0:0:0:
192,192,47456,1,0,0:0:0:0:
320,192,47456,1,4,0:0:0:0:
320,192,47632,1,4,0:0:0:0:
448,192,47632,1,0,0:0:0:0:
64,192,47720,1,0,0:0:0:0:
192,192,47720,1,4,0:0:0:0:
320,192,47809,1,4,0:0:0:0:
448,192,47809,1,0,0:0:0:0:
192,192,47897,1,0,0:0:0:0:
64,192,47985,1,0,0:0:0:0:
320,192,47985,1,4,0:0:0:0:
192,192,48073,1,0,0:0:0:0:
448,192,48073,1,4,0:0:0:0:
320,192,48162,1,4,0:0:0:0:
64,192,48162,1,0,0:0:0:0:
320,192,48338,1,4,0:0:0:0:
448,192,48338,1,0,0:0:0:0:
192,192,48426,1,4,0:0:0:0:
64,192,48426,1,0,0:0:0:0:
448,192,48514,1,0,0:0:0:0:
320,192,48514,1,4,0:0:0:0:
192,192,48603,1,4,0:0:0:0:
64,192,48603,1,0,0:0:0:0:
320,192,48691,1,4,0:0:0:0:
448,192,48691,1,0,0:0:0:0:
192,192,48691,1,0,0:0:0:0:
64,192,48867,1,0,0:0:0:0:
192,192,48956,1,0,0:0:0:0:
448,192,49044,1,0,0:0:0:0:
320,192,49044,1,2,0:0:0:0:
64,192,49220,1,0,0:0:0:0:
320,192,49309,1,0,0:0:0:0:
192,192,49397,1,0,0:0:0:0:
64,192,49397,1,0,0:0:0:0:
320,192,49485,1,0,0:0:0:0:
448,192,49573,1,0,0:0:0:0:
64,192,49662,1,0,0:0:0:0:
192,192,49750,1,2,0:0:0:0:
448,192,49750,1,0,0:0:0:0:
320,192,49926,1,0,0:0:0:0:
192,192,50014,1,0,0:0:0:0:
320,192,50103,1,0,0:0:0:0:
448,192,50103,1,0,0:0:0:0:
64,192,50279,1,0,0:0:0:0:
192,192,50367,1,0,0:0:0:0:
320,192,50456,1,2,0:0:0:0:
448,192,50456,1,0,0:0:0:0:
192,192,50632,1,0,0:0:0:0:
64,192,50720,1,0,0:0:0:0:
320,192,50809,1,0,0:0:0:0:
448,192,50809,1,0,0:0:0:0:
192,192,50897,1,0,0:0:0:0:
64,192,50985,1,0,0:0:0:0:
448,192,51073,1,0,0:0:0:0:
320,192,51162,1,2,0:0:0:0:
64,192,51162,1,0,0:0:0:0:
192,192,51338,1,0,0:0:0:0:
320,192,51426,1,0,0:0:0:0:
448,192,51514,1,0,0:0:0:0:
64,192,51514,1,0,0:0:0:0:
192,192,51691,1,0,0:0:0:0:
64,192,51779,1,0,0:0:0:0:
320,192,51867,1,2,0:0:0:0:
448,192,51867,1,0,0:0:0:0:
64,192,52044,1,0,0:0:0:0:
192,192,52132,1,0,0:0:0:0:
320,192,52220,1,0,0:0:0:0:
448,192,52220,1,0,0:0:0:0:
64,192,52309,1,0,0:0:0:0:
192,192,52397,1,0,0:0:0:0:
320,192,52485,1,0,0:0:0:0:
448,192,52573,1,2,0:0:0:0:
64,192,52573,1,0,0:0:0:0:
192,192,52750,1,0,0:0:0:0:
64,192,52838,1,0,0:0:0:0:
320,192,52926,1,0,0:0:0:0:
448,192,52926,1,0,0:0:0:0:
64,192,53014,1,0,0:0:0:0:
320,192,53103,1,0,0:0:0:0:
192,192,53191,1,0,0:0:0:0:
64,192,53279,1,0,0:0:0:0:
448,192,53279,1,2,0:0:0:0:
192,192,53456,1,0,0:0:0:0:
64,192,53544,1,0,0:0:0:0:
192,192,53632,1,0,0:0:0:0:
448,192,53632,1,0,0:0:0:0:
320,192,53720,1,0,0:0:0:0:
64,192,53809,1,0,0:0:0:0:
448,192,53985,1,0,0:0:0:0:
192,192,53985,1,2,0:0:0:0:
64,192,54073,1,0,0:0:0:0:
320,192,54162,1,0,0:0:0:0:
192,192,54250,1,0,0:0:0:0:
448,192,54338,1,0,0:0:0:0:
64,192,54338,1,0,0:0:0:0:
320,192,54338,1,4,0:0:0:0:
192,192,54514,1,0,0:0:0:0:
448,192,54691,1,0,0:0:0:0:
320,192,54691,1,2,0:0:0:0:
64,192,54867,1,0,0:0:0:0:
192,192,54956,1,0,0:0:0:0:
320,192,55044,1,0,0:0:0:0:
448,192,55044,1,0,0:0:0:0:
64,192,55132,1,0,0:0:0:0:
448,192,55220,1,0,0:0:0:0:
320,192,55309,1,0,0:0:0:0:
192,192,55397,1,2,0:0:0:0:
64,192,55397,1,0,0:0:0:0:
320,192,55573,1,0,0:0:0:0:
64,192,55662,1,0,0:0:0:0:
448,192,55750,1,4,0:0:0:0:
192,192,55750,1,0,0:0:0:0:
320,192,55750,1,0,0:0:0:0:
192,192,55926,1,0,0:0:0:0:
64,192,56014,1,0,0:0:0:0:
320,192,56103,1,2,0:0:0:0:
448,192,56103,1,0,0:0:0:0:
64,192,56279,1,0,0:0:0:0:
192,192,56367,1,0,0:0:0:0:
320,192,56456,1,0,0:0:0:0:
448,192,56456,1,0,0:0:0:0:
192,192,56544,1,0,0:0:0:0:
448,192,56632,1,0,0:0:0:0:
320,192,56720,1,0,0:0:0:0:
64,192,56809,1,0,0:0:0:0:
192,192,56809,1,2,0:0:0:0:
320,192,56985,1,0,0:0:0:0:
192,192,57073,1,0,0:0:0:0:
448,192,57162,1,0,0:0:0:0:
320,192,57162,1,4,0:0:0:0:
64,192,57162,1,0,0:0:0:0:
192,192,57338,1,0,0:0:0:0:
320,192,57514,1,2,0:0:0:0:
448,192,57514,1,0,0:0:0:0:
192,192,57691,1,0,0:0:0:0:
64,192,57779,1,0,0:0:0:0:
448,192,57867,1,0,0:0:0:0:
192,192,57867,1,0,0:0:0:0:
320,192,57867,1,4,0:0:0:0:
64,192,57956,1,0,0:0:0:0:
320,192,58044,1,0,0:0:0:0:
192,192,58132,1,0,0:0:0:0:
448,192,58220,1,2,0:0:0:0:
64,192,58220,1,0,0:0:0:0:
320,192,58309,1,0,0:0:0:0:
192,192,58397,1,0,0:0:0:0:
320,192,58485,1,0,0:0:0:0:
448,192,58573,1,0,0:0:0:0:
192,192,58573,1,4,0:0:0:0:
64,192,58573,1,0,0:0:0:0:
320,192,58750,1,0,0:0:0:0:
64,192,58838,1,0,0:0:0:0:
448,192,58926,1,0,0:0:0:0:
192,192,58926,1,4,0:0:0:0:
320,192,58926,1,0,0:0:0:0:
64,192,59103,1,0,0:0:0:0:
320,192,59191,1,0,0:0:0:0:
448,192,59279,1,0,0:0:0:0:
192,192,59279,1,4,0:0:0:0:
64,192,59279,1,0,0:0:0:0:
320,192,59367,1,0,0:0:0:0:
192,192,59456,1,0,0:0:0:0:
64,192,59544,1,0,0:0:0:0:
448,192,59632,1,4,0:0:0:0:
192,192,59632,1,0,0:0:0:0:
320,192,59632,1,0,0:0:0:0:
64,192,59720,1,0,0:0:0:0:
320,192,59809,1,0,0:0:0:0:
192,192,59897,1,0,0:0:0:0:
448,192,59985,1,4,0:0:0:0:
64,192,59985,1,0,0:0:0:0:
320,192,59985,1,0,0:0:0:0:
192,192,60162,1,0,0:0:0:0:
320,192,60250,1,0,0:0:0:0:
64,192,60338,1,0,0:0:0:0:
192,192,60338,1,2,0:0:0:0:
448,192,60514,1,0,0:0:0:0:
192,192,60603,1,0,0:0:0:0:
320,192,60691,1,0,0:0:0:0:
64,192,60691,1,0,0:0:0:0:
448,192,60779,1,0,0:0:0:0:
192,192,60867,1,0,0:0:0:0:
64,192,60956,1,0,0:0:0:0:
320,192,61044,1,2,0:0:0:0:
448,192,61044,1,0,0:0:0:0:
192,192,61132,1,0,0:0:0:0:
64,192,61220,1,0,0:0:0:0:
320,192,61309,1,0,0:0:0:0:
192,192,61397,1,0,0:0:0:0:
64,192,61397,1,0,0:0:0:0:
448,192,61485,1,0,0:0:0:0:
192,192,61573,1,0,0:0:0:0:
64,192,61662,1,0,0:0:0:0:
320,192,61750,1,2,0:0:0:0:
448,192,61750,1,0,0:0:0:0:
192,192,61926,1,0,0:0:0:0:
64,192,62014,1,0,0:0:0:0:
320,192,62103,1,0,0:0:0:0:
448,192,62103,1,0,0:0:0:0:
192,192,62191,1,0,0:0:0:0:
320,192,62279,1,0,0:0:0:0:
448,192,62367,1,0,0:0:0:0:
192,192,62456,1,2,0:0:0:0:
64,192,62456,1,0,0:0:0:0:
320,192,62632,1,0,0:0:0:0:
64,192,62720,1,0,0:0:0:0:
192,192,62809,1,0,0:0:0:0:
448,192,62809,1,0,0:0:0:0:
320,192,62985,1,0,0:0:0:0:
192,192,63073,1,0,0:0:0:0:
64,192,63162,1,0,0:0:0:0:
448,192,63162,1,2,0:0:0:0:
320,192,63338,1,0,0:0:0:0:
64,192,63426,1,0,0:0:0:0:
192,192,63514,1,0,0:0:0:0:
448,192,63514,1,0,0:0:0:0:
320,192,63603,1,0,0:0:0:0:
64,192,63691,1,0,0:0:0:0:
448,192,63779,1,0,0:0:0:0:
320,192,63867,1,2,0:0:0:0:
192,192,63867,1,0,0:0:0:0:
64,192,63956,1,0,0:0:0:0:
448,192,64044,1,0,0:0:0:0:
320,192,64132,1,0,0:0:0:0:
192,192,64220,1,0,0:0:0:0:
64,192,64220,1,0,0:0:0:0:
320,192,64309,1,0,0:0:0:0:
448,192,64397,1,0,0:0:0:0:
192,192,64485,1,0,0:0:0:0:
448,192,64573,128,2,64662:0:0:0:0:
320,192,64573,1,0,0:0:0:0:
64,192,64662,128,0,64750:0:0:0:0:
192,192,64750,1,0,0:0:0:0:
320,192,64838,1,0,0:0:0:0:
64,192,64926,128,0,65014:0:0:0:0:
448,192,64926,1,0,0:0:0:0:
320,192,65014,128,0,65103:0:0:0:0:
192,192,65103,1,0,0:0:0:0:
64,192,65191,1,0,0:0:0:0:
448,192,65279,128,2,65367:0:0:0:0:
320,192,65279,1,0,0:0:0:0:
192,192,65367,128,0,65456:0:0:0:0:
64,192,65456,1,0,0:0:0:0:
320,192,65544,1,0,0:0:0:0:
192,192,65632,1,0,0:0:0:0:
64,192,65632,1,0,0:0:0:0:
448,192,65632,1,4,0:0:0:0:
320,192,65809,1,0,0:0:0:0:
192,192,65897,1,0,0:0:0:0:
64,192,65985,1,0,0:0:0:0:
448,192,65985,1,2,0:0:0:0:
192,192,66162,1,0,0:0:0:0:
320,192,66250,1,0,0:0:0:0:
192,192,66338,1,0,0:0:0:0:
64,192,66338,1,0,0:0:0:0:
448,192,66426,1,0,0:0:0:0:
320,192,66514,1,0,0:0:0:0:
192,192,66603,1,0,0:0:0:0:
320,192,66691,128,0,66867:0:0:0:0:
64,192,66691,1,2,0:0:0:0:
192,192,66867,1,0,0:0:0:0:
448,192,67044,128,0,67220:0:0:0:0:
64,192,67044,1,4,0:0:0:0:
320,192,67044,1,0,0:0:0:0:
192,192,67132,1,0,0:0:0:0:
320,192,67220,1,0,0:0:0:0:
64,192,67397,128,0,67573:0:0:0:0:
192,192,67397,1,2,0:0:0:0:
448,192,67573,1,0,0:0:0:0:
320,192,67662,1,0,0:0:0:0:
192,192,67750,1,0,0:0:0:0:
64,192,67750,1,0,0:0:0:0:
448,192,67926,128,0,68103:0:0:0:0:
64,192,68103,1,0,0:0:0:0:
320,192,68103,1,0,0:0:0:0:
320,192,68279,128,0,68456:0:0:0:0:
448,192,68456,1,4,0:0:0:0:
64,192,68456,1,0,0:0:0:0:
192,192,68456,1,0,0:0:0:0:
192,192,68632,128,0,68809:0:0:0:0:
448,192,68809,1,2,0:0:0:0:
64,192,68809,1,0,0:0:0:0:
320,192,68897,1,0,0:0:0:0:
64,192,68985,128,0,69162:0:0:0:0:
448,192,69162,1,4,0:0:0:0:
192,192,69162,1,0,0:0:0:0:
320,192,69162,1,0,0:0:0:0:
192,192,69338,128,0,69514:0:0:0:0:
64,192,69426,1,0,0:0:0:0:
320,192,69514,1,0,0:0:0:0:
448,192,69514,1,2,0:0:0:0:
320,192,69691,128,0,69867:0:0:0:0:
448,192,69867,1,0,0:0:0:0:
192,192,69867,1,4,0:0:0:0:
320,192,69956,1,4,0:0:0:0:
64,192,69956,1,0,0:0:0:0:
192,192,70044,1,0,0:0:0:0:
448,192,70044,1,4,0:0:0:0:
192,192,70220,1,4,0:0:0:0:
64,192,70220,1,0,0:0:0:0:
320,192,70309,1,4,0:0:0:0:
448,192,70309,1,0,0:0:0:0:
192,192,70397,1,4,0:0:0:0:
64,192,70397,1,0,0:0:0:0:
320,192,70573,1,4,0:0:0:0:
64,192,70573,1,0,0:0:0:0:
192,192,70662,1,4,0:0:0:0:
448,192,70662,1,0,0:0:0:0:
320,192,70750,1,4,0:0:0:0:
64,192,70750,1,0,0:0:0:0:
448,192,70926,1,0,0:0:0:0:
320,192,70926,1,4,0:0:0:0:
192,192,71014,1,4,0:0:0:0:
64,192,71014,1,0,0:0:0:0:
320,192,71103,1,4,0:0:0:0:
448,192,71103,1,0,0:0:0:0:
192,192,71191,1,4,0:0:0:0:
64,192,71191,1,0,0:0:0:0:
448,192,71279,1,4,0:0:0:0:
320,192,71279,1,0,0:0:0:0:
64,192,71279,1,0,0:0:0:0:
64,192,71632,1,0,0:0:0:0:
448,192,71809,1,0,0:0:0:0:
64,192,71897,1,0,0:0:0:0:
320,192,71985,1,0,0:0:0:0:
192,192,72073,1,0,0:0:0:0:
448,192,72162,1,0,0:0:0:0:
192,192,72338,1,0,0:0:0:0:
448,192,72514,1,0,0:0:0:0:
64,192,72603,1,0,0:0:0:0:
320,192,72691,1,0,0:0:0:0:
320,192,72867,1,0,0:0:0:0:
64,192,73044,1,0,0:0:0:0:
192,192,73220,1,0,0:0:0:0:
448,192,73309,1,0,0:0:0:0:
64,192,73397,1,0,0:0:0:0:
320,192,73485,1,0,0:0:0:0:
64,192,73573,1,0,0:0:0:0:
448,192,73750,1,0,0:0:0:0:
192,192,73926,1,0,0:0:0:0:
320,192,74014,1,0,0:0:0:0:
192,192,74103,1,0,0:0:0:0:
448,192,74279,1,0,0:0:0:0:
64,192,74456,1,0,0:0:0:0:
320,192,74632,1,0,0:0:0:0:
192,192,74720,1,0,0:0:0:0:
448,192,74809,1,0,0:0:0:0:
320,192,74897,1,0,0:0:0:0:
64,192,74985,1,0,0:0:0:0:
320,192,75162,1,0,0:0:0:0:
64,192,75338,1,0,0:0:0:0:
448,192,75426,1,0,0:0:0:0:
320,192,75514,1,0,0:0:0:0:
320,192,75691,1,0,0:0:0:0:
64,192,75867,1,0,0:0:0:0:
192,192,76044,1,0,0:0:0:0:
448,192,76132,1,0,0:0:0:0:
192,192,76220,1,0,0:0:0:0:
448,192,76309,1,0,0:0:0:0:
64,192,76397,1,0,0:0:0:0:
320,192,76573,1,0,0:0:0:0:
192,192,76750,1,0,0:0:0:0:
64,192,76838,1,0,0:0:0:0:
192,192,76926,1,0,0:0:0:0:
448,192,77103,1,0,0:0:0:0:
192,192,77279,1,0,0:0:0:0:
64,192,77456,1,0,0:0:0:0:
448,192,77544,1,0,0:0:0:0:
192,192,77632,1,0,0:0:0:0:
320,192,77720,1,0,0:0:0:0:
64,192,77809,1,0,0:0:0:0:
448,192,77985,1,0,0:0:0:0:
64,192,78162,1,0,0:0:0:0:
320,192,78250,1,0,0:0:0:0:
192,192,78338,1,0,0:0:0:0:
192,192,78514,1,0,0:0:0:0:
320,192,78691,1,4,0:0:0:0:
64,192,78779,1,0,0:0:0:0:
320,192,78867,1,0,0:0:0:0:
192,192,78867,1,4,0:0:0:0:
448,192,78956,1,0,0:0:0:0:
64,192,79044,1,0,0:0:0:0:
192,192,79044,1,4,0:0:0:0:
448,192,79132,1,0,0:0:0:0:
192,192,79220,1,4,0:0:0:0:
320,192,79220,1,0,0:0:0:0:
448,192,79397,1,0,0:0:0:0:
64,192,79397,1,4,0:0:0:0:
192,192,79573,1,4,0:0:0:0:
320,192,79573,1,0,0:0:0:0:
64,192,79662,1,0,0:0:0:0:
448,192,79750,1,0,0:0:0:0:
320,192,79750,1,4,0:0:0:0:
64,192,79926,1,0,0:0:0:0:
320,192,79926,1,4,0:0:0:0:
192,192,80103,1,4,0:0:0:0:
448,192,80103,1,0,0:0:0:0:
64,192,80279,1,0,0:0:0:0:
192,192,80279,1,4,0:0:0:0:
320,192,80367,1,0,0:0:0:0:
192,192,80456,1,4,0:0:0:0:
64,192,80456,1,0,0:0:0:0:
448,192,80544,1,0,0:0:0:0:
320,192,80632,1,0,0:0:0:0:
192,192,80632,1,4,0:0:0:0:
64,192,80809,1,0,0:0:0:0:
448,192,80809,1,4,0:0:0:0:
448,192,80985,1,4,0:0:0:0:
320,192,80985,1,0,0:0:0:0:
192,192,81073,1,0,0:0:0:0:
320,192,81162,1,0,0:0:0:0:
448,192,81162,1,4,0:0:0:0:
192,192,81250,1,4,0:0:0:0:
64,192,81250,1,0,0:0:0:0:
320,192,81338,1,4,0:0:0:0:
448,192,81338,1,0,0:0:0:0:
64,192,81514,1,0,0:0:0:0:
448,192,81514,1,4,0:0:0:0:
320,192,81603,1,4,0:0:0:0:
192,192,81603,1,0,0:0:0:0:
64,192,81691,1,0,0:0:0:0:
448,192,81691,1,4,0:0:0:0:
64,192,81867,1,0,0:0:0:0:
320,192,81867,1,4,0:0:0:0:
192,192,81956,1,0,0:0:0:0:
448,192,81956,1,4,0:0:0:0:
320,192,82044,1,4,0:0:0:0:
64,192,82044,1,0,0:0:0:0:
64,192,82220,1,0,0:0:0:0:
192,192,82220,1,4,0:0:0:0:
448,192,82309,1,0,0:0:0:0:
320,192,82309,1,4,0:0:0:0:
192,192,82397,1,4,0:0:0:0:
64,192,82397,1,0,0:0:0:0:
320,192,82485,1,4,0:0:0:0:
448,192,82485,1,0,0:0:0:0:
192,192,82573,1,4,0:0:0:0:
64,192,82573,1,0,0:0:0:0:
320,192,82573,1,0,0:0:0:0:
448,192,82662,1,0,0:0:0:0:
64,192,82750,1,0,0:0:0:0:
192,192,82838,1,0,0:0:0:0:
320,192,82926,1,2,0:0:0:0:
448,192,82926,1,0,0:0:0:0:
192,192,83103,1,0,0:0:0:0:
64,192,83191,1,0,0:0:0:0:
192,192,83279,1,0,0:0:0:0:
320,192,83279,1,0,0:0:0:0:
448,192,83367,1,0,0:0:0:0:
64,192,83456,1,0,0:0:0:0:
320,192,83544,1,0,0:0:0:0:
192,192,83632,1,2,0:0:0:0:
64,192,83632,1,0,0:0:0:0:
448,192,83720,1,0,0:0:0:0:
192,192,83809,1,0,0:0:0:0:
320,192,83897,1,0,0:0:0:0:
448,192,83985,1,0,0:0:0:0:
64,192,83985,1,0,0:0:0:0:
320,192,84162,1,0,0:0:0:0:
64,192,84250,1,0,0:0:0:0:
192,192,84338,1,2,0:0:0:0:
448,192,84338,1,0,0:0:0:0:
320,192,84426,1,0,0:0:0:0:
64,192,84514,1,0,0:0:0:0:
448,192,84603,1,0,0:0:0:0:
192,192,84691,1,0,0:0:0:0:
64,192,84691,1,0,0:0:0:0:
320,192,84779,1,0,0:0:0:0:
448,192,84867,1,0,0:0:0:0:
64,192,84956,1,0,0:0:0:0:
192,192,85044,1,2,0:0:0:0:
448,192,85044,1,0,0:0:0:0:
320,192,85132,1,0,0:0:0:0:
64,192,85220,1,0,0:0:0:0:
320,192,85397,1,0,0:0:0:0:
448,192,85397,1,0,0:0:0:0:
192,192,85485,1,0,0:0:0:0:
448,192,85573,1,0,0:0:0:0:
64,192,85662,1,0,0:0:0:0:
192,192,85750,1,2,0:0:0:0:
320,192,85750,1,0,0:0:0:0:
448,192,85838,1,0,0:0:0:0:
64,192,85926,1,0,0:0:0:0:
192,192,86014,1,0,0:0:0:0:
320,192,86103,1,0,0:0:0:0:
448,192,86103,1,0,0:0:0:0:
64,192,86191,1,0,0:0:0:0:
448,192,86279,1,0,0:0:0:0:
192,192,86367,1,0,0:0:0:0:
64,192,86456,1,0,0:0:0:0:
320,192,86456,1,2,0:0:0:0:
448,192,86544,1,0,0:0:0:0:
192,192,86632,1,0,0:0:0:0:
320,192,86720,1,0,0:0:0:0:
192,192,86809,1,0,0:0:0:0:
64,192,86809,1,0,0:0:0:0:
320,192,86985,1,0,0:0:0:0:
448,192,87073,1,0,0:0:0:0:
320,192,87162,1,2,0:0:0:0:
64,192,87162,1,0,0:0:0:0:
192,192,87250,1,0,0:0:0:0:
320,192,87338,1,0,0:0:0:0:
448,192,87514,1,0,0:0:0:0:
192,192,87514,1,0,0:0:0:0:
64,192,87603,1,0,0:0:0:0:
192,192,87691,1,0,0:0:0:0:
320,192,87779,1,0,0:0:0:0:
448,192,87867,1,2,0:0:0:0:
64,192,87867,1,0,0:0:0:0:
320,192,88044,1,0,0:0:0:0:
64,192,88220,1,0,0:0:0:0:
192,192,88220,1,4,0:0:0:0:
448,192,88220,1,0,0:0:0:0:
320,192,88397,1,0,0:0:0:0:
448,192,88573,1,2,0:0:0:0:
64,192,88573,1,0,0:0:0:0:
192,192,88750,1,0,0:0:0:0:
64,192,88838,1,0,0:0:0:0:
320,192,88926,1,0,0:0:0:0:
448,192,88926,1,0,0:0:0:0:
192,192,89014,1,0,0:0:0:0:
320,192,89103,1,0,0:0:0:0:
192,192,89279,1,2,0:0:0:0:
448,192,89279,1,0,0:0:0:0:
64,192,89367,1,0,0:0:0:0:
320,192,89456,1,0,0:0:0:0:
192,192,89544,1,0,0:0:0:0:
64,192,89632,1,0,0:0:0:0:
448,192,89632,1,0,0:0:0:0:
192,192,89809,1,0,0:0:0:0:
320,192,89897,1,0,0:0:0:0:
192,192,89985,1,2,0:0:0:0:
64,192,89985,1,0,0:0:0:0:
448,192,90162,1,0,0:0:0:0:
320,192,90338,1,0,0:0:0:0:
64,192,90338,1,0,0:0:0:0:
192,192,90514,1,0,0:0:0:0:
448,192,90691,1,0,0:0:0:0:
320,192,90691,1,2,0:0:0:0:
64,192,90867,1,0,0:0:0:0:
320,192,91044,1,0,0:0:0:0:
448,192,91044,1,0,0:0:0:0:
192,192,91044,1,4,0:0:0:0:
64,192,91220,1,0,0:0:0:0:
320,192,91397,1,2,0:0:0:0:
448,192,91397,1,0,0:0:0:0:
192,192,91573,1,0,0:0:0:0:
448,192,91662,1,0,0:0:0:0:
320,192,91750,1,4,0:0:0:0:
192,192,91750,1,0,0:0:0:0:
64,192,91750,1,0,0:0:0:0:
448,192,91926,1,0,0:0:0:0:
320,192,92103,1,2,0:0:0:0:
64,192,92103,1,0,0:0:0:0:
192,192,92279,1,0,0:0:0:0:
320,192,92456,1,4,0:0:0:0:
448,192,92456,1,0,0:0:0:0:
192,192,92544,1,4,0:0:0:0:
64,192,92544,1,0,0:0:0:0:
448,192,92632,1,0,0:0:0:0:
320,192,92632,1,4,0:0:0:0:
64,192,92809,1,0,0:0:0:0:
448,192,92809,1,4,0:0:0:0:
192,192,92897,1,0,0:0:0:0:
320,192,92897,1,4,0:0:0:0:
448,192,92985,1,4,0:0:0:0:
64,192,92985,1,0,0:0:0:0:
64,192,93162,1,0,0:0:0:0:
320,192,93162,1,4,0:0:0:0:
192,192,93250,1,0,0:0:0:0:
448,192,93250,1,4,0:0:0:0:
320,192,93338,1,4,0:0:0:0:
64,192,93338,1,0,0:0:0:0:
192,192,93514,1,4,0:0:0:0:
64,192,93514,1,0,0:0:0:0:
320,192,93603,1,4,0:0:0:0:
448,192,93603,1,0,0:0:0:0:
192,192,93691,1,4,0:0:0:0:
64,192,93691,1,0,0:0:0:0:
320,192,93779,1,4,0:0:0:0:
448,192,93779,1,0,0:0:0:0:
192,192,93867,1,4,0:0:0:0:
64,192,93867,1,0,0:0:0:0:
448,192,93867,1,0,0:0:0:0:
320,192,93956,1,0,0:0:0:0:
192,192,94044,1,0,0:0:0:0:
320,192,94132,1,0,0:0:0:0:
448,192,94220,1,2,0:0:0:0:
64,192,94220,1,0,0:0:0:0:
192,192,94397,1,0,0:0:0:0:
64,192,94485,1,0,0:0:0:0:
320,192,94573,1,0,0:0:0:0:
448,192,94573,1,0,0:0:0:0:
192,192,94662,1,0,0:0:0:0:
320,192,94750,1,0,0:0:0:0:
192,192,94926,1,2,0:0:0:0:
64,192,94926,1,0,0:0:0:0:
448,192,95014,1,0,0:0:0:0:
320,192,95103,1,0,0:0:0:0:
192,192,95191,1,0,0:0:0:0:
320,192,95279,1,0,0:0:0:0:
448,192,95279,1,0,0:0:0:0:
64,192,95456,1,0,0:0:0:0:
192,192,95544,1,0,0:0:0:0:
320,192,95632,1,2,0:0:0:0:
448,192,95632,1,0,0:0:0:0:
64,192,95720,1,0,0:0:0:0:
192,192,95809,1,0,0:0:0:0:
64,192,95985,1,0,0:0:0:0:
320,192,95985,1,0,0:0:0:0:
448,192,96073,1,0,0:0:0:0:
320,192,96162,1,0,0:0:0:0:
192,192,96250,1,0,0:0:0:0:
448,192,96338,1,0,0:0:0:0:
320,192,96338,1,2,0:0:0:0:
192,192,96514,1,0,0:0:0:0:
448,192,96691,1,0,0:0:0:0:
64,192,96691,1,0,0:0:0:0:
320,192,96779,1,0,0:0:0:0:
192,192,96867,1,0,0:0:0:0:
448,192,96956,1,0,0:0:0:0:
64,192,97044,1,0,0:0:0:0:
192,192,97044,1,2,0:0:0:0:
448,192,97220,1,0,0:0:0:0:
192,192,97309,1,0,0:0:0:0:
320,192,97397,1,0,0:0:0:0:
448,192,97397,1,0,0:0:0:0:
192,192,97485,1,0,0:0:0:0:
64,192,97573,1,0,0:0:0:0:
192,192,97750,1,2,0:0:0:0:
448,192,97750,1,0,0:0:0:0:
320,192,97838,1,0,0:0:0:0:
192,192,97926,1,0,0:0:0:0:
64,192,98014,1,0,0:0:0:0:
192,192,98103,1,0,0:0:0:0:
448,192,98103,1,0,0:0:0:0:
320,192,98279,1,0,0:0:0:0:
64,192,98367,1,0,0:0:0:0:
192,192,98456,1,2,0:0:0:0:
448,192,98456,1,0,0:0:0:0:
320,192,98544,1,0,0:0:0:0:
64,192,98632,1,0,0:0:0:0:
448,192,98809,1,0,0:0:0:0:
320,192,98809,1,0,0:0:0:0:
192,192,98897,1,0,0:0:0:0:
64,192,98985,1,0,0:0:0:0:
320,192,99073,1,0,0:0:0:0:
192,192,99162,1,2,0:0:0:0:
64,192,99162,1,0,0:0:0:0:
448,192,99338,1,0,0:0:0:0:
192,192,99514,1,0,0:0:0:0:
64,192,99514,1,0,0:0:0:0:
320,192,99603,1,0,0:0:0:0:
64,192,99691,1,0,0:0:0:0:
192,192,99779,1,0,0:0:0:0:
320,192,99867,1,2,0:0:0:0:
448,192,99867,1,0,0:0:0:0:
192,192,100044,1,0,0:0:0:0:
448,192,100132,1,0,0:0:0:0:
320,192,100220,1,0,0:0:0:0:
64,192,100220,1,0,0:0:0:0:
448,192,100397,1,0,0:0:0:0:
192,192,100573,1,2,0:0:0:0:
64,192,100573,1,0,0:0:0:0:
320,192,100662,1,0,0:0:0:0:
448,192,100750,1,0,0:0:0:0:
64,192,100838,1,0,0:0:0:0:
192,192,100926,1,0,0:0:0:0:
448,192,100926,1,0,0:0:0:0:
320,192,101103,1,0,0:0:0:0:
64,192,101191,1,0,0:0:0:0:
320,192,101279,1,2,0:0:0:0:
448,192,101279,1,0,0:0:0:0:
64,192,101456,1,0,0:0:0:0:
448,192,101632,1,0,0:0:0:0:
192,192,101632,1,0,0:0:0:0:
320,192,101720,1,0,0:0:0:0:
64,192,101809,1,0,0:0:0:0:
448,192,101985,1,0,0:0:0:0:
320,192,101985,1,2,0:0:0:0:
192,192,102162,1,0,0:0:0:0:
320,192,102250,1,0,0:0:0:0:
448,192,102338,128,0,102514:0:0:0:0:
64,192,102338,1,0,0:0:0:0:
192,192,102603,128,0,102691:0:0:0:0:
64,192,102691,1,0,0:0:0:0:
320,192,102691,1,2,0:0:0:0:
320,192,102867,128,0,103044:0:0:0:0:
64,192,102956,1,0,0:0:0:0:
192,192,103044,1,0,0:0:0:0:
448,192,103044,1,0,0:0:0:0:
64,192,103132,128,0,103220:0:0:0:0:
320,192,103220,1,0,0:0:0:0:
448,192,103397,128,0,103573:0:0:0:0:
192,192,103397,1,2,0:0:0:0:
64,192,103573,1,0,0:0:0:0:
192,192,103662,1,0,0:0:0:0:
320,192,103750,1,4,0:0:0:0:
448,192,103750,1,0,0:0:0:0:
192,192,103838,1,4,0:0:0:0:
64,192,103838,1,0,0:0:0:0:
320,192,103926,1,4,0:0:0:0:
448,192,103926,1,0,0:0:0:0:
64,192,104103,1,0,0:0:0:0:
320,192,104103,1,4,0:0:0:0:
192,192,104191,1,4,0:0:0:0:
448,192,104191,1,0,0:0:0:0:
64,192,104279,5,0,0:0:0:0:
320,192,104279,1,4,0:0:0:0:
192,192,104456,1,0,0:0:0:0:
320,192,104456,1,4,0:0:0:0:
64,192,104544,1,0,0:0:0:0:
448,192,104544,1,4,0:0:0:0:
320,192,104632,1,4,0:0:0:0:
192,192,104632,1,0,0:0:0:0:
448,192,104809,1,0,0:0:0:0:
320,192,104809,1,4,0:0:0:0:
192,192,104897,1,4,0:0:0:0:
64,192,104897,1,0,0:0:0:0:
320,192,104985,1,4,0:0:0:0:
448,192,104985,1,0,0:0:0:0:
192,192,105073,1,4,0:0:0:0:
64,192,105073,1,0,0:0:0:0:
320,192,105162,1,4,0:0:0:0:
448,192,105162,1,0,0:0:0:0:
192,192,105162,1,0,0:0:0:0:
64,192,105338,1,0,0:0:0:0:
320,192,105426,1,0,0:0:0:0:
192,192,105514,1,2,0:0:0:0:
64,192,105514,1,0,0:0:0:0:
448,192,105603,1,0,0:0:0:0:
320,192,105691,1,0,0:0:0:0:
64,192,105779,1,0,0:0:0:0:
192,192,105867,1,0,0:0:0:0:
448,192,105867,1,0,0:0:0:0:
320,192,105956,1,0,0:0:0:0:
64,192,106044,1,0,0:0:0:0:
448,192,106132,1,0,0:0:0:0:
320,192,106220,128,0,106397:0:0:0:0:
192,192,106220,1,2,0:0:0:0:
64,192,106397,1,0,0:0:0:0:
192,192,106485,1,0,0:0:0:0:
320,192,106573,1,0,0:0:0:0:
448,192,106573,128,0,106750:0:0:0:0:
64,192,106662,1,0,0:0:0:0:
320,192,106750,1,0,0:0:0:0:
64,192,106838,1,0,0:0:0:0:
448,192,106926,128,0,107103:0:0:0:0:
192,192,106926,1,2,0:0:0:0:
320,192,107014,1,0,0:0:0:0:
64,192,107103,1,0,0:0:0:0:
320,192,107191,1,0,0:0:0:0:
448,192,107279,1,0,0:0:0:0:
192,192,107279,128,0,107456:0:0:0:0:
64,192,107367,1,0,0:0:0:0:
448,192,107456,1,0,0:0:0:0:
320,192,107544,1,0,0:0:0:0:
64,192,107632,128,0,107809:0:0:0:0:
192,192,107632,1,2,0:0:0:0:
448,192,107809,128,0,107985:0:0:0:0:
192,192,107897,1,0,0:0:0:0:
320,192,107985,1,0,0:0:0:0:
64,192,107985,128,0,108162:0:0:0:0:
448,192,108162,1,0,0:0:0:0:
192,192,108250,1,0,0:0:0:0:
448,192,108338,1,0,0:0:0:0:
320,192,108338,1,2,0:0:0:0:
64,192,108426,1,0,0:0:0:0:
192,192,108514,1,0,0:0:0:0:
448,192,108603,1,0,0:0:0:0:
320,192,108691,1,0,0:0:0:0:
64,192,108691,1,0,0:0:0:0:
192,192,108867,1,0,0:0:0:0:
320,192,108956,1,0,0:0:0:0:
448,192,109044,128,0,109220:0:0:0:0:
64,192,109044,1,2,0:0:0:0:
320,192,109309,1,0,0:0:0:0:
448,192,109397,128,0,109573:0:0:0:0:
192,192,109397,1,0,0:0:0:0:
64,192,109573,1,0,0:0:0:0:
192,192,109662,1,0,0:0:0:0:
320,192,109750,128,0,109926:0:0:0:0:
448,192,109750,1,2,0:0:0:0:
192,192,109926,1,0,0:0:0:0:
64,192,110014,1,0,0:0:0:0:
320,192,110103,1,0,0:0:0:0:
448,192,110103,128,0,110279:0:0:0:0:
192,192,110191,1,0,0:0:0:0:
64,192,110279,128,0,110456:0:0:0:0:
320,192,110367,1,0,0:0:0:0:
448,192,110456,128,0,110632:0:0:0:0:
192,192,110456,1,2,0:0:0:0:
64,192,110632,128,0,110809:0:0:0:0:
192,192,110720,1,0,0:0:0:0:
320,192,110809,1,4,0:0:0:0:
448,192,110809,1,0,0:0:0:0:
448,192,110985,1,0,0:0:0:0:
192,192,111073,1,0,0:0:0:0:
64,192,111162,1,0,0:0:0:0:
320,192,111162,1,2,0:0:0:0:
448,192,111338,1,0,0:0:0:0:
64,192,111426,1,0,0:0:0:0:
192,192,111514,1,0,0:0:0:0:
320,192,111514,1,0,0:0:0:0:
448,192,111603,1,0,0:0:0:0:
192,192,111691,1,0,0:0:0:0:
320,192,111779,1,0,0:0:0:0:
448,192,111867,1,0,0:0:0:0:
64,192,111867,128,0,112044:0:0:0:0:
192,192,112044,1,0,0:0:0:0:
448,192,112132,1,0,0:0:0:0:
64,192,112220,128,0,112397:0:0:0:0:
320,192,112220,1,0,0:0:0:0:
448,192,112397,1,0,0:0:0:0:
320,192,112485,1,0,0:0:0:0:
64,192,112573,128,0,112750:0:0:0:0:
192,192,112573,1,2,0:0:0:0:
448,192,112750,1,0,0:0:0:0:
320,192,112838,1,0,0:0:0:0:
64,192,112926,1,0,0:0:0:0:
192,192,112926,128,0,113103:0:0:0:0:
320,192,113014,1,0,0:0:0:0:
448,192,113103,128,0,113279:0:0:0:0:
64,192,113191,1,0,0:0:0:0:
320,192,113279,1,2,0:0:0:0:
192,192,113279,128,0,113456:0:0:0:0:
448,192,113456,128,0,113632:0:0:0:0:
64,192,113544,1,0,0:0:0:0:
320,192,113632,1,4,0:0:0:0:
192,192,113632,1,0,0:0:0:0:
448,192,113809,1,0,0:0:0:0:
64,192,113897,1,0,0:0:0:0:
192,192,113985,1,2,0:0:0:0:
320,192,113985,1,0,0:0:0:0:
64,192,114162,1,0,0:0:0:0:
448,192,114250,1,0,0:0:0:0:
320,192,114338,1,4,0:0:0:0:
64,192,114338,1,0,0:0:0:0:
192,192,114426,1,0,0:0:0:0:
448,192,114514,1,0,0:0:0:0:
64,192,114603,1,0,0:0:0:0:
320,192,114691,128,0,114867:0:0:0:0:
192,192,114691,1,2,0:0:0:0:
64,192,114867,1,0,0:0:0:0:
192,192,114956,1,0,0:0:0:0:
320,192,115044,128,0,115220:0:0:0:0:
448,192,115044,1,4,0:0:0:0:
64,192,115220,1,0,0:0:0:0:
192,192,115309,1,0,0:0:0:0:
448,192,115397,128,0,115573:0:0:0:0:
64,192,115397,1,4,0:0:0:0:
192,192,115573,1,0,0:0:0:0:
64,192,115662,1,0,0:0:0:0:
448,192,115750,1,0,0:0:0:0:
320,192,115750,128,0,115926:0:0:0:0:
192,192,115838,1,0,0:0:0:0:
64,192,115926,128,0,116103:0:0:0:0:
192,192,116014,1,0,0:0:0:0:
448,192,116103,128,0,116279:0:0:0:0:
320,192,116103,1,4,0:0:0:0:
64,192,116279,128,0,116456:0:0:0:0:
192,192,116367,1,0,0:0:0:0:
448,192,116456,1,0,0:0:0:0:
320,192,116456,1,4,0:0:0:0:
64,192,116632,1,0,0:0:0:0:
448,192,116720,1,0,0:0:0:0:
64,192,116809,1,0,0:0:0:0:
192,192,116809,1,2,0:0:0:0:
192,192,116985,1,0,0:0:0:0:
448,192,117073,1,0,0:0:0:0:
320,192,117162,1,0,0:0:0:0:
64,192,117162,1,0,0:0:0:0:
192,192,117250,1,0,0:0:0:0:
448,192,117338,1,0,0:0:0:0:
64,192,117426,1,0,0:0:0:0:
320,192,117514,128,0,117691:0:0:0:0:
192,192,117514,1,2,0:0:0:0:
64,192,117691,1,0,0:0:0:0:
192,192,117779,1,0,0:0:0:0:
320,192,117867,128,0,118044:0:0:0:0:
448,192,117867,1,0,0:0:0:0:
64,192,118044,1,0,0:0:0:0:
448,192,118132,1,0,0:0:0:0:
320,192,118220,128,0,118397:0:0:0:0:
192,192,118220,1,2,0:0:0:0:
64,192,118397,1,0,0:0:0:0:
192,192,118485,1,0,0:0:0:0:
64,192,118573,1,0,0:0:0:0:
448,192,118573,128,0,118750:0:0:0:0:
320,192,118662,1,0,0:0:0:0:
192,192,118750,128,0,118926:0:0:0:0:
320,192,118838,1,0,0:0:0:0:
448,192,118926,128,0,119103:0:0:0:0:
64,192,118926,1,2,0:0:0:0:
64,192,119103,128,0,119279:0:0:0:0:
320,192,119191,1,0,0:0:0:0:
192,192,119279,1,0,0:0:0:0:
448,192,119279,1,0,0:0:0:0:
64,192,119456,1,0,0:0:0:0:
448,192,119544,1,0,0:0:0:0:
320,192,119632,1,0,0:0:0:0:
192,192,119632,1,2,0:0:0:0:
448,192,119809,1,0,0:0:0:0:
64,192,119897,1,0,0:0:0:0:
192,192,119985,1,0,0:0:0:0:
448,192,119985,1,0,0:0:0:0:
320,192,120073,1,0,0:0:0:0:
64,192,120162,1,0,0:0:0:0:
320,192,120250,1,0,0:0:0:0:
64,192,120338,128,0,120514:0:0:0:0:
192,192,120338,1,2,0:0:0:0:
448,192,120514,1,0,0:0:0:0:
320,192,120603,1,0,0:0:0:0:
64,192,120691,128,0,120867:0:0:0:0:
192,192,120691,1,0,0:0:0:0:
448,192,120867,1,0,0:0:0:0:
192,192,120956,1,0,0:0:0:0:
320,192,121044,128,0,121220:0:0:0:0:
448,192,121044,1,2,0:0:0:0:
64,192,121220,1,0,0:0:0:0:
192,192,121309,1,0,0:0:0:0:
448,192,121397,1,0,0:0:0:0:
64,192,121397,128,0,121573:0:0:0:0:
320,192,121485,1,0,0:0:0:0:
448,192,121573,128,0,121750:0:0:0:0:
192,192,121662,1,0,0:0:0:0:
64,192,121750,128,0,121926:0:0:0:0:
320,192,121750,1,2,0:0:0:0:
448,192,121926,128,0,122103:0:0:0:0:
192,192,122014,1,0,0:0:0:0:
64,192,122103,1,4,0:0:0:0:
320,192,122103,1,0,0:0:0:0:
64,192,122279,1,0,0:0:0:0:
320,192,122367,1,0,0:0:0:0:
192,192,122456,1,2,0:0:0:0:
448,192,122456,1,0,0:0:0:0:
64,192,122632,1,0,0:0:0:0:
448,192,122720,1,0,0:0:0:0:
192,192,122809,1,0,0:0:0:0:
320,192,122809,1,0,0:0:0:0:
64,192,122897,1,0,0:0:0:0:
448,192,122985,1,0,0:0:0:0:
320,192,123073,1,0,0:0:0:0:
192,192,123162,128,0,123338:0:0:0:0:
64,192,123162,1,2,0:0:0:0:
448,192,123338,1,0,0:0:0:0:
320,192,123426,1,0,0:0:0:0:
192,192,123514,128,0,123691:0:0:0:0:
448,192,123514,1,0,0:0:0:0:
64,192,123691,1,0,0:0:0:0:
448,192,123779,1,0,0:0:0:0:
192,192,123867,128,0,124044:0:0:0:0:
320,192,123867,1,2,0:0:0:0:
64,192,124044,1,0,0:0:0:0:
448,192,124132,1,0,0:0:0:0:
64,192,124220,1,0,0:0:0:0:
320,192,124220,128,0,124397:0:0:0:0:
192,192,124309,1,0,0:0:0:0:
64,192,124397,128,0,124573:0:0:0:0:
448,192,124485,1,0,0:0:0:0:
320,192,124573,128,0,124750:0:0:0:0:
192,192,124573,1,2,0:0:0:0:
64,192,124750,128,0,124926:0:0:0:0:
192,192,124838,1,0,0:0:0:0:
448,192,124926,1,0,0:0:0:0:
320,192,124926,1,4,0:0:0:0:
448,192,125103,1,0,0:0:0:0:
64,192,125191,1,0,0:0:0:0:
192,192,125279,1,2,0:0:0:0:
320,192,125279,1,0,0:0:0:0:
448,192,125456,1,0,0:0:0:0:
192,192,125544,1,0,0:0:0:0:
64,192,125632,1,0,0:0:0:0:
320,192,125632,1,4,0:0:0:0:
448,192,125720,1,0,0:0:0:0:
192,192,125809,1,0,0:0:0:0:
64,192,125897,1,0,0:0:0:0:
320,192,125985,128,0,126162:0:0:0:0:
192,192,125985,1,0,0:0:0:0:
64,192,126162,1,0,0:0:0:0:
192,192,126250,1,0,0:0:0:0:
320,192,126338,128,0,126514:0:0:0:0:
448,192,126338,1,4,0:0:0:0:
64,192,126514,1,0,0:0:0:0:
192,192,126603,1,0,0:0:0:0:
64,192,126691,128,0,126867:0:0:0:0:
320,192,126691,1,4,0:0:0:0:
448,192,126867,1,0,0:0:0:0:
192,192,126956,1,0,0:0:0:0:
64,192,127044,1,4,0:0:0:0:
320,192,127044,128,0,127220:0:0:0:0:
448,192,127132,1,0,0:0:0:0:
64,192,127220,128,0,127397:0:0:0:0:
192,192,127309,1,0,0:0:0:0:
320,192,127397,128,0,127573:0:0:0:0:
448,192,127397,1,4,0:0:0:0:
64,192,127573,128,0,127750:0:0:0:0:
192,192,127750,1,4,0:0:0:0:
320,192,127750,1,0,0:0:0:0:
448,192,127750,1,0,0:0:0:0:
320,192,127926,1,0,0:0:0:0:
192,192,128014,1,0,0:0:0:0:
64,192,128103,1,0,0:0:0:0:
448,192,128103,1,2,0:0:0:0:
320,192,128279,1,0,0:0:0:0:
64,192,128367,1,0,0:0:0:0:
448,192,128456,1,0,0:0:0:0:
192,192,128456,1,0,0:0:0:0:
320,192,128544,1,0,0:0:0:0:
64,192,128632,1,0,0:0:0:0:
192,192,128720,1,0,0:0:0:0:
320,192,128809,1,2,0:0:0:0:
448,192,128809,1,0,0:0:0:0:
64,192,128985,1,0,0:0:0:0:
320,192,129073,1,0,0:0:0:0:
448,192,129162,1,0,0:0:0:0:
192,192,129162,1,0,0:0:0:0:
192,192,129338,1,0,0:0:0:0:
64,192,129426,1,0,0:0:0:0:
448,192,129514,1,0,0:0:0:0:
320,192,129514,1,2,0:0:0:0:
192,192,129691,1,0,0:0:0:0:
448,192,129779,1,0,0:0:0:0:
64,192,129867,1,0,0:0:0:0:
320,192,129867,1,0,0:0:0:0:
192,192,129956,1,0,0:0:0:0:
448,192,130044,1,0,0:0:0:0:
320,192,130132,1,0,0:0:0:0:
64,192,130220,1,0,0:0:0:0:
192,192,130220,1,2,0:0:0:0:
448,192,130309,1,0,0:0:0:0:
64,192,130397,1,0,0:0:0:0:
192,192,130485,1,0,0:0:0:0:
320,192,130573,1,0,0:0:0:0:
448,192,130573,1,0,0:0:0:0:
64,192,130750,1,0,0:0:0:0:
192,192,130838,1,0,0:0:0:0:
448,192,130926,1,0,0:0:0:0:
320,192,130926,1,2,0:0:0:0:
64,192,131014,1,0,0:0:0:0:
192,192,131103,1,0,0:0:0:0:
320,192,131191,1,0,0:0:0:0:
448,192,131279,1,0,0:0:0:0:
192,192,131279,1,0,0:0:0:0:
64,192,131367,1,0,0:0:0:0:
320,192,131456,1,0,0:0:0:0:
192,192,131544,1,0,0:0:0:0:
320,192,131632,1,2,0:0:0:0:
448,192,131632,1,0,0:0:0:0:
64,192,131809,1,0,0:0:0:0:
320,192,131897,1,0,0:0:0:0:
64,192,131985,1,0,0:0:0:0:
192,192,131985,1,0,0:0:0:0:
448,192,132073,1,0,0:0:0:0:
320,192,132162,1,0,0:0:0:0:
192,192,132250,1,0,0:0:0:0:
448,192,132338,1,0,0:0:0:0:
320,192,132338,1,2,0:0:0:0:
64,192,132514,1,0,0:0:0:0:
448,192,132603,1,0,0:0:0:0:
320,192,132691,1,0,0:0:0:0:
192,192,132691,1,0,0:0:0:0:
64,192,132779,1,0,0:0:0:0:
448,192,132867,1,0,0:0:0:0:
192,192,132956,1,0,0:0:0:0:
64,192,133044,1,0,0:0:0:0:
320,192,133044,1,2,0:0:0:0:
448,192,133132,1,0,0:0:0:0:
192,192,133220,1,0,0:0:0:0:
64,192,133309,1,0,0:0:0:0:
320,192,133397,1,4,0:0:0:0:
448,192,133397,1,0,0:0:0:0:
192,192,133397,1,0,0:0:0:0:
64,192,133573,1,0,0:0:0:0:
320,192,133662,1,0,0:0:0:0:
448,192,133750,1,0,0:0:0:0:
192,192,133750,1,2,0:0:0:0:
64,192,133926,1,0,0:0:0:0:
192,192,134014,1,0,0:0:0:0:
448,192,134103,1,0,0:0:0:0:
320,192,134103,1,0,0:0:0:0:
192,192,134191,1,0,0:0:0:0:
448,192,134279,1,0,0:0:0:0:
320,192,134367,1,0,0:0:0:0:
192,192,134456,1,2,0:0:0:0:
64,192,134456,1,0,0:0:0:0:
448,192,134544,1,0,0:0:0:0:
320,192,134632,1,0,0:0:0:0:
64,192,134720,1,0,0:0:0:0:
448,192,134809,1,0,0:0:0:0:
320,192,134809,1,0,0:0:0:0:
192,192,134809,1,4,0:0:0:0:
64,192,134985,1,0,0:0:0:0:
320,192,135073,1,0,0:0:0:0:
448,192,135162,1,0,0:0:0:0:
192,192,135162,1,2,0:0:0:0:
64,192,135338,1,0,0:0:0:0:
192,192,135426,1,0,0:0:0:0:
448,192,135514,1,0,0:0:0:0:
320,192,135514,1,0,0:0:0:0:
64,192,135603,1,0,0:0:0:0:
192,192,135691,1,0,0:0:0:0:
320,192,135779,1,0,0:0:0:0:
64,192,135867,1,0,0:0:0:0:
192,192,135867,1,2,0:0:0:0:
320,192,136044,1,0,0:0:0:0:
448,192,136132,1,0,0:0:0:0:
320,192,136220,1,0,0:0:0:0:
64,192,136220,1,0,0:0:0:0:
192,192,136220,1,4,0:0:0:0:
448,192,136397,1,0,0:0:0:0:
320,192,136485,1,0,0:0:0:0:
192,192,136573,1,2,0:0:0:0:
64,192,136573,1,0,0:0:0:0:
448,192,136750,1,0,0:0:0:0:
192,192,136838,1,0,0:0:0:0:
448,192,136926,1,0,0:0:0:0:
320,192,136926,1,4,0:0:0:0:
64,192,136926,1,0,0:0:0:0:
192,192,137014,1,0,0:0:0:0:
320,192,137103,1,0,0:0:0:0:
64,192,137191,1,0,0:0:0:0:
192,192,137279,1,2,0:0:0:0:
448,192,137279,1,0,0:0:0:0:
320,192,137456,1,0,0:0:0:0:
64,192,137544,1,0,0:0:0:0:
192,192,137632,1,0,0:0:0:0:
448,192,137632,1,0,0:0:0:0:
320,192,137632,1,4,0:0:0:0:
64,192,137809,1,0,0:0:0:0:
320,192,137897,1,0,0:0:0:0:
64,192,137985,1,0,0:0:0:0:
192,192,137985,1,4,0:0:0:0:
448,192,137985,1,0,0:0:0:0:
320,192,138073,1,0,0:0:0:0:
192,192,138162,1,0,0:0:0:0:
64,192,138250,1,0,0:0:0:0:
448,192,138338,1,0,0:0:0:0:
192,192,138338,1,4,0:0:0:0:
320,192,138338,1,0,0:0:0:0:
64,192,138426,1,0,0:0:0:0:
320,192,138514,1,0,0:0:0:0:
192,192,138603,1,0,0:0:0:0:
448,192,138691,1,0,0:0:0:0:
320,192,138691,1,4,0:0:0:0:
64,192,138691,1,0,0:0:0:0:
192,192,138867,1,0,0:0:0:0:
320,192,138956,1,0,0:0:0:0:
192,192,139044,1,4,0:0:0:0:
64,192,139044,1,0,0:0:0:0:
448,192,139044,1,0,0:0:0:0:
320,192,139220,1,0,0:0:0:0:
64,192,139309,1,0,0:0:0:0:
320,192,139397,1,2,0:0:0:0:
192,192,139397,1,0,0:0:0:0:
448,192,139573,1,0,0:0:0:0:
64,192,139662,1,0,0:0:0:0:
320,192,139750,1,0,0:0:0:0:
448,192,139750,1,0,0:0:0:0:
192,192,139838,1,0,0:0:0:0:
64,192,139926,1,0,0:0:0:0:
320,192,140014,1,0,0:0:0:0:
64,192,140103,1,0,0:0:0:0:
448,192,140103,1,2,0:0:0:0:
192,192,140191,1,0,0:0:0:0:
320,192,140279,1,0,0:0:0:0:
192,192,140367,1,0,0:0:0:0:
448,192,140456,1,0,0:0:0:0:
320,192,140456,1,0,0:0:0:0:
192,192,140632,1,0,0:0:0:0:
64,192,140720,1,0,0:0:0:0:
448,192,140809,1,0,0:0:0:0:
320,192,140809,1,2,0:0:0:0:
192,192,140897,1,0,0:0:0:0:
320,192,140985,1,0,0:0:0:0:
448,192,141073,1,0,0:0:0:0:
64,192,141162,1,0,0:0:0:0:
192,192,141162,1,0,0:0:0:0:
320,192,141250,1,0,0:0:0:0:
192,192,141338,1,0,0:0:0:0:
64,192,141426,1,0,0:0:0:0:
448,192,141514,1,0,0:0:0:0:
320,192,141514,1,2,0:0:0:0:
192,192,141691,1,0,0:0:0:0:
320,192,141779,1,0,0:0:0:0:
448,192,141867,1,0,0:0:0:0:
192,192,141867,1,0,0:0:0:0:
64,192,141956,1,0,0:0:0:0:
320,192,142044,1,0,0:0:0:0:
192,192,142132,1,0,0:0:0:0:
448,192,142220,1,0,0:0:0:0:
320,192,142220,1,2,0:0:0:0:
64,192,142397,1,0,0:0:0:0:
448,192,142485,1,0,0:0:0:0:
192,192,142573,1,0,0:0:0:0:
320,192,142573,1,0,0:0:0:0:
64,192,142662,1,0,0:0:0:0:
448,192,142750,1,0,0:0:0:0:
320,192,142838,1,0,0:0:0:0:
192,192,142926,1,2,0:0:0:0:
64,192,142926,1,0,0:0:0:0:
320,192,143014,1,0,0:0:0:0:
192,192,143103,1,0,0:0:0:0:
64,192,143191,1,0,0:0:0:0:
320,192,143279,1,0,0:0:0:0:
448,192,143279,1,0,0:0:0:0:
192,192,143367,1,0,0:0:0:0:
64,192,143456,1,0,0:0:0:0:
320,192,143544,1,0,0:0:0:0:
448,192,143632,128,0,143720:0:0:0:0:
192,192,143632,1,2,0:0:0:0:
64,192,143720,128,0,143809:0:0:0:0:
320,192,143809,1,0,0:0:0:0:
448,192,143897,1,0,0:0:0:0:
320,192,143985,128,0,144073:0:0:0:0:
192,192,143985,1,0,0:0:0:0:
64,192,144073,128,0,144162:0:0:0:0:
448,192,144162,1,0,0:0:0:0:
320,192,144250,1,0,0:0:0:0:
448,192,144338,128,0,144426:0:0:0:0:
64,192,144338,1,2,0:0:0:0:
192,192,144426,128,0,144514:0:0:0:0:
320,192,144514,1,0,0:0:0:0:
448,192,144691,1,0,0:0:0:0:
64,192,144691,1,0,0:0:0:0:
320,192,144691,1,4,0:0:0:0:
192,192,144867,1,0,0:0:0:0:
320,192,144956,1,0,0:0:0:0:
64,192,145044,1,0,0:0:0:0:
192,192,145044,1,2,0:0:0:0:
320,192,145220,1,0,0:0:0:0:
64,192,145309,1,0,0:0:0:0:
448,192,145397,1,0,0:0:0:0:
192,192,145397,1,0,0:0:0:0:
320,192,145485,1,0,0:0:0:0:
64,192,145573,1,0,0:0:0:0:
320,192,145662,1,0,0:0:0:0:
448,192,145750,128,0,145926:0:0:0:0:
192,192,145750,1,2,0:0:0:0:
64,192,145838,1,0,0:0:0:0:
320,192,145926,1,0,0:0:0:0:
64,192,146103,128,0,146279:0:0:0:0:
448,192,146103,1,0,0:0:0:0:
320,192,146103,1,0,0:0:0:0:
192,192,146279,1,0,0:0:0:0:
448,192,146456,128,0,146632:0:0:0:0:
64,192,146456,1,0,0:0:0:0:
320,192,146632,1,0,0:0:0:0:
64,192,146720,1,0,0:0:0:0:
192,192,146809,1,0,0:0:0:0:
448,192,146809,1,0,0:0:0:0:
320,192,146985,128,0,147162:0:0:0:0:
64,192,147073,1,0,0:0:0:0:
192,192,147162,1,2,0:0:0:0:
448,192,147162,1,0,0:0:0:0:
192,192,147338,128,0,147514:0:0:0:0:
448,192,147514,1,4,0:0:0:0:
320,192,147514,1,0,0:0:0:0:
64,192,147514,1,0,0:0:0:0:
64,192,147691,128,0,147867:0:0:0:0:
448,192,147779,1,0,0:0:0:0:
320,192,147867,1,0,0:0:0:0:
192,192,147867,1,2,0:0:0:0:
320,192,148044,128,0,148220:0:0:0:0:
64,192,148132,1,0,0:0:0:0:
192,192,148220,1,0,0:0:0:0:
448,192,148220,1,0,0:0:0:0:
192,192,148397,128,0,148573:0:0:0:0:
448,192,148485,1,0,0:0:0:0:
320,192,148573,1,0,0:0:0:0:
64,192,148573,1,2,0:0:0:0:
448,192,148750,128,0,149279:0:0:0:0:
64,192,148838,1,0,0:0:0:0:
192,192,148926,1,4,0:0:0:0:
320,192,148926,1,0,0:0:0:0:
64,192,149103,1,0,0:0:0:0:
320,192,149279,1,0,0:0:0:0:
192,192,149279,1,4,0:0:0:0:
448,192,149456,1,0,0:0:0:0:
320,192,149544,1,0,0:0:0:0:
192,192,149632,1,4,0:0:0:0:
64,192,149632,1,0,0:0:0:0:
448,192,149632,1,0,0:0:0:0:
320,192,149809,1,0,0:0:0:0:
64,192,149897,1,0,0:0:0:0:
320,192,149985,1,0,0:0:0:0:
448,192,149985,1,0,0:0:0:0:
192,192,149985,1,4,0:0:0:0:
64,192,150162,1,0,0:0:0:0:
320,192,150250,1,0,0:0:0:0:
64,192,150338,1,0,0:0:0:0:
192,192,150338,1,4,0:0:0:0:
448,192,150338,1,0,0:0:0:0:
320,192,150691,1,0,0:0:0:0:
64,192,150867,1,0,0:0:0:0:
448,192,150956,1,0,0:0:0:0:
192,192,151044,1,0,0:0:0:0:
320,192,151132,1,0,0:0:0:0:
64,192,151220,1,0,0:0:0:0:
320,192,151397,1,0,0:0:0:0:
64,192,151573,1,0,0:0:0:0:
448,192,151662,1,0,0:0:0:0:
192,192,151750,1,0,0:0:0:0:
192,192,151926,1,0,0:0:0:0:
448,192,152103,1,0,0:0:0:0:
320,192,152279,1,0,0:0:0:0:
64,192,152367,1,0,0:0:0:0:
448,192,152456,1,0,0:0:0:0:
192,192,152544,1,0,0:0:0:0:
448,192,152632,1,0,0:0:0:0:
64,192,152809,1,0,0:0:0:0:
320,192,152985,1,0,0:0:0:0:
192,192,153073,1,0,0:0:0:0:
320,192,153162,1,0,0:0:0:0:
64,192,153338,1,0,0:0:0:0:
448,192,153514,1,0,0:0:0:0:
192,192,153691,1,0,0:0:0:0:
320,192,153779,1,0,0:0:0:0:
64,192,153867,1,0,0:0:0:0:
448,192,153956,1,0,0:0:0:0:
192,192,154044,1,0,0:0:0:0:
64,192,154220,1,0,0:0:0:0:
448,192,154397,1,0,0:0:0:0:
192,192,154485,1,0,0:0:0:0:
320,192,154573,1,0,0:0:0:0:
320,192,154750,1,0,0:0:0:0:
64,192,154926,1,0,0:0:0:0:
448,192,155103,1,0,0:0:0:0:
192,192,155191,1,0,0:0:0:0:
320,192,155279,1,0,0:0:0:0:
64,192,155367,1,0,0:0:0:0:
448,192,155456,1,0,0:0:0:0:
192,192,155632,1,0,0:0:0:0:
320,192,155809,1,0,0:0:0:0:
64,192,155897,1,0,0:0:0:0:
320,192,155985,1,0,0:0:0:0:
192,192,155985,1,0,0:0:0:0:
448,192,155985,1,4,0:0:0:0:
64,192,156162,1,0,0:0:0:0:
192,192,156338,1,0,0:0:0:0:
448,192,156514,1,0,0:0:0:0:
64,192,156603,1,0,0:0:0:0:
320,192,156691,1,0,0:0:0:0:
192,192,156779,1,0,0:0:0:0:
448,192,156867,1,0,0:0:0:0:
64,192,157044,1,0,0:0:0:0:
320,192,157220,1,0,0:0:0:0:
192,192,157309,1,0,0:0:0:0:
448,192,157397,1,0,0:0:0:0:
448,192,157573,1,0,0:0:0:0:
192,192,157750,1,4,0:0:0:0:
448,192,157838,1,0,0:0:0:0:
192,192,157926,1,4,0:0:0:0:
320,192,157926,1,0,0:0:0:0:
64,192,158014,1,0,0:0:0:0:
448,192,158103,1,0,0:0:0:0:
320,192,158103,1,4,0:0:0:0:
64,192,158191,1,0,0:0:0:0:
320,192,158279,1,4,0:0:0:0:
192,192,158279,1,0,0:0:0:0:
448,192,158456,1,4,0:0:0:0:
64,192,158456,1,0,0:0:0:0:
320,192,158632,1,4,0:0:0:0:
192,192,158632,1,0,0:0:0:0:
448,192,158720,1,0,0:0:0:0:
192,192,158809,1,4,0:0:0:0:
64,192,158809,1,0,0:0:0:0:
192,192,158985,1,4,0:0:0:0:
448,192,158985,1,0,0:0:0:0:
320,192,159162,1,4,0:0:0:0:
64,192,159162,1,0,0:0:0:0:
320,192,159338,1,4,0:0:0:0:
448,192,159338,1,0,0:0:0:0:
192,192,159426,1,0,0:0:0:0:
320,192,159514,1,4,0:0:0:0:
448,192,159514,1,0,0:0:0:0:
64,192,159603,1,0,0:0:0:0:
192,192,159691,1,0,0:0:0:0:
320,192,159691,1,4,0:0:0:0:
64,192,159867,1,0,0:0:0:0:
448,192,159867,1,4,0:0:0:0:
192,192,160044,1,0,0:0:0:0:
448,192,160044,1,4,0:0:0:0:
320,192,160132,1,0,0:0:0:0:
64,192,160220,1,0,0:0:0:0:
192,192,160220,1,4,0:0:0:0:
320,192,160309,1,4,0:0:0:0:
448,192,160309,1,0,0:0:0:0:
192,192,160397,1,4,0:0:0:0:
64,192,160397,1,0,0:0:0:0:
64,192,160573,1,0,0:0:0:0:
320,192,160573,1,4,0:0:0:0:
448,192,160662,1,0,0:0:0:0:
192,192,160662,1,4,0:0:0:0:
64,192,160750,1,0,0:0:0:0:
320,192,160750,1,0,0:0:0:0:
192,192,160926,1,4,0:0:0:0:
320,192,160926,1,0,0:0:0:0:
64,192,161014,1,4,0:0:0:0:
448,192,161014,1,0,0:0:0:0:
192,192,161103,1,4,0:0:0:0:
320,192,161103,1,0,0:0:0:0:
192,192,161279,1,4,0:0:0:0:
64,192,161279,1,0,0:0:0:0:
320,192,161367,1,4,0:0:0:0:
448,192,161367,1,0,0:0:0:0:
64,192,161456,1,0,0:0:0:0:
192,192,161456,1,4,0:0:0:0:
448,192,161544,1,0,0:0:0:0:
320,192,161544,1,4,0:0:0:0:
192,192,161632,1,4,0:0:0:0:
64,192,161632,1,0,0:0:0:0:
320,192,161632,1,0,0:0:0:0:
448,192,161720,1,0,0:0:0:0:
64,192,161809,1,0,0:0:0:0:
192,192,161897,1,0,0:0:0:0:
448,192,161985,1,0,0:0:0:0:
320,192,161985,1,2,0:0:0:0:
192,192,162162,1,0,0:0:0:0:
64,192,162250,1,0,0:0:0:0:
320,192,162338,1,0,0:0:0:0:
192,192,162338,1,0,0:0:0:0:
448,192,162426,1,0,0:0:0:0:
64,192,162514,1,0,0:0:0:0:
320,192,162603,1,0,0:0:0:0:
64,192,162691,1,0,0:0:0:0:
192,192,162691,1,2,0:0:0:0:
448,192,162779,1,0,0:0:0:0:
192,192,162867,1,0,0:0:0:0:
320,192,162956,1,0,0:0:0:0:
64,192,163044,1,0,0:0:0:0:
448,192,163044,1,0,0:0:0:0:
320,192,163220,1,0,0:0:0:0:
64,192,163309,1,0,0:0:0:0:
192,192,163397,1,2,0:0:0:0:
448,192,163397,1,0,0:0:0:0:
320,192,163485,1,0,0:0:0:0:
64,192,163573,1,0,0:0:0:0:
448,192,163662,1,0,0:0:0:0:
192,192,163750,1,0,0:0:0:0:
64,192,163750,1,0,0:0:0:0:
320,192,163838,1,0,0:0:0:0:
448,192,163926,1,0,0:0:0:0:
64,192,164014,1,0,0:0:0:0:
448,192,164103,1,0,0:0:0:0:
192,192,164103,1,2,0:0:0:0:
320,192,164191,1,0,0:0:0:0:
64,192,164279,1,0,0:0:0:0:
320,192,164456,1,0,0:0:0:0:
448,192,164456,1,0,0:0:0:0:
192,192,164544,1,0,0:0:0:0:
64,192,164632,1,0,0:0:0:0:
192,192,164720,1,0,0:0:0:0:
320,192,164809,1,0,0:0:0:0:
448,192,164809,1,2,0:0:0:0:
64,192,164985,1,0,0:0:0:0:
192,192,165073,1,0,0:0:0:0:
448,192,165162,1,0,0:0:0:0:
320,192,165162,1,0,0:0:0:0:
64,192,165250,1,0,0:0:0:0:
448,192,165338,1,0,0:0:0:0:
192,192,165426,1,0,0:0:0:0:
64,192,165514,1,0,0:0:0:0:
320,192,165514,1,2,0:0:0:0:
448,192,165603,1,0,0:0:0:0:
192,192,165691,1,0,0:0:0:0:
320,192,165779,1,0,0:0:0:0:
192,192,165867,1,0,0:0:0:0:
64,192,165867,1,0,0:0:0:0:
448,192,166044,1,0,0:0:0:0:
320,192,166132,1,0,0:0:0:0:
192,192,166220,1,2,0:0:0:0:
64,192,166220,1,0,0:0:0:0:
448,192,166309,1,0,0:0:0:0:
192,192,166397,1,0,0:0:0:0:
320,192,166573,1,0,0:0:0:0:
448,192,166573,1,0,0:0:0:0:
192,192,166662,1,0,0:0:0:0:
64,192,166750,1,0,0:0:0:0:
320,192,166838,1,0,0:0:0:0:
448,192,166926,1,0,0:0:0:0:
192,192,166926,1,2,0:0:0:0:
320,192,167103,1,0,0:0:0:0:
448,192,167279,1,0,0:0:0:0:
64,192,167279,1,0,0:0:0:0:
192,192,167279,1,4,0:0:0:0:
320,192,167367,1,0,0:0:0:0:
192,192,167456,1,0,0:0:0:0:
64,192,167544,1,0,0:0:0:0:
448,192,167632,1,0,0:0:0:0:
320,192,167632,1,2,0:0:0:0:
64,192,167809,1,0,0:0:0:0:
448,192,167985,1,0,0:0:0:0:
192,192,167985,1,0,0:0:0:0:
320,192,168162,1,0,0:0:0:0:
448,192,168338,1,0,0:0:0:0:
192,192,168338,1,2,0:0:0:0:
64,192,168426,1,0,0:0:0:0:
320,192,168514,1,0,0:0:0:0:
192,192,168603,1,0,0:0:0:0:
448,192,168691,1,0,0:0:0:0:
320,192,168691,1,0,0:0:0:0:
64,192,168867,1,0,0:0:0:0:
192,192,169044,1,2,0:0:0:0:
320,192,169044,1,0,0:0:0:0:
448,192,169220,1,0,0:0:0:0:
64,192,169397,1,0,0:0:0:0:
192,192,169397,1,0,0:0:0:0:
320,192,169573,1,0,0:0:0:0:
448,192,169750,1,2,0:0:0:0:
64,192,169750,1,0,0:0:0:0:
192,192,169926,1,0,0:0:0:0:
64,192,170103,128,0,170456:0:0:0:0:
448,192,170103,1,4,0:0:0:0:
320,192,170103,1,0,0:0:0:0:
192,192,170279,1,0,0:0:0:0:
448,192,170456,1,2,0:0:0:0:
320,192,170456,1,0,0:0:0:0:
192,192,170632,128,0,170985:0:0:0:0:
448,192,170809,1,4,0:0:0:0:
64,192,170809,1,0,0:0:0:0:
320,192,170809,1,0,0:0:0:0:
64,192,170985,1,0,0:0:0:0:
192,192,171162,1,2,0:0:0:0:
448,192,171162,128,0,171514:0:0:0:0:
320,192,171338,1,0,0:0:0:0:
64,192,171514,1,0,0:0:0:0:
192,192,171514,1,4,0:0:0:0:
320,192,171514,1,0,0:0:0:0:
320,192,171691,128,0,171867:0:0:0:0:
192,192,171867,1,4,0:0:0:0:
448,192,171867,1,0,0:0:0:0:
64,192,171867,1,0,0:0:0:0:
64,192,172044,128,0,172397:0:0:0:0:
320,192,172220,128,0,172397:0:0:0:0:
448,192,172220,1,4,0:0:0:0:
192,192,172220,1,0,0:0:0:0:
192,192,172573,128,0,172750:0:0:0:0:
448,192,172573,1,4,0:0:0:0:
64,192,172573,1,0,0:0:0:0:
448,192,172926,1,4,0:0:0:0:
320,192,172926,1,0,0:0:0:0:
64,192,172926,1,0,0:0:0:0:
192,192,173014,1,0,0:0:0:0:
448,192,173103,1,0,0:0:0:0:
320,192,173191,1,0,0:0:0:0:
64,192,173279,1,0,0:0:0:0:
192,192,173279,1,2,0:0:0:0:
192,192,173456,1,0,0:0:0:0:
64,192,173544,1,0,0:0:0:0:
320,192,173632,1,0,0:0:0:0:
448,192,173632,1,0,0:0:0:0:
192,192,173720,1,0,0:0:0:0:
320,192,173809,1,0,0:0:0:0:
64,192,173985,1,0,0:0:0:0:
192,192,173985,1,2,0:0:0:0:
448,192,174073,1,0,0:0:0:0:
320,192,174162,1,0,0:0:0:0:
192,192,174250,1,0,0:0:0:0:
448,192,174338,1,0,0:0:0:0:
64,192,174338,1,0,0:0:0:0:
64,192,174514,1,0,0:0:0:0:
192,192,174603,1,0,0:0:0:0:
448,192,174691,1,0,0:0:0:0:
320,192,174691,1,2,0:0:0:0:
64,192,174779,1,0,0:0:0:0:
192,192,174867,1,0,0:0:0:0:
448,192,175044,1,0,0:0:0:0:
64,192,175044,1,0,0:0:0:0:
192,192,175132,1,0,0:0:0:0:
320,192,175220,1,0,0:0:0:0:
192,192,175309,1,0,0:0:0:0:
448,192,175397,1,2,0:0:0:0:
64,192,175397,1,0,0:0:0:0:
320,192,175573,1,0,0:0:0:0:
64,192,175750,1,0,0:0:0:0:
448,192,175750,1,0,0:0:0:0:
320,192,175838,1,0,0:0:0:0:
192,192,175926,1,0,0:0:0:0:
448,192,176014,1,0,0:0:0:0:
64,192,176103,1,0,0:0:0:0:
192,192,176103,1,2,0:0:0:0:
448,192,176279,1,0,0:0:0:0:
192,192,176367,1,0,0:0:0:0:
320,192,176456,1,0,0:0:0:0:
448,192,176456,1,0,0:0:0:0:
192,192,176544,1,0,0:0:0:0:
64,192,176632,1,0,0:0:0:0:
320,192,176809,1,2,0:0:0:0:
448,192,176809,1,0,0:0:0:0:
192,192,176897,1,0,0:0:0:0:
320,192,176985,1,0,0:0:0:0:
448,192,177073,1,0,0:0:0:0:
192,192,177162,1,0,0:0:0:0:
64,192,177162,1,0,0:0:0:0:
320,192,177338,1,0,0:0:0:0:
64,192,177426,1,0,0:0:0:0:
448,192,177514,1,2,0:0:0:0:
192,192,177514,1,0,0:0:0:0:
320,192,177603,1,0,0:0:0:0:
64,192,177691,1,0,0:0:0:0:
320,192,177867,1,0,0:0:0:0:
448,192,177867,1,0,0:0:0:0:
192,192,177956,1,0,0:0:0:0:
64,192,178044,1,0,0:0:0:0:
448,192,178132,1,0,0:0:0:0:
192,192,178220,1,0,0:0:0:0:
320,192,178220,1,2,0:0:0:0:
448,192,178397,1,0,0:0:0:0:
64,192,178573,1,0,0:0:0:0:
192,192,178573,1,0,0:0:0:0:
320,192,178573,1,4,0:0:0:0:
448,192,178662,1,0,0:0:0:0:
64,192,178750,1,0,0:0:0:0:
192,192,178838,1,0,0:0:0:0:
448,192,178926,1,0,0:0:0:0:
320,192,178926,1,2,0:0:0:0:
64,192,179103,1,0,0:0:0:0:
448,192,179191,1,0,0:0:0:0:
64,192,179279,1,0,0:0:0:0:
320,192,179279,1,0,0:0:0:0:
192,192,179456,1,0,0:0:0:0:
320,192,179632,1,2,0:0:0:0:
448,192,179632,1,0,0:0:0:0:
192,192,179720,1,0,0:0:0:0:
320,192,179809,1,0,0:0:0:0:
448,192,179897,1,0,0:0:0:0:
320,192,179985,1,0,0:0:0:0:
192,192,179985,1,0,0:0:0:0:
448,192,180162,1,0,0:0:0:0:
320,192,180250,1,0,0:0:0:0:
192,192,180338,1,2,0:0:0:0:
64,192,180338,1,0,0:0:0:0:
320,192,180514,1,0,0:0:0:0:
448,192,180691,1,0,0:0:0:0:
192,192,180691,1,0,0:0:0:0:
320,192,180779,1,0,0:0:0:0:
64,192,180867,1,0,0:0:0:0:
320,192,181044,1,2,0:0:0:0:
448,192,181044,1,0,0:0:0:0:
64,192,181220,1,0,0:0:0:0:
320,192,181397,1,4,0:0:0:0:
192,192,181397,1,0,0:0:0:0:
448,192,181397,1,0,0:0:0:0:
64,192,181573,1,0,0:0:0:0:
448,192,181662,1,0,0:0:0:0:
192,192,181750,1,0,0:0:0:0:
320,192,181750,1,2,0:0:0:0:
64,192,181926,1,0,0:0:0:0:
192,192,182014,1,0,0:0:0:0:
320,192,182103,1,0,0:0:0:0:
448,192,182103,1,0,0:0:0:0:
64,192,182103,1,0,0:0:0:0:
192,192,182279,1,0,0:0:0:0:
320,192,182367,1,0,0:0:0:0:
64,192,182456,1,0,0:0:0:0:
192,192,182456,1,2,0:0:0:0:
448,192,182632,1,0,0:0:0:0:
64,192,182720,1,0,0:0:0:0:
192,192,182809,1,4,0:0:0:0:
448,192,182809,1,0,0:0:0:0:
320,192,182809,1,0,0:0:0:0:
64,192,182985,1,0,0:0:0:0:
192,192,183073,1,0,0:0:0:0:
320,192,183162,1,4,0:0:0:0:
448,192,183162,1,0,0:0:0:0:
64,192,183162,1,0,0:0:0:0:
192,192,183338,1,0,0:0:0:0:
64,192,183426,1,0,0:0:0:0:
192,192,183514,1,4,0:0:0:0:
320,192,183514,1,0,0:0:0:0:
448,192,183514,1,0,0:0:0:0:
64,192,183691,1,0,0:0:0:0:
320,192,183779,1,0,0:0:0:0:
192,192,183867,1,4,0:0:0:0:
448,192,183867,1,0,0:0:0:0:
64,192,183867,1,0,0:0:0:0:
320,192,184044,1,0,0:0:0:0:
192,192,184132,1,0,0:0:0:0:
64,192,184220,1,0,0:0:0:0:
320,192,184220,1,4,0:0:0:0:
448,192,184220,1,0,0:0:0:0:
192,192,184309,1,0,0:0:0:0:
448,192,184397,1,0,0:0:0:0:
320,192,184485,1,0,0:0:0:0:
192,192,184573,1,2,0:0:0:0:
64,192,184573,1,0,0:0:0:0:
448,192,184662,1,0,0:0:0:0:
320,192,184750,1,0,0:0:0:0:
64,192,184838,1,0,0:0:0:0:
192,192,184926,1,0,0:0:0:0:
448,192,184926,1,0,0:0:0:0:
320,192,185014,1,0,0:0:0:0:
64,192,185103,1,0,0:0:0:0:
448,192,185191,1,0,0:0:0:0:
320,192,185279,1,0,0:0:0:0:
192,192,185279,1,2,0:0:0:0:
64,192,185367,1,0,0:0:0:0:
320,192,185456,1,0,0:0:0:0:
448,192,185544,1,0,0:0:0:0:
64,192,185632,1,0,0:0:0:0:
192,192,185632,1,0,0:0:0:0:
320,192,185809,1,0,0:0:0:0:
192,192,185897,1,0,0:0:0:0:
320,192,185985,1,2,0:0:0:0:
448,192,185985,1,0,0:0:0:0:
64,192,186073,1,0,0:0:0:0:
192,192,186162,1,0,0:0:0:0:
448,192,186250,1,0,0:0:0:0:
320,192,186338,1,0,0:0:0:0:
64,192,186338,1,0,0:0:0:0:
192,192,186426,1,0,0:0:0:0:
448,192,186514,1,0,0:0:0:0:
64,192,186603,1,0,0:0:0:0:
192,192,186691,1,0,0:0:0:0:
320,192,186691,1,2,0:0:0:0:
448,192,186867,1,0,0:0:0:0:
192,192,186956,1,0,0:0:0:0:
64,192,187044,1,0,0:0:0:0:
320,192,187044,1,0,0:0:0:0:
448,192,187132,1,0,0:0:0:0:
192,192,187220,1,0,0:0:0:0:
64,192,187309,1,0,0:0:0:0:
192,192,187397,1,2,0:0:0:0:
320,192,187397,1,0,0:0:0:0:
448,192,187485,1,0,0:0:0:0:
64,192,187573,1,0,0:0:0:0:
192,192,187662,1,0,0:0:0:0:
320,192,187750,1,0,0:0:0:0:
448,192,187750,1,0,0:0:0:0:
192,192,187838,1,0,0:0:0:0:
320,192,187926,1,0,0:0:0:0:
448,192,188014,1,0,0:0:0:0:
192,192,188103,1,2,0:0:0:0:
64,192,188103,1,0,0:0:0:0:
320,192,188279,1,0,0:0:0:0:
192,192,188367,1,0,0:0:0:0:
64,192,188456,1,0,0:0:0:0:
448,192,188456,1,0,0:0:0:0:
192,192,188632,1,0,0:0:0:0:
64,192,188720,1,0,0:0:0:0:
320,192,188809,1,2,0:0:0:0:
448,192,188809,1,0,0:0:0:0:
64,192,188985,1,0,0:0:0:0:
448,192,189073,1,0,0:0:0:0:
320,192,189162,1,0,0:0:0:0:
192,192,189162,1,0,0:0:0:0:
64,192,189250,1,0,0:0:0:0:
320,192,189338,1,0,0:0:0:0:
448,192,189426,1,0,0:0:0:0:
64,192,189514,1,0,0:0:0:0:
192,192,189514,1,2,0:0:0:0:
320,192,189691,1,0,0:0:0:0:
192,192,189779,1,0,0:0:0:0:
448,192,189867,1,0,0:0:0:0:
64,192,189867,1,0,0:0:0:0:
320,192,189867,1,4,0:0:0:0:
192,192,189956,1,0,0:0:0:0:
448,192,190044,1,0,0:0:0:0:
64,192,190132,1,0,0:0:0:0:
192,192,190220,1,2,0:0:0:0:
320,192,190220,1,0,0:0:0:0:
448,192,190397,1,0,0:0:0:0:
320,192,190485,1,0,0:0:0:0:
192,192,190573,1,0,0:0:0:0:
64,192,190573,1,0,0:0:0:0:
448,192,190662,1,0,0:0:0:0:
320,192,190750,1,0,0:0:0:0:
64,192,190838,1,0,0:0:0:0:
192,192,190926,1,2,0:0:0:0:
448,192,190926,1,0,0:0:0:0:
320,192,191103,1,0,0:0:0:0:
192,192,191191,1,0,0:0:0:0:
320,192,191279,1,0,0:0:0:0:
448,192,191279,1,0,0:0:0:0:
64,192,191456,1,0,0:0:0:0:
192,192,191544,1,0,0:0:0:0:
320,192,191632,1,2,0:0:0:0:
448,192,191632,1,0,0:0:0:0:
192,192,191809,1,0,0:0:0:0:
64,192,191897,1,0,0:0:0:0:
320,192,191985,1,0,0:0:0:0:
448,192,191985,1,0,0:0:0:0:
192,192,192073,1,0,0:0:0:0:
320,192,192162,1,0,0:0:0:0:
448,192,192250,1,0,0:0:0:0:
192,192,192338,1,2,0:0:0:0:
64,192,192338,1,0,0:0:0:0:
320,192,192426,1,0,0:0:0:0:
192,192,192514,1,0,0:0:0:0:
64,192,192603,1,0,0:0:0:0:
448,192,192691,1,0,0:0:0:0:
320,192,192691,1,0,0:0:0:0:
192,192,192691,1,4,0:0:0:0:
64,192,192779,1,0,0:0:0:0:
320,192,192867,1,0,0:0:0:0:
448,192,192956,1,0,0:0:0:0:
192,192,193044,1,2,0:0:0:0:
64,192,193044,1,0,0:0:0:0:
320,192,193220,1,0,0:0:0:0:
192,192,193309,1,0,0:0:0:0:
448,192,193397,1,0,0:0:0:0:
64,192,193397,1,0,0:0:0:0:
320,192,193397,1,4,0:0:0:0:
192,192,193573,1,0,0:0:0:0:
448,192,193662,1,0,0:0:0:0:
320,192,193750,1,0,0:0:0:0:
192,192,193750,1,2,0:0:0:0:
64,192,193926,1,0,0:0:0:0:
192,192,194014,1,0,0:0:0:0:
448,192,194103,1,0,0:0:0:0:
320,192,194103,1,4,0:0:0:0:
64,192,194103,1,0,0:0:0:0:
192,192,194279,1,0,0:0:0:0:
448,192,194367,1,0,0:0:0:0:
64,192,194456,1,0,0:0:0:0:
192,192,194456,1,0,0:0:0:0:
320,192,194456,1,4,0:0:0:0:
448,192,194544,1,0,0:0:0:0:
192,192,194632,1,0,0:0:0:0:
320,192,194720,1,0,0:0:0:0:
448,192,194809,1,0,0:0:0:0:
192,192,194809,1,4,0:0:0:0:
64,192,194809,1,0,0:0:0:0:
320,192,194897,1,0,0:0:0:0:
64,192,194985,1,0,0:0:0:0:
192,192,195073,1,0,0:0:0:0:
448,192,195162,1,0,0:0:0:0:
320,192,195162,1,4,0:0:0:0:
64,192,195162,1,0,0:0:0:0:
192,192,195338,1,0,0:0:0:0:
64,192,195426,1,0,0:0:0:0:
448,192,195514,1,0,0:0:0:0:
192,192,195514,1,4,0:0:0:0:
320,192,195514,1,0,0:0:0:0:
64,192,195603,1,0,0:0:0:0:
320,192,195691,1,0,0:0:0:0:
192,192,195779,1,0,0:0:0:0:
448,192,195867,1,2,0:0:0:0:
64,192,195867,1,0,0:0:0:0:
192,192,196044,1,0,0:0:0:0:
320,192,196132,1,0,0:0:0:0:
192,192,196220,1,0,0:0:0:0:
64,192,196220,1,0,0:0:0:0:
448,192,196309,1,0,0:0:0:0:
320,192,196397,1,0,0:0:0:0:
192,192,196485,1,0,0:0:0:0:
64,192,196573,1,0,0:0:0:0:
448,192,196573,1,2,0:0:0:0:
320,192,196750,1,0,0:0:0:0:
448,192,196838,1,0,0:0:0:0:
192,192,196926,1,0,0:0:0:0:
64,192,196926,1,0,0:0:0:0:
448,192,197014,1,0,0:0:0:0:
320,192,197103,1,0,0:0:0:0:
192,192,197191,1,0,0:0:0:0:
64,192,197279,1,0,0:0:0:0:
320,192,197279,1,2,0:0:0:0:
448,192,197367,1,0,0:0:0:0:
192,192,197456,1,0,0:0:0:0:
320,192,197544,1,0,0:0:0:0:
192,192,197632,1,0,0:0:0:0:
64,192,197632,1,0,0:0:0:0:
448,192,197720,1,0,0:0:0:0:
320,192,197809,1,0,0:0:0:0:
64,192,197897,1,0,0:0:0:0:
192,192,197985,1,2,0:0:0:0:
448,192,197985,1,0,0:0:0:0:
320,192,198073,1,0,0:0:0:0:
192,192,198162,1,0,0:0:0:0:
64,192,198250,1,0,0:0:0:0:
320,192,198338,1,0,0:0:0:0:
448,192,198338,1,0,0:0:0:0:
192,192,198426,1,0,0:0:0:0:
448,192,198514,1,0,0:0:0:0:
64,192,198603,1,0,0:0:0:0:
192,192,198691,1,2,0:0:0:0:
320,192,198691,1,0,0:0:0:0:
448,192,198867,1,0,0:0:0:0:
64,192,198956,1,0,0:0:0:0:
192,192,199044,1,0,0:0:0:0:
448,192,199044,1,0,0:0:0:0:
320,192,199132,1,0,0:0:0:0:
64,192,199220,1,0,0:0:0:0:
192,192,199397,1,2,0:0:0:0:
64,192,199397,1,0,0:0:0:0:
448,192,199485,1,0,0:0:0:0:
320,192,199573,1,0,0:0:0:0:
192,192,199662,1,0,0:0:0:0:
320,192,199750,1,0,0:0:0:0:
64,192,199750,1,0,0:0:0:0:
192,192,199926,1,0,0:0:0:0:
320,192,200014,1,0,0:0:0:0:
192,192,200103,1,0,0:0:0:0:
64,192,200103,1,0,0:0:0:0:
320,192,200279,1,0,0:0:0:0:
448,192,200367,1,0,0:0:0:0:
320,192,200456,1,0,0:0:0:0:
64,192,200456,1,0,0:0:0:0:
192,192,200544,1,0,0:0:0:0:
448,192,200632,1,0,0:0:0:0:
192,192,200809,1,2,0:0:0:0:
64,192,200809,1,0,0:0:0:0:
320,192,200985,1,0,0:0:0:0:
192,192,201073,1,0,0:0:0:0:
448,192,201162,5,0,0:0:0:0:
64,192,201162,1,0,0:0:0:0:
320,192,201162,1,4,0:0:0:0:
192,192,201250,1,0,0:0:0:0:
448,192,201338,1,0,0:0:0:0:
64,192,201426,1,0,0:0:0:0:
192,192,201514,1,2,0:0:0:0:
320,192,201514,1,0,0:0:0:0:
448,192,201691,1,0,0:0:0:0:
192,192,201779,1,0,0:0:0:0:
320,192,201867,1,0,0:0:0:0:
64,192,201867,1,0,0:0:0:0:
448,192,201956,1,0,0:0:0:0:
192,192,202044,1,0,0:0:0:0:
64,192,202132,1,0,0:0:0:0:
320,192,202220,1,2,0:0:0:0:
448,192,202220,1,0,0:0:0:0:
64,192,202397,1,0,0:0:0:0:
192,192,202485,1,0,0:0:0:0:
448,192,202573,1,0,0:0:0:0:
320,192,202573,1,0,0:0:0:0:
192,192,202750,1,0,0:0:0:0:
448,192,202838,1,0,0:0:0:0:
320,192,202926,1,0,0:0:0:0:
64,192,202926,1,2,0:0:0:0:
192,192,203103,1,0,0:0:0:0:
448,192,203191,1,0,0:0:0:0:
320,192,203279,1,0,0:0:0:0:
64,192,203279,1,0,0:0:0:0:
192,192,203367,1,0,0:0:0:0:
320,192,203456,1,0,0:0:0:0:
448,192,203544,1,0,0:0:0:0:
192,192,203632,1,2,0:0:0:0:
64,192,203632,1,0,0:0:0:0:
320,192,203720,1,0,0:0:0:0:
192,192,203809,1,0,0:0:0:0:
64,192,203897,1,0,0:0:0:0:
448,192,203985,1,0,0:0:0:0:
320,192,203985,1,0,0:0:0:0:
192,192,203985,1,4,0:0:0:0:
64,192,204073,1,0,0:0:0:0:
448,192,204162,1,0,0:0:0:0:
320,192,204250,1,0,0:0:0:0:
192,192,204338,1,2,0:0:0:0:
64,192,204338,1,0,0:0:0:0:
320,192,204514,1,0,0:0:0:0:
192,192,204603,1,0,0:0:0:0:
448,192,204691,1,0,0:0:0:0:
320,192,204691,1,4,0:0:0:0:
64,192,204691,1,0,0:0:0:0:
320,192,204867,1,0,0:0:0:0:
64,192,204956,1,0,0:0:0:0:
192,192,205044,1,2,0:0:0:0:
448,192,205044,1,0,0:0:0:0:
320,192,205132,1,0,0:0:0:0:
64,192,205220,1,0,0:0:0:0:
192,192,205309,1,0,0:0:0:0:
448,192,205397,1,0,0:0:0:0:
320,192,205397,1,4,0:0:0:0:
192,192,205485,1,4,0:0:0:0:
64,192,205485,1,0,0:0:0:0:
448,192,205573,1,0,0:0:0:0:
320,192,205573,1,4,0:0:0:0:
64,192,205750,1,0,0:0:0:0:
448,192,205750,1,4,0:0:0:0:
192,192,205838,1,0,0:0:0:0:
320,192,205838,1,4,0:0:0:0:
64,192,205926,1,0,0:0:0:0:
448,192,205926,1,4,0:0:0:0:
64,192,206103,1,0,0:0:0:0:
320,192,206103,1,4,0:0:0:0:
192,192,206191,1,4,0:0:0:0:
448,192,206191,1,0,0:0:0:0:
320,192,206279,1,4,0:0:0:0:
64,192,206279,1,0,0:0:0:0:
448,192,206456,1,0,0:0:0:0:
320,192,206456,1,4,0:0:0:0:
192,192,206544,1,4,0:0:0:0:
64,192,206544,1,0,0:0:0:0:
320,192,206632,1,4,0:0:0:0:
448,192,206632,1,0,0:0:0:0:
192,192,206720,1,4,0:0:0:0:
64,192,206720,1,0,0:0:0:0:
320,192,206809,1,4,0:0:0:0:
448,192,206809,1,0,0:0:0:0:
64,192,206809,1,0,0:0:0:0:
192,192,206897,1,0,0:0:0:0:
448,192,207073,1,0,0:0:0:0:
320,192,207162,1,0,0:0:0:0:
64,192,207338,1,0,0:0:0:0:
320,192,207426,1,0,0:0:0:0:
448,192,207603,1,0,0:0:0:0:
192,192,207691,1,0,0:0:0:0:
320,192,207867,1,0,0:0:0:0:
448,192,207956,1,0,0:0:0:0:
64,192,208132,1,0,0:0:0:0:
192,192,208220,1,0,0:0:0:0:
448,192,208397,1,0,0:0:0:0:
192,192,208485,1,0,0:0:0:0:
320,192,208573,1,0,0:0:0:0:
448,192,208662,1,0,0:0:0:0:
192,192,208750,1,0,0:0:0:0:
320,192,208926,1,0,0:0:0:0:
64,192,209014,1,0,0:0:0:0:
448,192,209191,1,0,0:0:0:0:
192,192,209279,128,0,209456:0:0:0:0:
320,192,209456,1,0,0:0:0:0:
448,192,209632,1,0,0:0:0:0:
64,192,209720,1,0,0:0:0:0:
192,192,209809,1,0,0:0:0:0:
320,192,209897,1,0,0:0:0:0:
448,192,209985,1,0,0:0:0:0:
64,192,210162,1,0,0:0:0:0:
320,192,210250,1,0,0:0:0:0:
192,192,210426,1,0,0:0:0:0:
448,192,210514,1,0,0:0:0:0:
64,192,210691,1,0,0:0:0:0:
192,192,210779,1,0,0:0:0:0:
448,192,210956,1,0,0:0:0:0:
320,192,211044,1,0,0:0:0:0:
64,192,211220,1,0,0:0:0:0:
320,192,211309,1,0,0:0:0:0:
192,192,211485,1,0,0:0:0:0:
448,192,211573,1,0,0:0:0:0:
64,192,211750,1,0,0:0:0:0:
192,192,211838,1,0,0:0:0:0:
320,192,211926,1,0,0:0:0:0:
448,192,212014,1,0,0:0:0:0:
64,192,212103,128,0,212279:0:0:0:0:
320,192,212279,1,0,0:0:0:0:
192,192,212456,128,0,212809:0:0:0:0:
320,192,212632,128,0,212809:0:0:0:0:
448,192,212809,128,0,212985:0:0:0:0:
64,192,212985,1,0,0:0:0:0:
64,192,213514,1,0,0:0:0:0:
448,192,213691,1,0,0:0:0:0:
320,192,213779,1,0,0:0:0:0:
192,192,213867,128,0,214220:0:0:0:0:
320,192,214397,1,0,0:0:0:0:
320,192,214573,1,0,0:0:0:0:
192,192,214750,128,0,214926:0:0:0:0:
320,192,214926,128,0,215103:0:0:0:0:
448,192,215103,128,0,215279:0:0:0:0:
64,192,215279,128,0,215456:0:0:0:0:
192,192,215809,128,0,215985:0:0:0:0:
320,192,216338,128,0,216514:0:0:0:0:
448,192,216867,128,0,217044:0:0:0:0:
64,192,217220,128,0,217750:0:0:0:0:
320,192,217573,128,0,217750:0:0:0:0:
192,192,217750,1,0,0:0:0:0:
448,192,218103,1,0,0:0:0:0:
320,192,218103,1,4,0:0:0:0:
64,192,218103,1,0,0:0:0:0:
192,192,218191,1,0,0:0:0:0:
448,192,218367,1,0,0:0:0:0:
320,192,218456,1,0,0:0:0:0:
192,192,218632,1,0,0:0:0:0:
64,192,218720,1,0,0:0:0:0:
320,192,218897,1,0,0:0:0:0:
448,192,218985,1,0,0:0:0:0:
64,192,219162,1,0,0:0:0:0:
192,192,219250,1,0,0:0:0:0:
448,192,219338,1,0,0:0:0:0:
320,192,219426,1,0,0:0:0:0:
64,192,219514,1,0,0:0:0:0:
448,192,219691,1,0,0:0:0:0:
320,192,219779,1,0,0:0:0:0:
192,192,219867,1,0,0:0:0:0:
448,192,219956,1,0,0:0:0:0:
64,192,220044,1,0,0:0:0:0:
448,192,220220,1,0,0:0:0:0:
320,192,220309,1,0,0:0:0:0:
192,192,220397,1,0,0:0:0:0:
64,192,220485,1,0,0:0:0:0:
448,192,220573,128,0,220750:0:0:0:0:
192,192,220750,1,0,0:0:0:0:
320,192,220926,1,0,0:0:0:0:
64,192,221014,1,0,0:0:0:0:
320,192,221191,1,0,0:0:0:0:
192,192,221279,1,0,0:0:0:0:
448,192,221456,1,0,0:0:0:0:
64,192,221544,1,0,0:0:0:0:
320,192,221720,1,0,0:0:0:0:
192,192,221809,1,0,0:0:0:0:
320,192,221985,1,0,0:0:0:0:
64,192,222073,1,0,0:0:0:0:
448,192,222250,1,0,0:0:0:0:
192,192,222338,1,0,0:0:0:0:
448,192,222514,1,0,0:0:0:0:
320,192,222603,1,0,0:0:0:0:
192,192,222691,1,0,0:0:0:0:
64,192,222779,1,0,0:0:0:0:
320,192,222867,1,0,0:0:0:0:
192,192,223044,1,0,0:0:0:0:
448,192,223132,1,0,0:0:0:0:
64,192,223309,1,0,0:0:0:0:
320,192,223397,128,0,223573:0:0:0:0:
192,192,223573,128,0,223750:0:0:0:0:
64,192,223750,1,0,0:0:0:0:
448,192,223838,1,0,0:0:0:0:
320,192,223926,1,0,0:0:0:0:
192,192,224014,1,0,0:0:0:0:
64,192,224103,128,0,224456:0:0:0:0:
320,192,224632,1,0,0:0:0:0:
64,192,224809,1,0,0:0:0:0:
192,192,224897,1,0,0:0:0:0:
448,192,225073,1,0,0:0:0:0:
320,192,225162,1,0,0:0:0:0:
448,192,225338,1,0,0:0:0:0:
64,192,225338,1,4,0:0:0:0:
64,192,225514,1,0,0:0:0:0:
192,192,225514,1,4,0:0:0:0:
192,192,225691,1,4,0:0:0:0:
448,192,225691,1,0,0:0:0:0:
64,192,225867,1,0,0:0:0:0:
320,192,225867,1,4,0:0:0:0:
192,192,226044,1,0,0:0:0:0:
320,192,226044,1,4,0:0:0:0:
448,192,226220,1,0,0:0:0:0:
192,192,226220,1,4,0:0:0:0:
64,192,226397,1,4,0:0:0:0:
448,192,226397,1,0,0:0:0:0:
320,192,226573,1,0,0:0:0:0:
192,192,226573,1,4,0:0:0:0:
64,192,226750,1,0,0:0:0:0:
320,192,226750,1,4,0:0:0:0:
64,192,226926,1,0,0:0:0:0:
192,192,226926,1,4,0:0:0:0:
320,192,227103,1,4,0:0:0:0:
448,192,227103,1,0,0:0:0:0:
448,192,227279,1,4,0:0:0:0:
64,192,227279,1,0,0:0:0:0:
64,192,227456,1,0,0:0:0:0:
192,192,227456,1,4,0:0:0:0:
192,192,227632,1,0,0:0:0:0:
320,192,227632,1,4,0:0:0:0:
320,192,227809,1,0,0:0:0:0:
448,192,227809,1,4,0:0:0:0:
64,192,227985,1,0,0:0:0:0:
448,192,227985,1,4,0:0:0:0:
192,192,228073,1,0,0:0:0:0:
320,192,228073,1,4,0:0:0:0:
64,192,228162,1,0,0:0:0:0:
448,192,228162,1,4,0:0:0:0:
64,192,228338,1,0,0:0:0:0:
320,192,228338,1,4,0:0:0:0:
192,192,228426,1,4,0:0:0:0:
448,192,228426,1,0,0:0:0:0:
320,192,228514,1,4,0:0:0:0:
64,192,228514,1,0,0:0:0:0:
448,192,228691,1,0,0:0:0:0:
320,192,228691,1,4,0:0:0:0:
192,192,228779,1,4,0:0:0:0:
64,192,228779,1,0,0:0:0:0:
320,192,228867,1,0,0:0:0:0:
448,192,228867,1,0,0:0:0:0:
192,192,229044,1,4,0:0:0:0:
320,192,229044,1,0,0:0:0:0:
64,192,229132,1,4,0:0:0:0:
448,192,229132,1,0,0:0:0:0:
320,192,229220,1,0,0:0:0:0:
192,192,229220,1,4,0:0:0:0:
64,192,229309,1,4,0:0:0:0:
448,192,229309,1,0,0:0:0:0:
320,192,229397,1,0,0:0:0:0:
192,192,229397,1,4,0:0:0:0:
64,192,229485,1,0,0:0:0:0:
192,192,229573,1,0,0:0:0:0:
320,192,229662,1,0,0:0:0:0:
448,192,229750,1,2,0:0:0:0:
64,192,229750,1,0,0:0:0:0:
320,192,229926,1,0,0:0:0:0:
192,192,230014,1,0,0:0:0:0:
320,192,230103,1,0,0:0:0:0:
448,192,230103,1,0,0:0:0:0:
64,192,230191,1,0,0:0:0:0:
448,192,230279,1,0,0:0:0:0:
192,192,230367,1,0,0:0:0:0:
320,192,230456,1,2,0:0:0:0:
64,192,230456,1,0,0:0:0:0:
448,192,230544,1,0,0:0:0:0:
320,192,230632,1,0,0:0:0:0:
64,192,230720,1,0,0:0:0:0:
192,192,230809,1,0,0:0:0:0:
448,192,230809,1,0,0:0:0:0:
320,192,230985,1,0,0:0:0:0:
192,192,231073,1,0,0:0:0:0:
64,192,231162,1,0,0:0:0:0:
320,192,231162,1,2,0:0:0:0:
448,192,231250,1,0,0:0:0:0:
192,192,231338,1,0,0:0:0:0:
64,192,231426,1,0,0:0:0:0:
320,192,231514,1,0,0:0:0:0:
448,192,231514,1,0,0:0:0:0:
192,192,231603,1,0,0:0:0:0:
64,192,231691,1,0,0:0:0:0:
320,192,231779,1,0,0:0:0:0:
448,192,231867,1,0,0:0:0:0:
192,192,231867,1,2,0:0:0:0:
320,192,232044,1,0,0:0:0:0:
64,192,232132,1,0,0:0:0:0:
192,192,232220,1,0,0:0:0:0:
448,192,232220,1,0,0:0:0:0:
320,192,232309,1,0,0:0:0:0:
192,192,232397,1,0,0:0:0:0:
64,192,232485,1,0,0:0:0:0:
320,192,232573,1,2,0:0:0:0:
448,192,232573,1,0,0:0:0:0:
192,192,232750,1,0,0:0:0:0:
64,192,232838,1,0,0:0:0:0:
320,192,232926,1,0,0:0:0:0:
192,192,232926,1,0,0:0:0:0:
448,192,233014,1,0,0:0:0:0:
64,192,233103,1,0,0:0:0:0:
192,192,233191,1,0,0:0:0:0:
448,192,233279,1,0,0:0:0:0:
320,192,233279,1,2,0:0:0:0:
192,192,233367,1,0,0:0:0:0:
448,192,233456,1,0,0:0:0:0:
64,192,233544,1,0,0:0:0:0:
320,192,233632,1,0,0:0:0:0:
192,192,233632,1,0,0:0:0:0:
448,192,233809,1,0,0:0:0:0:
320,192,233897,1,0,0:0:0:0:
192,192,233985,1,2,0:0:0:0:
64,192,233985,1,0,0:0:0:0:
448,192,234073,1,0,0:0:0:0:
320,192,234162,1,0,0:0:0:0:
64,192,234250,1,0,0:0:0:0:
192,192,234338,1,0,0:0:0:0:
448,192,234338,1,0,0:0:0:0:
320,192,234426,1,0,0:0:0:0:
192,192,234514,1,0,0:0:0:0:
320,192,234603,1,0,0:0:0:0:
448,192,234691,1,2,0:0:0:0:
64,192,234691,1,0,0:0:0:0:
192,192,234867,1,0,0:0:0:0:
448,192,235044,1,0,0:0:0:0:
320,192,235044,1,4,0:0:0:0:
64,192,235044,1,0,0:0:0:0:
192,192,235132,1,0,0:0:0:0:
448,192,235220,1,0,0:0:0:0:
320,192,235309,1,0,0:0:0:0:
192,192,235397,1,2,0:0:0:0:
64,192,235397,1,0,0:0:0:0:
448,192,235485,1,0,0:0:0:0:
320,192,235573,1,0,0:0:0:0:
448,192,235662,1,0,0:0:0:0:
192,192,235750,1,0,0:0:0:0:
64,192,235750,1,0,0:0:0:0:
320,192,235838,1,0,0:0:0:0:
192,192,235926,1,0,0:0:0:0:
448,192,236103,1,0,0:0:0:0:
320,192,236103,1,2,0:0:0:0:
192,192,236191,1,0,0:0:0:0:
64,192,236279,1,0,0:0:0:0:
320,192,236367,1,0,0:0:0:0:
448,192,236456,1,0,0:0:0:0:
192,192,236456,1,0,0:0:0:0:
320,192,236544,1,0,0:0:0:0:
64,192,236632,1,0,0:0:0:0:
192,192,236809,1,0,0:0:0:0:
320,192,236809,1,2,0:0:0:0:
448,192,236897,1,0,0:0:0:0:
64,192,236985,1,0,0:0:0:0:
320,192,237073,1,0,0:0:0:0:
64,192,237162,1,0,0:0:0:0:
192,192,237162,128,0,237338:0:0:0:0:
448,192,237338,128,0,237514:0:0:0:0:
320,192,237426,1,0,0:0:0:0:
192,192,237514,1,2,0:0:0:0:
64,192,237514,128,0,237691:0:0:0:0:
448,192,237691,128,0,237867:0:0:0:0:
320,192,237867,1,0,0:0:0:0:
192,192,237867,1,4,0:0:0:0:
64,192,237867,1,0,0:0:0:0:
448,192,238044,1,0,0:0:0:0:
320,192,238132,1,0,0:0:0:0:
192,192,238220,1,2,0:0:0:0:
64,192,238220,1,0,0:0:0:0:
448,192,238397,1,0,0:0:0:0:
64,192,238485,1,0,0:0:0:0:
320,192,238573,1,4,0:0:0:0:
448,192,238573,1,0,0:0:0:0:
192,192,238573,1,0,0:0:0:0:
64,192,238662,1,0,0:0:0:0:
320,192,238750,1,0,0:0:0:0:
192,192,238926,1,2,0:0:0:0:
64,192,238926,128,0,239103:0:0:0:0:
320,192,239014,1,0,0:0:0:0:
448,192,239103,1,0,0:0:0:0:
448,192,239279,1,4,0:0:0:0:
192,192,239279,1,0,0:0:0:0:
64,192,239279,128,0,239456:0:0:0:0:
320,192,239544,1,0,0:0:0:0:
448,192,239632,128,0,239809:0:0:0:0:
192,192,239632,1,4,0:0:0:0:
64,192,239632,1,0,0:0:0:0:
192,192,239897,1,0,0:0:0:0:
448,192,239985,1,0,0:0:0:0:
64,192,239985,1,0,0:0:0:0:
320,192,239985,128,0,240162:0:0:0:0:
64,192,240162,128,0,240338:0:0:0:0:
448,192,240338,128,0,240514:0:0:0:0:
320,192,240338,1,4,0:0:0:0:
192,192,240338,1,0,0:0:0:0:
64,192,240514,128,0,240691:0:0:0:0:
448,192,240691,1,0,0:0:0:0:
192,192,240691,1,4,0:0:0:0:
320,192,240691,1,0,0:0:0:0:
64,192,240779,1,0,0:0:0:0:
192,192,240867,1,0,0:0:0:0:
320,192,240956,1,0,0:0:0:0:
64,192,241044,1,2,0:0:0:0:
448,192,241044,1,0,0:0:0:0:
192,192,241220,1,0,0:0:0:0:
320,192,241309,1,0,0:0:0:0:
448,192,241397,1,0,0:0:0:0:
64,192,241397,1,0,0:0:0:0:
192,192,241485,1,0,0:0:0:0:
64,192,241573,1,0,0:0:0:0:
320,192,241750,1,2,0:0:0:0:
448,192,241750,1,0,0:0:0:0:
192,192,241838,1,0,0:0:0:0:
64,192,241926,1,0,0:0:0:0:
320,192,242014,1,0,0:0:0:0:
448,192,242103,1,0,0:0:0:0:
192,192,242103,1,0,0:0:0:0:
64,192,242279,1,0,0:0:0:0:
192,192,242367,1,0,0:0:0:0:
320,192,242456,1,2,0:0:0:0:
448,192,242456,1,0,0:0:0:0:
192,192,242544,1,0,0:0:0:0:
320,192,242632,1,0,0:0:0:0:
64,192,242720,1,0,0:0:0:0:
192,192,242809,1,0,0:0:0:0:
448,192,242809,1,0,0:0:0:0:
320,192,242897,1,0,0:0:0:0:
192,192,242985,1,0,0:0:0:0:
64,192,243073,1,0,0:0:0:0:
448,192,243162,1,0,0:0:0:0:
320,192,243162,1,2,0:0:0:0:
192,192,243338,1,0,0:0:0:0:
64,192,243514,1,0,0:0:0:0:
448,192,243514,1,0,0:0:0:0:
320,192,243603,1,0,0:0:0:0:
192,192,243691,1,0,0:0:0:0:
64,192,243779,1,0,0:0:0:0:
320,192,243867,1,2,0:0:0:0:
448,192,243867,1,0,0:0:0:0:
448,192,244044,1,0,0:0:0:0:
320,192,244132,1,0,0:0:0:0:
64,192,244220,1,0,0:0:0:0:
192,192,244220,1,0,0:0:0:0:
320,192,244397,1,0,0:0:0:0:
64,192,244573,1,0,0:0:0:0:
448,192,244573,1,2,0:0:0:0:
192,192,244662,1,0,0:0:0:0:
320,192,244750,1,0,0:0:0:0:
448,192,244838,1,0,0:0:0:0:
192,192,244926,1,0,0:0:0:0:
64,192,244926,1,0,0:0:0:0:
320,192,245103,1,0,0:0:0:0:
448,192,245191,1,0,0:0:0:0:
320,192,245279,1,2,0:0:0:0:
64,192,245279,1,0,0:0:0:0:
192,192,245367,1,0,0:0:0:0:
448,192,245456,5,0,0:0:0:0:
64,192,245544,1,0,0:0:0:0:
320,192,245632,1,0,0:0:0:0:
192,192,245632,1,0,0:0:0:0:
448,192,245720,1,0,0:0:0:0:
192,192,245809,1,0,0:0:0:0:
64,192,245897,1,0,0:0:0:0:
320,192,245985,1,2,0:0:0:0:
448,192,245985,1,0,0:0:0:0:
192,192,246162,1,0,0:0:0:0:
64,192,246338,5,0,0:0:0:0:
320,192,246338,1,4,0:0:0:0:
448,192,246338,1,0,0:0:0:0:
192,192,246426,1,0,0:0:0:0:
448,192,246514,1,0,0:0:0:0:
320,192,246603,1,0,0:0:0:0:
192,192,246691,1,2,0:0:0:0:
64,192,246691,1,0,0:0:0:0:
320,192,246867,1,0,0:0:0:0:
64,192,246956,1,0,0:0:0:0:
448,192,247044,1,0,0:0:0:0:
192,192,247044,1,0,0:0:0:0:
320,192,247132,1,0,0:0:0:0:
64,192,247220,1,0,0:0:0:0:
448,192,247397,1,0,0:0:0:0:
320,192,247397,1,2,0:0:0:0:
192,192,247485,1,0,0:0:0:0:
64,192,247573,1,0,0:0:0:0:
320,192,247662,1,0,0:0:0:0:
448,192,247750,1,0,0:0:0:0:
192,192,247750,1,0,0:0:0:0:
64,192,247926,1,0,0:0:0:0:
192,192,248014,1,0,0:0:0:0:
320,192,248103,1,2,0:0:0:0:
448,192,248103,1,0,0:0:0:0:
64,192,248279,1,0,0:0:0:0:
192,192,248367,1,0,0:0:0:0:
448,192,248456,128,0,248632:0:0:0:0:
64,192,248456,1,0,0:0:0:0:
192,192,248632,128,0,248809:0:0:0:0:
64,192,248809,1,2,0:0:0:0:
448,192,248809,128,0,248985:0:0:0:0:
64,192,248985,128,0,249162:0:0:0:0:
320,192,249162,1,4,0:0:0:0:
448,192,249162,1,0,0:0:0:0:
192,192,249162,1,0,0:0:0:0:
64,192,249338,1,0,0:0:0:0:
320,192,249426,1,0,0:0:0:0:
192,192,249514,1,2,0:0:0:0:
448,192,249514,1,0,0:0:0:0:
320,192,249691,1,0,0:0:0:0:
192,192,249779,1,0,0:0:0:0:
64,192,249867,1,0,0:0:0:0:
320,192,249867,1,4,0:0:0:0:
448,192,249867,1,0,0:0:0:0:
192,192,249956,1,0,0:0:0:0:
448,192,250044,1,0,0:0:0:0:
64,192,250220,1,2,0:0:0:0:
192,192,250220,128,0,250397:0:0:0:0:
320,192,250397,1,0,0:0:0:0:
64,192,250573,1,0,0:0:0:0:
192,192,250573,128,0,250750:0:0:0:0:
448,192,250573,1,4,0:0:0:0:
320,192,250750,1,0,0:0:0:0:
64,192,250926,1,0,0:0:0:0:
448,192,250926,128,0,251103:0:0:0:0:
192,192,250926,1,4,0:0:0:0:
320,192,251103,1,0,0:0:0:0:
192,192,251191,1,0,0:0:0:0:
64,192,251279,1,0,0:0:0:0:
448,192,251279,1,0,0:0:0:0:
320,192,251279,1,4,0:0:0:0:
192,192,251456,1,0,0:0:0:0:
320,192,251544,1,0,0:0:0:0:
64,192,251632,1,0,0:0:0:0:
448,192,251632,1,0,0:0:0:0:
192,192,251632,1,4,0:0:0:0:
320,192,251809,1,0,0:0:0:0:
448,192,251897,1,0,0:0:0:0:
192,192,251985,1,4,0:0:0:0:
64,192,251985,1,0,0:0:0:0:
320,192,251985,1,0,0:0:0:0:
448,192,252073,1,0,0:0:0:0:
192,192,252162,1,0,0:0:0:0:
320,192,252250,1,0,0:0:0:0:
448,192,252338,1,2,0:0:0:0:
64,192,252338,1,0,0:0:0:0:
192,192,252514,1,0,0:0:0:0:
448,192,252603,1,0,0:0:0:0:
192,192,252691,1,0,0:0:0:0:
320,192,252691,1,0,0:0:0:0:
64,192,252779,1,0,0:0:0:0:
448,192,252867,1,0,0:0:0:0:
320,192,253044,128,0,253220:0:0:0:0:
192,192,253044,1,2,0:0:0:0:
64,192,253132,1,0,0:0:0:0:
448,192,253220,1,0,0:0:0:0:
64,192,253309,1,0,0:0:0:0:
320,192,253397,128,0,253573:0:0:0:0:
192,192,253397,1,0,0:0:0:0:
448,192,253485,1,0,0:0:0:0:
192,192,253573,1,0,0:0:0:0:
320,192,253750,128,0,253926:0:0:0:0:
64,192,253750,1,2,0:0:0:0:
192,192,253838,1,0,0:0:0:0:
448,192,253926,1,0,0:0:0:0:
192,192,254014,1,0,0:0:0:0:
448,192,254103,1,0,0:0:0:0:
64,192,254103,128,0,254279:0:0:0:0:
320,192,254279,128,0,254456:0:0:0:0:
192,192,254367,1,0,0:0:0:0:
448,192,254456,1,2,0:0:0:0:
64,192,254456,128,0,254632:0:0:0:0:
448,192,254632,128,0,254809:0:0:0:0:
320,192,254809,1,0,0:0:0:0:
192,192,254809,1,0,0:0:0:0:
64,192,254897,1,0,0:0:0:0:
192,192,254985,1,0,0:0:0:0:
448,192,255073,1,0,0:0:0:0:
320,192,255162,1,2,0:0:0:0:
64,192,255162,1,0,0:0:0:0:
192,192,255338,1,0,0:0:0:0:
320,192,255426,1,0,0:0:0:0:
64,192,255514,1,0,0:0:0:0:
192,192,255514,1,0,0:0:0:0:
448,192,255603,1,0,0:0:0:0:
320,192,255691,1,0,0:0:0:0:
192,192,255779,1,0,0:0:0:0:
320,192,255867,128,0,256044:0:0:0:0:
448,192,255867,1,2,0:0:0:0:
64,192,256044,1,0,0:0:0:0:
192,192,256132,1,0,0:0:0:0:
320,192,256220,128,0,256397:0:0:0:0:
448,192,256220,1,0,0:0:0:0:
192,192,256397,1,0,0:0:0:0:
64,192,256485,1,0,0:0:0:0:
320,192,256573,1,2,0:0:0:0:
448,192,256573,128,0,256750:0:0:0:0:
192,192,256750,1,0,0:0:0:0:
320,192,256838,1,0,0:0:0:0:
448,192,256926,1,0,0:0:0:0:
64,192,256926,128,0,257103:0:0:0:0:
320,192,257103,128,0,257279:0:0:0:0:
192,192,257191,1,0,0:0:0:0:
448,192,257279,1,2,0:0:0:0:
64,192,257279,128,0,257456:0:0:0:0:
448,192,257456,128,0,257632:0:0:0:0:
320,192,257544,1,0,0:0:0:0:
192,192,257632,1,4,0:0:0:0:
64,192,257632,1,0,0:0:0:0:
448,192,257809,1,0,0:0:0:0:
64,192,257897,1,0,0:0:0:0:
192,192,257985,1,0,0:0:0:0:
320,192,257985,1,2,0:0:0:0:
448,192,258073,1,0,0:0:0:0:
64,192,258162,1,0,0:0:0:0:
192,192,258250,1,0,0:0:0:0:
448,192,258338,1,0,0:0:0:0:
320,192,258338,1,0,0:0:0:0:
64,192,258426,1,0,0:0:0:0:
192,192,258514,1,0,0:0:0:0:
448,192,258603,1,0,0:0:0:0:
64,192,258691,128,0,258867:0:0:0:0:
320,192,258691,1,2,0:0:0:0:
448,192,258867,1,0,0:0:0:0:
320,192,258956,1,0,0:0:0:0:
64,192,259044,128,0,259220:0:0:0:0:
192,192,259044,1,0,0:0:0:0:
448,192,259220,1,0,0:0:0:0:
320,192,259309,1,0,0:0:0:0:
64,192,259397,128,0,259573:0:0:0:0:
448,192,259397,1,2,0:0:0:0:
192,192,259485,1,0,0:0:0:0:
320,192,259573,1,0,0:0:0:0:
448,192,259662,1,0,0:0:0:0:
64,192,259750,1,0,0:0:0:0:
192,192,259750,128,0,259926:0:0:0:0:
448,192,259926,128,0,260103:0:0:0:0:
320,192,260014,1,0,0:0:0:0:
192,192,260103,1,2,0:0:0:0:
64,192,260103,128,0,260279:0:0:0:0:
448,192,260279,128,0,260456:0:0:0:0:
192,192,260456,1,4,0:0:0:0:
64,192,260456,1,0,0:0:0:0:
320,192,260456,1,0,0:0:0:0:
192,192,260632,1,0,0:0:0:0:
448,192,260720,1,0,0:0:0:0:
320,192,260809,1,2,0:0:0:0:
64,192,260809,1,0,0:0:0:0:
192,192,260897,1,0,0:0:0:0:
448,192,260985,1,0,0:0:0:0:
64,192,261073,1,0,0:0:0:0:
192,192,261162,1,0,0:0:0:0:
320,192,261162,1,4,0:0:0:0:
448,192,261250,1,0,0:0:0:0:
64,192,261338,1,0,0:0:0:0:
192,192,261426,1,0,0:0:0:0:
448,192,261514,128,0,261691:0:0:0:0:
320,192,261514,1,2,0:0:0:0:
64,192,261691,1,0,0:0:0:0:
192,192,261779,1,0,0:0:0:0:
448,192,261867,128,0,262044:0:0:0:0:
64,192,261867,1,4,0:0:0:0:
192,192,262044,1,0,0:0:0:0:
64,192,262132,1,0,0:0:0:0:
448,192,262220,1,4,0:0:0:0:
320,192,262220,128,0,262397:0:0:0:0:
192,192,262309,1,0,0:0:0:0:
64,192,262397,1,0,0:0:0:0:
448,192,262485,1,0,0:0:0:0:
192,192,262573,1,4,0:0:0:0:
64,192,262573,128,0,262750:0:0:0:0:
320,192,262662,1,0,0:0:0:0:
448,192,262750,128,0,262926:0:0:0:0:
192,192,262838,1,0,0:0:0:0:
320,192,262926,1,4,0:0:0:0:
64,192,262926,128,0,263103:0:0:0:0:
320,192,263103,128,0,263279:0:0:0:0:
64,192,263279,1,0,0:0:0:0:
192,192,263279,1,4,0:0:0:0:
448,192,263279,1,0,0:0:0:0:
192,192,263456,1,0,0:0:0:0:
448,192,263544,1,0,0:0:0:0:
320,192,263632,1,2,0:0:0:0:
64,192,263632,1,0,0:0:0:0:
192,192,263720,1,0,0:0:0:0:
448,192,263809,1,0,0:0:0:0:
64,192,263897,1,0,0:0:0:0:
192,192,263985,1,0,0:0:0:0:
320,192,263985,1,0,0:0:0:0:
448,192,264073,1,0,0:0:0:0:
64,192,264162,1,0,0:0:0:0:
192,192,264250,1,0,0:0:0:0:
320,192,264338,128,0,264514:0:0:0:0:
448,192,264338,1,2,0:0:0:0:
64,192,264514,1,0,0:0:0:0:
448,192,264603,1,0,0:0:0:0:
320,192,264691,128,0,264867:0:0:0:0:
192,192,264691,1,0,0:0:0:0:
64,192,264867,1,0,0:0:0:0:
448,192,264956,1,0,0:0:0:0:
192,192,265044,1,2,0:0:0:0:
320,192,265044,128,0,265220:0:0:0:0:
64,192,265132,1,0,0:0:0:0:
448,192,265220,1,0,0:0:0:0:
64,192,265309,1,0,0:0:0:0:
320,192,265397,1,0,0:0:0:0:
192,192,265397,128,0,265573:0:0:0:0:
448,192,265573,128,0,265750:0:0:0:0:
64,192,265750,128,0,265926:0:0:0:0:
192,192,265750,1,2,0:0:0:0:
320,192,265926,128,0,266103:0:0:0:0:
192,192,266103,1,0,0:0:0:0:
448,192,266103,1,0,0:0:0:0:
320,192,266279,1,0,0:0:0:0:
64,192,266367,1,0,0:0:0:0:
192,192,266456,1,2,0:0:0:0:
448,192,266456,1,0,0:0:0:0:
320,192,266544,1,0,0:0:0:0:
64,192,266632,1,0,0:0:0:0:
448,192,266720,1,0,0:0:0:0:
192,192,266809,1,0,0:0:0:0:
64,192,266809,1,0,0:0:0:0:
320,192,266897,1,0,0:0:0:0:
448,192,266985,1,0,0:0:0:0:
192,192,267073,1,0,0:0:0:0:
64,192,267162,128,0,267338:0:0:0:0:
320,192,267162,1,2,0:0:0:0:
448,192,267338,1,0,0:0:0:0:
192,192,267426,1,0,0:0:0:0:
64,192,267514,128,0,267691:0:0:0:0:
448,192,267514,1,0,0:0:0:0:
320,192,267691,1,0,0:0:0:0:
64,192,267867,1,2,0:0:0:0:
448,192,267867,128,0,268044:0:0:0:0:
320,192,267956,1,0,0:0:0:0:
192,192,268044,1,0,0:0:0:0:
64,192,268132,1,0,0:0:0:0:
448,192,268220,1,0,0:0:0:0:
320,192,268220,128,0,268397:0:0:0:0:
64,192,268397,128,0,268573:0:0:0:0:
192,192,268485,1,0,0:0:0:0:
320,192,268573,1,2,0:0:0:0:
448,192,268573,128,0,268750:0:0:0:0:
192,192,268750,128,0,268926:0:0:0:0:
320,192,268926,1,4,0:0:0:0:
64,192,268926,1,0,0:0:0:0:
448,192,268926,1,0,0:0:0:0:
64,192,269103,1,0,0:0:0:0:
448,192,269191,1,0,0:0:0:0:
192,192,269279,1,2,0:0:0:0:
320,192,269279,1,0,0:0:0:0:
64,192,269367,1,0,0:0:0:0:
448,192,269456,1,0,0:0:0:0:
320,192,269544,1,0,0:0:0:0:
64,192,269632,1,0,0:0:0:0:
192,192,269632,1,0,0:0:0:0:
448,192,269720,1,0,0:0:0:0:
64,192,269809,1,0,0:0:0:0:
192,192,269897,1,0,0:0:0:0:
320,192,269985,128,0,270162:0:0:0:0:
448,192,269985,1,2,0:0:0:0:
64,192,270162,1,0,0:0:0:0:
192,192,270250,1,0,0:0:0:0:
320,192,270338,128,0,270514:0:0:0:0:
448,192,270338,1,0,0:0:0:0:
64,192,270514,1,0,0:0:0:0:
448,192,270603,1,0,0:0:0:0:
192,192,270691,1,2,0:0:0:0:
320,192,270691,128,0,270867:0:0:0:0:
64,192,270779,1,0,0:0:0:0:
448,192,270867,1,0,0:0:0:0:
64,192,270956,1,0,0:0:0:0:
448,192,271044,1,0,0:0:0:0:
192,192,271044,128,0,271220:0:0:0:0:
448,192,271220,128,0,271397:0:0:0:0:
320,192,271309,1,0,0:0:0:0:
192,192,271397,1,2,0:0:0:0:
64,192,271397,128,0,271573:0:0:0:0:
448,192,271573,128,0,271750:0:0:0:0:
192,192,271750,1,4,0:0:0:0:
320,192,271750,1,0,0:0:0:0:
64,192,271750,1,0,0:0:0:0:
448,192,271926,1,0,0:0:0:0:
320,192,272014,1,0,0:0:0:0:
192,192,272103,1,2,0:0:0:0:
64,192,272103,1,0,0:0:0:0:
320,192,272279,1,0,0:0:0:0:
192,192,272367,1,0,0:0:0:0:
320,192,272456,1,4,0:0:0:0:
448,192,272456,1,0,0:0:0:0:
64,192,272456,1,0,0:0:0:0:
192,192,272544,1,0,0:0:0:0:
448,192,272632,1,0,0:0:0:0:
320,192,272720,1,0,0:0:0:0:
192,192,272809,1,2,0:0:0:0:
64,192,272809,1,0,0:0:0:0:
64,192,272985,1,0,0:0:0:0:
192,192,273073,1,0,0:0:0:0:
448,192,273162,1,0,0:0:0:0:
320,192,273162,1,4,0:0:0:0:
192,192,273250,1,4,0:0:0:0:
64,192,273250,1,0,0:0:0:0:
320,192,273338,1,4,0:0:0:0:
448,192,273338,1,0,0:0:0:0:
64,192,273514,1,0,0:0:0:0:
448,192,273514,1,4,0:0:0:0:
320,192,273603,1,4,0:0:0:0:
192,192,273603,1,0,0:0:0:0:
64,192,273691,1,0,0:0:0:0:
448,192,273691,1,4,0:0:0:0:
320,192,273867,1,4,0:0:0:0:
64,192,273867,1,0,0:0:0:0:
192,192,273956,1,4,0:0:0:0:
448,192,273956,1,0,0:0:0:0:
320,192,274044,1,4,0:0:0:0:
64,192,274044,1,0,0:0:0:0:
448,192,274220,1,0,0:0:0:0:
320,192,274220,1,4,0:0:0:0:
192,192,274309,1,4,0:0:0:0:
64,192,274309,1,0,0:0:0:0:
320,192,274397,1,4,0:0:0:0:
448,192,274397,1,0,0:0:0:0:
192,192,274485,1,4,0:0:0:0:
64,192,274485,1,0,0:0:0:0:
320,192,274573,1,4,0:0:0:0:
448,192,274573,1,0,0:0:0:0:
192,192,274573,1,0,0:0:0:0:
64,192,274750,1,0,0:0:0:0:
192,192,274838,1,0,0:0:0:0:
320,192,274926,1,4,0:0:0:0:
64,192,275014,1,0,0:0:0:0:
448,192,275103,1,0,0:0:0:0:
192,192,275191,1,0,0:0:0:0:
320,192,275279,1,4,0:0:0:0:
64,192,275367,1,0,0:0:0:0:
448,192,275456,1,0,0:0:0:0:
192,192,275544,1,0,0:0:0:0:
64,192,275632,1,4,0:0:0:0:
320,192,275809,1,0,0:0:0:0:
192,192,275897,1,0,0:0:0:0:
320,192,275985,1,4,0:0:0:0:
192,192,276162,1,0,0:0:0:0:
320,192,276250,1,0,0:0:0:0:
448,192,276338,1,4,0:0:0:0:
192,192,276426,1,0,0:0:0:0:
448,192,276514,1,0,0:0:0:0:
64,192,276603,1,0,0:0:0:0:
320,192,276691,1,4,0:0:0:0:
192,192,276779,1,0,0:0:0:0:
448,192,276867,1,0,0:0:0:0:
64,192,276956,1,0,0:0:0:0:
320,192,277044,1,4,0:0:0:0:
448,192,277132,1,0,0:0:0:0:
192,192,277220,1,0,0:0:0:0:
320,192,277309,1,0,0:0:0:0:
64,192,277397,1,4,0:0:0:0:
192,192,277485,1,0,0:0:0:0:
448,192,277573,1,0,0:0:0:0:
320,192,277662,1,0,0:0:0:0:
192,192,277750,1,4,0:0:0:0:
448,192,277838,1,0,0:0:0:0:
64,192,277926,1,0,0:0:0:0:
320,192,278014,1,0,0:0:0:0:
192,192,278103,1,4,0:0:0:0:
448,192,278191,1,0,0:0:0:0:
64,192,278279,1,0,0:0:0:0:
192,192,278367,1,0,0:0:0:0:
320,192,278456,1,4,0:0:0:0:
64,192,278544,1,0,0:0:0:0:
448,192,278632,1,0,0:0:0:0:
320,192,278720,1,0,0:0:0:0:
64,192,278809,1,4,0:0:0:0:
448,192,278897,1,0,0:0:0:0:
192,192,278985,1,0,0:0:0:0:
320,192,279073,1,0,0:0:0:0:
448,192,279162,1,4,0:0:0:0:
64,192,279250,1,0,0:0:0:0:
320,192,279338,1,0,0:0:0:0:
192,192,279426,1,0,0:0:0:0:
448,192,279514,1,4,0:0:0:0:
64,192,279603,1,0,0:0:0:0:
192,192,279691,1,0,0:0:0:0:
320,192,279779,1,0,0:0:0:0:
64,192,279867,1,4,0:0:0:0:
448,192,279956,1,0,0:0:0:0:
192,192,280044,1,0,0:0:0:0:
320,192,280132,1,0,0:0:0:0:
192,192,280220,1,4,0:0:0:0:
448,192,280309,1,0,0:0:0:0:
320,192,280397,1,0,0:0:0:0:
64,192,280485,1,0,0:0:0:0:
448,192,280573,1,4,0:0:0:0:
192,192,280662,1,0,0:0:0:0:
64,192,280750,1,0,0:0:0:0:
320,192,280838,1,0,0:0:0:0:
192,192,280926,1,4,0:0:0:0:
320,192,281014,1,0,0:0:0:0:
64,192,281103,1,0,0:0:0:0:
448,192,281191,1,0,0:0:0:0:
192,192,281279,1,4,0:0:0:0:
320,192,281367,1,0,0:0:0:0:
64,192,281456,1,0,0:0:0:0:
448,192,281544,1,0,0:0:0:0:
320,192,281632,1,4,0:0:0:0:
192,192,281720,1,0,0:0:0:0:
448,192,281809,1,0,0:0:0:0:
64,192,281897,1,0,0:0:0:0:
320,192,281985,1,4,0:0:0:0:
192,192,282073,1,0,0:0:0:0:
448,192,282162,1,0,0:0:0:0:
64,192,282250,1,0,0:0:0:0:
192,192,282338,1,4,0:0:0:0:
448,192,282514,1,0,0:0:0:0:
320,192,282603,1,0,0:0:0:0:
192,192,282691,1,4,0:0:0:0:
448,192,282779,1,0,0:0:0:0:
64,192,282867,1,0,0:0:0:0:
320,192,282956,1,0,0:0:0:0:
192,192,283044,1,4,0:0:0:0:
448,192,283132,1,0,0:0:0:0:
320,192,283220,1,0,0:0:0:0:
64,192,283309,1,0,0:0:0:0:
448,192,283397,1,4,0:0:0:0:
192,192,283485,1,0,0:0:0:0:
320,192,283573,1,0,0:0:0:0:
64,192,283662,1,0,0:0:0:0:
448,192,283750,1,4,0:0:0:0:
192,192,283838,1,0,0:0:0:0:
64,192,283926,1,0,0:0:0:0:
320,192,284014,1,0,0:0:0:0:
448,192,284103,1,4,0:0:0:0:
64,192,284191,1,0,0:0:0:0:
320,192,284279,1,0,0:0:0:0:
64,192,284367,1,0,0:0:0:0:
448,192,284456,1,4,0:0:0:0:
192,192,284544,1,0,0:0:0:0:
320,192,284632,1,0,0:0:0:0:
448,192,284720,1,0,0:0:0:0:
64,192,284809,1,4,0:0:0:0:
320,192,284897,1,0,0:0:0:0:
192,192,284985,5,0,0:0:0:0:
448,192,285073,1,0,0:0:0:0:
192,192,285162,1,4,0:0:0:0:
64,192,285250,1,0,0:0:0:0:
320,192,285338,1,0,0:0:0:0:
192,192,285426,1,0,0:0:0:0:
448,192,285514,1,4,0:0:0:0:
64,192,285603,1,0,0:0:0:0:
192,192,285691,1,0,0:0:0:0:
448,192,285779,1,0,0:0:0:0:
320,192,285867,1,0,0:0:0:0:
192,192,285867,1,4,0:0:0:0:
64,192,285867,1,0,0:0:0:0:
448,192,285956,1,0,0:0:0:0:
320,192,286044,1,0,0:0:0:0:
192,192,286132,1,0,0:0:0:0:
448,192,286220,1,4,0:0:0:0:
64,192,286309,1,0,0:0:0:0:
448,192,286397,1,0,0:0:0:0:
192,192,286485,1,0,0:0:0:0:
320,192,286573,1,4,0:0:0:0:
64,192,286662,1,0,0:0:0:0:
448,192,286750,1,0,0:0:0:0:
192,192,286838,1,0,0:0:0:0:
64,192,286926,1,4,0:0:0:0:
320,192,287103,1,4,0:0:0:0:
192,192,287191,1,0,0:0:0:0:
320,192,287279,1,4,0:0:0:0:
448,192,287456,1,0,0:0:0:0:
192,192,287544,1,0,0:0:0:0:
64,192,287632,1,4,0:0:0:0:
320,192,287720,1,0,0:0:0:0:
64,192,287809,1,0,0:0:0:0:
448,192,287897,1,0,0:0:0:0:
192,192,287985,1,4,0:0:0:0:
320,192,288073,1,0,0:0:0:0:
64,192,288162,1,0,0:0:0:0:
448,192,288250,1,0,0:0:0:0:
192,192,288338,1,4,0:0:0:0:
64,192,288426,1,0,0:0:0:0:
320,192,288514,1,0,0:0:0:0:
192,192,288603,1,0,0:0:0:0:
448,192,288691,1,4,0:0:0:0:
320,192,288779,1,0,0:0:0:0:
64,192,288867,1,0,0:0:0:0:
192,192,288956,1,0,0:0:0:0:
320,192,289044,1,4,0:0:0:0:
64,192,289132,1,0,0:0:0:0:
448,192,289220,1,0,0:0:0:0:
192,192,289309,1,0,0:0:0:0:
320,192,289397,1,4,0:0:0:0:
64,192,289485,1,0,0:0:0:0:
448,192,289573,1,0,0:0:0:0:
320,192,289662,1,0,0:0:0:0:
192,192,289750,1,4,0:0:0:0:
448,192,289838,1,0,0:0:0:0:
64,192,289926,1,0,0:0:0:0:
192,192,290014,1,0,0:0:0:0:
448,192,290103,1,4,0:0:0:0:
64,192,290191,1,0,0:0:0:0:
320,192,290279,1,0,0:0:0:0:
192,192,290367,1,0,0:0:0:0:
64,192,290456,1,4,0:0:0:0:
448,192,290544,1,0,0:0:0:0:
192,192,290632,1,0,0:0:0:0:
320,192,290720,1,0,0:0:0:0:
64,192,290809,1,4,0:0:0:0:
448,192,290897,1,0,0:0:0:0:
320,192,290985,1,0,0:0:0:0:
192,192,291073,1,0,0:0:0:0:
448,192,291162,1,4,0:0:0:0:
64,192,291250,1,0,0:0:0:0:
320,192,291338,1,0,0:0:0:0:
192,192,291426,1,0,0:0:0:0:
448,192,291514,1,4,0:0:0:0:
64,192,291603,1,0,0:0:0:0:
192,192,291691,1,0,0:0:0:0:
448,192,291779,1,0,0:0:0:0:
64,192,291867,1,4,0:0:0:0:
320,192,291956,1,0,0:0:0:0:
448,192,292044,1,0,0:0:0:0:
192,192,292132,1,0,0:0:0:0:
320,192,292220,1,4,0:0:0:0:
192,192,292309,1,0,0:0:0:0:
448,192,292397,1,0,0:0:0:0:
64,192,292485,1,0,0:0:0:0:
320,192,292573,1,4,0:0:0:0:
192,192,292662,1,0,0:0:0:0:
448,192,292750,1,0,0:0:0:0:
64,192,292838,1,0,0:0:0:0:
192,192,292926,1,4,0:0:0:0:
320,192,293014,1,0,0:0:0:0:
64,192,293103,1,0,0:0:0:0:
448,192,293191,1,0,0:0:0:0:
192,192,293279,1,4,0:0:0:0:
448,192,293367,1,0,0:0:0:0:
64,192,293456,1,0,0:0:0:0:
320,192,293544,1,0,0:0:0:0:
192,192,293632,1,0,0:0:0:0:
320,192,293720,1,0,0:0:0:0:
64,192,293809,1,0,0:0:0:0:
192,192,293897,1,0,0:0:0:0:
448,192,293985,1,4,0:0:0:0:
192,192,294073,1,0,0:0:0:0:
320,192,294162,1,0,0:0:0:0:
64,192,294250,1,0,0:0:0:0:
448,192,294338,1,4,0:0:0:0:
192,192,294426,1,0,0:0:0:0:
320,192,294514,1,0,0:0:0:0:
448,192,294603,1,0,0:0:0:0:
64,192,294691,1,4,0:0:0:0:
320,192,294779,1,0,0:0:0:0:
192,192,294867,1,0,0:0:0:0:
448,192,294956,1,0,0:0:0:0:
64,192,295044,1,4,0:0:0:0:
320,192,295132,1,0,0:0:0:0:
448,192,295220,1,0,0:0:0:0:
192,192,295309,1,0,0:0:0:0:
64,192,295397,1,4,0:0:0:0:
448,192,295485,1,0,0:0:0:0:
192,192,295573,1,0,0:0:0:0:
448,192,295662,1,0,0:0:0:0:
64,192,295750,1,4,0:0:0:0:
320,192,295838,1,0,0:0:0:0:
192,192,295926,1,0,0:0:0:0:
64,192,296014,1,0,0:0:0:0:
448,192,296103,1,4,0:0:0:0:
192,192,296191,1,0,0:0:0:0:
320,192,296279,5,0,0:0:0:0:
64,192,296367,1,0,0:0:0:0:
320,192,296456,1,4,0:0:0:0:
448,192,296544,1,0,0:0:0:0:
192,192,296632,1,0,0:0:0:0:
320,192,296720,1,0,0:0:0:0:
64,192,296809,1,4,0:0:0:0:
448,192,296897,1,0,0:0:0:0:
320,192,296985,1,0,0:0:0:0:
64,192,297073,1,0,0:0:0:0:
192,192,297162,1,4,0:0:0:0:
448,192,297162,1,0,0:0:0:0:
320,192,297162,1,0,0:0:0:0:
64,192,297338,1,0,0:0:0:0:
320,192,297514,1,0,0:0:0:0:
448,192,297514,1,4,0:0:0:0:
64,192,297691,1,0,0:0:0:0:
320,192,297867,1,0,0:0:0:0:
448,192,297867,1,4,0:0:0:0:
192,192,298044,1,0,0:0:0:0:
320,192,298220,1,0,0:0:0:0:
448,192,298220,1,4,0:0:0:0:
192,192,298397,1,0,0:0:0:0:
320,192,298573,1,0,0:0:0:0:
448,192,298573,1,4,0:0:0:0:
64,192,298750,1,0,0:0:0:0:
320,192,298926,1,0,0:0:0:0:
448,192,298926,1,4,0:0:0:0:
64,192,299103,1,0,0:0:0:0:
320,192,299279,1,0,0:0:0:0:
448,192,299279,1,4,0:0:0:0:
192,192,299456,1,0,0:0:0:0:
64,192,299632,1,0,0:0:0:0:
320,192,299632,1,4,0:0:0:0:
192,192,299809,1,0,0:0:0:0:
64,192,299985,1,0,0:0:0:0:
320,192,299985,1,4,0:0:0:0:
448,192,300162,1,0,0:0:0:0:
64,192,300338,1,0,0:0:0:0:
320,192,300338,1,4,0:0:0:0:
448,192,300514,1,0,0:0:0:0:
64,192,300691,1,0,0:0:0:0:
320,192,300691,1,4,0:0:0:0:
192,192,300867,1,0,0:0:0:0:
64,192,301044,1,4,0:0:0:0:
320,192,301044,1,0,0:0:0:0:
192,192,301220,1,0,0:0:0:0:
448,192,301397,1,4,0:0:0:0:
320,192,301397,1,0,0:0:0:0:
64,192,301573,1,0,0:0:0:0:
320,192,301750,1,0,0:0:0:0:
448,192,301750,1,4,0:0:0:0:
64,192,301926,1,0,0:0:0:0:
320,192,302103,1,0,0:0:0:0:
448,192,302103,1,4,0:0:0:0:
192,192,302279,1,0,0:0:0:0:
320,192,302456,1,4,0:0:0:0:
448,192,302456,1,0,0:0:0:0:
192,192,302632,1,0,0:0:0:0:
448,192,302809,1,4,0:0:0:0:
320,192,302809,1,0,0:0:0:0:
64,192,302985,1,0,0:0:0:0:
320,192,303162,1,0,0:0:0:0:
192,192,303162,1,4,0:0:0:0:
448,192,303338,1,0,0:0:0:0:
320,192,303514,1,0,0:0:0:0:
192,192,303514,1,4,0:0:0:0:
64,192,303691,1,0,0:0:0:0:
192,192,303867,1,0,0:0:0:0:
320,192,303867,1,4,0:0:0:0:
448,192,304044,1,0,0:0:0:0:
192,192,304220,1,0,0:0:0:0:
320,192,304220,1,4,0:0:0:0:
64,192,304397,1,0,0:0:0:0:
192,192,304573,1,0,0:0:0:0:
320,192,304573,1,4,0:0:0:0:
448,192,304750,1,0,0:0:0:0:
192,192,304926,1,0,0:0:0:0:
320,192,304926,1,4,0:0:0:0:
64,192,305103,1,0,0:0:0:0:
192,192,305279,1,0,0:0:0:0:
448,192,305279,1,4,0:0:0:0:
320,192,305456,1,0,0:0:0:0:
192,192,305632,1,0,0:0:0:0:
448,192,305632,1,4,0:0:0:0:
320,192,305809,1,0,0:0:0:0:
192,192,305985,1,0,0:0:0:0:
448,192,305985,1,4,0:0:0:0:
64,192,306162,1,0,0:0:0:0:
192,192,306338,1,0,0:0:0:0:
448,192,306338,1,4,0:0:0:0:
64,192,306514,1,0,0:0:0:0:
192,192,306691,1,0,0:0:0:0:
448,192,306691,1,4,0:0:0:0:
320,192,306867,1,0,0:0:0:0:
192,192,307044,1,0,0:0:0:0:
64,192,307044,1,4,0:0:0:0:
448,192,307220,1,0,0:0:0:0:
192,192,307397,1,0,0:0:0:0:
64,192,307397,1,4,0:0:0:0:
448,192,307573,1,0,0:0:0:0:
320,192,307750,1,0,0:0:0:0:
192,192,307750,1,4,0:0:0:0:
64,192,307926,1,0,0:0:0:0:
320,192,308103,1,0,0:0:0:0:
192,192,308103,1,4,0:0:0:0:
448,192,308279,1,0,0:0:0:0:
320,192,308456,1,0,0:0:0:0:
192,192,308456,1,0,0:0:0:0:
64,192,308456,1,0,0:0:0:0:
448,192,308456,1,4,0:0:0:0:
