osu file format v14

[General]
AudioFilename: yaldabaoth short version.mp3
AudioLeadIn: 0
PreviewTime: 22172
Countdown: 0
SampleSet: Soft
StackLeniency: 0.7
Mode: 0
LetterboxInBreaks: 0
WidescreenStoryboard: 0

[Editor]
Bookmarks: 10804,22172,42383
DistanceSpacing: 1
BeatDivisor: 4
GridSize: 4
TimelineZoom: 2.5

[Metadata]
Title:Jaldabaoth
TitleUnicode:Jaldabaoth
Artist:Shoji Meguro
ArtistUnicode:目黒 将司
Creator:Seto Kousuke
Version:Insane
Source:Persona 5
Tags:ATLUS rock instrumental Marianna ペルソナ short cut version shin megami tensei
BeatmapID:1356383
BeatmapSetID:639256

[Difficulty]
HPDrainRate:6
CircleSize:4
OverallDifficulty:7.6
ApproachRate:9
SliderMultiplier:1.7
SliderTickRate:1

[Events]
//Background and Video events
0,0,"Persona 5.png",0,0
//Break Periods
//Storyboard Layer 0 (Background)
//Storyboard Layer 1 (Fail)
//Storyboard Layer 2 (Pass)
//Storyboard Layer 3 (Foreground)
//Storyboard Sound Samples

[TimingPoints]
699,315.789473684211,4,2,1,51,1,0
10804,-200,4,2,1,51,0,0
11356,-200,4,2,1,5,0,0
11435,-100,4,2,1,75,0,0
22172,-100,4,2,1,91,0,1
29909,-100,4,2,1,5,0,1
29962,-100,4,2,1,91,0,1
30067,-100,4,2,1,5,0,1
30172,-100,4,2,1,91,0,1
30304,-100,4,2,1,5,0,1
30383,-100,4,2,1,91,0,1
30541,-100,4,2,1,5,0,1
30593,-100,4,2,1,90,0,1
30699,-100,4,2,1,5,0,1
30804,-100,4,2,1,91,0,1
30935,-100,4,2,1,5,0,1
31014,-100,4,2,1,91,0,1
31093,-100,4,2,1,5,0,1
31225,-100,4,2,1,91,0,1
31330,-100,4,2,1,5,0,1
31435,-100,4,2,1,91,0,1
31567,-100,4,2,1,5,0,1
31646,-100,4,2,1,91,0,1
31725,-100,4,2,1,5,0,1
31883,-100,4,2,1,91,0,1
31962,-100,4,2,1,5,0,1
32120,-100,4,2,1,91,0,1
40014,-100,4,2,1,5,0,1
40067,-100,4,2,1,91,0,1
40172,-100,4,2,1,5,0,1
40277,-100,4,2,1,91,0,1
40409,-100,4,2,1,5,0,1
40488,-100,4,2,1,91,0,1
40646,-100,4,2,1,5,0,1
40699,-100,4,2,1,91,0,1
40804,-100,4,2,1,5,0,1
40909,-100,4,2,1,91,0,1
41041,-100,4,2,1,10,0,1
41120,-100,4,2,1,91,0,1
41277,-100,4,2,1,5,0,1
41330,-100,4,2,1,91,0,1
41435,-100,4,2,1,5,0,1
41541,-100,4,2,1,91,0,1
41672,-100,4,2,1,5,0,1
41751,-100,4,2,1,91,0,1
41909,-100,4,2,1,5,0,1
41988,-100,4,2,1,91,0,1
42146,-100,4,2,1,5,0,1
42225,-100,4,2,1,91,0,1
42304,-100,4,2,1,5,0,1
42383,-200,4,2,1,64,0,0
51225,-100,4,2,1,75,0,0
52172,-133.333333333333,4,2,1,75,0,0
56277,-100,4,2,1,75,0,0
57225,-133.333333333333,4,2,1,75,0,0
61330,-100,4,2,1,75,0,0
62277,-133.333333333333,4,2,1,75,0,0
66383,-100,4,2,1,75,0,0
67330,-133.333333333333,4,2,1,75,0,0

[Colours]
Combo1 : 168,168,168
Combo2 : 255,128,0
Combo3 : 164,121,32
Combo4 : 242,24,57
Combo5 : 255,192,0
Combo6 : 144,144,144

[HitObjects]
352,92,699,6,0,B|323:94|294:86|294:86|260:95|260:95|222:73|169:99,1,170,10|8,0:3|0:3,0:0:0:0:
128,182,1172,1,2,0:3:0:0:
318,230,1330,1,10,1:3:0:0:
128,182,1488,1,2,0:3:0:0:
211,362,1646,6,0,B|222:317|222:317|212:283|212:283|235:232|214:197,1,170,10|8,0:3|0:3,0:0:0:0:
54,123,2120,1,2,0:3:0:0:
88,255,2277,1,8,0:3:0:0:
136,82,2435,1,2,0:3:0:0:
279,230,2593,2,0,P|320:239|361:231,1,85,10|2,1:3|0:3,0:0:0:0:
283,66,2909,1,8,0:3:0:0:
447,80,3067,1,2,0:3:0:0:
447,80,3383,1,2,0:3:0:0:
419,281,3541,6,0,B|450:233|424:181|424:181|384:170|368:129,1,170,10|8,0:3|0:3,0:0:0:0:
352,48,4014,1,2,0:3:0:0:
356,232,4172,1,10,1:3:0:0:
352,48,4330,1,2,0:3:0:0:
208,138,4488,6,0,B|234:135|257:143|257:143|292:136|292:136|328:160|397:135,1,170,10|8,0:3|0:3,0:0:0:0:
160,64,4962,2,0,P|121:126|185:224,1,170,2|2,0:3|0:3,0:0:0:0:
240,264,5435,2,0,B|294:268|294:268|325:262,1,85,10|2,1:3|0:3,0:0:0:0:
241,128,5751,1,8,1:3:0:0:
412,224,5909,1,2,0:3:0:0:
392,56,6067,38,0,B|341:45|307:79|307:79|284:42|237:48,1,170,10|8,0:3|0:3,0:0:0:0:
453,113,6541,1,2,0:3:0:0:
241,128,6699,1,10,1:3:0:0:
453,113,6856,1,2,0:3:0:0:
356,284,7014,2,0,B|305:304|266:273|266:273|235:281|235:281|184:272,1,170,10|8,0:3|0:3,0:0:0:0:
112,92,7488,5,2,0:3:0:0:
241,128,7646,1,8,0:3:0:0:
92,204,7804,1,2,0:3:0:0:
218,40,7962,2,0,P|261:37|309:59,1,85,10|2,1:3|0:3,0:0:0:0:
325,248,8277,1,8,0:3:0:0:
429,126,8435,1,0,0:0:0:0:
429,126,8751,1,0,0:0:0:0:
385,323,8909,6,0,B|331:359|278:328|278:328|251:334|251:334|200:327,1,170,10|8,0:3|0:3,0:0:0:0:
125,163,9383,1,2,0:3:0:0:
325,248,9541,1,10,1:3:0:0:
125,163,9699,1,2,0:3:0:0:
222,330,9856,2,0,B|220:300|229:271|229:271|218:242|218:242|246:202|231:149,1,170,10|8,0:3|0:3,0:0:0:0:
120,60,10330,1,2,0:3:0:0:
120,60,10646,1,2,0:3:0:0:
36,236,10804,38,0,B|6:180|39:135|39:135|64:144|96:132,1,148.75,6|0,0:3|0:0,0:0:0:0:
150,167,11435,22,0,B|192:175|192:175|247:163,1,85,6|0,0:3|0:0,0:0:0:0:
376,36,11751,1,0,1:0:0:0:
336,208,11909,2,0,P|340:161|324:124,1,85,2|0,0:3|0:0,0:0:0:0:
168,60,12225,1,2,0:3:0:0:
88,232,12383,2,0,B|120:260|120:260|268:260,1,170,0|2,1:3|0:3,0:0:0:0:
264,68,12856,1,2,0:3:0:0:
150,167,13014,1,0,1:0:0:0:
320,288,13172,6,0,B|328:252|328:252|311:189,1,85,2|0,0:3|0:0,0:0:0:0:
152,84,13488,2,0,B|140:119|140:119|152:183,1,85,2|0,0:3|0:0,0:0:0:0:
348,88,13804,2,0,B|357:52|357:52|342:-11,1,85,2|0,0:3|0:0,0:0:0:0:
152,84,14120,1,2,0:3:0:0:
263,204,14277,6,0,B|304:200|304:200|332:208|332:208|368:212|403:199|403:199|377:229,1,170,2|0,0:3|1:3,0:0:0:0:
468,108,14751,1,2,0:3:0:0:
431,297,14909,2,0,P|393:309|335:293,1,85,0|2,0:0|0:3,0:0:0:0:
212,128,15225,2,0,B|275:123|275:123|325:139|325:139|395:133,1,170,0|0,1:3|0:0,0:0:0:0:
480,200,15699,37,2,0:3:0:0:
336,56,15856,1,0,1:3:0:0:
263,204,16014,1,2,0:3:0:0:
420,64,16172,2,0,L|504:64,1,85,2|0,0:3|0:0,0:0:0:0:
412,264,16488,2,0,L|323:265,1,85,2|0,1:3|0:0,0:0:0:0:
188,72,16804,38,0,P|228:92|248:132,1,85,2|0,0:3|0:0,0:0:0:0:
264,320,17120,1,0,1:0:0:0:
364,184,17277,2,0,P|368:137|341:86,1,85,2|0,0:3|0:0,0:0:0:0:
232,4,17593,1,2,0:3:0:0:
88,144,17751,2,0,B|84:184|72:208|72:208|80:236|96:256|96:256|84:284|88:324,1,170,0|0,1:0|0:0,0:0:0:0:
256,332,18225,1,2,0:3:0:0:
160,200,18383,37,0,1:0:0:0:
360,136,18541,2,0,B|424:136|424:136|384:176,1,85,2|0,0:3|0:0,0:0:0:0:
160,200,18856,2,0,B|160:136|160:136|200:176,1,85,2|0,0:3|0:0,0:0:0:0:
348,292,19172,2,0,B|348:356|348:356|308:316,1,85,2|0,0:3|0:0,0:0:0:0:
328,80,19488,1,2,0:3:0:0:
240,224,19646,6,0,B|288:228|288:228|348:208|348:208|444:228,1,170,2|0,0:3|1:0,0:0:0:0:
460,332,20120,1,2,0:3:0:0:
432,128,20277,1,0,0:0:0:0:
512,224,20435,1,2,0:3:0:0:
348,328,20593,2,0,B|324:332|292:320|292:320|248:336|248:336|224:324|176:324,1,170,0|0,1:0|0:0,0:0:0:0:
100,156,21067,1,2,0:3:0:0:
292,244,21225,5,4,1:3:0:0:
232,48,21383,1,2,0:3:0:0:
148,244,21541,1,4,1:3:0:0:
360,152,21699,1,2,0:3:0:0:
152,72,21856,1,4,1:3:0:0:
292,244,22014,1,2,0:3:0:0:
100,156,22172,6,0,L|15:156,1,85,6|0,0:0|0:0,0:0:0:0:
152,72,22488,1,0,1:0:0:0:
148,244,22646,1,2,0:3:0:0:
360,152,22804,2,0,L|445:152,1,85,6|0,0:3|0:0,0:0:0:0:
296,72,23120,1,0,1:0:0:0:
292,244,23278,1,2,0:3:0:0:
100,156,23435,38,0,L|15:156,1,85,6|0,0:3|0:0,0:0:0:0:
152,72,23751,1,0,1:0:0:0:
148,244,23909,1,2,0:3:0:0:
284,152,24067,1,6,0:3:0:0:
152,72,24225,1,0,0:0:0:0:
244,244,24383,1,0,1:0:0:0:
400,188,24541,1,2,0:3:0:0:
384,344,24699,5,6,0:3:0:0:
384,357,24777,1,2,0:3:0:0:
384,371,24856,1,2,0:3:0:0:
500,264,25014,1,12,1:3:0:0:
324,225,25172,2,0,B|262:214|222:264,1,85,2|4,0:3|0:3,0:0:0:0:
400,188,25488,1,2,0:3:0:0:
288,56,25646,2,0,L|200:56,1,85,4|0,1:3|0:0,0:0:0:0:
16,128,25962,5,6,0:3:0:0:
112,36,26120,1,0,0:0:0:0:
136,234,26277,1,4,1:3:0:0:
16,128,26435,1,2,0:3:0:0:
203,56,26593,2,0,P|248:44|312:64,1,85,6|0,0:3|0:0,0:0:0:0:
388,232,26909,2,0,P|400:188|387:149,1,85,4|2,1:3|0:3,0:0:0:0:
192,61,27225,54,0,P|179:101|183:143,1,85,6|0,0:3|0:0,0:0:0:0:
276,312,27541,1,4,1:3:0:0:
320,192,27699,1,2,0:3:0:0:
136,252,27856,2,0,P|94:259|54:247,1,85,6|0,0:3|0:0,0:0:0:0:
236,189,28172,2,0,P|277:183|319:191,1,85,4|0,1:3|0:0,0:0:0:0:
356,208,28409,1,0,0:0:0:0:
388,232,28488,6,0,P|448:234|487:219,1,85,6|0,0:3|0:0,0:0:0:0:
296,80,28804,2,0,P|236:72|196:84,1,85,4|2,1:3|0:3,0:0:0:0:
92,232,29120,6,0,P|71:172|96:115,2,127.5,6|0|0,0:3|0:0|0:0,0:0:0:0:
320,312,29751,6,0,P|356:316|408:292,1,85,6|0,0:3|0:0,0:0:0:0:
432,247,29988,2,0,P|440:208|424:164,1,85,2|0,0:0|0:0,0:0:0:0:
376,132,30225,2,0,P|340:128|304:144,1,42.5,2|0,0:0|0:0,0:0:0:0:
263,197,30383,2,0,P|255:236|271:280,1,85,6|0,0:3|0:0,0:0:0:0:
292,328,30620,2,0,L|176:328,1,85,2|0,0:0|0:0,0:0:0:0:
160,360,30856,2,0,L|108:328,1,42.5,0|2,0:0|0:0,0:0:0:0:
80,252,31014,2,0,P|82:211|109:173,1,85,6|0,0:3|0:0,0:0:0:0:
141,132,31251,2,0,L|232:132,1,85,2|0,0:0|0:0,0:0:0:0:
272,104,31488,2,0,L|320:144,1,42.5,2|0,0:0|0:0,0:0:0:0:
354,213,31646,2,0,P|351:254|324:292,1,85,6|0,0:3|0:0,0:0:0:0:
292,332,31883,2,0,L|201:331,1,85,2|0,0:0|0:0,0:0:0:0:
156,324,32120,1,2,0:0:0:0:
140,161,32277,38,0,L|140:76,1,85,6|0,0:0|0:0,0:0:0:0:
224,248,32593,1,0,1:0:0:0:
64,252,32751,1,2,0:3:0:0:
228,152,32909,2,0,L|313:152,1,85,6|0,0:3|0:0,0:0:0:0:
144,248,33225,1,0,1:0:0:0:
140,76,33383,1,2,0:3:0:0:
224,248,33541,6,0,L|224:333,1,85,6|0,0:3|0:0,0:0:0:0:
313,152,33857,1,0,1:0:0:0:
140,160,34015,1,2,0:3:0:0:
320,244,34172,1,4,0:3:0:0:
384,96,34330,1,0,0:0:0:0:
224,248,34488,1,0,1:0:0:0:
396,288,34646,1,2,0:3:0:0:
313,152,34804,5,6,0:3:0:0:
300,145,34883,1,2,0:3:0:0:
288,139,34962,1,2,0:3:0:0:
428,196,35120,1,4,1:3:0:0:
320,328,35277,2,0,L|224:328,1,85,2|4,0:3|0:3,0:0:0:0:
396,288,35593,1,2,0:3:0:0:
404,120,35751,2,0,L|404:24,1,85,4|0,1:3|0:3,0:0:0:0:
240,64,36067,5,6,0:3:0:0:
388,128,36225,1,0,0:0:0:0:
280,248,36383,2,0,L|184:248,1,85,4|2,1:3|0:3,0:0:0:0:
64,128,36699,1,6,1:3:0:0:
240,64,36856,1,2,0:3:0:0:
83,234,37014,1,6,1:3:0:0:
248,84,37172,1,2,0:3:0:0:
62,248,37330,38,0,L|62:148,1,85,6|0,1:3|0:0,0:0:0:0:
256,100,37646,1,2,0:3:0:0:
168,296,37804,2,0,B|172:248|172:248|160:172|160:172|168:100,1,170,6|2,1:3|0:3,0:0:0:0:
120,40,38277,2,0,P|161:32|202:40,1,85,4|0,1:3|0:0,0:0:0:0:
232,68,38514,1,0,0:0:0:0:
256,100,38593,2,0,L|352:100,1,85,6|0,0:3|0:0,0:0:0:0:
440,224,38909,2,0,P|444:276|432:308,1,85,4|2,1:3|0:3,0:0:0:0:
288,368,39225,6,0,B|212:360|212:360|164:320,2,127.5,6|0|0,0:3|0:0|0:0,0:0:0:0:
133,215,39856,6,0,P|129:178|153:127,1,85,6|0,0:3|0:0,0:0:0:0:
197,102,40093,2,0,P|236:94|280:110,1,85,2|0,0:0|0:0,0:0:0:0:
313,159,40330,2,0,P|317:195|296:236,1,42.5,2|0,0:0|0:0,0:0:0:0:
248,272,40488,2,0,P|208:279|164:263,1,85,6|0,0:3|0:0,0:0:0:0:
133,215,40725,2,0,P|93:207|49:223,1,85,2|0,0:0|0:0,0:0:0:0:
1,265,40962,2,0,L|0:200,1,42.5,2|0,0:0|0:0,0:0:0:0:
8,128,41120,2,0,P|22:89|66:61,1,85,6|0,0:3|0:0,0:0:0:0:
108,48,41356,2,0,L|200:48,1,85,2|0,0:0|0:0,0:0:0:0:
248,60,41593,2,0,P|243:87|252:112,1,42.5,2|0,0:0|0:0,0:0:0:0:
268,208,41751,2,0,B|318:264|318:264|397:287,2,127.5,6|2|2,0:3|0:0|0:0,0:0:0:0:
400,128,42383,21,8,0:3:0:0:
407,136,42856,5,10,0:3:0:0:
407,136,43014,2,0,L|404:52,1,85,8|10,1:3|0:3,0:0:0:0:
232,208,43646,1,8,0:3:0:0:
156,136,43804,2,0,L|64:136,1,85,0|2,1:0|0:3,0:0:0:0:
232,80,44277,2,0,L|317:80,1,85,8|8,1:3|0:3,0:0:0:0:
408,140,44751,1,2,0:3:0:0:
408,140,44909,70,0,L|412:244,1,85,10|8,0:3|0:3,0:0:0:0:
408,320,45383,1,2,0:3:0:0:
316,360,45541,2,0,P|264:364|232:352,1,85,8|10,1:3|0:3,0:0:0:0:
168,276,46014,1,0,0:0:0:0:
185,174,46172,1,10,0:3:0:0:
248,244,46330,1,0,1:0:0:0:
108,208,46488,1,10,0:3:0:0:
248,244,46646,1,2,0:3:0:0:
86,290,46804,5,8,1:3:0:0:
18,136,47120,1,10,0:3:0:0:
24,352,47435,1,10,0:3:0:0:
28,356,47909,69,10,0:3:0:0:
28,356,48067,2,0,L|128:356,1,85,8|10,1:3|0:3,0:0:0:0:
256,248,48699,5,8,0:3:0:0:
180,176,48856,2,0,L|88:176,1,85,8|2,1:3|0:3,0:0:0:0:
256,120,49330,2,0,L|341:120,1,85,8|10,1:3|0:3,0:0:0:0:
352,360,49962,2,0,L|267:360,1,85,10|8,0:3|0:3,0:0:0:0:
252,188,50593,69,4,0:0:0:0:
252,188,51067,1,0,0:0:0:0:
352,360,51225,54,0,B|396:344|400:316|400:316|392:268|392:268|404:252|400:212,1,170,4|0,0:0|0:0,0:0:0:0:
288,117,51699,2,0,P|329:187|292:260,1,170,4|0,0:0|0:0,0:0:0:0:
65,187,52172,6,0,B|102:190|137:179|137:179|182:196|182:196|225:185|258:188,1,191.250007295609,4|0,0:0|0:0,0:0:0:0:
16,192,52804,2,0,L|16:308,1,95.6250036478044,8|0,0:3|0:0,0:0:0:0:
20,332,53120,2,0,B|48:332|72:336|72:336|108:328|108:328|168:332,1,127.500004863739,0|8,1:0|0:3,0:0:0:0:
280,348,53593,1,2,0:3:0:0:
353,232,53751,38,0,P|329:196|249:188,1,127.500004863739,6|2,0:3|0:3,0:0:0:0:
176,248,54225,2,0,L|172:112,1,127.500004863739,6|2,0:3|0:3,0:0:0:0:
349,104,54699,2,0,L|353:252,1,127.500004863739,2|8,0:3|0:3,0:0:0:0:
268,12,55330,1,10,0:3:0:0:
448,208,55646,1,0,1:0:0:0:
448,208,55962,2,0,L|448:140,1,63.7500024318696,8|2,0:3|0:3,0:0:0:0:
352,168,56277,6,0,B|344:212|352:240|352:240|343:264|343:264|352:296|344:348,1,170,4|2,0:0|0:3,0:0:0:0:
178,315,56751,2,0,P|242:332|208:276,1,170,4|2,0:0|0:3,0:0:0:0:
84,144,57225,6,0,B|64:176|72:228|103:249|103:249|68:284|92:336,1,191.250007295609,4|0,0:0|0:0,0:0:0:0:
272,168,57856,2,0,P|295:209|293:256,1,95.6250036478044,8|0,0:3|0:0,0:0:0:0:
288,304,58172,2,0,P|228:323|167:307,1,127.500004863739,0|8,1:0|0:3,0:0:0:0:
80,166,58646,1,2,0:3:0:0:
188,56,58804,6,0,P|252:56|316:32,1,127.500004863739,6|2,0:3|0:3,0:0:0:0:
260,148,59277,2,0,P|252:212|284:276,1,127.500004863739,6|2,0:3|0:3,0:0:0:0:
456,256,59751,2,0,P|481:198|472:135,1,127.500004863739,2|2,0:3|0:3,0:0:0:0:
238,141,60383,1,10,0:3:0:0:
72,284,60699,1,0,1:0:0:0:
72,284,61014,2,0,B|112:292|112:292|156:288,1,63.7500024318696,0|0,0:0|0:0,0:0:0:0:
156,172,61330,38,0,B|188:204|188:204|116:212|116:212|96:200|56:204,1,170,4|0,0:0|0:0,0:0:0:0:
212,276,61804,2,0,P|264:228|236:140,1,170,4|0,0:0|0:0,0:0:0:0:
140,356,62277,6,0,L|340:356,1,191.250007295609,4|0,0:0|0:0,0:0:0:0:
372,156,62909,2,0,B|324:168|324:168|260:156,1,95.6250036478044,8|0,0:3|0:0,0:0:0:0:
238,141,63225,2,0,B|238:189|238:189|251:219|251:219|256:291,1,127.500004863739,0|8,1:0|0:3,0:0:0:0:
182,77,63699,1,2,0:3:0:0:
103,200,63856,6,0,B|103:100|103:100|119:144,1,127.500004863739,6|2,0:3|0:3,0:0:0:0:
163,256,64330,2,0,P|107:280|39:248,1,127.500004863739,6|2,0:3|0:3,0:0:0:0:
187,172,64804,2,0,L|331:172,1,127.500004863739,2|8,0:3|0:3,0:0:0:0:
418,321,65435,1,10,0:3:0:0:
200,340,65751,1,0,1:0:0:0:
200,340,66067,2,0,L|292:340,1,63.7500024318696,8|2,0:3|0:3,0:0:0:0:
150,257,66383,6,0,P|82:241|62:145,1,170,4|0,0:0|0:0,0:0:0:0:
309,177,66856,2,0,L|137:177,1,170,4|0,0:0|0:0,0:0:0:0:
386,109,67330,38,0,B|391:170|391:170|378:233|378:233|390:309,1,191.250007295609,4|0,0:0|0:0,0:0:0:0:
252,148,67962,2,0,L|252:40,1,95.6250036478044,8|0,0:3|0:0,0:0:0:0:
248,20,68277,2,0,P|184:36|112:20,1,127.500004863739,8|8,1:3|0:3,0:0:0:0:
328,84,68751,1,2,0:3:0:0:
232,228,68909,2,0,B|232:128|232:128|268:164,1,127.500004863739,6|2,0:3|0:3,0:0:0:0:
348,284,69383,2,0,B|348:384|348:384|312:348,1,127.500004863739,6|0,0:3|0:0,0:0:0:0:
356,172,69856,6,0,B|408:172|408:172|444:164|444:164|504:168,2,127.500004863739,10|10|2,0:3|0:3|0:3,0:0:0:0:
380,52,70646,1,2,0:3:0:0:
477,24,70804,2,0,L|480:88,1,63.7500024318696,0|0,1:0|0:0,0:0:0:0:
288,112,71120,2,0,L|286:49,1,63.7500024318696,2|0,0:3|0:0,0:0:0:0:
440,160,71435,5,2,0:3:0:0:
448,184,71751,1,2,0:3:0:0:
360,312,72067,5,10,0:3:0:0:
360,312,72225,1,2,0:3:0:0:
