osu file format v14

[General]
AudioFilename: yaldabaoth short version.mp3
AudioLeadIn: 0
PreviewTime: 22172
Countdown: 0
SampleSet: Soft
StackLeniency: 0.7
Mode: 0
LetterboxInBreaks: 0
WidescreenStoryboard: 0

[Editor]
Bookmarks: 51067,66383
DistanceSpacing: 1.3
BeatDivisor: 4
GridSize: 4
TimelineZoom: 2.1

[Metadata]
Title:Jaldabaoth
TitleUnicode:Jaldabaoth
Artist:Shoji Meguro
ArtistUnicode:目黒 将司
Creator:Seto Kousuke
Version:Hard
Source:Persona 5
Tags:ATLUS rock instrumental Marianna ペルソナ short cut version shin megami tensei
BeatmapID:1361467
BeatmapSetID:639256

[Difficulty]
HPDrainRate:5
CircleSize:4
OverallDifficulty:7
ApproachRate:7.5
SliderMultiplier:1.4
SliderTickRate:1

[Events]
//Background and Video events
0,0,"Persona 5.png",0,0
//Break Periods
//Storyboard Layer 0 (Background)
//Storyboard Layer 1 (Fail)
//Storyboard Layer 2 (Pass)
//Storyboard Layer 3 (Foreground)
//Storyboard Sound Samples

[TimingPoints]
699,315.789473684211,4,2,1,51,1,0
10804,-200,4,2,1,51,0,0
11277,-200,4,2,1,5,0,0
11435,-100,4,2,1,75,0,0
21225,-100,4,2,1,91,0,0
22172,-100,4,2,1,91,0,1
42304,-100,4,2,1,5,0,1
42383,-200,4,2,1,64,0,0
51067,-100,4,2,1,64,0,0
51225,-100,4,2,1,75,0,0
51541,-100,4,2,1,5,0,0
51699,-100,4,2,1,75,0,0
52172,-133.333333333333,4,2,1,75,0,0
56277,-100,4,2,1,75,0,0
56593,-100,4,2,1,5,0,0
56751,-100,4,2,1,75,0,0
57225,-133.333333333333,4,2,1,75,0,0
61330,-100,4,2,1,75,0,0
61646,-100,4,2,1,5,0,0
61804,-100,4,2,1,75,0,0
62277,-133.333333333333,4,2,1,75,0,0
66383,-100,4,2,1,75,0,0
66699,-100,4,2,1,5,0,0
66856,-100,4,2,1,75,0,0
67330,-133.333333333333,4,2,1,75,0,0

[Colours]
Combo1 : 168,168,168
Combo2 : 255,128,0
Combo3 : 164,121,32
Combo4 : 242,24,57
Combo5 : 255,192,0
Combo6 : 144,144,144

[HitObjects]
72,72,699,6,0,B|168:92|168:92|224:72,1,140,10|8,0:3|0:3,0:0:0:0:
284,40,1172,1,2,0:3:0:0:
284,124,1330,2,0,L|284:200,1,70,10|2,1:3|0:3,0:0:0:0:
356,236,1646,2,0,P|308:216|216:268,1,140,10|8,0:3|0:3,0:0:0:0:
188,320,2120,1,2,0:3:0:0:
108,344,2277,2,0,B|68:344|68:344|16:312,2,70,8|2|10,0:3|0:3|1:3,0:0:0:0:
188,320,2751,1,2,0:3:0:0:
264,352,2909,2,0,L|364:352,1,70,8|2,0:3|0:3,0:0:0:0:
460,240,3383,5,2,0:3:0:0:
460,240,3541,2,0,B|452:184|452:184|464:144|464:144|460:80,1,140,10|8,0:3|0:3,0:0:0:0:
404,40,4014,1,2,0:3:0:0:
344,100,4172,2,0,L|252:100,1,70,10|2,1:3|0:3,0:0:0:0:
208,152,4488,2,0,B|180:172|180:172|304:172,1,140,10|8,0:3|0:3,0:0:0:0:
355,250,4962,1,2,0:3:0:0:
287,311,5120,2,0,L|195:311,1,70,2|2,0:3|0:3,0:0:0:0:
355,250,5435,2,0,L|451:250,1,70,8|2,1:3|0:3,0:0:0:0:
487,182,5751,1,2,0:3:0:0:
487,182,5909,1,2,0:3:0:0:
383,126,6067,6,0,P|344:182|355:250,1,140,10|8,0:3|0:3,0:0:0:0:
287,311,6541,1,2,0:3:0:0:
208,264,6699,2,0,P|194:230|199:195,1,70,10|2,1:3|0:3,0:0:0:0:
258,129,7014,2,0,B|224:111|224:111|107:118,1,140,10|8,0:3|0:3,0:0:0:0:
42,161,7488,1,2,0:3:0:0:
128,201,7646,2,0,L|213:197,2,70,8|2|10,0:3|0:3|1:3,0:0:0:0:
42,161,8120,1,2,0:3:0:0:
6,244,8277,2,0,L|6:314,1,70,8|2,0:3|0:3,0:0:0:0:
192,356,8751,5,0,0:0:0:0:
192,356,8909,2,0,B|236:368|236:368|352:356,1,140,10|8,0:3|0:3,0:0:0:0:
404,316,9383,1,2,0:3:0:0:
340,260,9541,2,0,L|340:164,1,70,10|2,1:3|0:3,0:0:0:0:
408,144,9856,2,0,P|344:168|276:140,1,140,10|8,0:3|0:3,0:0:0:0:
228,76,10330,1,2,0:3:0:0:
55,133,10646,1,2,0:3:0:0:
55,133,10804,6,0,B|44:157|59:179|59:179|48:195|48:195|62:218|56:245,1,105,6|0,0:3|0:0,0:0:0:0:
112,316,11435,22,0,B|160:328|160:328|249:316,1,140,6|0,0:3|1:3,0:0:0:0:
312,376,11909,2,0,P|336:308|304:248,1,140,0|0,0:0|0:0,0:0:0:0:
228,224,12383,1,0,1:3:0:0:
228,224,12541,2,0,B|220:168|220:168|236:132|236:132|228:64,1,140,2|2,0:3|0:3,0:0:0:0:
168,32,13014,1,0,1:0:0:0:
104,84,13172,2,0,B|98:127|98:127|114:163|114:163|106:219,2,140,2|2|2,0:3|0:3|0:3,0:0:0:0:
256,12,14120,5,2,0:3:0:0:
256,12,14277,2,0,B|356:40|356:40|412:28,1,140,2|0,0:3|1:3,0:0:0:0:
464,80,14751,2,0,L|464:240,1,140,2|2,0:3|0:3,0:0:0:0:
492,299,15225,2,0,P|424:295|380:242,1,140,0|0,1:3|0:0,0:0:0:0:
388,160,15699,2,0,B|348:156|324:180|324:180|292:156|256:168,1,140,2|2,0:3|0:3,0:0:0:0:
184,204,16172,1,2,0:3:0:0:
184,204,16330,1,0,0:0:0:0:
156,124,16488,2,0,L|156:44,1,70,2|0,1:3|0:0,0:0:0:0:
72,40,16804,6,0,B|72:128|72:128|75:167|100:180,1,140,2|0,0:3|1:0,0:0:0:0:
184,204,17277,2,0,P|260:216|316:180,1,140,2|2,0:3|0:3,0:0:0:0:
384,128,17751,1,0,1:0:0:0:
452,188,17909,2,0,B|488:236|456:288|456:288|456:344,1,140,2|2,0:3|0:3,0:0:0:0:
376,368,18383,1,0,1:0:0:0:
307,317,18541,2,0,B|307:284|307:284|275:232|311:184,2,140,2|2|2,0:3|0:3|0:3,0:0:0:0:
452,232,19488,5,2,0:3:0:0:
452,232,19646,2,0,B|452:136|452:136|424:88,1,140,2|0,0:3|1:0,0:0:0:0:
364,44,20120,2,0,P|296:24|216:48,1,140,2|2,0:3|0:3,0:0:0:0:
176,104,20593,1,0,1:0:0:0:
232,168,20751,2,0,B|228:268|228:268|211:250|184:240,1,140,2|2,0:3|0:3,0:0:0:0:
116,216,21225,2,0,L|16:216,1,70,4|2,1:3|0:3,0:0:0:0:
14,292,21541,2,0,L|84:292,1,70,4|2,1:3|0:3,0:0:0:0:
116,368,21856,2,0,L|46:368,1,70,4|2,1:3|0:3,0:0:0:0:
200,328,22172,37,6,0:0:0:0:
200,328,22330,1,0,0:0:0:0:
272,372,22488,2,0,L|376:372,1,70,0|2,1:0|0:3,0:0:0:0:
412,328,22804,1,6,0:3:0:0:
412,328,22962,1,0,0:0:0:0:
340,284,23120,2,0,L|236:284,1,70,0|2,1:0|0:3,0:0:0:0:
196,244,23435,5,6,0:3:0:0:
196,244,23593,1,0,0:0:0:0:
268,200,23751,2,0,L|372:200,1,70,0|2,1:0|0:3,0:0:0:0:
408,152,24067,1,6,0:3:0:0:
484,188,24225,1,0,0:0:0:0:
412,236,24383,1,0,1:0:0:0:
480,104,24541,1,2,0:3:0:0:
404,64,24699,6,0,L|304:64,1,70,6|2,0:3|0:3,0:0:0:0:
252,84,25014,1,12,1:3:0:0:
252,84,25172,2,0,L|156:84,1,70,2|4,0:3|0:3,0:0:0:0:
104,116,25488,1,2,0:3:0:0:
156,180,25646,2,0,B|164:216|164:216|152:284,1,70,4|0,1:3|0:0,0:0:0:0:
90,364,25962,6,0,B|82:328|82:328|88:296,1,70,6|0,0:3|0:0,0:0:0:0:
224,284,26277,1,4,1:3:0:0:
282,343,26435,1,2,0:3:0:0:
198,364,26593,1,6,0:3:0:0:
307,262,26751,1,0,0:0:0:0:
372,328,26909,2,0,P|408:336|442:328,1,70,4|0,1:3|0:0,0:0:0:0:
500,260,27225,38,0,B|500:219|500:219|480:170|480:170|481:108,1,140,6|4,0:3|1:3,0:0:0:0:
476,32,27699,1,2,0:3:0:0:
388,16,27856,2,0,L|288:16,1,70,6|0,0:3|0:0,0:0:0:0:
344,104,28172,2,0,L|244:104,1,70,4|0,1:3|0:0,0:0:0:0:
136,60,28488,5,6,0:3:0:0:
188,128,28646,1,0,0:0:0:0:
124,180,28804,1,4,1:3:0:0:
176,244,28962,1,2,0:3:0:0:
116,304,29120,2,0,B|48:312|48:312|12:296,2,105,6|0|0,0:3|0:0|0:0,0:0:0:0:
188,348,29751,6,0,B|284:336|284:336|328:348,1,140,6|0,0:3|0:0,0:0:0:0:
404,380,30225,1,2,0:0:0:0:
404,380,30383,2,0,B|392:284|392:284|404:240,1,140,6|0,0:3|0:0,0:0:0:0:
452,172,30856,1,2,0:0:0:0:
452,172,31014,2,0,B|362:134|362:134|330:102,1,140,6|2,0:3|0:3,0:0:0:0:
288,32,31488,1,2,0:3:0:0:
244,104,31646,6,0,L|168:104,1,70,0|2,1:0|0:3,0:0:0:0:
204,184,31962,2,0,L|128:184,1,70,0|2,1:0|0:3,0:0:0:0:
84,252,32277,37,6,0:0:0:0:
84,252,32435,1,0,0:0:0:0:
128,324,32593,2,0,L|198:324,1,70,0|2,1:0|0:3,0:0:0:0:
260,256,32909,1,6,0:3:0:0:
260,256,33067,1,0,0:0:0:0:
312,324,33225,2,0,L|382:324,1,70,0|2,1:0|0:3,0:0:0:0:
436,260,33541,5,6,0:3:0:0:
436,260,33699,1,0,0:0:0:0:
380,196,33857,2,0,L|310:196,1,70,0|2,1:0|0:3,0:0:0:0:
240,148,34172,1,4,0:3:0:0:
164,184,34330,1,0,0:0:0:0:
236,232,34488,1,0,1:0:0:0:
168,100,34646,1,2,0:3:0:0:
92,136,34804,6,0,L|16:136,1,70,6|2,0:3|0:3,0:0:0:0:
164,184,35120,1,4,1:3:0:0:
240,148,35277,2,0,B|296:148|296:148|324:168|324:168|392:168,1,140,2|2,0:3|0:3,0:0:0:0:
436,224,35751,2,0,P|460:188|456:148,1,70,4|0,1:3|0:3,0:0:0:0:
356,244,36067,6,0,P|332:280|336:320,1,70,6|0,0:3|0:0,0:0:0:0:
376,376,36383,1,4,1:3:0:0:
412,300,36541,1,2,0:3:0:0:
292,372,36699,2,0,L|208:372,1,70,6|2,1:3|0:3,0:0:0:0:
98,308,37014,2,0,L|168:308,1,70,6|2,1:3|0:3,0:0:0:0:
308,232,37330,37,6,1:3:0:0:
272,152,37488,2,0,P|226:208|240:279,1,140,2|6,0:3|1:3,0:0:0:0:
304,320,37962,2,0,L|400:320,1,70,0|2,0:0|0:3,0:0:0:0:
488,240,38277,1,4,1:3:0:0:
456,316,38435,1,0,0:0:0:0:
408,248,38593,2,0,L|408:168,1,70,6|0,0:3|0:0,0:0:0:0:
332,40,38909,1,4,1:3:0:0:
396,96,39067,1,2,0:3:0:0:
332,148,39225,6,0,B|264:150|264:150|204:128,2,105,6|0|0,0:3|0:0|0:0,0:0:0:0:
248,56,39856,6,0,P|180:68|146:131,1,140,6|0,0:3|1:0,0:0:0:0:
239,221,40330,1,2,0:0:0:0:
323,216,40488,2,0,P|294:154|228:137,1,140,6|0,0:3|1:0,0:0:0:0:
174,269,40962,1,2,0:0:0:0:
213,339,41120,6,0,P|255:286|239:220,1,140,6|0,0:3|1:0,0:0:0:0:
118,190,41593,1,2,0:0:0:0:
47,256,41751,2,0,P|112:288|178:265,1,140,6|0,0:3|1:0,0:0:0:0:
229,136,42225,1,2,0:0:0:0:
304,179,42383,5,8,0:3:0:0:
47,256,42856,1,10,0:3:0:0:
47,256,43014,2,0,L|47:180,1,70,8|10,1:3|0:3,0:0:0:0:
9,109,43646,1,8,0:3:0:0:
9,109,43804,2,0,P|49:97|85:105,1,70,0|2,1:0|0:3,0:0:0:0:
109,129,44277,2,0,B|145:133|145:133|185:129,1,70,8|8,1:3|0:3,0:0:0:0:
217,113,44751,1,2,0:3:0:0:
245,85,44909,6,0,B|245:1|245:1|265:29,1,105,10|2,0:3|0:3,0:0:0:0:
297,33,45541,2,0,P|329:41|373:29,1,70,8|10,1:3|0:3,0:0:0:0:
460,104,46172,69,10,0:3:0:0:
460,148,46330,2,0,L|460:192,1,35,0|8,1:0|0:3,0:0:0:0:
444,224,46646,1,2,0:3:0:0:
420,260,46804,2,0,L|344:287,1,70,8|8,1:3|0:3,0:0:0:0:
264,284,47435,5,2,0:3:0:0:
135,193,47909,1,10,0:3:0:0:
135,193,48067,2,0,L|206:167,1,70,8|10,1:3|0:3,0:0:0:0:
286,185,48699,1,8,0:3:0:0:
286,185,48857,2,0,P|283:143|263:112,1,70,8|2,1:3|0:3,0:0:0:0:
245,85,49330,2,0,B|242:48|242:48|255:9,1,70,8|10,1:3|0:3,0:0:0:0:
344,64,49962,70,0,B|390:74|416:64|416:64|444:52|488:64,1,140,10|4,0:3|0:0,0:0:0:0:
472,276,51067,1,0,0:0:0:0:
416,340,51225,22,0,B|384:352|356:344|356:344|328:336|292:340|292:340|312:322|316:288,1,175,4|0,0:0|0:0,0:0:0:0:
332,260,51699,2,0,P|344:212|292:132,1,140,4|0,0:0|0:0,0:0:0:0:
240,220,52172,6,0,B|184:236|184:236|128:220,2,105.000004005432,4|0|8,0:0|0:0|0:3,0:0:0:0:
240,76,53120,2,0,B|184:60|184:60|128:76,1,105.000004005432,0|8,1:0|0:3,0:0:0:0:
84,148,53593,1,2,0:3:0:0:
180,156,53751,6,0,L|296:156,1,105.000004005432,6|2,0:3|0:3,0:0:0:0:
364,192,54225,2,0,P|384:232|352:304,1,105.000004005432,6|2,0:3|0:3,0:0:0:0:
307,343,54699,2,0,B|243:351|243:351|203:343,1,105.000004005432,2|8,0:3|0:3,0:0:0:0:
128,224,55330,1,10,0:3:0:0:
56,344,55646,2,0,L|-12:344,2,52.5000020027161,0|0|8,1:0|0:0|0:3,0:0:0:0:
128,304,56120,1,2,0:3:0:0:
204,344,56277,6,0,B|224:308|208:268|208:268|232:216|200:172,1,175,4|0,0:0|0:0,0:0:0:0:
176,144,56751,2,0,B|152:96|176:60|176:60|196:80|240:76,1,140,4|2,0:0|0:3,0:0:0:0:
304,144,57225,38,0,P|356:156|412:136,2,105.000004005432,4|0|8,0:0|0:0|0:3,0:0:0:0:
468,88,58172,2,0,B|484:120|484:120|476:208,1,105.000004005432,0|8,1:0|0:3,0:0:0:0:
440,264,58646,1,2,0:3:0:0:
356,264,58804,2,0,B|315:264|315:264|288:254|288:254|244:254,1,105.000004005432,6|2,0:3|0:3,0:0:0:0:
232,336,59277,2,0,B|267:335|267:335|294:346|294:346|335:345,1,105.000004005432,6|2,0:3|0:3,0:0:0:0:
180,276,59751,6,0,B|128:256|56:284|56:284|96:260|100:196,1,210.000008010865,2|10,0:3|0:3,0:0:0:0:
88,88,60699,2,0,L|32:64,2,52.5000020027161,0|0|8,1:0|0:0|0:3,0:0:0:0:
160,132,61172,1,2,0:3:0:0:
224,76,61330,6,0,B|252:80|272:64|272:64|300:80|300:80|336:52|400:76,1,175,4|0,0:0|0:0,0:0:0:0:
428,88,61804,2,0,B|444:108|448:128|448:128|432:164|432:164|444:188|432:232,1,140,4|0,0:0|0:0,0:0:0:0:
372,292,62277,6,0,B|308:304|308:304|256:292,2,105.000004005432,4|0|8,0:0|0:0|0:3,0:0:0:0:
208,240,63225,2,0,B|140:228|140:228|96:240,1,105.000004005432,0|8,1:0|0:3,0:0:0:0:
40,296,63699,1,2,0:3:0:0:
24,212,63856,2,0,B|24:140|24:140|40:156|64:156,1,105.000004005432,6|2,0:3|0:3,0:0:0:0:
136,144,64330,2,0,B|208:144|208:144|192:128|192:104,1,105.000004005432,6|2,0:3|0:3,0:0:0:0:
232,44,64804,38,0,P|304:24|384:48,1,157.500006008148,2|0,0:3|0:0,0:0:0:0:
440,104,65435,2,0,L|440:164,1,52.5000020027161,10|2,0:3|0:3,0:0:0:0:
396,228,65751,2,0,L|340:232,1,52.5000020027161,0|0,1:0|0:0,0:0:0:0:
284,176,66067,1,2,0:3:0:0:
284,176,66225,1,2,0:3:0:0:
220,232,66383,6,0,B|168:220|144:256|144:256|160:204|120:156,1,175,4|0,0:0|0:0,0:0:0:0:
108,132,66856,2,0,B|96:100|60:92|60:92|96:56|76:16,1,140,4|0,0:0|0:0,0:0:0:0:
168,68,67330,6,0,B|208:64|208:64|236:72|236:72|284:68,2,105.000004005432,4|0|8,0:0|0:0|0:3,0:0:0:0:
76,168,68277,6,0,P|64:220|84:276,1,105.000004005432,8|8,1:3|0:3,0:0:0:0:
136,332,68751,1,2,0:3:0:0:
220,336,68909,2,0,B|289:337|289:337|313:310,1,105.000004005432,6|2,0:3|0:3,0:0:0:0:
314,228,69383,2,0,B|290:203|290:203|220:203,1,105.000004005432,6|0,0:3|0:0,0:0:0:0:
160,256,69856,38,0,P|180:196|116:124,1,157.500006008148,10|0,0:3|0:0,0:0:0:0:
200,84,70488,2,0,L|264:84,1,52.5000020027161,2|2,0:3|0:3,0:0:0:0:
332,100,70804,1,0,1:0:0:0:
316,236,71120,1,2,0:3:0:0:
316,236,71277,1,0,0:0:0:0:
264,300,71435,2,0,L|156:300,1,105.000004005432,2|2,0:3|0:3,0:0:0:0:
28,264,72067,6,0,L|28:188,1,52.5000020027161,10|2,0:3|0:3,0:0:0:0:
