osu file format v14

[General]
AudioFilename: audio.mp3
AudioLeadIn: 0
PreviewTime: 69079
Countdown: 0
SampleSet: Soft
StackLeniency: 0.6
Mode: 0
LetterboxInBreaks: 0
WidescreenStoryboard: 1

[Editor]
Bookmarks: 24454,60454,79016,79391,79579,79766,79954,120579
DistanceSpacing: 0.8
BeatDivisor: 4
GridSize: 8
TimelineZoom: 1

[Metadata]
Title:Dream of Butterfly
TitleUnicode:Dream of Butterfly
Artist:Shoji Meguro
ArtistUnicode:目黒 将司
Creator:TastyApple
Version:Normal
Source:Persona
Tags:Megami Ibunroku Persona 1 PSP Shin Megami Tensei Revelations Yumi Kawamura 3 dancing moon night maki sonomura intro movie opening op
BeatmapID:2018765
BeatmapSetID:920723

[Difficulty]
HPDrainRate:4
CircleSize:3
OverallDifficulty:4
ApproachRate:5
SliderMultiplier:1.2
SliderTickRate:1

[Events]
//Background and Video events
0,0,"maki.jpg",0,0
//Break Periods
//Storyboard Layer 0 (Background)
//Storyboard Layer 1 (Fail)
//Storyboard Layer 2 (Pass)
//Storyboard Layer 3 (Foreground)
//Storyboard Layer 4 (Overlay)
//Storyboard Sound Samples

[TimingPoints]
454,375,4,2,0,60,1,0
22579,-100,4,2,0,60,0,0
23329,-100,4,2,0,60,0,0
24454,-100,4,2,0,60,0,0
42454,-100,4,2,0,60,0,0
42829,-100,4,2,0,60,0,0
54454,-100,4,2,0,60,0,0
54829,-100,4,2,0,60,0,0
60454,-100,4,2,0,60,0,0
69079,-100,4,2,0,60,0,0
71704,-100,4,2,0,60,0,0
72454,-100,4,2,0,75,0,1
81454,-100,4,2,0,60,0,0
84454,-100,4,2,0,75,0,1
93454,-100,4,2,0,60,0,0
96454,-100,4,2,0,75,0,1
105454,-100,4,2,0,60,0,0
109625,375,4,2,0,60,1,0
110768,375,4,2,0,60,1,0
112314,375,4,2,0,60,1,0
112314,-100,4,2,0,60,0,0
113064,-100,4,2,0,60,0,0
113829,375,4,2,0,60,1,0
113829,-100,4,2,0,60,0,0
115204,375,4,2,0,60,1,0
116922,375,4,2,0,60,1,0
116922,-100,4,2,0,60,0,0
118328,-87.719298245614,4,2,0,60,0,0

[Colours]
Combo1 : 191,165,197
Combo2 : 119,1,169
Combo3 : 199,108,253
Combo4 : 61,15,155
Combo5 : 255,159,207
Combo6 : 141,105,250

[HitObjects]
39,182,454,5,0,0:0:0:0:
76,93,829,2,0,P|138:109|185:69,1,120
236,156,1579,1,0,0:0:0:0:
236,156,1766,2,0,P|269:217|327:250,1,120
356,256,2329,1,0,0:0:0:0:
356,256,2704,1,0,0:0:0:0:
356,256,3079,1,0,0:0:0:0:
356,160,3454,5,2,0:0:0:0:
451,161,3829,2,0,L|451:281,1,120
440,376,4579,1,0,0:0:0:0:
440,376,4766,2,0,P|386:350|357:298,1,120
343,253,5329,1,0,0:0:0:0:
330,157,5704,1,0,0:0:0:0:
253,216,6079,1,0,0:0:0:0:
166,298,6454,5,4,0:0:0:0:
84,247,6829,2,0,P|71:293|108:383,1,120
166,298,7579,2,0,P|179:252|156:162,1,120,0|8,0:0|0:0,0:0:0:0:
74,155,8329,1,0,0:0:0:0:
74,155,8704,2,0,L|4:35,1,120
109,59,9454,5,8,0:0:0:0:
177,125,9829,2,0,L|247:5,2,120
197,168,10766,2,0,L|127:288,1,120,8|0,0:0|0:0,0:0:0:0:
179,293,11329,6,0,L|179:373,1,60
271,242,12079,1,0,0:0:0:0:
299,125,12454,5,4,0:0:0:0:
363,53,12829,6,0,P|392:104|388:163,1,120
354,253,13579,1,0,0:0:0:0:
352,260,13766,2,0,P|352:319|384:368,2,120
442,226,14891,2,0,L|441:286,2,60
449,178,15454,6,0,P|396:131|303:142,1,120,2|0,0:0|0:0,0:0:0:0:
260,160,16204,2,0,P|195:114|118:118,1,120,2|0,0:0|0:0,0:0:0:0:
108,113,16766,2,0,L|25:121,2,60,2|0|0,0:0|0:0|0:0,0:0:0:0:
156,109,17329,2,0,P|178:147|137:272,1,180,0|2,0:0|0:0,0:0:0:0:
6,350,18454,5,4,0:0:0:0:
61,267,18829,2,0,P|122:349|170:352,1,120
230,341,19579,1,0,0:0:0:0:
230,341,19766,2,0,L|357:329,1,120
389,242,20516,2,0,L|262:254,1,120
221,257,21079,1,0,0:0:0:0:
170,148,21454,6,0,P|236:93|235:19,1,120,2|0,0:0|0:0,0:0:0:0:
278,30,22016,2,0,P|333:96|407:95,1,120,2|0,0:0|0:0,0:0:0:0:
402,131,22579,2,0,P|312:147|219:263,1,240,2|0,0:0|0:0,0:0:0:0:
181,344,23704,1,0,0:0:0:0:
124,266,24079,1,0,0:0:0:0:
65,161,24454,6,0,B|114:88|114:88|183:60|183:60|271:60,1,240,4|8,0:0|0:0,0:0:0:0:
356,57,25579,2,0,P|425:62|487:49,1,120
481,148,26329,1,0,0:0:0:0:
481,148,26516,1,0,0:0:0:0:
481,148,26704,2,0,L|497:229,2,60,8|0|8,0:0|0:0|0:0,0:0:0:0:
385,132,27454,6,0,B|407:239|407:239|369:277|369:277|375:395,1,240,2|8,0:0|0:0,0:0:0:0:
276,346,28579,2,0,B|284:277|255:235|255:235|228:193|248:105,1,240
330,65,29704,1,8,0:0:0:0:
247,113,30079,1,2,0:0:0:0:
136,160,30454,6,0,B|101:280|101:280|168:385,1,240,4|8,0:0|0:0,0:0:0:0:
224,302,31579,2,0,P|223:223|187:135,1,120
171,96,32329,1,0,0:0:0:0:
171,96,32516,1,0,0:0:0:0:
171,96,32704,2,0,L|102:47,2,60,8|0|8,0:0|0:0|0:0,0:0:0:0:
250,150,33454,6,0,B|315:195|315:195|354:206|354:206|381:241|381:241|453:292,1,240,2|8,0:0|0:0,0:0:0:0:
502,209,34579,2,0,B|439:199|443:152|409:128|409:128|375:104|337:132|291:68,1,240
240,156,35704,1,8,0:0:0:0:
270,246,36079,1,2,0:0:0:0:
218,359,36454,5,4,0:0:0:0:
218,359,36641,1,0,0:0:0:0:
218,359,36829,2,0,P|177:367|93:356,2,120,0|8|0,0:0|0:0|0:0,0:0:0:0:
161,281,37954,2,0,P|182:192|222:169,1,120,2|0,0:0|0:0,0:0:0:0:
245,149,38516,1,0,0:0:0:0:
245,149,38704,2,0,L|104:62,1,120,8|8,0:0|0:0,0:0:0:0:
51,114,39454,6,0,P|37:171|58:226,1,120,2|0,0:0|0:0,0:0:0:0:
129,159,40204,2,0,L|187:146,2,60,8|0|0,0:0|0:0|0:0,0:0:0:0:
149,65,40954,2,0,L|277:35,1,120
360,24,41704,1,8,0:0:0:0:
407,107,42079,1,2,0:0:0:0:
466,211,42454,2,0,P|396:283|363:301,1,120,4|0,0:0|0:0,0:0:0:0:
296,340,43204,5,8,0:0:0:0:
200,329,43579,1,0,0:0:0:0:
259,253,43954,2,0,P|175:238|132:264,1,120,2|2,0:0|0:0,0:0:0:0:
147,155,44704,2,0,B|210:142|210:142|276:159,1,120,8|8,0:0|0:0,0:0:0:0:
357,175,45454,5,0,0:0:0:0:
263,155,45829,1,0,0:0:0:0:
183,100,46204,2,0,P|162:154|183:209,1,120,8|0,0:0|0:0,0:0:0:0:
263,155,46954,2,0,L|308:24,1,120,2|0,0:0|0:0,0:0:0:0:
397,40,47704,1,8,0:0:0:0:
397,40,47891,1,0,0:0:0:0:
397,40,48079,1,2,0:0:0:0:
435,154,48454,6,0,B|439:224|439:224|421:288,1,120,4|0,0:0|0:0,0:0:0:0:
341,225,49204,2,0,P|280:204|205:204,1,120,8|0,0:0|0:0,0:0:0:0:
129,204,49954,1,2,0:0:0:0:
179,122,50329,1,0,0:0:0:0:
104,60,50704,2,0,P|180:23|236:40,1,120,8|8,0:0|0:0,0:0:0:0:
303,106,51454,6,0,L|426:75,1,120,2|0,0:0|0:0,0:0:0:0:
456,106,52016,1,0,0:0:0:0:
456,106,52204,2,0,P|398:192|364:212,1,120,2|0,0:0|0:0,0:0:0:0:
307,254,52954,2,0,L|335:382,2,120,0|0|8,0:0|0:0|0:0,0:0:0:0:
214,279,54079,1,2,0:0:0:0:
162,170,54454,2,0,P|258:163|290:188,1,120,4|0,0:0|0:0,0:0:0:0:
310,262,55204,5,8,0:0:0:0:
214,279,55579,1,0,0:0:0:0:
119,264,55954,2,0,P|68:223|52:163,1,120,2|2,0:0|0:0,0:0:0:0:
79,80,56704,2,0,B|133:118|133:118|159:168,1,120,8|8,0:0|0:0,0:0:0:0:
245,126,57454,6,0,L|185:12,1,120
285,22,58204,1,8,0:0:0:0:
333,104,58579,1,0,0:0:0:0:
425,27,58954,2,0,L|496:131,1,120,2|0,0:0|0:0,0:0:0:0:
426,196,59704,1,8,0:0:0:0:
341,149,60079,1,2,0:0:0:0:
256,192,60454,5,2,0:0:0:0:
256,40,61954,1,2,0:0:0:0:
472,192,63454,1,2,0:0:0:0:
256,344,64954,1,2,0:0:0:0:
40,192,66454,1,2,0:0:0:0:
256,40,67954,1,2,0:0:0:0:
256,192,69454,5,8,0:0:0:0:
319,321,70016,2,0,P|271:339|198:322,1,120,8|0,0:0|0:0,0:0:0:0:
176,281,70579,1,8,0:0:0:0:
256,192,70954,1,8,0:0:0:0:
93,40,72454,6,0,P|40:81|35:143,2,120,4|2|0,0:0|0:0|0:0,0:0:0:0:
121,131,73579,2,0,P|108:188|59:221,1,120,0|2,0:0|0:0,0:0:0:0:
32,130,74329,1,0,0:0:0:0:
10,223,74704,6,0,L|10:283,2,60,2|0|0,0:0|0:0|0:0,0:0:0:0:
89,277,75454,2,0,P|149:295|211:286,1,120,2|0,0:0|0:0,0:0:0:0:
295,320,76204,2,0,P|357:318|415:342,1,120
476,240,76954,6,0,P|435:182|375:152,1,120,10|0,0:0|0:0,0:0:0:0:
348,142,77516,1,0,0:0:0:0:
256,171,77891,2,0,P|260:111|292:62,1,120
340,71,78454,6,0,P|332:32|311:11,2,60,10|0|0,0:0|0:0|0:0,0:0:0:0:
348,118,79016,2,0,P|413:126|459:99,2,120,0|2|0,0:0|0:0|0:0,0:0:0:0:
306,93,79954,1,2,0:0:0:0:
261,177,80329,2,0,P|229:179|190:170,1,60
182,130,80704,6,0,P|109:96|50:101,1,120
94,189,81454,1,2,0:0:0:0:
224,249,82016,1,2,0:0:0:0:
224,249,82579,5,2,0:0:0:0:
319,249,82954,1,2,0:0:0:0:
319,344,83329,1,2,0:0:0:0:
223,344,83704,2,0,L|151:344,1,60,8|8,0:0|0:0,0:0:0:0:
124,309,84079,2,0,L|124:249,1,60,8|8,0:0|0:0,0:0:0:0:
124,188,84454,6,0,P|67:141|59:93,2,120,4|2|0,0:0|0:0|0:0,0:0:0:0:
153,96,85579,2,0,L|219:96,2,60,0|0|2,0:0|0:0|0:0,0:0:0:0:
58,98,86329,1,0,0:0:0:0:
24,187,86704,6,0,P|102:181|147:136,1,120,2|0,0:0|0:0,0:0:0:0:
153,113,87266,1,0,0:0:0:0:
153,113,87454,2,0,B|138:185|171:220|176:299,1,180,8|0,0:0|0:0,0:0:0:0:
135,316,88204,2,0,P|174:356|245:363,1,120
327,338,88954,5,10,0:0:0:0:
421,318,89329,2,0,P|470:293|515:232,1,120,2|0,0:0|0:0,0:0:0:0:
492,148,90079,1,0,0:0:0:0:
397,222,90454,6,0,P|302:246|260:238,1,120,8|0,0:0|0:0,0:0:0:0:
268,197,91016,2,0,P|338:128|378:114,2,120,0|2|0,0:0|0:0|0:0,0:0:0:0:
257,256,91954,1,10,0:0:0:0:
163,233,92329,2,0,P|125:195|118:170,1,60
157,157,92704,2,0,P|202:79|231:66,1,120
249,160,93454,5,2,0:0:0:0:
379,221,94016,1,2,0:0:0:0:
379,221,94579,5,2,0:0:0:0:
442,148,94954,1,2,0:0:0:0:
347,133,95329,1,2,0:0:0:0:
420,70,95704,2,0,P|436:48|445:0,1,60,8|8,0:0|0:0,0:0:0:0:
397,18,96079,2,0,L|347:77,1,60,8|8,0:0|0:0,0:0:0:0:
320,110,96454,6,0,P|263:179|222:210,2,120,4|2|0,0:0|0:0|0:0,0:0:0:0:
227,83,97579,1,0,0:0:0:0:
227,83,97766,2,0,L|264:37,2,60,0|2|0,0:0|0:0|0:0,0:0:0:0:
200,123,98329,1,0,0:0:0:0:
136,194,98704,6,0,P|182:221|204:224,2,60,2|0|0,0:0|0:0|0:0,0:0:0:0:
117,99,99454,2,0,P|36:91|-2:126,1,120,2|0,0:0|0:0,0:0:0:0:
71,184,100204,2,0,P|79:265|44:303,1,120
178,284,100954,6,0,L|282:346,1,120,10|0,0:0|0:0,0:0:0:0:
322,370,101516,1,0,0:0:0:0:
417,360,101891,2,0,L|487:320,1,60
352,299,102454,6,0,P|382:235|364:176,1,120,10|0,0:0|0:0,0:0:0:0:
325,176,103016,2,0,L|463:205,2,120,0|2|0,0:0|0:0|0:0,0:0:0:0:
277,166,103954,1,10,0:0:0:0:
183,142,104329,2,0,P|208:100|234:80,1,60
263,96,104704,6,0,P|325:96|390:51,1,120
300,7,105454,1,2,0:0:0:0:
161,46,106016,1,2,0:0:0:0:
166,49,106579,5,2,0:0:0:0:
72,28,106954,1,2,0:0:0:0:
4,96,107329,1,2,0:0:0:0:
57,175,107704,2,0,L|72:250,1,60,8|8,0:0|0:0,0:0:0:0:
114,248,108079,2,0,L|129:323,1,60,8|8,0:0|0:0,0:0:0:0:
182,327,108454,6,0,P|259:329|301:304,1,120,4|2,0:0|0:0,0:0:0:0:
376,258,109204,1,2,0:0:0:0:
317,113,109813,2,0,P|261:142|238:218,1,120
230,239,110375,1,0,0:0:0:0:
355,232,110768,5,8,0:0:0:0:
255,47,111518,1,0,0:0:0:0:
220,80,111705,2,0,L|165:126,2,60
184,14,112314,6,0,P|108:21|76:68,1,120,10|0,0:0|0:0,0:0:0:0:
99,145,113064,1,2,0:0:0:0:
33,215,113439,1,2,0:0:0:0:
99,320,113829,5,8,0:0:0:0:
278,334,114391,2,0,P|301:253|250:178,1,180,4|0,0:0|0:0,0:0:0:0:
186,172,115204,6,0,L|126:179,2,60
281,161,115954,2,0,P|350:172|406:145,1,120,0|0,0:3|0:3,0:3:0:0:
239,121,116922,5,2,0:0:0:0:
131,117,117672,1,2,0:0:0:0:
275,218,118328,2,0,B|214:278|183:318|183:318|150:278|103:222|39:175|14:128|35:73|66:29|141:15|184:58|184:58|230:18|294:34|324:70|340:127|302:179,1,820.799989980469,2|0,0:0|0:0,0:0:0:0:
