osu file format v14

[General]
AudioFilename: audio.mp3
AudioLeadIn: 0
PreviewTime: 69079
Countdown: 0
SampleSet: Soft
StackLeniency: 0.5
Mode: 0
LetterboxInBreaks: 0
WidescreenStoryboard: 1

[Editor]
Bookmarks: 24454,60454,79016,79391,79579,79766,79954,80516,120579
DistanceSpacing: 0.5
BeatDivisor: 4
GridSize: 8
TimelineZoom: 1

[Metadata]
Title:Dream of Butterfly
TitleUnicode:Dream of Butterfly
Artist:Shoji Meguro
ArtistUnicode:目黒 将司
Creator:TastyApple
Version:Hard
Source:Persona
Tags:Megami Ibunroku Persona 1 PSP Shin Megami Tensei Revelations Yumi Kawamura 3 dancing moon night maki sonomura intro movie opening op
BeatmapID:1951601
BeatmapSetID:920723

[Difficulty]
HPDrainRate:5
CircleSize:4
OverallDifficulty:5
ApproachRate:7
SliderMultiplier:1.4
SliderTickRate:1

[Events]
//Background and Video events
0,0,"maki.jpg",0,0
//Break Periods
//Storyboard Layer 0 (Background)
//Storyboard Layer 1 (Fail)
//Storyboard Layer 2 (Pass)
//Storyboard Layer 3 (Foreground)
//Storyboard Layer 4 (Overlay)
//Storyboard Sound Samples

[TimingPoints]
454,375,4,2,0,60,1,0
22579,-200,4,2,0,60,0,0
23329,-100,4,2,0,60,0,0
24454,-100,4,2,0,60,0,0
42454,-133.333333333333,4,2,0,60,0,0
42829,-100,4,2,0,60,0,0
54454,-133.333333333333,4,2,0,60,0,0
54829,-100,4,2,0,60,0,0
60454,-200,4,2,0,60,0,0
69079,-100,4,2,0,60,0,0
71704,-133.333333333333,4,2,0,60,0,0
72454,-100,4,2,0,75,0,1
81454,-100,4,2,0,60,0,0
84454,-100,4,2,0,75,0,1
93454,-100,4,2,0,60,0,0
96454,-100,4,2,0,75,0,1
105454,-100,4,2,0,60,0,0
109625,375,4,2,0,60,1,0
110768,375,4,2,0,60,1,0
112314,375,4,2,0,60,1,0
112314,-133.333333333333,4,2,0,60,0,0
113064,-100,4,2,0,60,0,0
113829,375,4,2,0,60,1,0
113829,-100,4,2,0,60,0,0
115204,375,4,2,0,60,1,0
116922,375,4,2,0,60,1,0
116922,-86.9565217391304,4,2,0,60,0,0
118328,-103.092783505155,4,2,0,60,0,0

[Colours]
Combo1 : 191,165,197
Combo2 : 119,1,169
Combo3 : 199,108,253
Combo4 : 61,15,155
Combo5 : 255,159,207
Combo6 : 141,105,250

[HitObjects]
39,182,454,5,0,0:0:0:0:
140,48,829,2,0,P|178:88|183:124,1,70
269,101,1204,2,0,P|253:153|224:176,1,70
162,179,1579,1,0,0:0:0:0:
162,179,1766,2,0,P|219:242|292:230,1,140
333,140,2329,1,0,0:0:0:0:
355,124,2704,1,0,0:0:0:0:
376,106,3079,1,0,0:0:0:0:
467,248,3454,5,2,0:0:0:0:
384,248,3829,2,0,L|384:336,1,70
299,319,4204,2,0,L|299:249,1,70
215,240,4579,1,0,0:0:0:0:
215,240,4766,2,0,B|220:331|126:355,1,140
125,266,5329,1,0,0:0:0:0:
103,250,5704,1,0,0:0:0:0:
82,232,6079,1,0,0:0:0:0:
256,192,6454,5,4,0:0:0:0:
367,139,6829,2,0,L|367:49,1,70
304,22,7204,2,0,L|214:22,1,70,0|8,0:0|0:0,0:0:0:0:
196,90,7579,2,0,L|106:90,1,70
10,125,7954,5,8,0:0:0:0:
19,236,8329,1,0,0:0:0:0:
129,253,8704,2,0,L|211:209,3,70
256,192,9454,5,8,0:0:0:0:
293,69,9829,2,0,P|319:40|364:30,1,70
434,37,10204,1,0,0:0:0:0:
499,107,10391,1,8,0:0:0:0:
499,107,10766,2,0,P|435:139|366:108,1,140,8|0,0:0|0:0,0:0:0:0:
336,184,11329,6,0,L|336:260,1,70
432,256,11797,2,0,L|432:215,1,35
431,181,12079,1,0,0:0:0:0:
512,285,12454,5,4,0:0:0:0:
420,360,12829,6,0,L|350:360,1,70
317,288,13204,2,0,L|221:288,1,70
200,352,13579,1,0,0:0:0:0:
200,352,13766,2,0,P|104:321|102:267,1,140
144,217,14329,1,0,0:0:0:0:
144,217,14516,2,0,P|172:263|156:304,1,70
68,353,14891,1,0,0:0:0:0:
5,289,15079,1,0,0:0:0:0:
65,221,15266,1,0,0:0:0:0:
15,142,15454,6,0,L|53:2,1,140,2|0,0:0|0:0,0:0:0:0:
105,154,16204,2,0,L|143:14,1,140,2|0,0:0|0:0,0:0:0:0:
228,30,16766,1,2,0:0:0:0:
365,34,17141,1,0,0:0:0:0:
365,34,17329,2,0,P|447:55|479:106,1,140
437,214,17891,1,2,0:0:0:0:
378,142,18079,1,2,0:0:0:0:
254,163,18454,5,4,0:0:0:0:
334,188,18829,2,0,L|291:243,1,70
214,240,19204,2,0,L|172:185,1,70
128,118,19579,1,0,0:0:0:0:
128,118,19766,2,0,P|98:152|120:248,1,140
214,240,20329,2,0,L|290:240,1,70
295,315,20704,2,0,L|214:315,2,70
493,220,21454,6,0,L|455:360,1,140,2|0,0:0|0:0,0:0:0:0:
366,343,22016,2,0,L|403:208,1,140,2|0,0:0|0:0,0:0:0:0:
367,138,22579,6,0,B|328:166|328:166|303:256,1,140,2|0,0:0|0:0,0:0:0:0:
283,338,23704,1,0,0:0:0:0:
204,317,24079,1,0,0:0:0:0:
112,311,24454,6,0,P|29:350|90:255,1,280,4|8,0:0|0:0,0:0:0:0:
156,238,25391,1,0,0:0:0:0:
236,227,25579,2,0,P|309:149|203:165,1,280
98,174,26704,1,8,0:0:0:0:
3,100,27079,1,8,0:0:0:0:
75,31,27454,6,0,B|144:56|196:21|196:21|206:50|206:50|254:26|337:53,1,280,2|8,0:0|0:0,0:0:0:0:
400,61,28391,1,0,0:0:0:0:
436,140,28579,2,0,B|367:115|315:150|315:150|305:121|305:121|257:145|174:118,1,280
265,215,29704,1,8,0:0:0:0:
379,222,30079,1,2,0:0:0:0:
471,292,30454,6,0,B|451:348|451:348|394:303|394:303|338:356|234:354,1,280,4|8,0:0|0:0,0:0:0:0:
188,356,31391,1,0,0:0:0:0:
219,281,31579,2,0,B|139:278|83:331|83:331|26:286|26:286|6:342,1,280
6,341,32704,1,8,0:0:0:0:
85,241,33079,1,8,0:0:0:0:
219,281,33454,6,0,B|262:184|240:68|240:68|214:124,1,280,2|8,0:0|0:0,0:0:0:0:
171,194,34391,1,0,0:0:0:0:
128,263,34579,2,0,B|102:319|102:319|80:203|123:106,1,280
184,25,35704,1,8,0:0:0:0:
284,89,36079,1,2,0:0:0:0:
417,25,36454,5,4,0:0:0:0:
476,73,36641,1,0,0:0:0:0:
424,129,36829,2,0,P|389:187|389:219,1,70
476,200,37204,2,0,P|479:258|428:338,1,140,8|0,0:0|0:0,0:0:0:0:
392,240,37954,2,0,L|247:195,1,140,2|0,0:0|0:0,0:0:0:0:
165,168,38704,1,8,0:0:0:0:
72,134,39079,1,8,0:0:0:0:
44,32,39454,6,0,P|132:46|173:101,1,140,2|0,0:0|0:0,0:0:0:0:
165,168,40204,1,8,0:0:0:0:
72,134,40579,1,0,0:0:0:0:
35,224,40954,2,0,L|34:312,1,70
92,344,41329,2,0,L|149:287,1,70
197,244,41704,1,8,0:0:0:0:
272,326,42079,1,2,0:0:0:0:
413,351,42454,6,0,B|453:351|453:351|507:310,1,105.000004005432,4|0,0:0|0:0,0:0:0:0:
476,207,43204,6,0,P|427:265|346:272,1,140,8|0,0:0|0:0,0:0:0:0:
381,170,43954,1,2,0:0:0:0:
308,235,44329,1,2,0:0:0:0:
288,147,44704,1,8,0:0:0:0:
288,147,45079,1,8,0:0:0:0:
193,98,45454,6,0,P|259:41|327:44,1,140
398,78,46204,1,8,0:0:0:0:
481,27,46579,1,0,0:0:0:0:
491,133,46954,2,0,P|464:195|390:247,1,140,2|0,0:0|0:0,0:0:0:0:
309,292,47704,1,8,0:0:0:0:
197,292,48079,1,2,0:0:0:0:
95,197,48454,5,4,0:0:0:0:
36,147,48641,1,0,0:0:0:0:
103,92,48829,2,0,P|43:61|8:62,1,70
88,0,49204,2,0,P|144:12|208:82,1,140,8|0,0:0|0:0,0:0:0:0:
162,159,49954,2,0,B|221:165|221:165|289:123,1,140,2|0,0:0|0:0,0:0:0:0:
344,40,50704,1,8,0:0:0:0:
391,126,51079,1,8,0:0:0:0:
432,39,51454,6,0,P|484:111|474:179,1,140,2|0,0:0|0:0,0:0:0:0:
418,207,52016,2,0,P|441:230|488:241,2,70,2|8|0,2:0|2:0|2:0,2:0:0:0:
349,167,52579,1,0,0:0:0:0:
272,167,52766,1,0,0:0:0:0:
309,236,52954,2,0,L|308:324,1,70
250,351,53329,2,0,L|193:294,1,70
146,250,53704,1,8,0:0:0:0:
55,208,54079,1,2,0:0:0:0:
0,309,54454,6,0,B|53:331|53:331|112:309,1,105.000004005432,4|0,0:0|0:0,0:0:0:0:
55,208,55204,6,0,P|18:149|26:81,1,140,8|0,0:0|0:0,0:0:0:0:
115,126,55954,1,2,0:0:0:0:
213,173,56329,1,2,0:0:0:0:
310,130,56704,1,8,0:0:0:0:
310,130,57079,1,8,0:0:0:0:
277,28,57454,6,0,P|363:34|409:84,1,140
489,116,58204,1,8,0:0:0:0:
493,20,58579,1,0,0:0:0:0:
400,67,58954,2,0,L|400:235,1,140,2|0,0:0|0:0,0:0:0:0:
451,306,59704,1,8,0:0:0:0:
339,306,60079,1,2,0:0:0:0:
256,192,60454,5,2,0:0:0:0:
256,104,60829,2,0,L|256:8,2,70
256,192,61954,5,2,0:0:0:0:
344,192,62329,2,0,L|440:192,2,70
256,192,63454,5,2,0:0:0:0:
256,280,63829,2,0,L|256:376,2,70
256,192,64954,5,2,0:0:0:0:
168,192,65329,2,0,L|72:192,2,70
256,192,66454,5,2,0:0:0:0:
256,104,66829,2,0,L|256:8,2,70
256,192,67954,5,2,0:0:0:0:
256,280,68329,2,0,L|256:376,2,70,0|0|2,0:0|0:0|0:0,0:0:0:0:
320,112,69454,6,0,P|256:88|192:112,1,140,8|0,0:0|0:0,0:0:0:0:
192,272,70016,2,0,P|256:296|320:272,1,140,8|0,0:0|0:0,0:0:0:0:
196,192,70579,1,8,0:0:0:0:
368,192,70954,1,8,0:0:0:0:
432,266,71704,6,0,B|483:211|470:140|470:140|441:155,1,157.500006008148,2|0,0:0|0:0,0:0:0:0:
336,261,72454,5,4,0:0:0:0:
238,251,72641,1,0,0:0:0:0:
286,331,72829,2,0,B|374:375|425:278|425:278|483:296,1,210,2|2,0:0|0:0,0:0:0:0:
442,210,73579,2,0,L|508:231,2,70,0|0|2,0:0|0:0|0:0,0:0:0:0:
371,182,74141,1,0,0:0:0:0:
436,135,74329,2,0,P|392:103|362:102,1,70
262,57,74704,5,2,0:0:0:0:
183,117,74891,1,0,0:0:0:0:
102,52,75079,1,0,0:0:0:0:
14,100,75266,2,0,P|54:123|72:172,2,70,2|8|0,0:0|0:0|0:0,0:0:0:0:
2,170,75829,1,0,0:0:0:0:
66,212,76016,1,0,0:0:0:0:
21,272,76204,2,0,P|72:288|105:278,1,70,0|2,0:0|0:0,0:0:0:0:
162,267,76579,1,0,0:0:0:0:
137,338,76766,1,0,0:0:0:0:
268,271,76954,6,0,P|248:210|166:163,1,140,10|0,0:0|0:0,0:0:0:0:
162,267,77516,1,2,0:0:0:0:
0,230,77891,2,0,P|30:213|65:211,1,70
162,267,78266,1,0,0:0:0:0:
126,349,78454,5,10,0:0:0:0:
214,341,78641,2,0,P|277:360|305:349,1,70
268,271,79016,1,0,0:0:0:0:
343,253,79204,1,0,0:0:0:0:
355,328,79391,1,2,0:0:0:0:
430,313,79579,1,0,0:0:0:0:
482,256,79766,2,0,P|462:203|469:167,1,70,2|10,0:0|0:0,0:0:0:0:
471,114,80141,1,0,0:0:0:0:
394,119,80328,1,0,0:0:0:0:
391,196,80516,1,0,0:0:0:0:
297,171,80704,6,0,L|305:74,1,70
220,40,81079,2,0,L|212:137,1,70
184,211,81454,2,0,B|133:148|133:148|105:75,1,140,2|0,0:0|0:0,0:0:0:0:
49,38,82016,2,0,B|39:96|39:96|52:176,1,140,2|0,0:0|0:0,0:0:0:0:
49,279,82579,6,0,L|49:367,1,70,2|0,0:0|0:0,0:0:0:0:
127,238,82954,2,0,L|127:326,1,70,2|0,0:0|0:0,0:0:0:0:
208,280,83329,2,0,L|208:368,1,70,2|0,0:0|0:0,0:0:0:0:
293,287,83704,5,8,0:0:0:0:
372,234,83891,1,8,0:0:0:0:
379,329,84079,1,8,0:0:0:0:
372,234,84266,1,8,0:0:0:0:
467,168,84454,5,4,0:0:0:0:
382,127,84641,1,0,0:0:0:0:
436,53,84829,2,0,B|365:9|310:53|301:112|288:53|230:8|156:61,1,280,2|0,0:0|0:0,0:0:0:0:
214,117,85766,1,0,0:0:0:0:
137,118,85954,1,2,0:0:0:0:
137,118,86141,1,0,0:0:0:0:
65,92,86329,2,0,P|99:51|139:42,1,70
85,181,86704,5,2,0:0:0:0:
178,181,86891,1,0,0:0:0:0:
129,264,87079,1,0,0:0:0:0:
29,264,87266,2,0,L|5:349,2,70,0|8|0,0:0|0:0|0:0,0:0:0:0:
95,222,87829,1,0,0:0:0:0:
169,222,88016,1,0,0:0:0:0:
243,290,88204,2,0,L|267:375,1,70,0|2,0:0|0:0,0:0:0:0:
338,349,88579,1,0,0:0:0:0:
364,279,88766,1,0,0:0:0:0:
437,341,88954,6,0,P|479:349|515:333,1,70,10|0,0:0|0:0,0:0:0:0:
463,248,89329,2,0,P|447:180|497:112,1,140,2|0,0:0|0:0,0:0:0:0:
453,34,89891,1,0,0:0:0:0:
378,92,90079,1,0,0:0:0:0:
319,160,90266,2,0,P|290:203|249:227,2,70,0|8|0,0:0|0:0|0:0,0:0:0:0:
232,127,90829,1,0,0:0:0:0:
232,127,91016,1,0,0:0:0:0:
200,221,91204,2,0,P|157:192|133:151,1,70,0|2,0:0|0:0,0:0:0:0:
143,102,91579,1,0,0:0:0:0:
72,36,91766,1,0,0:0:0:0:
29,103,91954,6,0,P|74:151|75:185,1,70,10|0,0:0|0:0,0:0:0:0:
30,213,92329,1,0,0:0:0:0:
74,152,92516,1,0,0:0:0:0:
135,234,92704,6,0,L|228:200,1,70
199,307,93079,2,0,L|133:331,1,70
31,316,93454,2,0,B|60:264|60:264|147:228,1,140,2|0,0:0|0:0,0:0:0:0:
199,307,94016,2,0,B|273:276|273:276|302:224,1,140,2|0,0:0|0:0,0:0:0:0:
357,297,94579,6,0,L|422:348,1,70,2|0,0:0|0:0,0:0:0:0:
395,228,94954,2,0,L|460:279,1,70,2|0,0:0|0:0,0:0:0:0:
432,161,95329,2,0,L|497:212,1,70,2|0,0:0|0:0,0:0:0:0:
492,91,95704,5,8,0:0:0:0:
405,72,95891,1,8,0:0:0:0:
432,161,96079,1,8,0:0:0:0:
492,91,96266,1,8,0:0:0:0:
357,133,96454,5,4,0:0:0:0:
295,208,96641,1,0,0:0:0:0:
235,134,96829,2,0,B|198:38|69:37|69:37|128:103,1,280,2|0,0:0|0:0,0:0:0:0:
162,154,97766,1,0,0:0:0:0:
84,153,97954,1,2,0:0:0:0:
27,100,98141,1,0,0:0:0:0:
17,176,98329,2,0,P|2:221|1:259,1,70
108,240,98704,5,2,0:0:0:0:
47,311,98891,1,0,0:0:0:0:
138,338,99079,1,0,0:0:0:0:
204,264,99266,2,0,P|202:214|186:180,2,70,0|8|0,0:0|0:0|0:0,0:0:0:0:
234,335,99829,1,0,0:0:0:0:
310,336,100016,1,0,0:0:0:0:
306,258,100204,2,0,P|335:249|375:251,1,70,0|2,0:0|0:0,0:0:0:0:
447,273,100579,1,0,0:0:0:0:
394,328,100766,1,0,0:0:0:0:
409,178,100954,6,0,P|373:231|282:255,1,140,10|0,0:0|0:0,0:0:0:0:
305,154,101516,1,0,0:0:0:0:
152,119,101891,2,0,P|137:68|145:26,1,70
241,65,102266,1,0,0:0:0:0:
314,124,102454,5,10,0:0:0:0:
327,29,102641,2,0,P|370:31|405:44,1,70
467,63,103016,1,0,0:0:0:0:
458,138,103204,1,0,0:0:0:0:
389,160,103391,1,2,0:0:0:0:
345,101,103579,1,0,0:0:0:0:
395,39,103766,1,0,0:0:0:0:
345,100,103954,2,0,P|311:109|276:110,1,70,10|0,0:0|0:0,0:0:0:0:
191,61,104329,2,0,P|182:95|181:130,1,70
183,229,104704,6,0,L|110:175,1,70
40,124,105079,2,0,L|113:178,1,70
95,257,105454,2,0,P|86:318|164:369,1,140,2|0,0:0|0:0,0:0:0:0:
233,358,106016,2,0,P|284:314|277:247,1,140,2|0,0:0|0:0,0:0:0:0:
223,161,106579,6,0,L|150:107,1,70,2|0,0:0|0:0,0:0:0:0:
278,105,106954,2,0,L|278:25,1,70,2|0,0:0|0:0,0:0:0:0:
328,161,107329,2,0,L|401:107,1,70,2|0,0:0|0:0,0:0:0:0:
476,110,107704,5,8,0:0:0:0:
443,26,107891,1,8,0:0:0:0:
476,110,108079,1,8,0:0:0:0:
461,200,108266,1,8,0:0:0:0:
481,330,108454,5,4,0:0:0:0:
404,281,108641,1,0,0:0:0:0:
348,353,108829,2,0,P|270:343|205:311,1,140,2|2,0:0|0:0,0:0:0:0:
320,151,109626,1,0,0:0:0:0:
225,164,109813,1,0,0:0:0:0:
225,164,110001,2,0,L|155:172,1,70
196,264,110376,1,0,0:0:0:0:
37,345,110768,5,8,0:0:0:0:
123,251,111330,2,0,P|108:204|70:178,1,70
29,155,111705,1,0,0:0:0:0:
19,83,111893,1,0,0:0:0:0:
171,162,112314,6,0,P|151:139|67:92,1,105.000004005432,10|0,0:0|0:0,0:0:0:0:
228,248,113064,2,0,P|295:242|319:250,1,70,2|0,0:0|0:0,0:0:0:0:
258,147,113439,2,0,P|319:118|334:98,1,70,2|0,0:0|0:0,0:0:0:0:
394,21,113829,6,0,P|455:85|450:136,1,140,8|0,0:0|0:0,0:0:0:0:
373,102,114391,2,0,L|253:185,1,140,4|0,0:0|0:0,0:0:0:0:
175,243,115000,1,0,0:0:0:0:
161,338,115204,6,0,L|225:295,1,70
282,262,115579,2,0,L|346:219,1,70
326,316,115954,2,0,P|404:353|463:333,1,140
409,226,116750,1,0,0:0:0:0:
474,159,116922,6,0,P|464:50|351:51,1,241.500004606247,2|0,0:0|0:0,0:0:0:0:
353,49,117672,2,0,P|241:53|249:181,1,241.500004606247,2|0,0:0|0:0,0:0:0:0:
259,213,118328,2,0,B|323:269|355:309|355:309|387:269|435:213|499:166|524:119|503:64|472:20|397:6|354:49|354:49|308:9|244:25|214:61|198:118|233:166,1,814.800019270936
