osu file format v14

[General]
AudioFilename: audio.mp3
AudioLeadIn: 0
PreviewTime: 45941
Countdown: 1
SampleSet: None
StackLeniency: 0.7
Mode: 0
LetterboxInBreaks: 0
WidescreenStoryboard: 1

[Editor]
Bookmarks: 44844
DistanceSpacing: 1.5
BeatDivisor: 4
GridSize: 4
TimelineZoom: 1.4

[Metadata]
Title:Last Surprise
TitleUnicode:Last Surprise
Artist:Shoji Meguro & Lyn
ArtistUnicode:Shoji Meguro & Lyn
Creator:Nathan
Version:Mona
Source:Persona 5
Tags:jrpg shin megami tensei atlus lavender
BeatmapID:1968474
BeatmapSetID:916214

[Difficulty]
HPDrainRate:5
CircleSize:4
OverallDifficulty:7.5
ApproachRate:9
SliderMultiplier:1.8
SliderTickRate:1

[Events]
//Background and Video events
0,0,"vzy1hm4645ry.jpg",0,0
//Break Periods
2,63093,77902
2,141141,155951
//Storyboard Layer 0 (Background)
//Storyboard Layer 1 (Fail)
//Storyboard Layer 2 (Pass)
//Storyboard Layer 3 (Foreground)
//Storyboard Sound Samples

[TimingPoints]
454,487.80487804878,4,2,1,60,1,0
454,-50,4,2,1,60,0,0
1185,-66.6666666666667,4,2,1,60,0,0
2405,-50,4,2,1,60,0,0
3136,-66.6666666666667,4,2,1,60,0,0
4356,-50,4,2,1,60,0,0
5088,-66.6666666666667,4,2,1,60,0,0
7161,-50,4,2,1,60,0,0
7405,-57.1428571428571,4,2,1,60,0,0
7649,-66.6666666666667,4,2,1,60,0,0
7893,-200,4,2,1,60,0,0
8258,-50,4,2,1,60,0,0
9356,-66.6666666666667,4,2,1,60,0,0
10210,-50,4,2,1,60,0,0
10941,-66.6666666666667,4,2,1,60,0,0
12161,-50,4,2,1,60,0,0
13258,-66.6666666666667,4,2,1,60,0,0
15210,-100,4,2,1,60,0,0
15453,-133.333333333333,4,2,1,60,0,0
15697,-200,4,2,1,60,0,0
16063,-100,4,2,1,60,0,0
16551,-66.6666666666667,4,2,1,60,0,0
16917,-57.1428571428571,4,2,1,60,0,0
17161,-50,4,2,1,60,0,0
18014,-80,4,2,1,60,0,0
19478,-66.6666666666667,4,2,1,60,0,0
22405,-80,4,2,1,60,0,0
23868,-100,4,2,1,60,0,0
24478,-80,4,2,1,60,0,0
24722,-66.6666666666667,4,2,1,60,0,0
24966,-57.1428571428571,4,2,1,60,0,0
25332,-50,4,2,1,60,0,0
25819,-80,4,2,1,60,0,0
27283,-66.6666666666667,4,2,1,60,0,0
30941,-57.1428571428571,4,2,1,60,0,0
31673,-80,4,2,1,60,0,0
37893,-57.1428571428571,4,2,1,60,0,0
38136,-66.6666666666667,4,2,1,60,0,0
38380,-80,4,2,1,60,0,0
38624,-100,4,2,1,60,0,0
38868,-133.333333333333,4,2,1,60,0,0
39112,-200,4,2,1,60,0,0
39478,-66.6666666666667,4,2,1,60,0,0
46795,-133.333333333333,4,2,1,60,0,0
47283,-66.6666666666667,4,2,1,60,0,1
47771,-50,4,2,1,60,0,1
48258,-66.6666666666667,4,2,1,60,0,1
48746,-50,4,2,1,60,0,1
49234,-50,4,2,1,60,0,1
50453,-100,4,2,1,60,0,1
50941,-50,4,2,1,60,0,1
51429,-58.8235294117647,4,2,1,60,0,1
53136,-40,4,2,1,60,0,1
54112,-58.8235294117647,4,2,1,60,0,1
55088,-66.6666666666667,4,2,1,60,0,1
55575,-50,4,2,1,60,0,1
56063,-66.6666666666667,4,2,1,60,0,1
56551,-50,4,2,1,60,0,1
58258,-100,4,2,1,60,0,1
58746,-50,4,2,1,60,0,1
59478,-58.8235294117647,4,2,1,60,0,1
60941,-40,4,2,1,60,0,1
62893,-66.6666666666667,4,2,1,60,0,0
78502,-100,4,2,1,60,0,0
78990,-80,4,2,1,60,0,0
79356,-66.6666666666667,4,2,1,60,0,0
79600,-57.1428571428571,4,2,1,60,0,0
79844,-50,4,2,1,60,0,0
80453,-80,4,2,1,60,0,0
81917,-66.6666666666667,4,2,1,60,0,0
84844,-80,4,2,1,60,0,0
86307,-100,4,2,1,60,0,0
86917,-80,4,2,1,60,0,0
87161,-66.6666666666667,4,2,1,60,0,0
87405,-57.1428571428571,4,2,1,60,0,0
87649,-50,4,2,1,60,0,0
88258,-80,4,2,1,60,0,0
89722,-66.6666666666667,4,2,1,60,0,0
93380,-57.1428571428571,4,2,1,60,0,0
94112,-80,4,2,1,60,0,0
100332,-57.1428571428571,4,2,1,60,0,0
100575,-66.6666666666667,4,2,1,60,0,0
100819,-80,4,2,1,60,0,0
101063,-100,4,2,1,60,0,0
101307,-133.333333333333,4,2,1,60,0,0
101551,-200,4,2,1,60,0,0
101917,-66.6666666666667,4,2,1,60,0,0
108258,-133.333333333333,4,2,1,60,0,0
109722,-66.6666666666667,4,2,1,60,0,1
110210,-50,4,2,1,60,0,1
110697,-66.6666666666667,4,2,1,60,0,1
111185,-50,4,2,1,60,0,1
111673,-50,4,2,1,60,0,1
112892,-100,4,2,1,60,0,1
113380,-50,4,2,1,60,0,1
113868,-58.8235294117647,4,2,1,60,0,1
115575,-50,4,2,1,60,0,1
116551,-58.8235294117647,4,2,1,60,0,1
117527,-66.6666666666667,4,2,1,60,0,1
118014,-50,4,2,1,60,0,1
118502,-66.6666666666667,4,2,1,60,0,1
118990,-50,4,2,1,60,0,1
120697,-100,4,2,1,60,0,1
121185,-50,4,2,1,60,0,1
121917,-58.8235294117647,4,2,1,60,0,1
123380,-40,4,2,1,60,0,1
124356,-66.6666666666667,4,2,1,60,0,1
125819,-50,4,2,1,60,0,1
126307,-66.6666666666667,4,2,1,60,0,1
126795,-50,4,2,1,60,0,1
127283,-50,4,2,1,60,0,1
128502,-100,4,2,1,60,0,1
128990,-50,4,2,1,60,0,1
129478,-58.8235294117647,4,2,1,60,0,1
131185,-40,4,2,1,60,0,1
132161,-58.8235294117647,4,2,1,60,0,1
133136,-66.6666666666667,4,2,1,60,0,1
133624,-50,4,2,1,60,0,1
134112,-66.6666666666667,4,2,1,60,0,1
134600,-50,4,2,1,60,0,1
136307,-66.6666666666667,4,2,1,60,0,1
136795,-50,4,2,1,60,0,1
137527,-58.8235294117647,4,2,1,60,0,1
138990,-66.6666666666667,4,2,1,60,0,1
140941,-100,4,2,1,60,0,0
174112,-66.6666666666667,4,2,1,60,0,1
174600,-50,4,2,1,60,0,1
175087,-66.6666666666667,4,2,1,60,0,1
175575,-50,4,2,1,60,0,1
176063,-50,4,2,1,60,0,1
177282,-100,4,2,1,60,0,1
177770,-50,4,2,1,60,0,1
178258,-58.8235294117647,4,2,1,60,0,1
179965,-40,4,2,1,60,0,1
180941,-58.8235294117647,4,2,1,60,0,1
181917,-66.6666666666667,4,2,1,60,0,1
183380,-50,4,2,1,60,0,1
185087,-100,4,2,1,60,0,1
185575,-50,4,2,1,60,0,1
186307,-58.8235294117647,4,2,1,60,0,1
187770,-40,4,2,1,60,0,1
188746,-66.6666666666667,4,2,1,60,0,1
190210,-50,4,2,1,60,0,1
190697,-66.6666666666667,4,2,1,60,0,1
191185,-50,4,2,1,60,0,1
191673,-50,4,2,1,60,0,1
192892,-100,4,2,1,60,0,1
193380,-50,4,2,1,60,0,1
193868,-58.8235294117647,4,2,1,60,0,1
195575,-40,4,2,1,60,0,1
196551,-58.8235294117647,4,2,1,60,0,1
197527,-66.6666666666667,4,2,1,60,0,1
198014,-50,4,2,1,60,0,1
198502,-66.6666666666667,4,2,1,60,0,1
198990,-50,4,2,1,60,0,1
201917,-58.8235294117647,4,2,1,60,0,1
203380,-66.6666666666667,4,2,1,60,0,1
205332,-100,4,2,1,60,0,0

[Colours]
Combo1 : 183,177,172
Combo2 : 252,108,255

[HitObjects]
315,116,454,5,6,3:2:0:0:
383,137,575,1,2,0:0:0:0:
453,122,697,1,2,0:0:0:0:
508,75,819,1,2,0:0:0:0:
194,192,1185,5,6,3:2:0:0:
126,213,1306,1,2,0:0:0:0:
56,198,1428,1,2,0:0:0:0:
1,151,1551,2,0,P|10:217|16:285,1,135.000005149842,2|0,0:0|3:0,0:0:0:0:
13,299,1917,2,0,P|45:288|78:282,1,67.5000025749208,6|0,0:0|0:0,0:0:0:0:
126,213,2161,2,0,P|159:219|191:229,1,67.5000025749208,2|0,0:0|0:0,0:0:0:0:
298,193,2405,5,6,3:2:0:0:
319,125,2526,1,2,0:0:0:0:
304,55,2648,1,2,0:0:0:0:
257,0,2770,1,2,0:0:0:0:
469,116,3136,5,6,3:2:0:0:
448,184,3257,1,2,0:0:0:0:
463,254,3379,1,2,0:0:0:0:
510,309,3502,2,0,P|442:303|375:298,1,135.000005149842,2|2,0:0|3:2,0:0:0:0:
293,214,3868,2,0,P|339:151|343:229,1,202.500007724762,6|0,3:2|0:0,0:0:0:0:
299,291,4356,5,6,3:2:0:0:
234,323,4478,1,2,0:0:0:0:
179,275,4600,1,2,0:0:0:0:
114,307,4722,1,2,0:0:0:0:
0,99,5088,5,6,3:2:0:0:
65,67,5210,1,0,0:0:0:0:
120,115,5332,1,2,0:0:0:0:
185,83,5453,2,0,B|239:103|239:103|311:75,1,135.000005149842,2|0,0:0|3:0,0:0:0:0:
323,70,5819,2,0,P|316:103|314:136,1,67.5000025749208,6|0,3:2|0:0,0:0:0:0:
508,269,6063,2,0,P|505:235|499:202,1,67.5000025749208,2|0,0:0|0:0,0:0:0:0:
445,52,6307,5,6,3:2:0:0:
396,112,6429,1,2,0:0:0:0:
473,124,6551,1,2,0:0:0:0:
445,52,6673,2,0,L|379:66,1,67.5000025749208,2|0,0:0|3:0,0:0:0:0:
375,191,6917,2,0,P|342:187|310:177,1,67.5000025749208,6|0,3:2|0:0,0:0:0:0:
296,308,7161,2,0,P|257:284|228:250,1,90,6|0,3:2|0:0,0:0:0:0:
140,184,7405,2,0,P|172:161|209:150,1,78.7500007510185,2|0,3:2|3:0,0:0:0:0:
318,110,7649,2,0,L|309:177,1,67.5000025749208,2|0,0:0|3:0,0:0:0:0:
228,250,7893,6,0,L|184:246,1,45,2|0,0:0|3:0,0:0:0:0:
184,246,8258,6,0,L|273:254,1,90,6|2,3:2|0:0,0:0:0:0:
430,201,8502,1,2,0:0:0:0:
348,323,8624,2,0,P|352:233|359:143,1,180,2|0,0:0|0:0,0:0:0:0:
286,79,8990,6,0,L|196:70,1,90,6|2,3:2|0:0,0:0:0:0:
42,57,9234,1,2,0:0:0:0:
125,14,9356,2,0,L|117:148,1,135.000005149842,2|0,0:0|3:0,0:0:0:0:
115,148,9722,2,0,P|148:144|182:144,1,67.5000025749208,6|0,3:2|0:0,0:0:0:0:
191,297,9966,2,0,P|157:300|124:301,1,67.5000025749208,2|0,0:0|0:0,0:0:0:0:
52,228,10210,6,0,L|141:223,1,90,6|2,3:2|0:0,0:0:0:0:
324,212,10453,1,2,0:0:0:0:
271,283,10575,2,0,B|240:220|240:220|271:109,1,180,2|0,0:0|0:0,0:0:0:0:
290,36,10941,2,0,L|222:42,1,67.5000025749208,6|2,3:2|0:0,0:0:0:0:
57,67,11185,1,2,0:0:0:0:
124,169,11307,2,0,L|136:84,1,67.5000025749208,2|0,0:0|0:0,0:0:0:0:
146,6,11551,1,2,3:2:0:0:
133,102,11673,6,0,B|122:173|122:173|163:232|163:232|152:289,1,202.500007724762,6|0,3:2|0:0,0:0:0:0:
146,312,12161,6,0,L|235:301,1,90,6|2,3:2|0:0,0:0:0:0:
378,282,12405,1,2,0:0:0:0:
240,221,12527,2,0,P|325:213|378:282,1,180,2|0,0:0|0:0,0:0:0:0:
378,282,12893,6,0,L|388:192,1,90,6|2,3:2|0:0,0:0:0:0:
408,50,13137,1,2,0:0:0:0:
461,153,13259,2,0,P|460:87|407:49,1,135.000005149842,2|0,0:0|3:0,0:0:0:0:
336,90,13624,2,0,P|302:89|268:85,1,67.5000025749208,6|0,3:2|0:0,0:0:0:0:
151,163,13868,2,0,P|184:162|218:158,1,67.5000025749208,2|0,0:0|0:0,0:0:0:0:
281,219,14112,5,6,3:2:0:0:
186,72,14234,1,2,0:0:0:0:
268,85,14356,1,2,0:0:0:0:
218,158,14478,2,0,P|184:162|151:163,1,67.5000025749208,2|8,0:0|0:0,0:0:0:0:
344,280,14722,2,0,P|377:284|411:286,1,67.5000025749208,2|0,3:2|3:0,0:0:0:0:
346,160,14966,2,0,P|347:126|348:92,1,67.5000025749208,14|0,0:0|0:0,0:0:0:0:
216,277,15210,2,0,L|211:327,1,45,2|0,0:0|0:0,0:0:0:0:
144,181,15453,2,0,P|144:164|145:147,1,33.7500012874604,2|8,3:2|0:0,0:0:0:0:
60,265,15697,2,0,L|58:287,1,22.5,2|8,0:0|0:0,0:0:0:0:
129,362,15941,1,0,3:0:0:0:
129,362,16063,6,0,L|140:227,1,135,6|0,3:2|0:0,0:0:0:0:
144,181,16551,1,10,0:0:0:0:
144,181,16673,6,0,L|210:194,1,67.5000025749208,2|0,0:0|0:0,0:0:0:0:
360,133,16917,6,0,P|321:139|290:163,1,78.7500007510185,2|0,1:2|3:0,0:0:0:0:
279,338,17161,2,0,L|274:249,1,90,2|0,1:2|0:0,0:0:0:0:
265,88,17405,1,2,0:0:0:0:
360,133,17527,2,0,L|180:145,1,180,8|0,0:0|0:0,0:0:0:0:
180,144,18014,5,6,3:2:0:0:
128,212,18136,2,0,P|100:215|72:209,1,56.25,0|0,1:0|0:0,0:0:0:0:
30,74,18380,1,2,0:0:0:0:
25,153,18502,2,0,L|16:298,1,112.5,8|0,0:0|0:0,0:0:0:0:
252,259,18868,2,0,L|195:256,1,56.25,0|0,1:0|3:0,0:0:0:0:
98,287,19112,2,0,P|152:290|196:256,1,112.5,0|0,1:0|0:0,0:0:0:0:
161,148,19478,6,0,P|220:178|285:167,1,135.000005149842,10|2,0:0|0:0,0:0:0:0:
340,22,19844,1,2,1:2:0:0:
335,103,19966,2,0,L|326:237,1,135.000005149842,6|0,3:2|0:0,0:0:0:0:
179,257,20453,6,0,P|120:227|55:238,1,135.000005149842,10|2,0:0|0:0,0:0:0:0:
0,383,20819,1,2,1:2:0:0:
5,302,20941,2,0,L|13:167,1,135.000005149842,4|0,3:2|0:0,0:0:0:0:
141,41,21429,6,0,P|206:27|263:61,1,135.000005149842,10|2,0:0|0:0,0:0:0:0:
205,258,21795,1,2,1:2:0:0:
197,176,21917,2,0,P|197:142|191:109,1,67.5000025749208,0|2,3:0|1:2,0:0:0:0:
354,39,22161,2,0,P|348:72|348:105,1,67.5000025749208,0|0,0:0|0:0,0:0:0:0:
317,262,22405,2,0,L|204:257,1,112.5,8|0,0:0|0:0,0:0:0:0:
150,312,22771,2,0,P|166:259|142:211,1,112.5,0|0,1:0|0:0,0:0:0:0:
78,154,23136,1,0,0:0:0:0:
398,42,23380,2,0,L|389:154,1,112.5,10|0,0:0|0:0,0:0:0:0:
292,228,23868,6,0,B|361:206|356:255|422:230,1,135,6|0,3:2|0:0,0:0:0:0:
486,168,24356,1,10,0:0:0:0:
486,168,24478,2,0,L|478:112,1,56.25,2|0,0:0|0:0,0:0:0:0:
408,3,24722,2,0,P|402:36|395:69,1,67.5000025749208,2|0,1:2|3:0,0:0:0:0:
317,147,24966,2,0,P|356:152|395:155,1,78.7500007510185,2|0,1:2|0:0,0:0:0:0:
395,69,25210,1,2,0:0:0:0:
270,68,25332,2,0,P|226:142|264:220,1,180,8|0,0:0|0:0,0:0:0:0:
264,220,25819,5,6,3:2:0:0:
141,177,25941,2,0,L|136:233,1,56.25,0|0,1:0|0:0,0:0:0:0:
129,361,26185,1,2,0:0:0:0:
73,302,26307,2,0,P|122:278|176:292,1,112.5,8|0,0:0|0:0,0:0:0:0:
347,320,26673,2,0,L|353:264,1,56.25,0|0,1:0|3:0,0:0:0:0:
275,224,26917,2,0,L|263:335,1,112.5,0|0,1:0|0:0,0:0:0:0:
438,255,27283,6,0,L|431:199,1,56.25,10|0,0:0|0:0,0:0:0:0:
419,83,27527,1,2,0:0:0:0:
483,135,27649,1,2,1:2:0:0:
367,147,27771,2,0,L|233:140,1,135.000005149842,6|0,3:2|0:0,0:0:0:0:
50,212,28258,6,0,L|57:268,1,56.25,10|0,0:0|0:0,0:0:0:0:
69,384,28502,1,2,0:0:0:0:
5,332,28624,1,2,1:2:0:0:
121,320,28746,2,0,L|255:327,1,135.000005149842,6|0,3:2|0:0,0:0:0:0:
411,237,29234,6,0,B|382:179|382:179|397:109,1,135.000005149842,10|0,0:0|0:0,0:0:0:0:
471,168,29600,1,0,0:0:0:0:
329,261,29722,1,0,3:2:0:0:
318,74,29844,2,0,P|369:32|435:38,1,135.000005149842,0|0,1:0|0:0,0:0:0:0:
375,184,30210,2,0,L|307:179,1,67.5000025749208,10|0,0:0|0:0,0:0:0:0:
126,151,30453,1,2,0:0:0:0:
197,111,30575,1,2,1:2:0:0:
200,197,30697,1,0,3:0:0:0:
200,197,30941,6,0,P|205:235|208:275,1,78.7500007510185,2|0,0:0|0:0,0:0:0:0:
197,111,31185,2,0,P|227:86|260:64,1,78.7500007510185,10|0,0:0|0:0,0:0:0:0:
126,151,31429,2,0,P|89:136|53:119,1,78.7500007510185,2|0,0:0|0:0,0:0:0:0:
275,153,31673,5,6,3:2:0:0:
330,158,31795,1,2,0:0:0:0:
280,163,31917,5,2,0:0:0:0:
335,168,32039,2,0,P|329:224|328:280,1,112.5,2|0,0:0|0:0,0:0:0:0:
469,351,32405,5,2,0:0:0:0:
414,346,32527,1,2,0:0:0:0:
464,341,32649,5,2,3:2:0:0:
409,336,32771,2,0,P|414:279|415:223,1,112.5,2|0,1:2|0:0,0:0:0:0:
412,212,33136,2,0,P|439:216|467:218,1,56.25,8|0,0:0|0:0,0:0:0:0:
299,161,33380,2,0,P|326:157|354:151,1,56.25,2|0,0:0|0:0,0:0:0:0:
452,27,33624,5,6,3:2:0:0:
442,81,33746,1,2,1:2:0:0:
441,31,33868,5,2,0:0:0:0:
431,85,33990,2,0,P|375:74|320:68,1,112.5,2|0,0:0|0:0,0:0:0:0:
166,119,34356,5,2,0:0:0:0:
176,173,34478,1,2,1:2:0:0:
177,123,34600,5,2,3:2:0:0:
187,177,34722,2,0,P|242:166|297:160,1,112.5,2|0,1:2|0:0,0:0:0:0:
402,80,35088,2,0,P|449:126|383:126,1,168.75,14|0,0:0|0:0,0:0:0:0:
319,68,35575,5,6,3:2:0:0:
309,14,35697,1,2,0:0:0:0:
360,32,35819,1,2,0:0:0:0:
268,50,35941,2,0,L|157:69,1,112.5,2|0,0:0|0:0,0:0:0:0:
54,154,36307,5,2,0:0:0:0:
44,208,36429,1,2,1:2:0:0:
3,172,36551,1,2,3:2:0:0:
95,190,36673,2,0,L|206:209,1,112.5,2|0,1:2|0:0,0:0:0:0:
361,236,37039,6,0,P|360:207|365:180,1,56.25,8|0,0:0|0:0,0:0:0:0:
249,82,37283,2,0,P|253:109|253:137,1,56.25,0|0,0:0|0:0,0:0:0:0:
307,226,37527,5,6,3:2:0:0:
317,280,37649,1,2,1:2:0:0:
266,261,37771,1,2,0:0:0:0:
360,236,37893,2,0,P|399:227|438:223,1,78.7500007510185,2|8,0:0|0:0,0:0:0:0:
251,136,38136,2,0,P|228:112|208:85,1,67.5000025749208,2|0,0:0|0:0,0:0:0:0:
348,139,38380,2,0,P|355:111|365:85,1,56.25,2|0,1:2|3:0,0:0:0:0:
176,206,38624,2,0,P|154:211|132:215,1,45,2|0,0:0|3:0,0:0:0:0:
307,226,38868,2,0,P|318:238|329:250,1,33.7500012874604,2|8,0:0|0:0,0:0:0:0:
228,285,39112,2,0,P|222:306|219:328,1,45,2|0,0:0|0:0,0:0:0:0:
139,372,39478,5,6,3:2:0:0:
129,318,39600,1,2,0:0:0:0:
128,368,39722,5,2,0:0:0:0:
117,315,39844,2,0,P|142:254|123:190,1,135.000005149842,2|0,0:0|0:0,0:0:0:0:
0,109,40210,5,2,0:0:0:0:
54,119,40332,1,2,0:0:0:0:
4,120,40454,5,2,3:2:0:0:
56,130,40576,2,0,P|116:104|180:123,1,135.000005149842,2|0,1:2|0:0,0:0:0:0:
274,261,40941,2,0,P|307:254|340:253,1,67.5000025749208,10|0,0:0|0:0,0:0:0:0:
426,89,41185,2,0,P|392:95|359:96,1,67.5000025749208,2|0,0:0|0:0,0:0:0:0:
259,77,41429,5,6,3:2:0:0:
269,131,41551,1,2,1:2:0:0:
270,81,41673,5,2,0:0:0:0:
281,134,41795,2,0,B|256:195|256:195|274:261,1,135.000005149842,2|0,0:0|0:0,0:0:0:0:
181,384,42161,5,2,0:0:0:0:
171,330,42283,1,2,0:0:0:0:
170,380,42405,5,2,3:2:0:0:
159,327,42527,2,0,B|184:266|184:266|165:199,1,135.000005149842,2|2,1:2|0:0,0:0:0:0:
166,201,42893,2,0,B|177:251|177:251|259:302|308:226,1,202.500007724762,14|2,0:0|0:0,0:0:0:0:
343,147,43380,6,0,P|376:144|410:143,1,67.5000025749208,6|0,3:2|0:0,0:0:0:0:
495,140,43624,1,2,0:0:0:0:
253,35,43868,6,0,P|286:37|320:40,1,67.5000025749208,8|0,0:0|0:0,0:0:0:0:
404,49,44112,1,2,0:0:0:0:
212,279,44356,6,0,P|244:271|278:265,1,67.5000025749208,2|0,3:2|0:0,0:0:0:0:
361,250,44600,1,2,0:0:0:0:
123,157,44844,6,0,P|156:154|190:153,1,67.5000025749208,10|0,0:0|0:0,0:0:0:0:
275,150,45088,2,0,P|308:147|342:146,1,67.5000025749208,10|0,0:0|0:0,0:0:0:0:
427,143,45332,1,14,0:0:0:0:
464,142,45453,1,2,3:2:0:0:
501,141,45575,1,2,3:2:0:0:
342,146,45697,5,14,0:0:0:0:
342,146,46795,2,0,P|310:155|277:152,1,67.5000025749208,2|0,3:2|0:0,0:0:0:0:
276,151,47283,6,0,B|298:293|298:293|250:259,1,202.500007724762,6|0,3:2|0:0,0:0:0:0:
162,249,47771,6,0,P|94:168|198:181,1,270,14|0,0:0|0:0,0:0:0:0:
371,354,48258,2,0,P|380:321|386:288,1,67.5000025749208,6|0,3:2|0:0,0:0:0:0:
431,55,48502,2,0,P|437:88|446:120,1,67.5000025749208,0|0,0:0|0:0,0:0:0:0:
493,237,48746,1,10,0:0:0:0:
488,192,48868,1,2,0:0:0:0:
475,217,48990,2,0,P|431:209|386:204,1,90,2|0,0:0|0:0,0:0:0:0:
175,201,49234,6,0,P|259:216|317:152,1,180,6|0,3:2|0:0,0:0:0:0:
328,68,49600,1,0,0:0:0:0:
326,58,49722,1,8,0:0:0:0:
494,314,49966,6,0,P|410:329|352:265,1,180,6|0,0:0|3:0,0:0:0:0:
351,264,50453,2,0,B|285:249|285:249|223:279,1,135,6|0,3:2|2:0,0:0:0:0:
224,278,50941,2,0,P|230:234|224:189,1,90,6|0,0:0|0:0,0:0:0:0:
95,131,51185,6,0,B|151:141|151:141|196:100|196:100|257:109,1,180,0|2,0:0|0:0,0:0:0:0:
337,16,51551,1,2,0:0:0:0:
339,43,51673,2,0,P|341:81|344:119,1,76.5000014591217,10|0,0:0|0:0,0:0:0:0:
292,265,51917,2,0,B|277:228|277:228|287:193,1,76.5000014591217,2|0,0:0|0:0,0:0:0:0:
416,184,52161,2,0,B|432:216|432:216|424:255,1,76.5000014591217,2|0,3:2|0:0,0:0:0:0:
297,355,52405,6,0,B|367:320|367:320|437:344,1,153.000002918243,2|8,0:0|0:0,0:0:0:0:
438,344,52893,2,0,P|430:306|428:268,1,76.5000014591217,2|0,0:0|3:0,0:0:0:0:
299,231,53136,6,0,B|373:227|425:148|425:148|447:181|472:196,1,225,6|0,3:2|0:0,0:0:0:0:
332,369,53502,6,0,B|291:306|197:301|197:301|214:265|215:236,1,225,6|0,3:2|0:0,0:0:0:0:
310,172,53868,2,0,P|342:210|297:230,1,112.5,6|0,0:0|3:0,0:0:0:0:
124,148,54112,2,0,P|162:156|200:161,1,76.5000014591217,2|0,3:2|0:0,0:0:0:0:
373,216,54356,2,0,P|336:225|298:230,1,76.5000014591217,2|0,3:2|0:0,0:0:0:0:
242,384,54600,1,8,0:0:0:0:
355,77,54844,2,0,P|362:59|364:40,2,38.2500007295609,2|0|0,0:0|0:0|0:0,0:0:0:0:
229,161,55088,6,0,B|266:158|291:142|291:142|352:173|352:173|395:153|417:152,1,202.500007724762,6|0,3:2|0:0,0:0:0:0:
180,250,55575,6,0,B|245:251|289:233|289:233|355:264|355:264|400:239|434:232,1,270,14|0,0:0|0:0,0:0:0:0:
193,334,56063,6,0,P|226:332|260:327,1,67.5000025749208,6|0,3:2|0:0,0:0:0:0:
453,316,56307,2,0,P|421:326|392:343,1,67.5000025749208,0|0,0:0|0:0,0:0:0:0:
252,164,56551,1,10,0:0:0:0:
304,144,56673,1,2,0:0:0:0:
350,184,56795,2,0,P|345:228|337:272,1,90,2|0,0:0|0:0,0:0:0:0:
191,337,57039,6,0,B|177:209|177:209|214:243,1,180,6|0,3:2|0:0,0:0:0:0:
271,306,57405,1,0,0:0:0:0:
273,316,57527,1,8,0:0:0:0:
60,181,57771,6,0,B|159:120|159:120|221:134,1,180,6|0,0:0|3:0,0:0:0:0:
220,133,58258,6,0,P|236:198|210:259,1,135,6|0,3:2|0:0,0:0:0:0:
210,259,58746,2,0,P|252:243|296:236,1,90,6|0,0:0|0:0,0:0:0:0:
498,197,58990,6,0,P|415:220|354:159,1,180,0|2,0:0|0:0,0:0:0:0:
322,48,59356,1,2,0:0:0:0:
328,77,59478,2,0,P|365:67|403:62,1,76.5000014591217,10|0,0:0|0:0,0:0:0:0:
194,210,59722,2,0,P|157:200|119:195,1,76.5000014591217,2|0,0:0|0:0,0:0:0:0:
218,119,59966,2,0,P|227:82|232:44,1,76.5000014591217,2|0,3:2|0:0,0:0:0:0:
286,217,60210,2,0,P|303:291|302:367,1,153.000002918243,2|8,0:0|0:0,0:0:0:0:
490,83,60697,2,0,P|482:120|478:158,1,76.5000014591217,2|0,0:0|3:0,0:0:0:0:
391,247,60941,6,0,B|388:164|399:103|399:103|366:87|339:49,1,225,6|0,3:2|0:0,0:0:0:0:
106,92,61307,2,0,B|179:130|226:170|226:170|257:150|302:146,1,225,6|0,0:0|0:0,0:0:0:0:
254,16,61673,1,6,0:0:0:0:
247,43,61795,1,0,3:0:0:0:
243,66,61917,6,0,B|226:118|226:118|248:171,1,112.5,2|0,3:2|0:0,0:0:0:0:
497,264,62161,2,0,B|459:223|459:223|403:215,1,112.5,0|0,3:0|0:0,0:0:0:0:
286,326,62405,1,10,0:0:0:0:
286,326,62893,5,6,3:2:0:0:
372,36,78502,6,0,L|361:171,1,135,6|0,3:2|0:0,0:0:0:0:
360,216,78990,1,10,0:0:0:0:
360,216,79112,6,0,L|426:229,1,67.5000025749208,2|0,0:0|0:0,0:0:0:0:
200,290,79356,6,0,P|161:296|130:320,1,78.7500007510185,2|0,0:0|0:0,0:0:0:0:
290,354,79600,2,0,L|285:265,1,90,2|0,1:2|0:0,0:0:0:0:
299,145,79844,1,2,0:0:0:0:
360,216,79966,2,0,B|287:233|287:233|193:185,1,180,8|0,0:0|0:0,0:0:0:0:
193,185,80453,5,6,3:2:0:0:
168,273,80575,2,0,P|196:270|224:276,1,56.25,0|0,1:0|0:0,0:0:0:0:
304,305,80819,1,2,0:0:0:0:
309,226,80941,2,0,L|315:113,1,112.5,8|0,0:0|0:0,0:0:0:0:
321,32,81307,2,0,L|264:29,1,56.25,0|0,1:0|3:0,0:0:0:0:
167,60,81551,2,0,P|221:63|265:29,1,112.5,0|0,1:0|0:0,0:0:0:0:
447,34,81917,6,0,P|417:93|428:158,1,135.000005149842,10|2,0:0|0:0,0:0:0:0:
472,289,82283,1,2,1:2:0:0:
497,211,82405,2,0,L|363:202,1,135.000005149842,4|0,3:2|0:0,0:0:0:0:
212,318,82893,6,0,P|242:259|231:194,1,135.000005149842,10|0,0:0|0:0,0:0:0:0:
187,63,83259,1,2,1:2:0:0:
162,141,83381,2,0,L|296:150,1,135.000005149842,4|0,3:2|0:0,0:0:0:0:
426,287,83868,6,0,P|412:222|446:165,1,135.000005149842,10|2,0:0|0:0,0:0:0:0:
499,235,84234,1,2,1:2:0:0:
360,347,84356,2,0,P|326:347|293:353,1,67.5000025749208,0|2,3:0|1:2,0:0:0:0:
249,176,84600,2,0,P|282:182|315:182,1,67.5000025749208,0|0,0:0|0:0,0:0:0:0:
335,264,84844,2,0,L|222:266,1,112.5,8|0,0:0|0:0,0:0:0:0:
56,330,85210,2,0,P|108:346|158:322,1,112.5,0|0,1:0|0:0,0:0:0:0:
178,193,85575,1,0,0:0:0:0:
449,104,85819,2,0,L|337:95,1,112.5,10|0,0:0|0:0,0:0:0:0:
262,0,86307,6,0,B|284:69|235:64|260:130,1,135,6|0,3:2|0:0,0:0:0:0:
277,177,86795,1,10,0:0:0:0:
277,177,86917,2,0,L|221:185,1,56.25,2|0,0:0|0:0,0:0:0:0:
375,147,87161,2,0,P|369:180|362:213,1,67.5000025749208,2|0,1:2|3:0,0:0:0:0:
188,381,87405,2,0,P|193:342|196:303,1,78.7500007510185,2|0,1:2|0:0,0:0:0:0:
289,268,87649,1,2,0:0:0:0:
374,324,87771,2,0,L|196:302,1,180,10|0,0:0|0:0,0:0:0:0:
195,301,88258,5,6,3:2:0:0:
203,208,88380,2,0,L|208:152,1,56.25,2|0,1:2|0:0,0:0:0:0:
215,24,88624,1,2,0:0:0:0:
271,83,88746,2,0,P|222:107|168:93,1,112.5,10|0,0:0|0:0,0:0:0:0:
6,65,89112,2,0,L|0:121,1,56.25,0|0,1:0|0:0,0:0:0:0:
78,161,89356,2,0,L|90:50,1,112.5,0|0,1:0|0:0,0:0:0:0:
283,276,89722,6,0,L|276:220,1,56.25,10|0,0:0|0:0,0:0:0:0:
262,94,89966,1,2,0:0:0:0:
264,104,90088,1,2,1:2:0:0:
212,168,90210,2,0,L|78:161,1,135.000005149842,6|0,3:2|0:0,0:0:0:0:
205,112,90697,6,0,L|212:168,1,56.25,10|0,0:0|0:0,0:0:0:0:
226,294,90941,1,2,0:0:0:0:
224,284,91063,1,2,1:2:0:0:
276,220,91185,2,0,L|410:227,1,135.000005149842,6|0,3:2|0:0,0:0:0:0:
410,227,91673,6,0,B|397:74,1,135.000005149842,10|0,0:0|0:0,0:0:0:0:
397,65,92039,1,0,0:0:0:0:
397,65,92161,1,2,3:2:0:0:
437,0,92283,2,0,P|386:42|320:36,1,135.000005149842,0|0,1:0|0:0,0:0:0:0:
91,105,92649,2,0,L|158:116,1,67.5000025749208,10|0,0:0|0:0,0:0:0:0:
231,40,92893,5,2,0:0:0:0:
244,139,93014,1,2,1:2:0:0:
258,239,93136,1,0,3:0:0:0:
258,239,93380,2,0,P|218:237|179:241,1,78.7500007510185,2|0,0:0|0:0,0:0:0:0:
322,148,93624,2,0,P|283:142|243:138,1,78.7500007510185,10|0,0:0|0:0,0:0:0:0:
381,59,93868,2,0,P|343:46|305:35,1,78.7500007510185,2|0,0:0|0:0,0:0:0:0:
170,55,94112,5,6,3:2:0:0:
118,35,94234,1,2,0:0:0:0:
160,0,94356,1,2,0:0:0:0:
170,58,94478,2,0,P|161:113|158:169,1,112.5,2|0,0:0|0:0,0:0:0:0:
241,232,94844,5,2,0:0:0:0:
291,254,94966,1,2,1:2:0:0:
249,289,95088,1,2,3:2:0:0:
241,229,95210,2,0,P|249:173|252:117,1,112.5,2|0,0:0|0:0,0:0:0:0:
250,122,95575,2,0,P|277:126|305:128,1,56.25,8|0,0:0|0:0,0:0:0:0:
170,55,95819,2,0,P|197:51|225:45,1,56.25,2|0,0:0|0:0,0:0:0:0:
152,204,96063,5,6,3:2:0:0:
172,152,96185,1,0,1:0:0:0:
207,194,96307,1,2,0:0:0:0:
149,204,96429,2,0,P|93:195|37:192,1,112.5,2|0,0:0|0:0,0:0:0:0:
58,324,96795,5,2,0:0:0:0:
38,272,96917,1,2,1:2:0:0:
3,314,97039,1,2,3:2:0:0:
61,324,97161,2,0,P|116:315|172:312,1,112.5,2|2,0:0|3:2,0:0:0:0:
258,220,97527,2,0,P|212:172|212:238,1,168.75,14|0,0:0|0:0,0:0:0:0:
306,304,98014,5,6,3:2:0:0:
360,294,98136,1,2,0:0:0:0:
414,284,98258,1,2,0:0:0:0:
350,240,98380,2,0,L|331:129,1,112.5,2|0,0:0|0:0,0:0:0:0:
302,49,98746,5,2,0:0:0:0:
248,39,98868,1,2,1:2:0:0:
194,29,98990,1,2,3:2:0:0:
238,93,99112,2,0,L|219:204,1,112.5,2|0,1:2|0:0,0:0:0:0:
217,219,99478,6,0,P|246:218|273:223,1,56.25,10|0,0:0|0:0,0:0:0:0:
263,366,99722,2,0,P|234:366|207:362,1,56.25,2|0,0:0|0:0,0:0:0:0:
243,293,99966,5,6,3:2:0:0:
263,294,100088,1,2,1:2:0:0:
223,292,100210,1,2,0:0:0:0:
285,295,100332,6,0,L|363:299,1,78.7500007510185,2|8,0:0|0:0,0:0:0:0:
364,127,100575,2,0,L|431:119,1,67.5000025749208,2|0,0:0|0:0,0:0:0:0:
434,334,100819,2,0,P|441:307|439:279,1,56.25,2|0,1:2|0:0,0:0:0:0:
285,96,101063,2,0,P|280:117|281:140,1,45,2|0,1:2|0:0,0:0:0:0:
498,192,101307,2,0,L|464:194,1,33.7500012874604,2|8,0:0|0:0,0:0:0:0:
206,217,101551,2,0,L|250:213,1,45,2|0,0:0|0:0,0:0:0:0:
331,212,101917,5,6,3:2:0:0:
383,232,102039,1,2,0:0:0:0:
341,267,102161,1,2,0:0:0:0:
330,209,102283,2,0,P|396:200|464:193,1,135.000005149842,2|0,0:0|0:0,0:0:0:0:
510,99,102649,5,2,0:2:0:0:
458,79,102771,1,2,1:2:0:0:
500,44,102893,1,2,3:2:0:0:
511,102,103015,2,0,P|444:110|376:117,1,135.000005149842,0|0,1:2|0:0,0:0:0:0:
298,126,103380,2,0,P|299:92|294:58,1,67.5000025749208,10|0,0:0|0:0,0:0:0:0:
94,158,103624,2,0,P|92:191|97:225,1,67.5000025749208,2|0,0:0|0:0,0:0:0:0:
170,260,103868,5,6,3:2:0:0:
205,302,103990,1,2,1:2:0:0:
225,250,104112,1,2,0:0:0:0:
167,260,104234,2,0,P|100:268|32:275,1,135.000005149842,2|0,0:0|0:0,0:0:0:0:
286,174,104600,5,2,0:0:0:0:
308,223,104722,1,2,1:2:0:0:
341,178,104844,1,2,3:2:0:0:
283,173,104966,2,0,P|216:164|149:153,1,135.000005149842,2|0,1:2|0:0,0:0:0:0:
146,152,105332,2,0,P|216:216|188:308,1,202.500007724762,14|0,0:0|0:0,0:0:0:0:
187,308,105819,6,0,P|220:305|254:304,1,67.5000025749208,6|0,3:2|0:0,0:0:0:0:
339,301,106063,1,2,0:0:0:0:
492,38,106307,6,0,P|459:36|425:33,1,67.5000025749208,8|0,0:0|0:0,0:0:0:0:
340,23,106551,1,2,0:0:0:0:
251,205,106795,6,0,P|283:213|317:219,1,67.5000025749208,0|0,3:2|0:0,0:0:0:0:
400,234,107039,1,2,0:0:0:0:
491,117,107283,6,0,P|459:125|425:131,1,67.5000025749208,10|0,0:0|0:0,0:0:0:0:
277,91,107527,2,0,P|251:69|227:46,1,67.5000025749208,10|0,0:0|0:0,0:0:0:0:
363,72,107771,1,14,0:0:0:0:
372,35,107892,1,2,3:2:0:0:
381,0,108014,1,2,3:2:0:0:
340,153,108136,5,14,0:0:0:0:
340,153,109234,2,0,P|349:185|346:218,1,67.5000025749208,2|0,3:2|0:0,0:0:0:0:
345,218,109722,6,0,B|305:225|279:244|279:244|239:217|239:217|198:252|161:251,1,202.500007724762,6|0,3:2|0:0,0:0:0:0:
86,290,110210,2,0,P|83:182|164:253,1,270,14|0,0:0|0:0,0:0:0:0:
160,343,110697,2,0,P|192:334|225:330,1,67.5000025749208,6|0,3:2|0:0,0:0:0:0:
470,243,110941,2,0,P|437:233|404:229,1,67.5000025749208,0|0,0:0|0:0,0:0:0:0:
203,39,111185,1,10,0:0:0:0:
258,44,111307,1,2,0:0:0:0:
229,85,111429,2,0,P|237:129|242:174,1,90,2|0,0:0|0:0,0:0:0:0:
314,344,111673,6,0,B|313:284|319:219|319:219|300:247|281:258,1,180,6|0,3:2|0:0,0:0:0:0:
227,320,112039,1,0,0:0:0:0:
225,330,112161,1,8,0:0:0:0:
102,83,112405,6,0,B|103:143|97:208|97:208|116:180|135:169,1,180,6|0,0:0|3:0,0:0:0:0:
134,169,112893,2,0,P|67:156|0:151,1,135,6|0,3:2|2:0,0:0:0:0:
0,150,113380,2,0,L|89:136,1,90,6|0,0:0|0:0,0:0:0:0:
152,7,113624,6,0,B|142:63|142:63|183:108|183:108|174:169,1,180,0|2,0:0|0:0,0:0:0:0:
165,247,113990,1,2,0:0:0:0:
162,261,114112,2,0,P|200:254|238:252,1,76.5000014591217,10|0,0:0|0:0,0:0:0:0:
484,178,114356,2,0,P|446:171|408:169,1,76.5000014591217,2|0,0:0|0:0,0:0:0:0:
260,60,114600,2,0,L|264:136,1,76.5000014591217,2|0,3:2|0:0,0:0:0:0:
319,355,114844,2,0,L|326:202,1,153.000002918243,2|8,0:0|0:0,0:0:0:0:
324,202,115332,2,0,P|290:217|252:221,1,76.5000014591217,2|0,0:0|3:0,0:0:0:0:
114,77,115575,6,0,P|202:73|263:135,1,180,6|0,3:2|0:0,0:0:0:0:
205,327,115941,2,0,P|157:253|181:168,1,180,6|0,3:2|0:0,0:0:0:0:
299,39,116307,1,6,0:0:0:0:
299,39,116429,1,0,3:0:0:0:
299,39,116551,2,0,P|261:46|223:52,1,76.5000014591217,2|0,3:2|0:0,0:0:0:0:
16,146,116795,2,0,P|53:150|91:159,1,76.5000014591217,2|0,3:2|0:0,0:0:0:0:
250,259,117039,1,8,0:0:0:0:
150,90,117283,2,0,P|143:72|141:53,2,38.2500007295609,2|0|0,0:0|0:0|0:0,0:0:0:0:
91,159,117527,6,0,B|168:202|221:146|221:146|243:122|275:125,1,202.500007724762,6|0,3:2|0:0,0:0:0:0:
495,234,118014,2,0,B|415:248|361:151|361:151|326:209|280:207,1,270,14|0,0:0|0:0,0:0:0:0:
283,207,118502,2,0,P|316:205|349:197,1,67.5000025749208,6|0,3:2|0:0,0:0:0:0:
171,325,118746,2,0,P|138:316|104:315,1,67.5000025749208,0|0,0:0|0:0,0:0:0:0:
112,124,118990,1,10,0:0:0:0:
165,106,119112,1,2,0:0:0:0:
205,148,119234,2,0,P|195:192|193:236,1,90,2|0,0:0|0:0,0:0:0:0:
383,274,119478,6,0,P|434:206|397:129,1,180,6|0,3:2|0:0,0:0:0:0:
348,69,119844,1,0,0:0:0:0:
339,61,119966,1,8,0:0:0:0:
12,223,120210,6,0,B|191:235,1,180,6|0,0:0|3:0,0:0:0:0:
192,236,120697,2,0,P|128:221|75:260,1,135,6|0,3:2|0:0,0:0:0:0:
75,260,121185,2,0,P|78:215|79:170,1,90,6|0,0:0|0:0,0:0:0:0:
18,108,121429,6,0,B|73:78|73:78|185:123,1,180,0|2,0:0|0:0,0:0:0:0:
256,151,121795,1,2,0:0:0:0:
273,158,121917,2,0,P|279:120|278:82,1,76.5000014591217,10|0,0:0|0:0,0:0:0:0:
329,306,122161,2,0,P|327:344|334:381,1,76.5000014591217,2|0,0:0|0:0,0:0:0:0:
237,257,122405,2,0,L|160:249,1,76.5000014591217,2|0,3:2|0:0,0:0:0:0:
361,207,122649,2,0,L|512:184,1,153.000002918243,2|8,0:0|0:0,0:0:0:0:
512,183,123136,2,0,P|522:219|513:256,1,76.5000014591217,2|0,0:0|3:0,0:0:0:0:
299,288,123380,6,0,B|270:220|270:220|302:69,1,225,6|0,3:2|0:0,0:0:0:0:
374,131,123746,2,0,B|305:160|305:160|154:128,1,225,6|0,0:0|0:0,0:0:0:0:
175,21,124112,1,6,0:0:0:0:
172,40,124234,1,0,3:0:0:0:
168,61,124356,2,0,P|161:94|157:127,1,67.5000025749208,2|0,3:2|0:0,0:0:0:0:
111,264,124600,2,0,P|104:231|100:198,1,67.5000025749208,2|0,3:2|0:0,0:0:0:0:
3,126,124844,2,0,P|35:117|69:114,1,67.5000025749208,10|0,0:0|0:0,0:0:0:0:
254,105,125088,2,0,L|287:102,2,33.7500012874604,0|0|0,0:0|0:0|0:0,0:0:0:0:
168,61,125332,6,0,B|157:133|157:133|194:177|194:177|184:248,1,202.500007724762,6|0,3:2|0:0,0:0:0:0:
280,304,125819,2,0,B|327:306|353:268|353:268|285:200|184:247,1,270,14|0,0:0|0:0,0:0:0:0:
183,247,126307,2,0,P|190:214|195:181,1,67.5000025749208,6|0,3:2|0:0,0:0:0:0:
390,71,126551,2,0,P|394:104|401:137,1,67.5000025749208,2|0,0:0|0:0,0:0:0:0:
275,250,126795,1,10,0:0:0:0:
327,243,126917,1,2,0:0:0:0:
297,201,127039,2,0,P|294:156|293:111,1,90,2|0,0:0|0:0,0:0:0:0:
105,10,127283,6,0,B|105:55|68:93|68:93|110:116|151:99,1,180,6|0,3:2|0:0,0:0:0:0:
185,28,127649,1,0,0:0:0:0:
188,14,127771,1,8,0:0:0:0:
18,161,128014,6,0,P|103:190|190:174,1,180,6|0,0:0|3:0,0:0:0:0:
190,174,128502,2,0,L|171:307,1,135,6|0,3:2|2:0,0:0:0:0:
171,307,128990,2,0,L|260:300,1,90,6|0,0:0|0:0,0:0:0:0:
329,358,129234,6,0,B|384:250|289:275|341:159,1,180,0|2,0:0|0:0,0:0:0:0:
347,109,129600,1,2,0:0:0:0:
350,92,129722,2,0,L|426:86,1,76.5000014591217,10|0,0:0|0:0,0:0:0:0:
245,243,129966,2,0,L|169:232,1,76.5000014591217,2|0,0:0|0:0,0:0:0:0:
330,185,130210,2,0,P|339:222|342:260,1,76.5000014591217,2|0,3:2|0:0,0:0:0:0:
98,285,130453,2,0,P|80:213|128:156,1,153.000002918243,2|8,0:0|0:0,0:0:0:0:
128,156,130941,2,0,L|203:166,1,76.5000014591217,2|0,0:0|3:0,0:0:0:0:
369,289,131185,6,0,B|309:262|259:283|224:251|224:251|261:244|282:209,1,225,6|0,3:2|0:0,0:0:0:0:
398,89,131551,2,0,B|404:154|447:187|437:233|437:233|413:205|372:203,1,225,6|0,3:2|0:0,0:0:0:0:
264,104,131917,1,6,0:0:0:0:
311,73,132039,1,0,3:0:0:0:
313,131,132161,2,0,P|274:134|236:139,1,76.5000014591217,2|0,3:2|0:0,0:0:0:0:
16,201,132405,2,0,P|54:204|92:209,1,76.5000014591217,2|0,3:2|0:0,0:0:0:0:
222,322,132649,1,8,0:0:0:0:
147,142,132893,2,0,L|141:104,2,38.2500007295609,2|0|0,0:0|0:0|0:0,0:0:0:0:
133,299,133136,6,0,P|204:235|295:268,1,202.500007724762,6|0,3:2|0:0,0:0:0:0:
388,372,133624,2,0,B|405:182|405:182|444:252,1,270,14|0,0:0|0:0,0:0:0:0:
444,252,134112,2,0,P|410:252|376:257,1,67.5000025749208,6|0,3:2|0:0,0:0:0:0:
186,101,134356,2,0,P|219:100|253:95,1,67.5000025749208,2|0,0:0|0:0,0:0:0:0:
422,76,134600,1,10,0:0:0:0:
376,42,134722,1,2,0:0:0:0:
335,84,134844,2,0,L|344:178,1,90,2|0,0:0|0:0,0:0:0:0:
140,334,135088,6,0,B|123:226|123:226|159:248|204:243,1,180,6|0,3:2|0:0,0:0:0:0:
265,246,135453,1,0,0:0:0:0:
287,245,135575,1,8,0:0:0:0:
45,247,135819,2,0,P|70:166|154:155,1,180,6|0,0:0|3:0,0:0:0:0:
154,155,136307,2,0,P|193:240|120:300,1,202.500007724762,6|0,3:2|0:0,0:0:0:0:
120,300,136795,2,0,L|210:308,1,90,6|0,0:0|0:0,0:0:0:0:
291,384,137039,6,0,P|297:294|308:204,1,180,0|2,0:0|0:0,0:0:0:0:
319,125,137405,1,2,0:0:0:0:
319,125,137527,2,0,P|281:118|243:113,1,76.5000014591217,10|0,0:0|0:0,0:0:0:0:
96,184,137771,2,0,P|133:175|171:169,1,76.5000014591217,2|0,0:0|0:0,0:0:0:0:
277,30,138014,2,0,P|238:29|200:31,1,76.5000014591217,2|0,3:2|0:0,0:0:0:0:
153,259,138258,2,0,P|229:255|305:256,1,153.000002918243,2|8,0:0|0:0,0:0:0:0:
304,255,138990,6,0,P|236:251|171:234,1,135.000005149842,6|2,3:2|0:0,0:0:0:0:
130,68,139356,1,6,0:0:0:0:
215,131,139478,2,0,P|151:153|84:159,1,135.000005149842,0|6,0:0|0:0,0:0:0:0:
14,229,139844,1,0,3:0:0:0:
21,247,139966,2,0,P|31:279|38:311,1,67.5000025749208,2|0,3:2|0:0,0:0:0:0:
304,181,140210,2,0,P|311:148|321:116,1,67.5000025749208,0|0,3:0|0:0,0:0:0:0:
130,68,140453,1,10,0:0:0:0:
208,384,140697,1,0,0:0:0:0:
169,226,140941,5,6,3:2:0:0:
119,97,156551,6,0,P|207:80|296:66,1,180,6|0,3:2|3:2,0:0:0:0:
477,188,157283,2,0,P|458:174|443:158,1,45,2|0,0:0|0:0,0:0:0:0:
341,140,157527,2,0,P|359:126|374:110,1,45,2|0,3:2|0:0,0:0:0:0:
460,25,157771,2,0,L|452:69,1,45,2|0,0:0|0:0,0:0:0:0:
361,217,158014,6,0,P|296:211|262:156,1,135,0|0,3:0|1:0,0:0:0:0:
261,125,158502,6,0,L|84:162,1,180,4|0,3:2|3:0,0:0:0:0:
209,327,159234,2,0,L|253:317,1,45,2|0,0:0|0:0,0:0:0:0:
311,256,159478,2,0,B|297:303|297:303|325:384,2,135,2|2|2,3:2|0:0|0:0,0:0:0:0:
452,119,160453,6,0,P|478:189|403:179,1,180,4|0,3:2|3:0,0:0:0:0:
218,38,161185,2,0,L|262:44,1,45,2|0,0:0|0:0,0:0:0:0:
366,104,161429,2,0,L|321:112,1,45,2|0,3:2|0:0,0:0:0:0:
147,167,161673,1,2,0:0:0:0:
228,218,161917,2,0,B|245:173|245:173|235:132,1,90,0|2,3:0|0:0,0:0:0:0:
221,51,162283,1,0,0:0:0:0:
218,37,162405,6,0,P|262:30|305:40,1,90,2|0,3:2|0:0,0:0:0:0:
337,25,162771,2,0,P|329:69|339:112,1,90,2|0,0:0|0:0,0:0:0:0:
360,137,163136,1,2,0:0:0:0:
482,242,163380,2,0,L|437:238,1,45,2|0,3:2|0:0,0:0:0:0:
282,257,163624,2,0,P|285:234|289:212,1,45,2|0,0:0|0:0,0:0:0:0:
360,277,163868,2,0,P|364:299|368:322,1,45,2|0,3:2|0:0,0:0:0:0:
404,133,164112,2,0,L|359:136,1,45,2|0,0:0|0:0,0:0:0:0:
199,216,164356,6,0,P|135:228|86:185,1,135,4|0,3:2|0:0,0:0:0:0:
77,159,164844,1,0,3:0:0:0:
201,312,165088,1,2,0:0:0:0:
270,73,165332,2,0,L|225:80,1,45,2|0,3:2|0:0,0:0:0:0:
160,151,165575,2,0,L|204:158,1,45,2|0,0:0|0:0,0:0:0:0:
345,259,165819,2,0,P|331:193|337:125,1,135,0|0,3:0|0:0,0:0:0:0:
345,97,166307,6,0,B|408:72|408:72|474:84,2,135,2|2|2,3:2|0:0|0:0,0:0:0:0:
149,186,167283,2,0,P|129:146|140:103,1,90,0|2,3:0|0:0,0:0:0:0:
215,46,167649,1,0,0:0:0:0:
237,56,167771,2,0,L|231:100,1,45,0|0,3:0|0:0,0:0:0:0:
293,167,168014,2,0,L|298:211,1,45,2|0,0:0|0:0,0:0:0:0:
373,276,168258,6,0,B|439:266|439:266|501:293,2,135,6|0|2,3:2|0:0|0:0,0:0:0:0:
298,211,169234,2,0,B|273:273|273:273|218:313,2,135,2|2|2,3:2|0:0|0:0,0:0:0:0:
391,177,170210,2,0,P|396:89|349:15,1,180,2|0,3:2|3:0,0:0:0:0:
162,15,171185,2,0,P|115:89|120:177,1,180,0|0,3:0|3:0,0:0:0:0:
256,316,172161,5,0,3:0:0:0:
256,316,172649,1,0,3:0:0:0:
256,316,173136,1,2,3:2:0:0:
256,316,173624,2,0,P|245:272|251:227,1,90,10|0,0:0|0:0,0:0:0:0:
251,227,174112,6,0,B|109:249|109:249|143:201,1,202.500007724762,6|0,3:2|0:0,0:0:0:0:
349,85,174600,6,0,P|417:166|313:153,1,270,14|0,0:0|0:0,0:0:0:0:
257,87,175087,2,0,P|266:54|272:21,1,67.5000025749208,6|0,3:2|0:0,0:0:0:0:
59,0,175331,2,0,P|65:33|74:65,1,67.5000025749208,0|0,0:0|0:0,0:0:0:0:
154,215,175575,1,10,0:0:0:0:
157,181,175697,1,2,0:0:0:0:
160,147,175819,2,0,L|169:57,1,90,2|0,0:0|0:0,0:0:0:0:
428,75,176063,6,0,P|393:152|307:154,1,180,6|0,3:2|0:0,0:0:0:0:
349,85,176429,1,0,0:0:0:0:
349,85,176551,1,8,0:0:0:0:
111,175,176795,6,0,P|168:239|253:224,1,180,6|0,0:0|3:0,0:0:0:0:
253,224,177282,2,0,B|268:158|268:158|238:96,1,135,6|0,3:2|2:0,0:0:0:0:
239,97,177770,2,0,P|283:103|328:97,1,90,6|0,0:0|0:0,0:0:0:0:
391,40,178014,6,0,B|365:105|365:105|392:211,1,180,0|2,0:0|0:0,0:0:0:0:
479,286,178380,1,2,0:0:0:0:
481,260,178502,2,0,L|486:183,1,76.5000014591217,10|0,0:0|0:0,0:0:0:0:
297,221,178746,2,0,L|302:298,1,76.5000014591217,2|0,0:0|0:0,0:0:0:0:
392,212,178990,2,0,L|397:135,1,76.5000014591217,2|0,3:2|0:0,0:0:0:0:
192,108,179234,2,0,L|201:260,1,153.000002918243,2|8,0:0|0:0,0:0:0:0:
201,260,179722,6,0,B|237:245|237:245|274:247,1,76.5000014591217,2|0,0:0|3:0,0:0:0:0:
435,177,179966,2,0,B|458:34|458:34|410:98,1,225,6|0,3:2|0:0,0:0:0:0:
380,243,180332,2,0,B|492:334|492:334|460:260,1,225,6|0,3:2|0:0,0:0:0:0:
350,162,180697,2,0,L|244:202,1,112.5,6|0,0:0|3:0,0:0:0:0:
64,285,180941,2,0,P|59:322|75:356,1,76.5000014591217,2|0,3:2|0:0,0:0:0:0:
204,341,181185,2,0,P|211:303|197:268,1,76.5000014591217,2|0,3:2|0:0,0:0:0:0:
116,154,181429,2,0,L|124:230,1,76.5000014591217,8|0,0:0|0:0,0:0:0:0:
135,308,181673,1,2,0:0:0:0:
61,80,181917,6,0,B|116:61|116:61|190:87|190:87|251:64,1,202.500007724762,6|0,3:2|0:0,0:0:0:0:
409,153,182405,2,0,P|315:174|259:96,1,202.500007724762,14|0,0:0|0:0,0:0:0:0:
251,64,182892,6,0,P|284:62|318:57,1,67.5000025749208,6|0,3:2|0:0,0:0:0:0:
512,51,183136,2,0,P|480:61|451:78,1,67.5000025749208,0|0,0:0|0:0,0:0:0:0:
324,261,183380,1,10,0:0:0:0:
376,281,183502,1,2,0:0:0:0:
422,241,183624,2,0,P|417:197|409:153,1,90,2|0,0:0|0:0,0:0:0:0:
236,35,183868,6,0,B|222:163|222:163|259:129,1,180,6|0,3:2|0:0,0:0:0:0:
316,66,184234,1,0,0:0:0:0:
318,56,184356,1,8,0:0:0:0:
85,268,184600,2,0,B|162:223|162:223|202:256|247:243,1,180,6|0,0:0|3:0,0:0:0:0:
246,243,185087,6,0,P|230:178|256:117,1,135,6|0,3:2|0:0,0:0:0:0:
255,117,185575,2,0,P|297:133|341:140,1,90,6|0,0:0|0:0,0:0:0:0:
480,144,185819,6,0,P|503:61|442:0,1,180,0|2,0:0|0:0,0:0:0:0:
341,140,186185,1,2,0:0:0:0:
348,166,186307,2,0,P|358:203|363:241,1,76.5000014591217,10|0,0:0|0:0,0:0:0:0:
220,74,186551,2,0,P|230:37|235:-1,1,76.5000014591217,2|0,0:0|0:0,0:0:0:0:
312,46,186795,2,0,P|349:55|387:60,1,76.5000014591217,2|0,3:2|0:0,0:0:0:0:
255,160,187039,2,0,P|181:177|105:176,1,153.000002918243,2|8,0:0|0:0,0:0:0:0:
104,175,187527,2,0,L|177:196,1,76.5000014591217,2|0,0:0|3:0,0:0:0:0:
243,282,187771,6,0,B|272:214|272:214|240:63,1,225,6|0,3:2|0:0,0:0:0:0:
171,13,188137,2,0,B|240:42|240:42|391:10,1,225,6|0,0:0|0:0,0:0:0:0:
507,131,188503,1,6,0:0:0:0:
510,150,188625,1,0,3:0:0:0:
512,165,188747,2,0,P|479:172|446:176,1,67.5000025749208,2|0,3:2|0:0,0:0:0:0:
309,222,188991,2,0,P|342:229|375:233,1,67.5000025749208,2|0,3:2|0:0,0:0:0:0:
447,330,189235,2,0,P|456:298|459:264,1,67.5000025749208,10|0,0:0|0:0,0:0:0:0:
389,44,189479,2,0,L|386:11,2,33.7500012874604,0|0|0,0:0|0:0|0:0,0:0:0:0:
437,127,189723,6,0,B|365:138|365:138|321:101|321:101|250:111,1,202.500007724762,6|0,3:2|0:0,0:0:0:0:
167,191,190210,2,0,B|167:107|129:4|129:4|165:41|193:46,1,270,14|0,0:0|0:0,0:0:0:0:
193,46,190697,2,0,P|160:56|127:63,1,67.5000025749208,6|0,3:2|0:0,0:0:0:0:
32,233,190941,2,0,P|64:242|97:249,1,67.5000025749208,2|0,0:0|0:0,0:0:0:0:
219,184,191185,1,10,0:0:0:0:
167,191,191307,1,2,0:0:0:0:
197,233,191429,2,0,P|200:278|201:323,1,90,2|0,0:0|0:0,0:0:0:0:
392,365,191673,6,0,P|386:276|397:187,1,180,6|0,3:2|0:0,0:0:0:0:
414,104,192039,1,0,0:0:0:0:
420,82,192161,1,8,0:0:0:0:
120,18,192405,6,0,P|125:107|114:196,1,180,6|0,0:0|3:0,0:0:0:0:
114,196,192893,2,0,P|178:181|231:220,1,135,6|0,3:2|2:0,0:0:0:0:
231,220,193381,2,0,P|228:175|227:130,1,90,6|0,0:0|0:0,0:0:0:0:
169,67,193624,6,0,B|221:35|221:35|274:72|334:56,1,180,0|2,0:0|0:0,0:0:0:0:
487,85,193990,1,2,0:0:0:0:
487,105,194112,2,0,P|449:99|411:95,1,76.5000014591217,10|0,0:0|0:0,0:0:0:0:
294,149,194356,2,0,P|307:184|323:219,1,76.5000014591217,2|0,0:0|0:0,0:0:0:0:
429,294,194600,2,0,P|452:264|475:233,1,76.5000014591217,2|0,3:2|0:0,0:0:0:0:
408,28,194844,2,0,P|403:104|404:180,1,153.000002918243,2|8,0:0|0:0,0:0:0:0:
404,180,195332,2,0,P|365:181|327:182,1,76.5000014591217,2|0,0:0|3:0,0:0:0:0:
168,243,195575,6,0,B|86:212|43:165|43:165|89:162|119:174,1,225,6|0,3:2|0:0,0:0:0:0:
256,232,195941,2,0,B|270:317|250:378|250:378|225:340|221:308,1,225,6|0,3:2|0:0,0:0:0:0:
202,162,196307,6,0,P|255:143|307:160,1,112.5,6|0,0:0|3:0,0:0:0:0:
456,319,196551,2,0,P|447:281|443:243,1,76.5000014591217,2|0,3:2|0:0,0:0:0:0:
401,32,196795,2,0,P|396:70|388:107,1,76.5000014591217,2|0,3:2|0:0,0:0:0:0:
256,232,197039,1,8,0:0:0:0:
461,161,197283,2,0,L|499:155,2,38.2500007295609,2|0|0,0:0|0:0|0:0,0:0:0:0:
392,240,197527,6,0,P|321:176|230:209,1,202.500007724762,6|0,3:2|0:0,0:0:0:0:
142,338,198015,2,0,B|125:148|125:148|86:218,1,270,14|0,0:0|0:0,0:0:0:0:
86,217,198503,2,0,P|120:217|154:222,1,67.5000025749208,6|0,3:2|0:0,0:0:0:0:
332,71,198747,2,0,P|299:70|265:65,1,67.5000025749208,2|0,0:0|0:0,0:0:0:0:
96,46,198991,1,10,0:0:0:0:
142,12,199113,1,2,0:0:0:0:
183,54,199235,2,0,L|174:148,1,90,2|0,0:0|0:0,0:0:0:0:
377,303,199479,6,0,P|354:217|355:127,1,180,6|0,3:2|0:0,0:0:0:0:
369,51,199844,1,0,0:0:0:0:
377,29,199966,1,8,0:0:0:0:
55,180,200210,2,0,P|80:99|164:88,1,180,6|0,0:0|3:0,0:0:0:0:
164,88,200698,2,0,P|180:214|303:245,1,270,6|0,3:2|0:0,0:0:0:0:
303,245,201186,2,0,P|259:254|217:271,1,90,6|0,0:0|0:0,0:0:0:0:
134,375,201430,6,0,P|128:285|117:195,1,180,0|2,0:0|0:0,0:0:0:0:
96,112,201796,1,2,0:0:0:0:
96,112,201918,2,0,P|134:105|172:100,1,76.5000014591217,10|0,0:0|0:0,0:0:0:0:
335,161,202162,2,0,P|344:124|350:86,1,76.5000014591217,2|0,0:0|0:0,0:0:0:0:
257,0,202405,2,0,P|255:38|256:76,1,76.5000014591217,2|0,3:2|0:0,0:0:0:0:
257,250,202649,2,0,P|333:248|409:252,1,153.000002918243,2|8,0:0|0:0,0:0:0:0:
409,252,203381,6,0,P|413:184|430:119,1,135.000005149842,6|2,3:2|0:0,0:0:0:0:
512,70,203747,1,6,0:0:0:0:
490,192,203869,2,0,P|422:185|359:163,1,135.000005149842,0|6,0:0|0:0,0:0:0:0:
224,155,204235,1,0,3:0:0:0:
215,185,204357,2,0,P|203:229|200:266,1,67.5000025749208,2|0,3:2|0:0,0:0:0:0:
407,328,204601,2,0,P|400:295|390:263,1,67.5000025749208,0|0,3:0|0:0,0:0:0:0:
298,243,204844,2,0,P|290:310|285:377,1,135.000005149842,10|0,0:0|0:0,0:0:0:0:
309,156,205332,5,6,3:2:0:0:
