osu file format v14

[General]
AudioFilename: audio.mp3
AudioLeadIn: 0
PreviewTime: 45941
Countdown: 1
SampleSet: Soft
StackLeniency: 0.7
Mode: 0
LetterboxInBreaks: 0
WidescreenStoryboard: 1

[Editor]
DistanceSpacing: 0.5
BeatDivisor: 4
GridSize: 8
TimelineZoom: 1.4

[Metadata]
Title:Last Surprise
TitleUnicode:Last Surprise
Artist:Shoji Meguro & Lyn
ArtistUnicode:Shoji Meguro & Lyn
Creator:Nathan
Version:Joker
Source:Persona 5
Tags:jrpg shin megami tensei atlus lavender
BeatmapID:1913466
BeatmapSetID:916214

[Difficulty]
HPDrainRate:4
CircleSize:4.5
OverallDifficulty:8.5
ApproachRate:9.2
SliderMultiplier:1.9
SliderTickRate:1

[Events]
//Background and Video events
0,0,"vzy1hm4645ry.jpg",0,0
//Break Periods
2,63093,77932
2,141141,155981
//Storyboard Layer 0 (Background)
//Storyboard Layer 1 (Fail)
//Storyboard Layer 2 (Pass)
//Storyboard Layer 3 (Foreground)
//Storyboard Sound Samples

[TimingPoints]
454,487.80487804878,4,2,1,60,1,0
454,-50,4,2,1,60,0,0
1185,-66.6666666666667,4,2,1,60,0,0
2405,-50,4,2,1,60,0,0
3136,-66.6666666666667,4,2,1,60,0,0
4356,-50,4,2,1,60,0,0
5088,-66.6666666666667,4,2,1,60,0,0
7161,-50,4,2,1,60,0,0
7405,-57.1428571428571,4,2,1,60,0,0
7649,-66.6666666666667,4,2,1,60,0,0
7893,-80,4,2,1,60,0,0
8258,-50,4,2,1,60,0,0
9356,-66.6666666666667,4,2,1,60,0,0
10210,-50,4,2,1,60,0,0
10941,-66.6666666666667,4,2,1,60,0,0
12161,-50,4,2,1,60,0,0
13258,-66.6666666666667,4,2,1,60,0,0
15210,-100,4,2,1,60,0,0
15453,-133.333333333333,4,2,1,60,0,0
15697,-200,4,2,1,60,0,0
16063,-100,4,2,1,60,0,0
16551,-66.6666666666667,4,2,1,60,0,0
16917,-57.1428571428571,4,2,1,60,0,0
17161,-50,4,2,1,60,0,0
18014,-80,4,2,1,60,0,0
19478,-66.6666666666667,4,2,1,60,0,0
22405,-80,4,2,1,60,0,0
23868,-100,4,2,1,60,0,0
24478,-80,4,2,1,60,0,0
24722,-66.6666666666667,4,2,1,60,0,0
24966,-57.1428571428571,4,2,1,60,0,0
25332,-50,4,2,1,60,0,0
25819,-80,4,2,1,60,0,0
27283,-66.6666666666667,4,2,1,60,0,0
30941,-57.1428571428571,4,2,1,60,0,0
31673,-80,4,2,1,60,0,0
37893,-57.1428571428571,4,2,1,60,0,0
38136,-66.6666666666667,4,2,1,60,0,0
38380,-80,4,2,1,60,0,0
38624,-100,4,2,1,60,0,0
38868,-133.333333333333,4,2,1,60,0,0
39112,-200,4,2,1,60,0,0
39478,-66.6666666666667,4,2,1,60,0,0
46795,-133.333333333333,4,2,1,60,0,0
47283,-66.6666666666667,4,2,1,60,0,1
47771,-50,4,2,1,60,0,1
48258,-40,4,2,1,60,0,1
48746,-50,4,2,1,60,0,1
49234,-50,4,2,1,60,0,1
50453,-100,4,2,1,60,0,1
50941,-50,4,2,1,60,0,1
51429,-58.8235294117647,4,2,1,60,0,1
53136,-40,4,2,1,60,0,1
54112,-58.8235294117647,4,2,1,60,0,1
55088,-66.6666666666667,4,2,1,60,0,1
55575,-50,4,2,1,60,0,1
56063,-40,4,2,1,60,0,1
56551,-50,4,2,1,60,0,1
58258,-100,4,2,1,60,0,1
58746,-50,4,2,1,60,0,1
59478,-58.8235294117647,4,2,1,60,0,1
60941,-40,4,2,1,60,0,1
62893,-66.6666666666667,4,2,1,60,0,0
78502,-100,4,2,1,60,0,0
78990,-80,4,2,1,60,0,0
79356,-66.6666666666667,4,2,1,60,0,0
79600,-57.1428571428571,4,2,1,60,0,0
79844,-50,4,2,1,60,0,0
80453,-80,4,2,1,60,0,0
81917,-66.6666666666667,4,2,1,60,0,0
84844,-80,4,2,1,60,0,0
86307,-100,4,2,1,60,0,0
86917,-80,4,2,1,60,0,0
87161,-66.6666666666667,4,2,1,60,0,0
87405,-57.1428571428571,4,2,1,60,0,0
87649,-50,4,2,1,60,0,0
88258,-80,4,2,1,60,0,0
89722,-66.6666666666667,4,2,1,60,0,0
93380,-57.1428571428571,4,2,1,60,0,0
94112,-80,4,2,1,60,0,0
100332,-57.1428571428571,4,2,1,60,0,0
100575,-66.6666666666667,4,2,1,60,0,0
100819,-80,4,2,1,60,0,0
101063,-100,4,2,1,60,0,0
101307,-133.333333333333,4,2,1,60,0,0
101551,-200,4,2,1,60,0,0
101917,-66.6666666666667,4,2,1,60,0,0
108258,-133.333333333333,4,2,1,60,0,0
109722,-66.6666666666667,4,2,1,60,0,1
110210,-50,4,2,1,60,0,1
110697,-40,4,2,1,60,0,1
111185,-50,4,2,1,60,0,1
111673,-50,4,2,1,60,0,1
112892,-100,4,2,1,60,0,1
113380,-50,4,2,1,60,0,1
113868,-58.8235294117647,4,2,1,60,0,1
115575,-40,4,2,1,60,0,1
116551,-58.8235294117647,4,2,1,60,0,1
117527,-66.6666666666667,4,2,1,60,0,1
118014,-50,4,2,1,60,0,1
118502,-40,4,2,1,60,0,1
118990,-50,4,2,1,60,0,1
120697,-100,4,2,1,60,0,1
121185,-50,4,2,1,60,0,1
121917,-58.8235294117647,4,2,1,60,0,1
123380,-40,4,2,1,60,0,1
125088,-66.6666666666667,4,2,1,60,0,1
125332,-66.6666666666667,4,2,1,60,0,1
125819,-50,4,2,1,60,0,1
126307,-40,4,2,1,60,0,1
126795,-50,4,2,1,60,0,1
127283,-50,4,2,1,60,0,1
128502,-100,4,2,1,60,0,1
128990,-50,4,2,1,60,0,1
129478,-58.8235294117647,4,2,1,60,0,1
131185,-40,4,2,1,60,0,1
132161,-58.8235294117647,4,2,1,60,0,1
133136,-66.6666666666667,4,2,1,60,0,1
133624,-50,4,2,1,60,0,1
134112,-40,4,2,1,60,0,1
134600,-50,4,2,1,60,0,1
136307,-100,4,2,1,60,0,1
136795,-50,4,2,1,60,0,1
137527,-58.8235294117647,4,2,1,60,0,1
138990,-40,4,2,1,60,0,1
140941,-100,4,2,1,60,0,0
174112,-66.6666666666667,4,2,1,60,0,1
174600,-50,4,2,1,60,0,1
175087,-40,4,2,1,60,0,1
175575,-50,4,2,1,60,0,1
176063,-50,4,2,1,60,0,1
177282,-100,4,2,1,60,0,1
177770,-50,4,2,1,60,0,1
178258,-58.8235294117647,4,2,1,60,0,1
179965,-40,4,2,1,60,0,1
180941,-58.8235294117647,4,2,1,60,0,1
181917,-66.6666666666667,4,2,1,60,0,1
182404,-50,4,2,1,60,0,1
182892,-40,4,2,1,60,0,1
183380,-50,4,2,1,60,0,1
185087,-100,4,2,1,60,0,1
185575,-50,4,2,1,60,0,1
186307,-58.8235294117647,4,2,1,60,0,1
187770,-40,4,2,1,60,0,1
189722,-66.6666666666667,4,2,1,60,0,1
190210,-50,4,2,1,60,0,1
190697,-40,4,2,1,60,0,1
191185,-50,4,2,1,60,0,1
191673,-50,4,2,1,60,0,1
192892,-100,4,2,1,60,0,1
193380,-50,4,2,1,60,0,1
193868,-58.8235294117647,4,2,1,60,0,1
195575,-40,4,2,1,60,0,1
196551,-58.8235294117647,4,2,1,60,0,1
197527,-66.6666666666667,4,2,1,60,0,1
198014,-50,4,2,1,60,0,1
198502,-40,4,2,1,60,0,1
198990,-50,4,2,1,60,0,1
200697,-100,4,2,1,60,0,1
201185,-50,4,2,1,60,0,1
201917,-58.8235294117647,4,2,1,60,0,1
203380,-40,4,2,1,60,0,1
205332,-100,4,2,1,60,0,0

[Colours]
Combo1 : 183,177,172
Combo2 : 251,13,0

[HitObjects]
328,106,454,6,0,P|279:125|254:199,1,95,6|2,3:2|0:0,0:0:0:0:
347,232,697,1,2,0:0:0:0:
415,142,819,2,0,P|411:63|304:8,1,190,2|0,0:0|0:0,0:0:0:0:
173,199,1185,6,0,P|124:180|102:138,1,71.2500027179719,6|2,3:2|0:0,0:0:0:0:
184,93,1428,1,2,0:0:0:0:
255,160,1551,2,0,P|251:238|203:288,1,142.500005435944,2|0,0:0|3:0,0:0:0:0:
93,82,1917,6,0,P|113:13|137:-9,1,71.2500027179719,6|0,0:0|0:0,0:0:0:0:
341,211,2161,2,0,P|321:280|297:302,1,71.2500027179719,2|0,0:0|0:0,0:0:0:0:
35,270,2405,6,0,B|14:230|14:230|30:155,1,95,6|2,3:2|0:0,0:0:0:0:
183,169,2649,1,2,0:0:0:0:
97,219,2771,2,0,L|298:193,1,190,2|0,0:0|0:0,0:0:0:0:
454,238,3136,6,0,B|422:222|422:222|386:226,1,71.2500027179719,6|2,3:2|0:0,0:0:0:0:
402,307,3380,1,2,0:0:0:0:
362,136,3502,1,2,0:0:0:0:
362,136,3746,1,2,3:2:0:0:
205,217,3868,6,0,B|186:166|226:97|226:97|204:131|148:137,1,213.750008153916,6|0,3:2|0:0,0:0:0:0:
150,136,4356,6,0,P|82:108|65:51,1,95,6|2,3:2|0:0,0:0:0:0:
149,55,4600,1,2,0:0:0:0:
33,181,4722,2,0,P|-12:101|14:13,1,190,2|0,0:0|0:0,0:0:0:0:
307,193,5088,6,0,P|326:164|330:129,1,71.2500027179719,6|0,3:2|0:0,0:0:0:0:
248,133,5332,1,2,0:0:0:0:
377,246,5454,2,0,P|254:289|203:265,1,142.500005435944,2|0,0:0|3:0,0:0:0:0:
434,120,5819,6,0,P|502:148|517:194,1,71.2500027179719,6|0,3:2|0:0,0:0:0:0:
248,133,6063,2,0,P|276:65|322:50,1,71.2500027179719,2|0,0:0|0:0,0:0:0:0:
464,265,6307,5,6,3:2:0:0:
307,194,6429,1,2,0:0:0:0:
434,120,6551,1,2,0:0:0:0:
377,246,6673,2,0,L|363:315,1,71.2500027179719,2|0,0:0|3:0,0:0:0:0:
164,189,6917,2,0,L|180:83,1,106.875004076958,6|0,3:2|0:0,0:0:0:0:
271,68,7161,6,0,L|379:53,1,95,6|0,3:2|0:0,0:0:0:0:
107,247,7405,2,0,L|24:257,1,83.1250007927418,2|0,3:2|3:0,0:0:0:0:
314,306,7649,2,0,L|384:296,1,71.2500027179719,2|0,0:0|3:0,0:0:0:0:
221,198,7893,6,0,L|74:218,1,118.75,2|0,0:0|3:0,0:0:0:0:
314,306,8258,5,6,3:2:0:0:
350,127,8380,1,2,0:0:0:0:
453,237,8502,1,2,0:0:0:0:
304,214,8624,2,0,L|339:27,1,190,2|0,0:0|0:0,0:0:0:0:
18,123,8990,5,6,3:2:0:0:
165,149,9112,1,2,0:0:0:0:
79,218,9234,1,2,0:0:0:0:
98,99,9356,2,0,L|238:120,1,142.500005435944,2|0,0:0|3:0,0:0:0:0:
72,324,9722,6,0,L|-40:304,1,71.2500027179719,6|0,3:2|0:0,0:0:0:0:
266,293,9966,2,0,L|246:405,1,71.2500027179719,2|0,0:0|0:0,0:0:0:0:
194,29,10210,5,6,3:2:0:0:
238,177,10332,1,2,0:0:0:0:
98,142,10453,1,2,0:0:0:0:
264,88,10575,2,0,P|372:101|455:198,1,190,2|0,0:0|0:0,0:0:0:0:
144,284,10941,5,6,3:2:0:0:
238,177,11063,1,2,0:0:0:0:
279,315,11184,1,2,0:0:0:0:
159,210,11307,1,2,0:0:0:0:
159,210,11551,1,2,3:2:0:0:
279,315,11673,6,0,B|184:265|170:386|28:306,1,213.750008153916,6|0,3:2|0:0,0:0:0:0:
322,88,12161,5,6,3:2:0:0:
299,200,12283,1,2,0:0:0:0:
229,128,12405,1,2,0:0:0:0:
390,164,12527,2,0,B|404:235|404:235|382:281|382:281|400:373,1,190,2|0,0:0|0:0,0:0:0:0:
73,326,12893,5,6,3:2:0:0:
93,222,13015,1,2,0:0:0:0:
152,283,13137,1,2,0:0:0:0:
21,264,13258,2,0,B|10:218|10:218|32:172|32:172|14:80,1,142.500005435944,2|0,0:0|3:0,0:0:0:0:
273,175,13624,6,0,B|245:195|245:195|191:192,1,71.2500027179719,6|0,3:2|0:0,0:0:0:0:
207,38,13868,2,0,B|226:133,1,71.2500027179719,2|0,0:0|0:0,0:0:0:0:
361,157,14112,5,6,3:2:0:0:
302,89,14234,1,2,0:0:0:0:
337,244,14356,1,2,0:0:0:0:
381,73,14478,2,0,L|401:-47,1,71.2500027179719,2|8,0:0|0:0,0:0:0:0:
85,230,14722,5,2,3:2:0:0:
220,107,14844,1,0,3:0:0:0:
53,56,14966,1,14,0:0:0:0:
53,56,15210,6,0,L|38:140,1,47.5,2|0,0:0|0:0,0:0:0:0:
125,120,15453,2,0,L|115:177,1,35.625001358986,2|8,3:2|0:0,0:0:0:0:
198,182,15697,2,0,L|190:226,1,23.75,2|8,0:0|0:0,0:0:0:0:
268,248,15941,1,0,3:0:0:0:
273,231,16063,6,0,P|354:222|423:182,1,142.5,6|0,3:2|0:0,0:0:0:0:
443,110,16551,1,10,0:0:0:0:
432,101,16673,2,0,P|426:141|451:191,1,71.2500027179719,2|0,0:0|0:0,0:0:0:0:
370,343,16917,2,0,P|369:309|345:263,1,83.1250007927418,2|0,1:2|3:0,0:0:0:0:
239,117,17161,2,0,P|227:166|256:223,1,95,2|0,1:2|0:0,0:0:0:0:
448,253,17405,1,2,0:0:0:0:
267,330,17527,2,0,P|311:278|267:109,1,190,8|0,0:0|0:0,0:0:0:0:
310,160,18014,5,6,3:2:0:0:
159,175,18136,2,0,P|149:201|164:255,1,59.375,0|0,1:0|0:0,0:0:0:0:
241,206,18380,1,2,0:0:0:0:
231,115,18502,2,0,P|224:47|171:-23,1,118.75,8|0,0:0|0:0,0:0:0:0:
376,60,18868,2,0,P|393:122|385:153,1,59.375,0|0,1:0|3:0,0:0:0:0:
310,160,19112,2,0,P|312:192|380:262,1,118.75,0|0,1:0|0:0,0:0:0:0:
493,306,19478,6,0,L|505:206,1,71.2500027179719,10|0,0:0|0:0,0:0:0:0:
394,116,19722,1,2,0:0:0:0:
310,160,19844,1,2,1:2:0:0:
484,149,19966,2,0,L|502:7,1,142.500005435944,6|0,3:2|0:0,0:0:0:0:
213,326,20453,6,0,L|200:231,1,71.2500027179719,10|0,0:0|0:0,0:0:0:0:
310,160,20697,1,2,0:0:0:0:
394,204,20819,1,2,1:2:0:0:
222,167,20941,2,0,L|203:14,1,142.500005435944,4|0,3:2|0:0,0:0:0:0:
449,77,21429,6,0,P|417:88|376:133,1,71.2500027179719,10|0,0:0|0:0,0:0:0:0:
290,262,21673,1,2,0:0:0:0:
394,203,21795,2,0,P|376:234|371:269,1,71.2500027179719,2|0,1:2|3:0,0:0:0:0:
448,318,22039,2,0,P|453:347|474:389,2,71.2500027179719,2|0|0,1:2|0:0|0:0,0:0:0:0:
462,163,22405,6,0,L|312:140,1,118.75,8|0,0:0|0:0,0:0:0:0:
253,122,22771,1,0,1:0:0:0:
315,53,22893,1,0,3:0:0:0:
189,260,23136,1,0,0:0:0:0:
105,30,23380,2,0,P|132:104|103:212,1,178.125,10|0,0:0|0:0,0:0:0:0:
266,340,23868,6,0,P|262:284|311:194,1,142.5,6|0,3:2|0:0,0:0:0:0:
447,226,24356,1,10,0:0:0:0:
434,244,24478,2,0,P|407:257|378:259,1,59.375,2|0,0:0|0:0,0:0:0:0:
397,106,24722,2,0,P|399:140|384:173,1,71.2500027179719,2|0,1:2|3:0,0:0:0:0:
245,70,24966,2,0,P|282:84|309:115,1,83.1250007927418,2|0,1:2|0:0,0:0:0:0:
266,340,25210,1,2,0:0:0:0:
378,259,25332,2,0,P|289:238|238:143,1,190,8|0,0:0|0:0,0:0:0:0:
239,158,25819,5,6,3:2:0:0:
171,225,25941,2,0,L|155:311,1,59.375,0|0,1:0|0:0,0:0:0:0:
178,379,26185,1,2,0:0:0:0:
108,341,26307,2,0,L|224:318,1,118.75,8|0,0:0|0:0,0:0:0:0:
272,198,26673,2,0,L|288:112,1,59.375,0|0,1:0|3:0,0:0:0:0:
365,324,26917,2,0,L|387:208,1,118.75,0|0,1:0|0:0,0:0:0:0:
500,79,27283,6,0,P|463:76|411:43,1,71.2500027179719,10|0,0:0|0:0,0:0:0:0:
371,120,27527,1,2,0:0:0:0:
448,152,27649,1,2,1:2:0:0:
354,34,27771,2,0,P|290:82|293:166,1,142.500005435944,6|0,3:2|0:0,0:0:0:0:
13,276,28258,6,0,P|50:273|97:242,1,71.2500027179719,10|0,0:0|0:0,0:0:0:0:
138,315,28502,1,2,0:0:0:0:
67,355,28624,1,2,1:2:0:0:
157,230,28746,2,0,P|190:244|214:355,1,142.500005435944,6|0,3:2|0:0,0:0:0:0:
374,383,29234,2,0,P|327:298|360:180,1,213.750008153916,10|0,0:0|0:0,0:0:0:0:
498,209,29722,5,0,3:2:0:0:
502,298,29844,2,0,P|439:316|429:244,1,142.500005435944,0|0,1:0|0:0,0:0:0:0:
421,82,30210,2,0,P|432:115|435:150,1,71.2500027179719,10|0,0:0|0:0,0:0:0:0:
275,160,30453,1,2,0:0:0:0:
333,105,30575,1,2,1:2:0:0:
356,193,30697,1,0,3:0:0:0:
356,193,30941,6,0,L|338:293,1,83.1250007927418,2|0,0:0|0:0,0:0:0:0:
165,119,31185,2,0,L|183:19,1,83.1250007927418,10|0,0:0|0:0,0:0:0:0:
421,255,31429,2,0,L|403:355,1,83.1250007927418,2|0,0:0|0:0,0:0:0:0:
103,299,31673,6,0,P|74:245|83:209,1,59.375,6|2,3:2|0:0,0:0:0:0:
180,216,31917,1,2,0:0:0:0:
208,335,32039,2,0,P|199:363|179:384,1,59.375,2|8,0:0|0:0,0:0:0:0:
333,91,32405,6,0,P|362:145|353:181,1,59.375,2|2,0:0|0:0,0:0:0:0:
272,145,32649,1,2,3:2:0:0:
265,43,32771,2,0,P|318:18|377:19,1,118.75,2|0,1:2|0:0,0:0:0:0:
204,101,33136,1,8,0:0:0:0:
204,101,33380,2,0,P|161:90|141:69,1,59.375,2|0,0:0|0:0,0:0:0:0:
441,125,33624,6,0,L|422:217,1,59.375,6|2,3:2|1:2,0:0:0:0:
360,239,33868,1,2,0:0:0:0:
483,292,33990,2,0,L|502:200,1,59.375,2|8,0:0|0:0,0:0:0:0:
156,168,34356,6,0,L|175:260,1,59.375,2|2,0:0|1:2,0:0:0:0:
189,318,34600,1,2,3:2:0:0:
258,258,34722,1,2,1:2:0:0:
258,258,34966,1,0,0:0:0:0:
98,297,35088,2,0,B|50:222|50:222|96:104,1,178.125,14|0,0:0|0:0,0:0:0:0:
208,51,35575,6,0,P|206:80|191:105,1,59.375,6|2,3:2|0:0,0:0:0:0:
157,186,35819,1,2,0:0:0:0:
59,64,35941,2,0,P|87:56|115:64,1,59.375,2|8,0:0|0:0,0:0:0:0:
489,307,36307,2,0,P|440:277|408:280,1,59.375,2|2,0:0|1:2,0:0:0:0:
257,254,36551,1,2,3:2:0:0:
375,310,36673,2,0,P|413:233|388:166,1,118.75,2|0,1:2|0:0,0:0:0:0:
351,120,37039,1,8,0:0:0:0:
351,120,37283,2,0,P|322:147|314:180,1,59.375,0|0,0:0|0:0,0:0:0:0:
166,277,37527,5,6,3:2:0:0:
229,347,37649,1,2,1:2:0:0:
257,254,37771,1,2,0:0:0:0:
166,277,37893,2,0,P|130:283|43:310,1,83.1250007927418,2|8,0:0|0:0,0:0:0:0:
137,156,38136,2,0,P|114:128|63:79,1,71.2500027179719,2|0,0:0|0:0,0:0:0:0:
227,71,38380,2,0,P|240:37|252:-25,1,59.375,2|0,1:2|3:0,0:0:0:0:
346,107,38624,2,0,P|382:101|426:81,1,47.5,2|0,0:0|3:0,0:0:0:0:
374,227,38868,2,0,P|397:255|421:272,1,35.625001358986,2|8,0:0|0:0,0:0:0:0:
284,312,39112,6,0,P|277:331|271:369,1,47.5,2|0,0:0|0:0,0:0:0:0:
173,156,39478,5,6,3:2:0:0:
145,249,39600,1,2,0:0:0:0:
236,223,39722,1,2,0:0:0:0:
173,156,39844,2,0,P|123:162|91:178,1,71.2500027179719,2|8,0:0|0:0,0:0:0:0:
375,136,40210,5,2,0:0:0:0:
305,71,40332,1,2,0:0:0:0:
285,157,40454,1,2,3:2:0:0:
375,136,40576,2,0,P|394:89|409:-6,1,142.500005435944,2|0,1:2|0:0,0:0:0:0:
352,228,40941,6,0,P|354:247|394:336,1,71.2500027179719,10|0,0:0|0:0,0:0:0:0:
218,101,41185,2,0,P|192:125|172:155,1,71.2500027179719,2|0,0:0|0:0,0:0:0:0:
243,368,41429,5,6,3:2:0:0:
230,255,41551,1,2,1:2:0:0:
172,320,41673,1,2,0:0:0:0:
298,305,41795,2,0,L|382:294,1,71.2500027179719,2|8,0:0|0:0,0:0:0:0:
133,210,42161,5,2,0:0:0:0:
146,97,42283,1,2,0:0:0:0:
207,160,42405,1,2,3:2:0:0:
68,143,42527,2,0,L|85:-4,1,142.500005435944,2|2,1:2|0:0,0:0:0:0:
316,107,42893,2,0,B|331:273|331:273|297:304,1,213.750008153916,14|2,0:0|0:0,0:0:0:0:
101,322,43380,5,6,3:2:0:0:
101,322,43624,2,0,L|206:305,1,71.2500027179719,2|0,0:0|0:0,0:0:0:0:
430,179,43868,1,8,0:0:0:0:
430,179,44112,2,0,L|325:162,1,71.2500027179719,2|0,0:0|0:0,0:0:0:0:
78,114,44356,1,2,3:2:0:0:
78,114,44600,2,0,L|183:97,1,71.2500027179719,2|0,0:0|3:0,0:0:0:0:
430,179,44844,2,0,L|325:162,1,71.2500027179719,10|0,0:0|0:0,0:0:0:0:
101,322,45088,2,0,L|206:305,1,71.2500027179719,10|0,0:0|0:0,0:0:0:0:
328,258,45332,5,14,0:0:0:0:
188,182,45453,1,2,3:2:0:0:
336,95,45575,1,2,3:2:0:0:
196,19,45696,1,14,0:0:0:0:
244,169,46795,6,0,P|296:153|325:170,1,71.2500027179719,2|0,3:2|0:0,0:0:0:0:
310,159,47283,6,0,P|274:122|334:155,1,213.750008153916,6|0,3:2|0:0,0:0:0:0:
352,234,47771,2,0,P|214:179|233:32,1,285,14|0,0:0|0:0,0:0:0:0:
414,298,48258,2,0,P|300:323|121:176,1,356.25,6|0,3:2|0:0,0:0:0:0:
494,226,48746,5,10,0:0:0:0:
277,148,48868,1,2,0:0:0:0:
498,60,48990,2,0,B|512:102|512:102|481:157,1,95,2|0,0:0|0:0,0:0:0:0:
366,358,49234,6,0,B|378:281|378:281|361:252|361:252|374:170,1,190,6|0,3:2|0:0,0:0:0:0:
415,89,49600,1,0,0:0:0:0:
494,226,49722,2,0,L|373:243,1,95,8|0,0:0|0:0,0:0:0:0:
89,175,49966,2,0,L|323:142,1,190,6|0,0:0|3:0,0:0:0:0:
278,149,50453,6,0,P|239:175|209:285,1,142.5,6|0,3:2|2:0,0:0:0:0:
205,261,50941,6,0,B|165:175|205:47|205:47|287:7,1,285,6|0,0:0|0:0,0:0:0:0:
319,103,51429,5,2,0:0:0:0:
308,196,51551,1,2,0:0:0:0:
398,158,51673,2,0,P|438:154|476:139,1,80.750001540184,10|0,0:0|0:0,0:0:0:0:
205,261,51917,2,0,P|165:265|127:278,1,80.750001540184,2|0,0:0|0:0,0:0:0:0:
404,283,52161,2,0,P|444:288|481:304,1,80.750001540184,2|0,3:2|0:0,0:0:0:0:
230,141,52405,2,0,P|153:120|88:73,1,161.500003080368,2|8,0:0|0:0,0:0:0:0:
78,269,52893,1,2,0:0:0:0:
144,353,53014,1,0,3:0:0:0:
41,360,53136,6,0,P|87:300|332:277,1,237.5,6|0,3:2|0:0,0:0:0:0:
504,275,53502,2,0,P|390:247|309:162,1,237.5,6|0,3:2|0:0,0:0:0:0:
118,226,53868,1,6,0:0:0:0:
191,141,53990,1,0,3:0:0:0:
235,247,54112,2,0,P|237:309|223:345,1,80.750001540184,2|0,3:2|0:0,0:0:0:0:
80,114,54356,2,0,P|78:52|94:20,1,80.750001540184,2|0,3:2|0:0,0:0:0:0:
347,44,54600,1,8,0:0:0:0:
347,44,54844,2,0,L|238:70,1,80.750001540184,2|0,0:0|0:0,0:0:0:0:
175,204,55088,6,0,P|172:152|156:219,1,213.750008153916,6|0,3:2|0:0,0:0:0:0:
203,285,55576,2,0,P|255:145|133:61,1,285,14|0,0:0|0:0,0:0:0:0:
209,374,56063,2,0,P|304:306|315:74,1,356.25,6|0,3:2|0:0,0:0:0:0:
95,254,56551,5,10,0:0:0:0:
313,174,56673,1,2,0:0:0:0:
136,13,56795,2,0,P|111:53|103:99,1,95,2|0,0:0|0:0,0:0:0:0:
421,151,57039,6,0,B|371:117|371:117|205:145,1,190,6|0,3:2|0:0,0:0:0:0:
270,341,57405,1,0,0:0:0:0:
393,326,57527,2,0,P|385:279|360:239,1,95,8|0,0:0|0:0,0:0:0:0:
37,192,57771,2,0,B|136:169|110:266|261:220,1,190,6|0,0:0|3:0,0:0:0:0:
216,230,58258,6,0,B|321:215|321:215|290:267,1,142.5,6|0,3:2|0:0,0:0:0:0:
302,246,58746,6,0,B|505:217|505:217|449:159,1,285,6|0,0:0|0:0,0:0:0:0:
352,3,59234,5,2,0:0:0:0:
370,155,59356,1,2,0:0:0:0:
403,74,59478,2,0,L|274:90,1,80.750001540184,10|0,0:0|0:0,0:0:0:0:
213,14,59722,2,0,B|192:56|192:56|199:99,1,80.750001540184,2|0,0:0|0:0,0:0:0:0:
286,321,59966,2,0,B|307:279|307:279|299:230,1,80.750001540184,2|0,3:2|0:0,0:0:0:0:
28,249,60210,2,0,B|87:243|87:243|118:260|118:260|184:254,1,161.500003080368,2|8,0:0|0:0,0:0:0:0:
383,60,60697,1,2,0:0:0:0:
365,175,60819,1,0,3:0:0:0:
280,103,60941,6,0,P|398:106|479:202,1,237.5,6|0,3:2|0:0,0:0:0:0:
184,253,61307,2,0,P|127:149|170:31,1,237.5,6|0,0:0|0:0,0:0:0:0:
351,301,61673,1,6,0:0:0:0:
281,228,61795,1,0,3:0:0:0:
437,252,61917,2,0,P|462:305|465:364,1,118.75,2|0,3:2|0:0,0:0:0:0:
222,148,62161,2,0,P|231:70|269:15,1,118.75,0|0,3:0|0:0,0:0:0:0:
461,18,62405,1,10,0:0:0:0:
461,18,62893,5,6,3:2:0:0:
120,282,78502,6,0,L|141:141,1,142.5,6|0,3:2|0:0,0:0:0:0:
40,222,78990,5,10,0:0:0:0:
36,205,79112,2,0,L|23:129,1,59.375,2|0,0:0|0:0,0:0:0:0:
120,282,79356,2,0,L|59:334,1,71.2500027179719,2|0,0:0|3:0,0:0:0:0:
133,187,79600,2,0,L|215:214,1,83.1250007927418,2|0,1:2|0:0,0:0:0:0:
327,201,79844,1,2,0:0:0:0:
252,317,79966,2,0,B|208:270|208:270|246:137,1,190,8|0,0:0|0:0,0:0:0:0:
242,149,80453,5,6,3:2:0:0:
327,201,80575,2,0,P|344:174|342:129,1,59.375,0|0,1:0|0:0,0:0:0:0:
329,0,80819,1,2,0:0:0:0:
292,83,80941,2,0,P|343:73|429:19,1,118.75,8|0,0:0|0:0,0:0:0:0:
242,149,81307,2,0,P|196:138|153:154,1,59.375,0|0,1:0|3:0,0:0:0:0:
128,220,81551,2,0,P|102:139|65:78,1,118.75,0|0,1:0|0:0,0:0:0:0:
214,237,81917,6,0,L|199:322,1,71.2500027179719,10|0,0:0|0:0,0:0:0:0:
213,384,82161,1,2,0:0:0:0:
140,354,82283,1,2,1:2:0:0:
272,328,82405,2,0,L|449:305,1,142.500005435944,4|0,3:2|0:0,0:0:0:0:
240,56,82893,5,10,0:0:0:0:
298,147,83014,2,0,L|313:62,1,71.2500027179719,2|0,0:0|0:0,0:0:0:0:
339,5,83258,1,2,1:2:0:0:
240,56,83381,2,0,L|63:79,1,142.500005435944,4|0,3:2|0:0,0:0:0:0:
102,311,83868,6,0,B|119:282|119:282|109:222,1,71.2500027179719,10|0,0:0|0:0,0:0:0:0:
37,262,84112,1,2,0:0:0:0:
182,225,84234,2,0,B|175:192|175:192|127:155,1,71.2500027179719,2|0,1:2|3:0,0:0:0:0:
177,346,84478,2,0,L|261:335,2,71.2500027179719,2|0|0,1:2|0:0|0:0,0:0:0:0:
79,153,84844,6,0,P|150:137|201:68,1,118.75,8|0,0:0|0:0,0:0:0:0:
199,1,85210,1,0,1:0:0:0:
111,43,85332,1,0,3:0:0:0:
292,213,85575,1,0,0:0:0:0:
423,17,85819,2,0,P|340:15|248:100,1,178.125,10|0,0:0|0:0,0:0:0:0:
244,151,86307,6,0,L|275:326,1,142.5,6|0,3:2|0:0,0:0:0:0:
402,268,86795,1,10,0:0:0:0:
398,248,86917,2,0,B|374:239|374:239|295:258,1,59.375,2|0,0:0|0:0,0:0:0:0:
120,255,87161,2,0,B|144:264|144:264|234:241,1,71.2500027179719,2|0,1:2|3:0,0:0:0:0:
334,142,87405,2,0,L|352:46,1,83.1250007927418,2|0,1:2|0:0,0:0:0:0:
341,246,87649,1,2,0:0:0:0:
199,166,87771,2,0,L|238:366,1,190,10|0,0:0|0:0,0:0:0:0:
235,352,88258,5,6,3:2:0:0:
176,269,88380,2,0,P|149:266|114:283,1,59.375,2|0,1:2|0:0,0:0:0:0:
6,303,88624,1,2,0:0:0:0:
81,346,88746,2,0,P|77:286|61:229,1,118.75,10|0,0:0|0:0,0:0:0:0:
151,133,89112,2,0,P|140:187|145:212,1,59.375,0|0,1:0|0:0,0:0:0:0:
17,74,89356,2,0,L|163:56,1,118.75,0|0,1:0|0:0,0:0:0:0:
384,103,89722,6,0,P|374:142|335:175,1,71.2500027179719,10|0,0:0|0:0,0:0:0:0:
274,176,89966,1,2,0:0:0:0:
304,101,90088,1,2,1:2:0:0:
326,240,90210,2,0,P|387:275|457:282,1,142.500005435944,6|0,3:2|0:0,0:0:0:0:
127,195,90697,6,0,P|166:183|214:201,1,71.2500027179719,10|0,0:0|0:0,0:0:0:0:
245,253,90941,1,2,0:0:0:0:
165,265,91063,1,2,1:2:0:0:
274,176,91185,2,0,P|274:105|244:40,1,142.500005435944,6|0,3:2|0:0,0:0:0:0:
333,376,91673,6,0,P|224:319|307:229,1,213.750008153916,10|0,0:0|0:0,0:0:0:0:
301,306,92161,1,2,3:2:0:0:
171,384,92283,2,0,P|150:268|160:233,1,142.500005435944,0|0,1:0|0:0,0:0:0:0:
254,134,92649,2,0,P|235:169|181:188,1,71.2500027179719,10|0,0:0|0:0,0:0:0:0:
10,140,92893,1,2,0:0:0:0:
69,79,93014,1,2,1:2:0:0:
95,166,93136,1,0,3:0:0:0:
95,166,93380,6,0,B|131:152|131:152|151:112,1,83.1250007927418,2|0,0:0|0:0,0:0:0:0:
330,340,93624,2,0,B|335:302|335:302|311:265,1,83.1250007927418,10|0,0:0|0:0,0:0:0:0:
475,102,93868,2,0,B|444:78|444:78|400:81,1,83.1250007927418,2|0,0:0|0:0,0:0:0:0:
204,199,94112,6,0,L|279:192,1,59.375,6|2,3:2|0:0,0:0:0:0:
331,138,94356,1,2,0:0:0:0:
243,49,94478,2,0,B|237:80|237:80|249:105,1,59.375,2|8,0:0|0:0,0:0:0:0:
512,206,94844,6,0,L|437:213,1,59.375,2|2,0:0|1:2,0:0:0:0:
319,328,95088,1,2,3:2:0:0:
394,374,95210,2,0,B|408:326|408:326|373:249,1,118.75,2|0,0:0|0:0,0:0:0:0:
140,327,95575,5,8,0:0:0:0:
140,327,95819,2,0,L|214:319,1,59.375,2|0,0:0|0:0,0:0:0:0:
369,183,96063,6,0,P|336:170|293:172,1,59.375,6|0,3:2|1:0,0:0:0:0:
284,277,96307,1,2,0:0:0:0:
396,315,96429,2,0,P|409:282|407:239,1,59.375,2|8,0:0|0:0,0:0:0:0:
103,182,96795,6,0,P|136:195|179:193,1,59.375,2|2,0:0|1:2,0:0:0:0:
188,88,97039,1,2,3:2:0:0:
74,34,97161,1,2,0:0:0:0:
74,34,97405,1,2,3:2:0:0:
188,88,97527,2,0,P|104:102|21:151,1,178.125,14|0,0:0|0:0,0:0:0:0:
204,221,98014,6,0,L|220:130,1,59.375,6|2,3:2|0:0,0:0:0:0:
167,11,98258,1,2,0:0:0:0:
63,92,98380,2,0,L|79:1,1,59.375,2|8,0:0|0:0,0:0:0:0:
308,221,98746,6,0,L|292:130,1,59.375,2|2,0:0|1:2,0:0:0:0:
345,11,98990,1,2,3:2:0:0:
454,118,99112,2,0,L|431:0,1,118.75,2|0,1:2|0:0,0:0:0:0:
460,208,99478,6,0,L|401:218,1,59.375,10|0,0:0|0:0,0:0:0:0:
224,87,99722,2,0,L|282:76,1,59.375,2|0,0:0|0:0,0:0:0:0:
355,304,99966,5,6,3:2:0:0:
307,220,100088,1,2,1:2:0:0:
401,218,100210,1,2,0:0:0:0:
355,304,100332,2,0,B|317:326|317:326|262:313,1,83.1250007927418,2|8,0:0|0:0,0:0:0:0:
238,28,100575,2,0,B|276:49|276:49|283:76,1,71.2500027179719,2|0,0:0|0:0,0:0:0:0:
66,254,100819,2,0,B|65:210|65:210|102:173,1,59.375,2|0,1:2|0:0,0:0:0:0:
315,176,101063,2,0,B|319:201|319:201|306:219,1,47.5,2|0,1:2|0:0,0:0:0:0:
183,334,101307,2,0,B|164:324|164:324|154:305,1,35.625001358986,2|8,0:0|0:0,0:0:0:0:
115,119,101551,6,0,B|134:107|134:107|158:110,1,47.5,2|0,0:0|0:0,0:0:0:0:
378,271,101917,5,6,3:2:0:0:
306,218,102039,1,2,0:0:0:0:
384,187,102161,1,2,0:0:0:0:
378,271,102283,2,0,L|365:355,1,71.2500027179719,2|8,0:0|0:0,0:0:0:0:
164,150,102649,5,2,0:2:0:0:
92,203,102771,1,2,1:2:0:0:
170,234,102893,1,2,3:2:0:0:
164,150,103014,2,0,L|141:7,1,142.500005435944,0|0,1:2|0:0,0:0:0:0:
16,131,103380,6,0,B|50:127|50:127|77:103,1,71.2500027179719,10|0,0:0|0:0,0:0:0:0:
294,95,103624,2,0,B|267:71|267:71|232:67,1,71.2500027179719,2|0,0:0|0:0,0:0:0:0:
286,246,103868,5,6,3:2:0:0:
368,254,103990,1,2,1:2:0:0:
333,175,104112,1,2,0:0:0:0:
286,246,104234,2,0,P|281:291|299:354,1,71.2500027179719,2|8,0:0|0:0,0:0:0:0:
212,92,104600,5,2,0:0:0:0:
164,159,104722,1,2,1:2:0:0:
249,167,104844,1,2,3:2:0:0:
212,92,104966,2,0,P|175:65|68:47,1,142.500005435944,2|0,1:2|0:0,0:0:0:0:
376,102,105332,2,0,B|464:97|507:18|507:18|427:9,1,213.750008153916,14|0,0:0|0:0,0:0:0:0:
314,9,105819,5,6,3:2:0:0:
314,9,106063,2,0,L|291:125,1,71.2500027179719,2|0,0:0|0:0,0:0:0:0:
91,178,106307,1,8,0:0:0:0:
91,178,106551,2,0,L|114:294,1,71.2500027179719,2|0,0:0|0:0,0:0:0:0:
399,285,106795,1,0,3:2:0:0:
399,285,107039,2,0,L|376:401,1,71.2500027179719,2|0,0:0|0:0,0:0:0:0:
91,178,107283,2,0,L|114:294,1,71.2500027179719,10|0,0:0|0:0,0:0:0:0:
314,9,107527,2,0,L|291:125,1,71.2500027179719,10|0,0:0|0:0,0:0:0:0:
186,284,107771,5,14,0:0:0:0:
313,194,107893,1,2,3:2:0:0:
203,194,108014,1,2,3:2:0:0:
330,284,108136,1,14,0:0:0:0:
330,284,109234,6,0,L|313:371,1,71.2500027179719,2|0,3:2|0:0,0:0:0:0:
316,353,109722,6,0,B|338:250|285:191|285:191|240:223,1,213.750008153916,6|0,3:2|0:0,0:0:0:0:
29,252,110210,2,0,B|-16:284|-16:284|74:389|189:336,1,285,14|0,0:0|0:0,0:0:0:0:
290,65,110697,2,0,B|272:6|272:6|108:38|111:219,1,356.25,6|0,3:2|0:0,0:0:0:0:
307,158,111185,5,10,0:0:0:0:
116,297,111307,1,2,0:0:0:0:
317,380,111429,2,0,P|342:317|331:269,1,95,2|0,0:0|0:0,0:0:0:0:
166,37,111673,6,0,B|215:153|215:153|190:261,1,190,6|0,3:2|0:0,0:0:0:0:
291,19,112039,1,0,0:0:0:0:
398,174,112161,2,0,P|350:174|305:156,1,95,8|0,0:0|0:0,0:0:0:0:
53,317,112405,2,0,B|118:303|118:303|167:325|167:325|240:314,1,190,6|0,0:0|3:0,0:0:0:0:
236,314,112893,6,0,B|217:339|217:339|232:183,1,142.5,6|0,3:2|2:0,0:0:0:0:
227,228,113380,6,0,B|275:162|275:162|254:364,1,285,6|0,0:0|0:0,0:0:0:0:
122,199,113868,5,2,0:0:0:0:
148,286,113990,1,2,0:0:0:0:
60,259,114112,2,0,P|38:219|49:155,1,80.750001540184,10|0,0:0|0:0,0:0:0:0:
332,72,114356,2,0,P|338:111|322:148,1,80.750001540184,2|0,0:0|0:0,0:0:0:0:
179,132,114600,2,0,P|174:74|189:47,1,80.750001540184,2|0,3:2|0:0,0:0:0:0:
430,236,114844,2,0,P|421:331|370:389,1,161.500003080368,2|8,0:0|0:0,0:0:0:0:
172,273,115332,1,2,0:0:0:0:
279,286,115453,1,0,3:0:0:0:
219,373,115575,6,0,L|177:124,1,237.5,6|0,3:2|0:0,0:0:0:0:
390,1,115941,2,0,L|432:250,1,237.5,6|0,3:2|0:0,0:0:0:0:
417,329,116307,1,6,0:0:0:0:
338,264,116429,1,0,3:0:0:0:
512,291,116551,2,0,B|521:330|521:330|502:367,1,80.750001540184,2|0,3:2|0:0,0:0:0:0:
178,139,116795,2,0,B|169:100|169:100|187:62,1,80.750001540184,2|0,3:2|0:0,0:0:0:0:
419,132,117039,1,8,0:0:0:0:
419,132,117283,2,0,B|302:155,1,80.750001540184,2|0,0:0|0:0,0:0:0:0:
216,342,117527,6,0,B|320:332|361:264|361:264|318:231,1,213.750008153916,6|0,3:2|0:0,0:0:0:0:
228,38,118015,2,0,B|184:4|184:4|110:121|194:215,1,285,14|0,0:0|0:0,0:0:0:0:
483,232,118502,2,0,B|534:197|534:197|455:50|283:105,1,356.25,6|0,3:2|0:0,0:0:0:0:
64,183,118990,5,10,0:0:0:0:
257,260,119112,1,2,0:0:0:0:
228,38,119234,2,0,L|80:21,1,95,2|0,0:0|0:0,0:0:0:0:
151,300,119478,6,0,P|174:243|147:111,1,190,6|0,3:2|0:0,0:0:0:0:
61,80,119844,1,0,0:0:0:0:
271,118,119966,2,0,P|257:73|227:37,1,95,8|0,0:0|0:0,0:0:0:0:
71,232,120210,2,0,B|183:177|145:293|324:168,1,190,6|0,0:0|3:0,0:0:0:0:
253,210,120697,6,0,B|312:215|312:215|349:184|343:142,1,142.5,6|0,3:2|0:0,0:0:0:0:
343,142,121185,6,0,B|423:129|423:129|502:184|458:336,1,285,6|0,0:0|0:0,0:0:0:0:
174,261,121673,5,2,0:0:0:0:
253,210,121795,1,2,0:0:0:0:
259,305,121917,2,0,P|265:344|278:383,1,80.750001540184,10|0,0:0|0:0,0:0:0:0:
159,143,122161,2,0,P|152:100|129:28,1,80.750001540184,2|0,0:0|0:0,0:0:0:0:
139,346,122405,2,0,P|98:350|59:365,1,80.750001540184,2|0,3:2|0:0,0:0:0:0:
254,99,122649,2,0,P|336:88|414:60,1,161.500003080368,2|8,0:0|0:0,0:0:0:0:
268,300,123136,1,2,0:0:0:0:
368,261,123258,1,0,3:0:0:0:
360,381,123380,6,0,P|258:325|230:213,1,237.5,6|0,3:2|0:0,0:0:0:0:
497,93,123746,2,0,P|469:204|367:260,1,237.5,6|0,0:0|0:0,0:0:0:0:
291,36,124112,1,6,0:0:0:0:
364,121,124234,1,0,3:0:0:0:
196,115,124356,2,0,P|197:64|232:-5,1,118.75,2|0,3:2|0:0,0:0:0:0:
476,238,124600,2,0,P|475:289|440:358,1,118.75,2|0,3:2|0:0,0:0:0:0:
151,370,124844,1,10,0:0:0:0:
151,370,125088,2,0,L|254:346,1,71.2500027179719,0|0,0:0|0:0,0:0:0:0:
264,253,125332,6,0,B|107:231|107:231|195:185,1,213.750008153916,6|0,3:2|0:0,0:0:0:0:
433,199,125819,2,0,B|232:170|232:170|320:124,1,285,14|0,0:0|0:0,0:0:0:0:
381,15,126307,2,0,B|421:32|421:32|439:105,1,118.75,6|0,3:2|0:0,0:0:0:0:
213,295,126551,2,0,B|172:277|172:277|154:204,1,118.75,2|0,0:0|0:0,0:0:0:0:
292,50,126795,5,10,0:0:0:0:
332,235,126917,1,2,0:0:0:0:
161,113,127039,2,0,P|168:73|192:22,1,95,2|0,0:0|0:0,0:0:0:0:
365,159,127283,6,0,P|358:253|318:340,1,190,6|0,3:2|0:0,0:0:0:0:
120,249,127649,1,0,0:0:0:0:
161,113,127771,2,0,P|199:138|229:177,1,95,8|0,0:0|0:0,0:0:0:0:
424,329,128014,2,0,L|228:299,1,190,6|0,0:0|3:0,0:0:0:0:
236,300,128502,6,0,B|280:237|280:237|253:172,1,142.5,6|0,3:2|2:0,0:0:0:0:
254,176,128990,6,0,B|288:255|288:255|342:157|342:157|300:78,1,285,6|0,0:0|0:0,0:0:0:0:
80,192,129478,1,2,0:0:0:0:
173,240,129600,1,2,0:0:0:0:
161,125,129722,2,0,L|150:29,1,80.750001540184,10|0,0:0|0:0,0:0:0:0:
39,297,129966,2,0,B|25:336|25:336|47:368,1,80.750001540184,2|0,0:0|0:0,0:0:0:0:
334,189,130210,2,0,L|240:174,1,80.750001540184,2|0,3:2|0:0,0:0:0:0:
21,198,130453,2,0,B|80:207|80:207|100:227|100:227|209:246,1,161.500003080368,2|8,0:0|0:0,0:0:0:0:
460,126,130941,1,2,0:0:0:0:
392,48,131063,1,0,3:0:0:0:
488,28,131185,6,0,P|439:167|430:291,1,237.5,6|0,3:2|0:0,0:0:0:0:
158,373,131551,2,0,P|207:234|216:110,1,237.5,6|0,3:2|0:0,0:0:0:0:
367,129,131917,1,6,0:0:0:0:
301,198,132039,1,0,3:0:0:0:
288,81,132161,2,0,P|275:25|252:-14,1,80.750001540184,2|0,3:2|0:0,0:0:0:0:
429,255,132405,2,0,P|436:294|452:331,1,80.750001540184,2|0,3:2|0:0,0:0:0:0:
124,252,132649,1,8,0:0:0:0:
124,252,132893,2,0,P|176:247|231:215,1,80.750001540184,2|0,0:0|0:0,0:0:0:0:
322,195,133136,6,0,B|300:38|300:38|254:126,1,213.750008153916,6|0,3:2|0:0,0:0:0:0:
268,364,133624,2,0,B|239:163|239:163|193:251,1,285,14|0,0:0|0:0,0:0:0:0:
61,376,134112,2,0,B|134:358|134:358|153:317,1,118.75,6|0,3:2|0:0,0:0:0:0:
250,84,134356,2,0,B|178:101|178:101|158:144,1,118.75,2|0,0:0|0:0,0:0:0:0:
69,285,134599,5,10,0:0:0:0:
257,162,134721,1,2,0:0:0:0:
64,69,134844,2,0,L|82:214,1,95,2|0,0:0|0:0,0:0:0:0:
323,377,135088,6,0,L|351:174,1,190,6|0,3:2|0:0,0:0:0:0:
318,101,135453,1,0,0:0:0:0:
428,246,135575,2,0,B|453:205|453:205|428:128,1,95,8|0,0:0|0:0,0:0:0:0:
156,32,135819,2,0,L|184:235,1,190,6|0,0:0|3:0,0:0:0:0:
181,220,136307,6,0,P|266:228|241:282,1,142.5,6|0,3:2|0:0,0:0:0:0:
263,259,136795,6,0,P|243:154|93:213,1,285,6|0,0:0|0:0,0:0:0:0:
125,350,137283,1,2,0:0:0:0:
179,272,137405,1,2,0:0:0:0:
53,295,137527,2,0,P|37:328|26:385,1,80.750001540184,10|0,0:0|0:0,0:0:0:0:
276,152,137771,2,0,P|286:116|290:59,1,80.750001540184,2|0,0:0|0:0,0:0:0:0:
58,117,138014,2,0,P|87:172|127:198,1,80.750001540184,2|0,3:2|0:0,0:0:0:0:
218,354,138258,2,0,P|214:258|182:174,1,161.500003080368,2|8,0:0|0:0,0:0:0:0:
194,196,138990,6,0,P|254:221|322:215,1,118.75,6|0,3:2|0:0,0:0:0:0:
447,164,139234,1,2,0:0:0:0:
347,89,139356,2,0,P|317:201|372:302,1,237.5,6|0,0:0|0:0,0:0:0:0:
441,75,139722,1,6,0:0:0:0:
279,196,139844,1,0,3:0:0:0:
460,279,139966,2,0,P|466:220|448:165,1,118.75,2|0,3:2|0:0,0:0:0:0:
264,44,140210,2,0,L|148:70,1,118.75,0|0,3:0|0:0,0:0:0:0:
39,333,140453,1,10,0:0:0:0:
39,333,140941,5,6,3:2:0:0:
201,314,156551,6,0,L|185:124,1,190,6|0,3:2|3:2,0:0:0:0:
186,125,157283,6,0,P|211:117|234:118,1,47.5,2|0,0:0|0:0,0:0:0:0:
236,258,157527,2,0,P|212:258|189:250,1,47.5,2|0,3:2|0:0,0:0:0:0:
289,190,157771,2,0,P|335:193|376:217,1,95,2|0,0:0|3:0,0:0:0:0:
474,318,158258,1,0,1:0:0:0:
474,318,158380,1,0,1:0:0:0:
474,318,158502,6,0,L|490:128,1,190,4|0,3:2|3:0,0:0:0:0:
489,128,159234,1,2,0:0:0:0:
368,313,159478,2,0,B|338:299|338:299|250:310,1,95,2|0,3:2|0:0,0:0:0:0:
205,309,159844,2,0,L|212:259,1,47.5,2|0,0:0|3:0,0:0:0:0:
348,62,160210,2,0,L|341:112,1,47.5,2|0,0:0|0:0,0:0:0:0:
362,200,160453,6,0,L|160:166,1,190,4|0,3:2|3:0,0:0:0:0:
14,48,161185,2,0,P|45:41|71:27,1,47.5,2|0,0:0|0:0,0:0:0:0:
177,92,161429,2,0,P|153:96|131:105,1,47.5,2|0,3:2|0:0,0:0:0:0:
39,213,161673,2,0,P|52:150|53:104,1,95,2|0,0:0|3:0,0:0:0:0:
166,258,162161,2,0,P|156:279|152:303,1,47.5,2|0,0:0|0:0,0:0:0:0:
97,358,162405,6,0,B|151:347|151:347|193:370,1,95,2|0,3:2|0:0,0:0:0:0:
263,369,162771,2,0,P|272:347|276:323,1,47.5,2|0,0:0|3:0,0:0:0:0:
231,110,163136,2,0,P|245:128|263:144,1,47.5,2|0,0:0|0:0,0:0:0:0:
332,205,163380,2,0,P|308:208|286:215,1,47.5,2|0,3:2|0:0,0:0:0:0:
194,239,163624,2,0,P|203:217|207:193,1,47.5,2|0,0:0|0:0,0:0:0:0:
345,84,163868,2,0,P|335:105|331:129,1,47.5,2|0,3:2|0:0,0:0:0:0:
296,315,164112,2,0,P|281:296|263:280,1,47.5,2|0,0:0|0:0,0:0:0:0:
112,136,164356,6,0,P|135:132|264:32,1,190,4|0,3:2|3:0,0:0:0:0:
442,169,165088,1,2,0:0:0:0:
442,169,165210,1,0,0:0:0:0:
442,169,165332,2,0,L|454:243,1,47.5,2|0,3:2|0:0,0:0:0:0:
314,149,165575,2,0,L|285:208,1,47.5,2|0,0:0|0:0,0:0:0:0:
396,51,165819,1,0,3:0:0:0:
396,51,166063,2,0,L|385:134,1,47.5,2|0,0:0|0:0,0:0:0:0:
363,290,166307,6,0,P|303:267|255:268,1,95,2|0,3:2|0:0,0:0:0:0:
181,265,166673,2,0,P|189:235|207:212,1,47.5,2|0,0:0|3:0,0:0:0:0:
329,58,167039,1,2,0:0:0:0:
315,131,167161,1,0,0:0:0:0:
259,80,167283,1,0,3:0:0:0:
259,80,167527,2,0,P|251:50|233:27,1,47.5,2|0,0:0|0:0,0:0:0:0:
94,165,167771,1,0,3:0:0:0:
94,165,168015,2,0,P|102:195|120:218,1,47.5,2|0,0:0|0:0,0:0:0:0:
234,263,168258,6,0,P|158:238|26:252,1,190,6|0,3:2|3:0,0:0:0:0:
274,85,168990,1,2,0:0:0:0:
205,123,169112,1,0,0:0:0:0:
272,164,169234,2,0,P|350:148|390:117,1,95,2|0,3:2|0:0,0:0:0:0:
442,140,169600,2,0,P|430:170|433:230,1,47.5,2|0,0:0|3:0,0:0:0:0:
355,371,169966,2,0,P|350:347|340:326,1,47.5,2|0,0:0|0:0,0:0:0:0:
266,300,170210,6,0,L|163:288,1,95,2|0,3:2|0:0,0:0:0:0:
101,315,170575,2,0,L|94:267,1,47.5,2|0,0:0|3:0,0:0:0:0:
254,142,170941,1,2,0:0:0:0:
313,202,171063,1,0,0:0:0:0:
232,221,171185,2,0,L|207:-1,1,190,0|0,3:0|3:0,0:0:0:0:
49,78,172161,5,0,3:0:0:0:
49,78,172649,1,0,3:0:0:0:
49,78,173136,1,2,3:2:0:0:
49,78,173624,1,10,0:0:0:0:
49,78,174112,6,0,B|124:64|124:64|206:82|223:178,1,213.750008153916,6|0,3:2|0:0,0:0:0:0:
95,384,174600,2,0,B|4:320|27:217|27:217|121:195,1,285,14|0,0:0|0:0,0:0:0:0:
325,70,175088,2,0,B|385:119|376:233|376:233|180:281,1,356.25,6|0,3:2|0:0,0:0:0:0:
164,28,175575,5,10,0:0:0:0:
287,163,175697,1,2,0:0:0:0:
116,196,175819,2,0,P|68:201|24:218,1,95,2|0,0:0|0:0,0:0:0:0:
256,69,176063,6,0,P|350:64|440:33,1,190,6|0,3:2|0:0,0:0:0:0:
319,306,176429,1,0,0:0:0:0:
202,275,176551,2,0,B|184:243|184:243|222:166,1,95,8|0,0:0|0:0,0:0:0:0:
440,33,176795,2,0,L|391:262,1,190,6|0,0:0|3:0,0:0:0:0:
400,218,177283,6,0,B|354:192|303:202|303:202|318:128,1,142.5,6|0,3:2|2:0,0:0:0:0:
311,160,177771,2,0,B|293:246|293:246|178:275|99:179,1,285,6|0,0:0|0:0,0:0:0:0:
126,34,178258,5,2,0:0:0:0:
190,115,178380,1,2,0:0:0:0:
47,103,178502,2,0,P|29:59|34:19,1,80.750001540184,10|0,0:0|0:0,0:0:0:0:
130,270,178746,2,0,P|86:288|46:283,1,80.750001540184,2|0,0:0|0:0,0:0:0:0:
245,39,178990,2,0,P|289:21|329:26,1,80.750001540184,2|0,3:2|0:0,0:0:0:0:
252,254,179234,2,0,P|197:185|207:63,1,161.500003080368,2|8,0:0|0:0,0:0:0:0:
466,113,179722,1,2,0:0:0:0:
367,163,179844,1,0,3:0:0:0:
375,60,179966,6,0,P|443:170|417:347,1,237.5,6|0,3:2|0:0,0:0:0:0:
204,123,180332,2,0,P|333:119|473:230,1,237.5,6|0,3:2|0:0,0:0:0:0:
115,295,180697,1,6,0:0:0:0:
243,233,180819,1,0,3:0:0:0:
233,368,180941,2,0,P|193:295|190:253,1,80.750001540184,2|0,3:2|0:0,0:0:0:0:
366,162,181185,2,0,P|351:199|326:231,1,80.750001540184,2|0,3:2|0:0,0:0:0:0:
123,133,181429,1,8,0:0:0:0:
123,133,181673,2,0,L|227:120,1,80.750001540184,2|0,0:0|0:0,0:0:0:0:
479,126,181917,6,0,B|452:197|452:197|394:258|303:223,1,213.750008153916,6|0,3:2|0:0,0:0:0:0:
190,20,182405,2,0,B|291:-25|368:47|368:47|338:139,1,285,14|0,0:0|0:0,0:0:0:0:
363,377,182893,2,0,B|290:403|197:336|197:336|256:144,1,356.25,6|0,3:2|0:0,0:0:0:0:
487,326,183380,5,10,0:0:0:0:
325,230,183502,1,2,0:0:0:0:
490,136,183624,2,0,B|498:189|498:189|475:235,1,95,2|0,0:0|0:0,0:0:0:0:
157,115,183868,6,0,B|259:79|229:197|410:106,1,190,6|0,3:2|0:0,0:0:0:0:
191,194,184234,1,0,0:0:0:0:
297,56,184356,2,0,L|408:40,1,95,8|0,0:0|0:0,0:0:0:0:
94,219,184600,2,0,B|57:94|57:94|123:28,1,190,6|0,0:0|3:0,0:0:0:0:
99,51,185088,6,0,B|163:80|163:80|150:162,1,142.5,6|0,3:2|0:0,0:0:0:0:
151,151,185575,6,0,B|350:113|350:113|265:13,1,285,6|0,0:0|0:0,0:0:0:0:
35,109,186063,1,2,0:0:0:0:
75,190,186185,1,2,0:0:0:0:
113,79,186307,2,0,L|134:-32,1,80.750001540184,10|0,0:0|0:0,0:0:0:0:
249,248,186551,2,0,L|228:359,1,80.750001540184,2|0,0:0|0:0,0:0:0:0:
35,109,186795,2,0,L|19:29,1,80.750001540184,2|0,3:2|0:0,0:0:0:0:
333,169,187039,2,0,B|343:235|343:235|365:255|365:255|379:332,1,161.500003080368,2|8,0:0|0:0,0:0:0:0:
16,302,187527,1,2,0:0:0:0:
119,293,187649,1,0,3:0:0:0:
69,384,187771,6,0,B|26:211|26:211|77:149,1,237.5,6|0,3:2|0:0,0:0:0:0:
257,34,188136,2,0,B|300:207|300:207|249:269,1,237.5,6|0,0:0|0:0,0:0:0:0:
63,165,188502,1,6,0:0:0:0:
165,113,188624,1,0,3:0:0:0:
147,270,188746,2,0,P|83:252|21:245,1,118.75,2|0,3:2|0:0,0:0:0:0:
347,102,188990,2,0,P|411:120|473:127,1,118.75,2|0,3:2|0:0,0:0:0:0:
403,357,189234,1,10,0:0:0:0:
403,357,189478,2,0,B|423:214,1,118.75,0|0,0:0|0:0,0:0:0:0:
265,84,189722,6,0,B|217:110|217:110|206:158|210:212|210:212|283:250,1,213.750008153916,6|0,3:2|0:0,0:0:0:0:
170,42,190210,2,0,B|126:64|126:64|108:151|115:251|115:251|158:271,1,285,14|0,0:0|0:0,0:0:0:0:
80,0,190697,2,0,B|48:22|48:22|38:121,1,118.75,6|0,3:2|0:0,0:0:0:0:
337,170,190941,2,0,B|333:131|333:131|253:73,1,118.75,2|0,0:0|0:0,0:0:0:0:
30,304,191185,5,10,0:0:0:0:
212,166,191307,1,2,0:0:0:0:
39,101,191429,2,0,L|17:244,1,95,2|0,0:0|0:0,0:0:0:0:
269,338,191673,6,0,P|240:198|176:140,1,190,6|0,3:2|0:0,0:0:0:0:
104,247,192039,1,0,0:0:0:0:
172,368,192161,2,0,P|194:315|183:252,1,95,8|0,0:0|0:0,0:0:0:0:
39,101,192405,2,0,P|133:104|220:67,1,190,6|0,0:0|3:0,0:0:0:0:
220,67,192893,6,0,B|254:51|269:31|269:31|308:54|307:143,1,142.5,6|0,3:2|2:0,0:0:0:0:
304,100,193380,6,0,B|308:164|384:209|384:209|437:134|403:74,1,285,6|0,0:0|0:0,0:0:0:0:
138,138,193868,5,2,0:0:0:0:
226,198,193990,1,2,0:0:0:0:
220,67,194112,2,0,P|150:52|99:61,1,80.750001540184,10|0,0:0|0:0,0:0:0:0:
332,269,194356,2,0,P|379:215|397:167,1,80.750001540184,2|0,0:0|0:0,0:0:0:0:
127,276,194600,2,0,P|149:344|182:383,1,80.750001540184,2|0,3:2|0:0,0:0:0:0:
309,157,194844,2,0,P|336:49|323:-19,1,161.500003080368,2|8,0:0|0:0,0:0:0:0:
29,151,195332,1,2,0:0:0:0:
139,135,195453,1,0,3:0:0:0:
65,55,195575,6,0,P|127:179|116:312,1,237.5,6|0,3:2|0:0,0:0:0:0:
343,42,195941,2,0,P|310:176|216:271,1,237.5,6|0,3:2|0:0,0:0:0:0:
36,199,196307,1,6,0:0:0:0:
175,210,196429,1,0,3:0:0:0:
92,338,196551,2,0,P|18:327|-20:297,1,80.750001540184,2|0,3:2|0:0,0:0:0:0:
182,115,196795,2,0,P|219:101|260:101,1,80.750001540184,2|0,3:2|0:0,0:0:0:0:
400,333,197039,1,8,0:0:0:0:
400,333,197283,2,0,P|365:291|353:230,1,80.750001540184,2|0,0:0|0:0,0:0:0:0:
405,89,197527,6,0,B|387:143|387:143|335:160|285:150|285:150|247:77,1,213.750008153916,6|0,3:2|0:0,0:0:0:0:
453,182,198015,2,0,B|432:231|432:231|341:251|245:242|245:242|225:199,1,285,14|0,0:0|0:0,0:0:0:0:
472,0,198502,2,0,B|499:73|499:73|478:123,1,118.75,6|0,3:2|0:0,0:0:0:0:
174,325,198746,2,0,L|150:203,1,118.75,2|0,0:0|0:0,0:0:0:0:
301,47,198990,5,10,0:0:0:0:
300,233,199112,1,2,0:0:0:0:
86,141,199234,2,0,B|150:119|150:119|175:129,1,95,2|0,0:0|0:0,0:0:0:0:
441,374,199478,2,0,P|328:331|201:347,1,190,6|0,3:2|0:0,0:0:0:0:
106,370,199844,1,0,0:0:0:0:
151,208,199966,2,0,P|71:231|46:250,1,95,8|0,0:0|0:0,0:0:0:0:
371,267,200210,2,0,B|405:207|405:207|367:55,1,190,6|0,0:0|3:0,0:0:0:0:
375,89,200697,6,0,B|340:84|340:84|301:100|301:100|207:87,1,142.5,6|0,3:2|0:0,0:0:0:0:
236,91,201185,6,0,B|176:80|176:80|159:53|159:53|86:40|86:40|126:152,1,285,6|0,0:0|0:0,0:0:0:0:
155,274,201673,1,2,0:0:0:0:
216,205,201795,1,2,0:0:0:0:
67,230,201917,2,0,L|52:350,1,80.750001540184,10|0,0:0|0:0,0:0:0:0:
307,199,202161,2,0,B|325:166|325:166|310:107,1,80.750001540184,2|0,0:0|0:0,0:0:0:0:
250,297,202405,2,0,B|232:330|232:330|242:371,1,80.750001540184,2|0,3:2|0:0,0:0:0:0:
418,198,202649,2,0,L|446:30,1,161.500003080368,2|8,0:0|0:0,0:0:0:0:
444,38,203380,6,0,P|393:67|352:195,1,118.75,6|0,3:2|0:0,0:0:0:0:
277,249,203624,1,2,0:0:0:0:
418,198,203746,2,0,B|300:154|291:304|109:180,1,237.5,6|0,0:0|0:0,0:0:0:0:
131,325,204112,1,6,0:0:0:0:
277,249,204234,1,0,3:0:0:0:
145,147,204356,2,0,P|77:161|6:213,1,118.75,2|0,3:2|0:0,0:0:0:0:
359,115,204600,2,0,P|380:49|371:-38,1,118.75,0|0,3:0|0:0,0:0:0:0:
288,337,204844,1,10,0:0:0:0:
288,337,205332,5,6,3:2:0:0:
