osu file format v14

[General]
AudioFilename: Koiiro Iris.mp3
AudioLeadIn: 0
PreviewTime: 71582
Countdown: 0
SampleSet: Soft
StackLeniency: 0.7
Mode: 0
LetterboxInBreaks: 1
WidescreenStoryboard: 0

[Editor]
DistanceSpacing: 1
BeatDivisor: 4
GridSize: 32
TimelineZoom: 1

[Metadata]
Title:Koiiro Iris
TitleUnicode:こいいろアイリス
Artist:Shoji Aya (CV: Taneda Risa)
ArtistUnicode:小路 綾(CV:種田梨沙)
Creator:Rizia
Version:Normal
Source:ハロー!!きんいろモザイク
Tags:Hello!! Kin-iro Mosaic character song kawaiwkyik yogurtt flask appleeaterx pata-mon pata mon
BeatmapID:1185876
BeatmapSetID:450441

[Difficulty]
HPDrainRate:3
CircleSize:4
OverallDifficulty:3
ApproachRate:4.5
SliderMultiplier:1.09999990463257
SliderTickRate:2

[Events]
//Background and Video events
0,0,"bg.jpg",0,0
//Break Periods
2,23329,30009
2,55529,62009
2,115529,122009
2,147529,154009
2,208496,223676
//Storyboard Layer 0 (Background)
//Storyboard Layer 1 (Fail)
//Storyboard Layer 2 (Pass)
//Storyboard Layer 3 (Foreground)
//Storyboard Sound Samples

[TimingPoints]
663,333.333333333333,4,1,0,100,1,0
1996,-133.333333333333,4,2,1,50,0,0
22996,-100,4,2,1,50,0,0
23329,-100,4,2,1,70,0,0
32329,-100,4,2,1,70,0,0
33996,-100,4,2,1,60,0,0
44662,-100,4,2,1,60,0,0
49996,-100,4,2,1,60,0,0
52996,-100,4,2,2,60,0,0
53162,-100,4,2,1,60,0,0
54329,-100,4,2,2,60,0,0
54662,-100,4,2,1,60,0,0
55329,-100,4,2,1,40,0,0
63329,-100,4,2,1,60,0,0
65996,-100,4,2,1,60,0,0
70329,-100,4,2,2,60,0,0
70496,-100,4,2,1,60,0,0
72662,-100,4,2,99,80,0,1
72746,-100,4,2,1,80,0,1
75662,-100,4,2,2,80,0,1
75829,-100,4,2,1,80,0,1
80996,-100,4,2,2,80,0,1
81162,-100,4,2,1,80,0,1
82329,-100,4,2,2,80,0,1
82496,-100,4,2,1,80,0,1
87662,-100,4,2,2,80,0,1
87829,-100,4,2,1,80,0,1
88996,-100,4,2,2,80,0,1
89162,-100,4,2,1,80,0,1
90329,-100,4,2,2,80,0,1
90496,-100,4,2,1,80,0,1
91662,-100,4,2,2,80,0,1
91829,-100,4,2,1,80,0,1
93912,-100,4,2,1,80,0,0
93996,-100,4,2,1,80,0,1
96996,-100,4,2,2,80,0,1
97162,-100,4,2,1,80,0,1
98329,-100,4,2,2,80,0,1
98496,-100,4,2,1,80,0,1
102329,-100,4,2,2,80,0,1
102496,-100,4,2,1,80,0,1
103662,-100,4,2,2,80,0,1
103829,-100,4,2,1,80,0,1
112996,-100,4,2,2,80,0,1
113162,-100,4,2,1,80,0,1
115329,-100,4,2,1,60,0,0
124329,-100,4,2,1,60,0,0
125996,-100,4,2,1,60,0,0
127662,-100,4,2,2,60,0,0
127829,-100,4,2,1,60,0,0
129662,-100,4,2,2,60,0,0
129829,-100,4,2,1,60,0,0
134329,-100,4,2,2,60,0,0
134496,-100,4,2,1,60,0,0
136662,-100,4,2,1,60,0,0
141996,-100,4,2,1,60,0,0
143662,-100,4,2,2,60,0,0
143829,-100,4,2,1,60,0,0
144996,-100,4,2,2,60,0,0
145162,-100,4,2,1,60,0,0
146329,-100,4,2,2,60,0,0
146662,-100,4,2,1,60,0,0
147329,-100,4,2,1,60,0,0
156496,-100,4,2,1,60,0,0
157996,-100,4,2,1,60,0,0
160496,-100,4,2,2,60,0,0
160662,-100,4,2,1,60,0,0
162329,-100,4,2,2,60,0,0
162496,-100,4,2,1,60,0,0
163829,-100,4,2,1,30,0,0
163996,-100,4,2,1,40,0,0
164162,-100,4,2,1,50,0,0
164329,-100,4,2,1,60,0,0
164496,-100,4,2,1,70,0,0
164662,-100,4,2,99,80,0,1
164746,-100,4,2,1,80,0,1
167662,-100,4,2,2,80,0,1
167829,-100,4,2,1,80,0,1
172996,-100,4,2,2,80,0,1
173162,-100,4,2,1,80,0,1
174329,-100,4,2,2,80,0,1
174496,-100,4,2,1,80,0,1
179662,-100,4,2,2,80,0,1
179829,-100,4,2,1,80,0,1
180996,-100,4,2,2,80,0,1
181162,-100,4,2,1,80,0,1
182329,-100,4,2,2,80,0,1
182496,-100,4,2,1,80,0,1
183662,-100,4,2,2,80,0,1
183829,-100,4,2,1,80,0,1
185912,-100,4,2,1,80,0,0
185996,-100,4,2,1,80,0,1
188996,-100,4,2,2,80,0,1
189162,-100,4,2,1,80,0,1
190329,-100,4,2,2,80,0,1
190496,-100,4,2,1,80,0,1
194329,-100,4,2,2,80,0,1
194496,-100,4,2,1,80,0,1
195662,-100,4,2,2,80,0,1
195829,-100,4,2,1,80,0,1
204996,-100,4,2,2,80,0,1
205162,-100,4,2,1,80,0,1
207329,-100,4,2,1,80,0,0
217996,-100,4,2,1,80,0,0
219329,-100,4,2,1,60,0,0
224662,-100,4,2,1,40,0,0
226829,-100,4,2,1,60,0,0
227329,-100,4,2,1,60,0,0
229329,-100,4,2,1,60,0,0
229996,-100,4,2,99,80,0,1
230079,-100,4,2,1,80,0,1
230329,-100,4,2,2,80,0,1
230496,-100,4,2,1,80,0,1
234329,-100,4,2,2,80,0,1
234496,-100,4,2,1,80,0,1
238329,-100,4,2,2,80,0,1
238496,-100,4,2,1,80,0,1
243662,-100,4,2,2,80,0,1
243829,-100,4,2,1,80,0,1
244996,-100,4,2,2,80,0,1
245162,-100,4,2,1,80,0,1
248996,-100,4,2,2,80,0,1
249162,-100,4,2,1,80,0,1
250329,-100,4,2,2,80,0,1
250496,-100,4,2,1,80,0,1
251662,-100,4,2,2,80,0,1
251829,-100,4,2,1,80,0,1
257996,-100,4,2,2,80,0,1
258496,-100,4,2,1,80,0,1
258996,-100,4,2,2,80,0,1
259329,-100,4,2,1,80,0,1
261996,-100,4,2,1,80,0,0

[Colours]
Combo1 : 255,0,0
Combo2 : 0,64,128
Combo3 : 255,128,192

[HitObjects]
59,325,1996,6,0,P|35:273|137:309,1,247.5,0|0,0:0|0:0,0:0:0:0:
204,352,3329,2,0,P|223:309|121:143,1,247.5,0|0,0:0|0:0,0:0:0:0:
57,123,4663,5,0,0:0:0:0:
25,284,5329,1,0,0:0:0:0:
188,308,5996,1,0,0:0:0:0:
304,191,6663,2,0,L|316:91,1,82.5,0|0,0:0|0:0,0:0:0:0:
309,26,7329,6,0,B|349:39|391:17|391:17|386:57|424:76|424:76|401:115|436:174,1,247.499987983704
472,230,8663,2,0,B|427:258|378:226|378:226|359:276|300:278|300:278|317:300|318:332,1,247.5,0|0,0:0|0:0,0:0:0:0:
246,363,9996,5,0,0:0:0:0:
81,351,10663,1,0,0:0:0:0:
169,212,11329,1,0,0:0:0:0:
26,129,11996,2,0,L|17:47,2,82.5,0|0|0,0:0|0:0|0:0,0:0:0:0:
47,292,13329,5,0,0:0:0:0:
205,339,13996,2,0,B|288:312|283:370|372:333,2,165,0|0|0,0:0|0:0|0:0,0:0:0:0:
126,193,15996,1,0,0:0:0:0:
218,55,16663,2,0,P|280:40|316:120,1,165,0|0,0:0|0:0,0:0:0:0:
385,269,17996,6,0,P|431:265|485:263,1,82.5,0|0,0:0|0:0,0:0:0:0:
501,338,18663,2,0,P|455:342|401:344,1,82.5,0|0,0:0|0:0,0:0:0:0:
341,371,19329,2,0,P|295:367|241:365,1,82.5,0|0,0:0|0:0,0:0:0:0:
176,375,19996,2,0,P|153:340|129:306,1,82.5,0|0,0:0|0:0,0:0:0:0:
63,257,20663,1,0,0:0:0:0:
256,192,20829,12,8,22996,0:0:0:0:
61,233,31329,6,0,P|50:192|80:123,1,109.999992370605,6|8,0:0|0:0,0:0:0:0:
121,104,31829,2,0,L|238:116,1,109.999992370605,6|8,0:0|0:0,0:0:0:0:
276,145,32329,6,0,B|378:182|458:101|458:101|416:234,1,329.999969482422,4|0,0:0|0:0,0:0:0:0:
391,273,33496,2,0,L|401:342,1,54.9999961853027,0|8,0:0|0:0,0:0:0:0:
298,372,33996,6,0,L|168:363,1,109.999992370605,4|8,0:0|0:0,0:0:0:0:
133,359,34496,1,0,0:0:0:0:
44,293,34829,2,0,P|35:263|37:220,1,54.9999961853027,0|8,0:0|0:0,0:0:0:0:
46,185,35162,6,0,P|97:179|161:218,1,109.999992370605
197,229,35662,2,0,P|248:235|312:196,1,109.999992370605,8|0,0:0|0:0,0:0:0:0:
349,112,36329,1,8,0:0:0:0:
284,22,36663,2,0,P|233:16|169:55,1,109.999992370605,0|8,0:0|0:0,0:0:0:0:
156,90,37163,2,0,L|141:212,1,109.999992370605,0|0,0:0|0:0,0:0:0:0:
137,254,37663,1,8,0:0:0:0:
66,337,37996,6,0,L|-4:353,2,54.9999961853027,0|0|8,0:0|0:0|0:0,0:0:0:0:
115,360,38496,2,0,P|130:321|121:239,1,109.999992370605,0|0,0:0|0:0,0:0:0:0:
90,212,38996,2,0,L|-26:225,2,109.999992370605,8|0|8,0:0|0:0|0:0,0:0:0:0:
149,119,39996,1,0,0:0:0:0:
149,119,40163,2,0,L|161:64,1,54.9999961853027,0|8,0:0|0:0,0:0:0:0:
256,0,40663,6,0,L|271:127,1,109.999992370605,0|8,0:0|0:0,0:0:0:0:
374,78,41329,2,0,L|389:205,1,109.999992370605,0|8,0:0|0:0,0:0:0:0:
460,268,41996,2,0,P|449:319|381:359,1,109.999990463257,0|8,0:0|0:0,0:0:0:0:
353,370,42496,1,0,0:0:0:0:
353,370,42662,2,0,L|222:357,1,109.999990463257,0|8,0:0|0:0,0:0:0:0:
134,374,43329,6,0,B|108:326|108:326|119:258,1,109.999990463257,4|8,0:0|0:0,0:0:0:0:
124,216,43829,1,8,0:0:0:0:
124,216,43996,2,0,L|191:207,2,54.9999952316285,0|0|8,0:0|0:0|0:0,0:0:0:0:
40,144,44662,6,0,P|32:98|170:57,1,219.999980926514,4|0,0:0|0:0,0:0:0:0:
210,81,45496,2,0,L|325:74,1,109.999990463257,8|0,0:0|0:0,0:0:0:0:
422,34,46162,1,0,0:0:0:0:
422,34,46329,2,0,P|432:82|429:155,1,109.999990463257,0|0,0:0|0:0,0:0:0:0:
405,191,46829,2,0,L|394:256,1,54.9999952316285,8|0,0:0|0:0,0:0:0:0:
367,292,47162,2,0,L|378:357,1,54.9999952316285,8|4,0:0|0:0,0:0:0:0:
269,375,47662,5,0,0:0:0:0:
269,375,47829,2,0,L|137:365,1,109.999990463257,0|8,0:0|0:0,0:0:0:0:
49,374,48496,2,0,P|28:341|147:278,1,219.999980926514,4|0,0:0|0:0,0:0:0:0:
196,284,49329,2,0,P|203:236|212:170,1,109.999990463257,0|0,0:0|0:0,0:0:0:0:
201,65,49996,6,0,P|146:72|92:80,1,109.999990463257,4|8,0:0|0:0,0:0:0:0:
37,89,50496,2,0,P|44:143|52:197,1,109.999990463257,0|0,0:0|0:0,0:0:0:0:
55,252,50996,1,8,0:0:0:0:
121,339,51329,2,0,P|160:353|233:346,1,109.999990463257,0|8,0:0|0:0,0:0:0:0:
332,313,51996,2,0,P|386:306|438:322,1,109.999990463257,0|8,0:0|0:0,0:0:0:0:
500,231,52662,6,0,P|487:183|330:193,1,219.999980926514,4|0,0:0|0:0,0:0:0:0:
255,241,53662,1,8,0:0:0:0:
169,173,53996,2,0,P|70:145|12:231,1,219.999980926514,4|0,0:0|0:0,0:0:0:0:
52,333,54996,2,0,L|175:324,1,109.999990463257,0|4,0:0|0:0,0:0:0:0:
256,192,63329,12,4,65996,0:0:0:0:
156,172,67162,6,0,B|211:210|257:184|257:184|282:113,1,164.999985694885,4|8,0:0|0:0,0:0:0:0:
317,93,67829,2,0,P|343:80|430:91,1,109.999990463257,0|0,0:0|0:0,0:0:0:0:
465,118,68329,1,8,0:0:0:0:
489,225,68662,6,0,L|471:353,1,109.999990463257,4|8,0:0|0:0,0:0:0:0:
425,360,69162,2,0,L|440:251,1,109.999990463257,4|0,0:0|0:0,0:0:0:0:
398,214,69662,1,8,0:0:0:0:
347,192,69829,2,0,B|299:232|308:315|308:315|242:360|169:298,1,274.999976158142,4|0,0:0|0:0,0:0:0:0:
72,274,70996,1,0,0:0:0:0:
11,365,71329,1,8,0:0:0:0:
31,75,72662,6,0,B|82:55|82:55|161:65,1,109.999990463257,6|8,0:0|0:0,0:0:0:0:
223,130,73329,2,0,B|277:136|277:136|328:116,1,109.999990463257,2|8,0:0|0:0,0:0:0:0:
423,60,73996,2,0,L|409:189,1,109.999990463257,2|8,0:0|0:0,0:0:0:0:
496,247,74662,2,0,L|482:376,1,109.999990463257,2|8,0:0|0:0,0:0:0:0:
375,337,75329,6,0,P|336:313|191:388,1,219.999980926514,2|2,0:0|0:0,0:0:0:0:
91,339,76329,1,8,0:0:0:0:
29,248,76662,2,0,P|73:229|148:242,1,109.999990463257,2|8,0:0|0:0,0:0:0:0:
233,189,77329,2,0,L|247:75,1,109.999990463257,2|8,0:0|0:0,0:0:0:0:
153,20,77996,6,0,L|139:134,1,109.999990463257,2|8,0:0|0:0,0:0:0:0:
233,189,78662,2,0,B|284:211|284:211|355:195,1,109.999990463257,2|8,0:0|0:0,0:0:0:0:
435,150,79329,1,2,0:0:0:0:
462,256,79662,1,8,0:0:0:0:
387,337,79996,1,2,0:0:0:0:
279,315,80329,1,8,0:0:0:0:
176,354,80662,6,0,P|103:375|50:248,1,219.999980926514,4|2,0:0|0:0,0:0:0:0:
101,174,81662,1,8,0:0:0:0:
184,245,81996,2,0,B|317:286|268:207|414:255,1,219.999980926514,2|2,0:0|0:0,0:0:0:0:
493,192,82996,1,10,0:0:0:0:
457,87,83329,6,0,P|418:59|337:67,1,109.999990463257,6|8,0:0|0:0,0:0:0:0:
309,84,83829,2,0,L|186:73,1,109.999990463257,2|2,0:0|0:0,0:0:0:0:
144,66,84329,1,8,0:0:0:0:
61,138,84662,2,0,P|33:178|40:252,2,109.999990463257,0|8|2,0:0|0:0|0:0,0:0:0:0:
141,213,85662,1,8,0:0:0:0:
219,290,85996,6,0,P|246:249|240:176,2,109.999990463257,2|10|2,0:0|0:0|0:0,0:0:0:0:
141,213,86996,1,10,0:0:0:0:
114,319,87329,2,0,B|172:328|220:291|220:291|263:341|331:331,1,219.999980926514,2|2,0:0|0:0,0:0:0:0:
416,290,88329,1,8,0:0:0:0:
484,204,88662,6,0,B|519:148|505:81|505:81|471:36|399:51,1,219.999980926514,4|2,0:0|0:0,0:0:0:0:
326,99,89662,1,8,0:0:0:0:
228,150,89996,2,0,B|141:153|76:133|94:34|162:57,1,219.999980926514,2|2,0:0|0:0,0:0:0:0:
258,14,90996,1,8,0:0:0:0:
326,99,91329,6,0,P|338:152|233:261,1,219.999980926514,4|2,0:0|0:0,0:0:0:0:
132,217,92329,1,8,0:0:0:0:
32,263,92662,2,0,L|41:386,2,109.999990463257,4|8|8,0:0|0:0|0:0,0:0:0:0:
19,153,93662,1,8,0:0:0:0:
87,66,93996,6,0,P|123:44|205:51,1,109.999990463257,6|8,0:0|0:0,0:0:0:0:
295,14,94662,2,0,P|332:34|366:108,1,109.999990463257,2|8,0:0|0:0,0:0:0:0:
468,130,95329,2,0,P|469:172|421:239,1,109.999990463257,2|8,0:0|0:0,0:0:0:0:
446,339,95996,2,0,P|410:361|328:353,1,109.999990463257,2|8,0:0|0:0,0:0:0:0:
237,331,96662,6,0,B|165:313|126:361|126:361|65:378|10:340,1,219.999980926514,2|2,0:0|0:0,0:0:0:0:
2,245,97662,1,8,0:0:0:0:
55,148,97996,2,0,P|114:133|118:255,1,219.999980926514,2|2,0:0|0:0,0:0:0:0:
55,338,98996,1,8,0:0:0:0:
159,373,99329,6,0,P|202:369|271:358,1,109.999990463257,2|8,0:0|0:0,0:0:0:0:
318,260,99996,2,0,P|275:264|206:275,1,109.999990463257,2|8,0:0|0:0,0:0:0:0:
113,219,100662,2,0,P|104:164|98:110,1,109.999990463257,2|8,0:0|0:0,0:0:0:0:
187,44,101329,2,0,P|195:98|201:152,1,109.999990463257,2|8,0:0|0:0,0:0:0:0:
280,229,101996,6,0,P|320:245|419:127,1,219.999980926514,2|2,0:0|0:0,0:0:0:0:
379,32,102996,1,8,0:0:0:0:
273,62,103329,2,0,P|234:91|64:78,1,219.999980926514,2|2,0:0|0:0,0:0:0:0:
6,172,104329,1,10,0:0:0:0:
98,231,104662,6,0,L|111:351,1,109.999990463257,4|8,0:0|0:0,0:0:0:0:
154,373,105162,2,0,P|195:365|337:350,1,164.999985694885,2|8,0:0|0:0,0:0:0:0:
427,359,105996,1,0,0:0:0:0:
448,251,106329,1,8,0:0:0:0:
338,254,106662,1,2,0:0:0:0:
359,146,106995,1,8,0:0:0:0:
248,148,107329,6,0,L|121:163,1,109.999990463257,2|8,0:0|0:0,0:0:0:0:
87,180,107829,2,0,P|66:156|125:41,1,164.999985694885,2|8,0:0|0:0,0:0:0:0:
210,12,108662,1,2,0:0:0:0:
318,30,108996,1,8,0:0:0:0:
277,132,109329,1,2,0:0:0:0:
385,150,109663,1,8,0:0:0:0:
352,254,109996,6,0,L|367:376,1,109.999990463257,6|8,0:0|0:0,0:0:0:0:
256,374,110662,2,0,L|242:264,1,109.999990463257,2|8,0:0|0:0,0:0:0:0:
146,210,111329,2,0,L|67:202,1,54.9999952316285,4|8,0:0|0:0,0:0:0:0:
43,176,111662,2,0,P|29:136|44:58,2,109.999990463257,8|8|8,0:0|0:0|0:0,0:0:0:0:
18,283,112662,6,0,P|69:314|174:318,1,164.999985694885,4|4,0:0|0:0,0:0:0:0:
274,276,113496,1,8,0:0:0:0:
364,338,113829,2,0,B|419:357|419:357|458:321|444:241,1,164.999985694885,4|8,0:0|0:0,0:0:0:0:
426,149,114662,1,10,0:0:0:0:
317,167,114996,1,14,0:0:0:0:
208,185,115329,1,4,0:0:0:0:
451,233,123329,6,0,P|462:192|432:123,1,109.999992370605,4|8,0:0|0:0,0:0:0:0:
391,104,123829,2,0,L|274:116,1,109.999992370605,4|8,0:0|0:0,0:0:0:0:
234,86,124329,2,0,B|174:111|177:176|177:176|243:228|243:228|183:278|197:359,1,329.999971389771,4|0,0:0|0:0,0:0:0:0:
239,376,125496,2,0,L|307:365,1,54.9999952316285,0|0,0:0|0:0,0:0:0:0:
402,378,125996,6,0,P|418:336|403:256,1,109.999990463257,4|8,0:0|0:0,0:0:0:0:
370,234,126496,1,0,0:0:0:0:
375,124,126829,2,0,P|410:113|447:116,2,54.9999952316285,0|8|0,0:0|0:0|0:0,0:0:0:0:
275,170,127496,2,0,P|225:175|146:149,1,109.999990463257,0|0,0:0|0:0,0:0:0:0:
115,141,127996,2,0,L|121:260,1,109.999990463257,0|8,0:0|0:0,0:0:0:0:
89,356,128662,6,0,P|148:350|214:345,1,109.999990463257,0|8,0:0|0:0,0:0:0:0:
248,323,129162,1,0,0:0:0:0:
357,334,129496,2,0,P|402:351|470:336,2,109.999990463257,0|0|0,0:0|0:0|0:0,0:0:0:0:
326,288,130329,1,8,0:0:0:0:
346,236,130496,2,0,P|356:195|337:113,1,109.999990463257,0|0,0:0|0:0,0:0:0:0:
305,90,130996,1,8,0:0:0:0:
198,116,131329,6,0,L|62:108,1,109.999990463257,0|8,0:0|0:0,0:0:0:0:
26,200,131996,1,0,0:0:0:0:
26,200,132162,2,0,L|39:270,1,54.9999952316285,0|8,0:0|0:0,0:0:0:0:
101,342,132662,2,0,P|154:335|194:299,1,109.999990463257,0|8,0:0|0:0,0:0:0:0:
133,207,133329,2,0,P|96:167|90:113,1,109.999990463257,0|8,0:0|0:0,0:0:0:0:
149,21,133996,6,0,P|188:10|257:104,1,164.999985694885
297,132,134662,2,0,L|415:122,1,109.999990463257,0|8,0:0|0:0,0:0:0:0:
491,193,135329,2,0,P|510:243|502:304,1,109.999990463257,4|8,0:0|0:0,0:0:0:0:
457,328,135829,1,8,0:0:0:0:
457,328,135996,2,0,L|402:320,2,54.9999952316285,0|0|8,0:0|0:0|0:0,0:0:0:0:
405,230,136662,6,0,B|289:203|312:302|170:255,1,219.999980926514,4|0,0:0|0:0,0:0:0:0:
144,238,137496,2,0,P|137:183|132:106,1,109.999990463257,8|0,0:0|0:0,0:0:0:0:
27,96,138162,2,0,P|34:151|39:228,1,109.999990463257,0|0,0:0|0:0,0:0:0:0:
25,259,138662,2,0,L|75:296,1,54.9999952316285,0|8,0:0|0:0,0:0:0:0:
70,347,138996,2,0,L|130:333,1,54.9999952316285,0|8,0:0|0:0,0:0:0:0:
174,354,139329,5,4,0:0:0:0:
282,370,139662,1,0,0:0:0:0:
282,370,139829,2,0,L|401:358,1,109.999990463257,0|8,0:0|0:0,0:0:0:0:
482,297,140496,2,0,P|482:247|345:254,1,219.999980926514,4|8,0:0|0:0,0:0:0:0:
295,233,141329,2,0,P|288:191|286:157,1,54.9999952316285,8|8,0:0|0:0,0:0:0:0:
252,135,141662,2,0,P|252:92|256:58,1,54.9999952316285,0|8,0:0|0:0,0:0:0:0:
283,33,141996,6,0,P|326:16|404:36,1,109.999990463257,4|8,0:0|0:0,0:0:0:0:
442,27,142496,2,0,P|405:62|396:143,1,109.999990463257,0|0,0:0|0:0,0:0:0:0:
401,171,142996,1,8,0:0:0:0:
441,273,143329,1,0,0:0:0:0:
441,273,143496,2,0,L|320:283,1,109.999990463257,0|0,0:0|0:0,0:0:0:0:
307,331,143996,2,0,L|186:341,1,109.999990463257,0|8,0:0|0:0,0:0:0:0:
123,258,144662,6,0,P|88:208|167:91,1,219.999980926514,4|0,0:0|0:0,0:0:0:0:
256,151,145662,1,8,0:0:0:0:
347,91,145996,2,0,P|424:160|389:258,1,219.999980926514,4|0,0:0|0:0,0:0:0:0:
338,356,146996,2,0,L|228:347,1,109.999990463257,0|4,0:0|0:0,0:0:0:0:
256,192,155329,12,4,157996,0:0:0:0:
91,73,159162,6,0,P|137:54|215:68,1,109.999990463257,4|0,0:0|0:0,0:0:0:0:
240,91,159662,1,8,0:0:0:0:
240,91,159829,2,0,P|294:96|344:77,1,109.999990463257,0|0,0:0|0:0,0:0:0:0:
384,38,160329,2,0,L|364:165,1,109.999990463257,8|4,0:0|0:0,0:0:0:0:
336,252,160996,5,8,0:0:0:0:
336,252,161162,2,0,P|283:265|207:276,1,109.999990463257,4|0,0:0|0:0,0:0:0:0:
173,268,161662,1,8,0:0:0:0:
140,223,161829,2,0,B|123:156|178:103|178:103|130:44|48:74,1,274.999976158142,4|8,0:0|0:0,0:0:0:0:
4,174,162996,1,0,0:0:0:0:
44,276,163329,1,8,0:0:0:0:
126,348,163662,6,0,L|196:336,1,54.9999952316285,0|8,0:0|0:0,0:0:0:0:
227,367,163996,2,0,L|297:355,1,54.9999952316285,8|8,0:0|0:0,0:0:0:0:
323,322,164329,2,0,L|393:310,1,54.9999952316285,8|8,0:0|0:0,0:0:0:0:
427,335,164662,6,0,P|448:283|436:213,1,109.999990463257,6|8,0:0|0:0,0:0:0:0:
449,120,165329,2,0,L|316:142,1,109.999990463257,2|8,0:0|0:0,0:0:0:0:
252,72,165996,2,0,P|231:122|235:176,1,109.999990463257,2|8,0:0|0:0,0:0:0:0:
242,286,166662,2,0,L|133:268,1,109.999990463257,2|8,0:0|0:0,0:0:0:0:
36,216,167329,6,0,P|36:162|170:137,1,219.999980926514,2|2,0:0|0:0,0:0:0:0:
261,75,168329,1,8,0:0:0:0:
330,159,168662,2,0,L|311:288,2,109.999990463257,2|8|2,0:0|0:0|0:0,0:0:0:0:
436,129,169662,1,8,0:0:0:0:
505,214,169996,6,0,P|460:236|384:225,1,109.999990463257,2|8,0:0|0:0,0:0:0:0:
296,200,170662,2,0,P|318:245|307:321,1,109.999990463257,2|8,0:0|0:0,0:0:0:0:
222,364,171329,1,2,0:0:0:0:
113,347,171662,1,8,0:0:0:0:
74,243,171996,1,2,0:0:0:0:
143,158,172329,1,8,0:0:0:0:
242,204,172662,6,0,B|352:224|352:224|406:206|411:134,1,219.999980926514,4|2,0:0|0:0,0:0:0:0:
350,48,173662,1,8,0:0:0:0:
242,73,173996,2,0,B|255:161|255:161|242:203|242:203|256:294,1,219.999980926514,2|2,0:0|0:0,0:0:0:0:
175,365,174996,1,10,0:0:0:0:
71,329,175329,6,0,P|41:280|57:208,1,109.999990463257,4|8,0:0|0:0,0:0:0:0:
88,195,175829,2,0,L|105:73,1,109.999990463257,2|2,0:0|0:0,0:0:0:0:
109,31,176329,1,8,0:0:0:0:
212,67,176662,2,0,P|254:77|330:48,1,109.999990463257,0|8,0:0|0:0,0:0:0:0:
384,145,177329,2,0,P|435:126|488:136,1,109.999990463257,2|8,0:0|0:0,0:0:0:0:
448,239,177996,5,2,0:0:0:0:
383,328,178329,1,10,0:0:0:0:
274,343,178662,1,2,0:0:0:0:
192,269,178996,1,10,0:0:0:0:
261,184,179329,2,0,P|285:134|155:83,1,219.999980926514,2|2,0:0|0:0,0:0:0:0:
66,103,180329,1,10,0:0:0:0:
13,199,180662,6,0,B|91:231|144:179|144:179|127:216|139:270,1,219.999980926514,4|2,0:0|0:0,0:0:0:0:
190,352,181662,1,8,0:0:0:0:
300,356,181996,2,0,B|459:346|459:346|425:275,1,219.999980926514,2|2,0:0|0:0,0:0:0:0:
392,188,182996,1,8,0:0:0:0:
499,165,183329,6,0,P|478:121|324:102,1,219.999980926514,4|2,0:0|0:0,0:0:0:0:
253,184,184329,1,8,0:0:0:0:
156,131,184662,2,0,L|147:8,2,109.999990463257,4|8|8,0:0|0:0|0:0,0:0:0:0:
70,200,185662,1,8,0:0:0:0:
70,310,185996,6,0,L|196:289,1,109.999990463257,4|8,0:0|0:0,0:0:0:0:
274,344,186662,2,0,P|323:366|382:362,1,109.999990463257,2|8,0:0|0:0,0:0:0:0:
449,279,187329,2,0,P|399:256|340:260,1,109.999990463257,2|8,0:0|0:0,0:0:0:0:
254,196,187996,2,0,P|240:154|248:77,1,109.999990463257,2|8,0:0|0:0,0:0:0:0:
309,1,188662,6,0,P|341:-6|337:122,1,219.999980926514,2|2,0:0|0:0,0:0:0:0:
243,89,189662,1,8,0:0:0:0:
138,52,189996,2,0,P|77:42|25:169,1,219.999980926514,2|2,0:0|0:0,0:0:0:0:
74,262,190996,1,8,0:0:0:0:
180,287,191329,6,0,P|188:220|192:167,1,109.999990463257,2|8,0:0|0:0,0:0:0:0:
290,225,191996,2,0,P|286:157|280:104,1,109.999990463257,2|8,0:0|0:0,0:0:0:0:
359,36,192662,2,0,P|373:89|385:142,1,109.999990463257,2|8,0:0|0:0,0:0:0:0:
488,103,193329,2,0,P|492:157|495:212,1,109.999990463257,2|8,0:0|0:0,0:0:0:0:
482,322,193996,6,0,B|376:369|377:286|260:329,1,219.999980926514,2|2,0:0|0:0,0:0:0:0:
166,368,194996,1,8,0:0:0:0:
61,333,195329,2,0,P|31:289|118:166,1,219.999980926514,2|2,0:0|0:0,0:0:0:0:
217,144,196329,1,8,0:0:0:0:
314,195,196662,2,0,P|364:190|445:188,1,109.999990463257,4|8,0:0|0:0,0:0:0:0:
474,166,197162,2,0,P|485:124|386:54,1,164.999985694885,2|8,0:0|0:0,0:0:0:0:
300,15,197996,5,0,0:0:0:0:
206,72,198329,1,8,0:0:0:0:
98,48,198662,2,0,B|66:91|66:91|76:160,1,109.999990463257,2|8,0:0|0:0,0:0:0:0:
136,237,199329,6,0,L|265:217,1,109.999990463257,2|8,2:0|2:0,0:0:0:0:
296,202,199829,2,0,B|330:234|330:234|354:305|295:356,1,164.999985694885,2|8,0:0|0:0,0:0:0:0:
203,379,200662,1,0,0:0:0:0:
96,351,200996,1,8,0:0:0:0:
28,264,201329,2,0,P|10:210|17:140,1,109.999990463257,2|8,0:0|0:0,0:0:0:0:
55,56,201996,6,0,L|166:71,1,109.999990463257,4|8,0:0|0:0,0:0:0:0:
250,138,202662,2,0,L|361:153,1,109.999990463257,2|8,0:0|0:0,0:0:0:0:
462,116,203329,2,0,P|473:68|468:3,2,109.999990463257,4|8|8,0:0|0:0|0:0,0:0:0:0:
415,215,204329,1,8,0:0:0:0:
415,215,204496,1,0,0:0:0:0:
415,215,204662,6,0,B|430:255|429:306|429:306|384:301|346:317,1,164.999985694885,4|4,0:0|0:0,0:0:0:0:
258,362,205496,1,8,0:0:0:0:
151,336,205829,2,0,B|96:315|96:315|89:262|152:210,1,164.999985694885,4|8,0:0|0:0,0:0:0:0:
248,239,206662,1,8,0:0:0:0:
215,133,206996,1,8,0:0:0:0:
174,30,207329,6,0,L|164:98,2,54.9999952316285,8|8|8,0:0|0:0|0:0,0:0:0:0:
85,205,224996,6,0,P|71:157|86:43,1,164.999985694885,0|0,0:0|0:0,0:0:0:0:
243,90,225996,2,0,P|259:170|243:250,1,164.999985694885,0|0,0:0|0:0,0:0:0:0:
194,349,226829,2,0,L|315:342,1,109.999990463257,8|0,0:0|0:0,0:0:0:0:
256,192,227329,12,8,229329,0:0:0:0:
60,90,229996,6,0,P|99:38|251:72,1,219.999980926514,6|0,0:0|0:0,0:0:0:0:
306,141,230996,2,0,L|291:261,1,109.999990463257,8|0,0:0|0:0,0:0:0:0:
400,231,231662,2,0,L|413:121,2,109.999990463257,8|2|8,0:0|0:0|0:0,0:0:0:0:
464,320,232662,5,2,0:0:0:0:
357,348,232996,2,0,B|247:402|251:313|144:363,1,219.999980926514,10|10,0:0|0:0,0:0:0:0:
47,313,233996,2,0,P|29:262|151:187,1,219.999980926514,2|2,0:0|0:0,0:0:0:0:
254,182,234996,1,10,0:0:0:0:
282,75,235329,6,0,P|204:82|148:92,2,109.999990463257,4|8|2,0:0|0:0|0:0,0:0:0:0:
388,103,236329,1,8,0:0:0:0:
364,210,236662,2,0,P|442:217|498:227,2,109.999990463257,2|8|2,0:0|0:0|0:0,0:0:0:0:
257,181,237662,1,8,0:0:0:0:
150,209,237996,6,0,B|97:247|40:237|40:237|48:293|100:345,1,219.999980926514,4|2,0:0|0:0,0:0:0:0:
184,374,238996,1,12,0:0:0:0:
275,313,239329,6,0,L|336:306,1,54.9999952316285,4|8,0:0|0:0,0:0:0:0:
374,274,239662,2,0,L|381:335,1,54.9999952316285,12|0,0:0|0:0,0:0:0:0:
420,366,239996,2,0,L|481:359,1,54.9999952316285,8|0,0:0|0:0,0:0:0:0:
508,316,240329,2,0,L|501:255,1,54.9999952316285,8|0,0:0|0:0,0:0:0:0:
506,206,240662,6,0,P|505:167|481:89,1,109.999990463257,4|8,0:0|0:0,0:0:0:0:
390,43,241329,2,0,P|391:82|415:160,1,109.999990463257,2|8,0:0|0:0,0:0:0:0:
388,258,241996,2,0,P|335:252|265:244,1,109.999990463257,2|8,0:0|0:0,0:0:0:0:
221,152,242662,2,0,P|274:158|344:166,1,109.999990463257,2|8,0:0|0:0,0:0:0:0:
417,97,243329,6,0,P|407:55|239:39,1,219.999980926514,2|2,0:0|0:0,0:0:0:0:
151,52,244329,1,8,0:0:0:0:
63,118,244662,2,0,B|18:147|18:147|42:182|42:182|0:227|10:315,1,219.999980926514,2|2,0:0|0:0,0:0:0:0:
94,366,245662,1,8,0:0:0:0:
182,299,245996,6,0,P|224:278|300:292,1,109.999990463257,2|8,0:0|0:0,0:0:0:0:
382,335,246662,1,2,0:0:0:0:
465,263,246996,1,8,0:0:0:0:
471,153,247329,2,0,P|429:132|353:146,1,109.999990463257,2|8,0:0|0:0,0:0:0:0:
271,189,247995,1,2,0:0:0:0:
188,117,248329,1,8,0:0:0:0:
292,82,248662,6,0,L|281:319,1,219.999980926514,2|2,0:0|0:0,0:0:0:0:
192,366,249662,1,8,0:0:0:0:
86,335,249996,2,0,P|54:294|164:190,1,219.999980926514,2|2,0:0|0:0,0:0:0:0:
216,264,250996,1,10,0:0:0:0:
291,343,251329,6,0,B|396:395|396:311|515:358,1,219.999980926514,4|0,0:0|0:0,0:0:0:0:
473,248,252329,1,8,0:0:0:0:
416,153,252662,2,0,L|432:37,2,109.999990463257,0|8|2,0:0|0:0|0:0,0:0:0:0:
311,187,253662,6,0,L|295:303,2,109.999990463257,8|2|8,0:0|0:0|0:0,0:0:0:0:
271,84,254662,1,0,0:0:0:0:
161,70,254996,1,8,0:0:0:0:
104,164,255329,2,0,P|58:183|-4:184,2,109.999990463257,0|8|2,0:0|0:0|0:0,0:0:0:0:
188,234,256329,1,8,0:0:0:0:
266,311,256662,6,0,P|312:292|374:291,1,109.999990463257,4|8,0:0|0:0,0:0:0:0:
471,336,257329,2,0,P|488:285|492:230,1,109.999990463257,2|8,0:0|0:0,0:0:0:0:
454,127,257996,2,0,P|428:88|261:86,2,219.999980926514,4|2|4,0:0|0:0|0:0,0:0:0:0:
388,215,259662,5,8,0:0:0:0:
388,215,259829,2,0,L|317:205,1,54.9999952316285,4|0,0:0|0:0,0:0:0:0:
285,234,260162,2,0,L|214:224,1,54.9999952316285,0|8,0:0|0:0,0:0:0:0:
178,206,260496,1,0,0:0:0:0:
178,206,260662,2,0,L|188:325,1,109.999990463257,8|8,0:0|0:0,0:0:0:0:
89,366,261329,2,0,L|79:256,1,109.999990463257,8|12,0:0|0:0,0:0:0:0:
66,146,261996,1,4,0:0:0:0:
