osu file format v14

[General]
AudioFilename: audio.mp3
AudioLeadIn: 0
PreviewTime: 90074
Countdown: 0
SampleSet: Normal
StackLeniency: 0.4
Mode: 0
LetterboxInBreaks: 0
WidescreenStoryboard: 1

[Editor]
Bookmarks: 90277,115842
DistanceSpacing: 0.8
BeatDivisor: 4
GridSize: 4
TimelineZoom: 1

[Metadata]
Title:Eiyuu no Tsurugi
TitleUnicode:英雄の剣
Artist:Shoichiro Sakamoto
ArtistUnicode:坂本 昌一郎
Creator:audinor
Version:Insane
Source:
Tags:megalomachia sound_sepher instrumental jun.a 坂本 昌一郎 electronic cm78 eiyū ken hero's sword gensou toshokan 幻葬図書館
BeatmapID:4483078
BeatmapSetID:1864097

[Difficulty]
HPDrainRate:7
CircleSize:4
OverallDifficulty:9
ApproachRate:9
SliderMultiplier:1.6
SliderTickRate:1

[Events]
//Background and Video events
0,0,"uZddP0LH9ZOG.jpg",0,0
//Break Periods
//Storyboard Layer 0 (Background)
//Storyboard Layer 1 (Fail)
//Storyboard Layer 2 (Pass)
//Storyboard Layer 3 (Foreground)
//Storyboard Layer 4 (Overlay)
//Storyboard Sound Samples

[TimingPoints]
2553,260.869565217391,4,1,1,60,1,0
31770,-90.9090909090909,4,1,1,70,0,0
33857,-90.9090909090909,4,1,1,80,0,0
37118,-90.9090909090909,4,1,1,65,0,0
38292,-100,4,1,1,60,0,0
87596,-76.9230769230769,4,1,1,60,0,0
88118,-90.9090909090909,4,1,1,60,0,0
89292,-100,4,1,1,60,0,0
90205,-83.3333333333333,4,1,1,75,0,1
108987,-90.9090909090909,4,1,1,75,0,1
112509,-90.9090909090909,4,1,1,60,0,0
113161,-90.9090909090909,4,1,1,60,0,1
117335,-100,4,1,1,60,0,0
119422,-100,4,1,1,70,0,0
121509,-83.3333333333333,4,1,1,80,0,0
125683,-83.3333333333333,4,1,1,60,0,0
125944,-100,4,1,1,60,0,0
142379,-83.3333333333333,4,1,1,60,0,0
153726,-76.9230769230769,4,1,1,60,0,0
154118,-100,4,1,1,60,0,0
158552,-66.6666666666667,4,1,1,60,0,0
159074,-100,4,1,1,60,0,0
161161,-76.9230769230769,4,1,1,75,0,1
180205,-83.3333333333333,4,1,1,70,0,0
196118,-62.5,4,1,1,70,0,0
196639,-71.4285714285714,4,1,1,70,0,0
197683,-66.6666666666667,4,1,1,60,0,0
198726,-76.9230769230769,4,1,1,75,0,1
215422,-76.9230769230769,4,1,1,60,0,1
217509,-76.9230769230769,4,1,1,75,0,1
236552,-76.9230769230769,4,1,1,60,0,1
239813,-76.9230769230769,4,1,1,60,0,0
240466,-76.9230769230769,4,1,1,60,0,1
243335,-76.9230769230769,4,1,1,60,0,0
255074,-76.9230769230769,4,1,1,70,0,0
257161,-71.4285714285714,4,1,1,80,0,0

[Colours]
Combo1 : 255,128,64
Combo2 : 223,223,223
Combo3 : 253,187,66

[HitObjects]
136,28,2553,6,0,B|100:140|211:156,1,160,2|0,0:0|0:0,0:0:0:0:
279,141,2944,1,2,0:0:0:0:
279,141,3205,1,0,0:0:0:0:
279,141,3466,1,0,0:0:0:0:
279,141,3726,1,0,0:0:0:0:
362,180,3857,2,0,B|398:68|287:52,1,160
288,231,4248,2,0,L|304:283,2,40
62,365,4639,6,0,L|29:184,1,160,2|0,0:0|0:0,0:0:0:0:
157,204,5031,2,0,L|139:300,1,80,2|0,0:0|0:0,0:0:0:0:
101,143,5292,2,0,B|187:88|249:189,2,160
45,83,5944,1,0,0:0:0:0:
232,24,6205,6,0,B|270:70|323:29,1,80
302,41,6400,1,0,0:0:0:0:
302,41,6466,2,0,B|404:70|362:182,1,160,0|2,0:0|0:0,0:0:0:0:
312,238,6857,6,0,L|304:295,2,40
404,255,7118,1,2,0:0:0:0:
404,255,7379,1,0,0:0:0:0:
404,255,7639,1,0,0:0:0:0:
404,255,7900,1,0,0:0:0:0:
312,238,8031,2,0,B|215:237|207:99,1,160
126,136,8422,1,0,0:0:0:0:
126,136,8487,1,0,0:0:0:0:
126,136,8552,2,0,B|125:233|-13:241,1,160,0|2,0:0|0:0,0:0:0:0:
97,306,8944,6,0,L|103:357,3,40
131,360,9205,2,0,L|121:272,1,80,2|0,0:0|0:0,0:0:0:0:
312,238,9466,2,0,L|240:290,1,80,10|0,0:0|0:0,0:0:0:0:
126,136,9726,2,0,L|207:171,1,80,6|0,0:0|0:0,0:0:0:0:
195,82,9987,1,0,0:0:0:0:
260,31,10118,2,0,L|178:-4,2,80,2|0|2,0:0|0:0|0:0,0:0:0:0:
444,162,10509,1,0,0:0:0:0:
444,162,10574,1,0,0:0:0:0:
444,162,10639,2,0,B|360:154|392:249|279:237,1,160,2|4,0:0|0:0,0:0:0:0:
68,162,11161,6,0,B|152:154|120:249|233:237,2,160
67,160,11944,1,4,0:0:0:0:
21,237,12074,1,0,0:0:0:0:
88,299,12205,1,4,0:0:0:0:
139,225,12335,1,0,0:0:0:0:
67,160,12466,2,0,B|33:113|77:56,1,80,0|0,3:0|0:0,0:0:0:0:
254,74,12726,2,0,B|288:121|244:178,2,80,8|0|0,0:0|0:0|0:0,0:0:0:0:
254,74,13248,6,0,B|351:46|399:154,1,160,8|0,0:0|0:0,0:0:0:0:
338,194,13639,1,0,0:0:0:0:
396,248,13770,2,0,B|436:269|474:237,1,80,8|0,0:0|0:0,0:0:0:0:
341,305,14031,6,0,L|235:304,2,80,0|0|8,0:0|0:0|0:0,0:0:0:0:
403,364,14422,2,0,B|353:363|353:363|309:329|309:329|238:327,1,160
106,260,14813,2,0,B|156:259|156:259|200:225|200:225|271:223,1,160,8|0,0:0|0:0,0:0:0:0:
367,60,15205,5,0,0:0:0:0:
367,60,15270,1,0,0:0:0:0:
367,60,15335,2,0,B|341:9|222:76|270:150,1,160,8|0,0:0|0:0,0:0:0:0:
178,148,15726,1,0,0:0:0:0:
134,79,15857,2,0,L|39:78,2,80,8|0|0,0:0|0:0|0:0,0:0:0:0:
99,158,16248,2,0,B|101:214|161:230,1,80,0|8,0:0|0:0,0:0:0:0:
378,239,16509,6,0,B|338:154|231:209,1,160
207,300,16900,2,0,L|213:340,4,40,8|0|0|0|4,0:0|0:0|0:0|0:0|0:0,0:0:0:0:
455,290,17422,2,0,B|508:212|407:147,1,160,8|0,0:0|0:0,0:0:0:0:
388,84,17813,1,0,0:0:0:0:
460,37,17944,2,0,B|454:93|529:122,2,80,8|0|0,0:0|0:0|0:0,0:0:0:0:
280,91,18335,2,0,B|331:68|319:-11,2,80,0|8|0,0:0|0:0|0:0,0:0:0:0:
198,87,18726,1,0,0:0:0:0:
145,27,18857,1,0,0:0:0:0:
35,108,18987,2,0,L|134:107,1,80,8|0,0:0|0:0,0:0:0:0:
151,187,19248,1,0,0:0:0:0:
119,260,19379,5,0,0:0:0:0:
119,260,19444,1,0,0:0:0:0:
119,260,19509,2,0,B|174:321|174:321|269:292,1,160,8|0,0:0|0:0,0:0:0:0:
381,249,19900,2,0,B|326:188|326:188|231:217,1,160
251,210,20226,1,0,0:0:0:0:
251,210,20292,1,4,0:0:0:0:
255,83,20422,6,0,L|268:134,2,40,0|0|8,0:0|0:0|0:0,0:0:0:0:
195,29,20683,2,0,B|225:-18|300:8,1,80,4|0,0:0|0:0,0:0:0:0:
388,83,20944,1,4,0:0:0:0:
259,216,21074,6,0,L|208:201,4,40,8|0|8|0|0,0:0|0:0|0:0|0:0|0:0,0:0:0:0:
1,152,21596,6,0,B|-5:231|69:218|56:314,1,160,8|0,0:0|0:0,0:0:0:0:
14,364,21987,1,0,0:0:0:0:
94,370,22118,2,0,B|145:349|187:380,1,80,8|0,0:0|0:0,0:0:0:0:
221,294,22379,2,0,B|272:315|314:284,1,80
260,217,22639,1,8,0:0:0:0:
213,150,22770,2,0,B|169:183|175:235,2,80
349,218,23161,2,0,B|341:163|293:142,2,80,8|0|0,0:0|0:0|0:0,0:0:0:0:
262,64,23552,5,0,0:0:0:0:
262,64,23618,1,0,0:0:0:0:
262,64,23683,2,0,B|196:64|196:64|175:39|175:39|105:38,1,160,8|0,0:0|0:0,0:0:0:0:
52,102,24074,2,0,B|9:74|41:19,1,80,0|8,0:0|0:0,0:0:0:0:
71,196,24335,1,0,0:0:0:0:
71,196,24466,2,0,B|25:219|-6:164,1,80
151,232,24726,1,8,0:0:0:0:
226,175,24857,2,0,B|269:203|236:258,1,80
140,142,25118,1,0,0:0:0:0:
76,288,25248,2,0,L|92:342,4,40,8|0|0|0|4,0:0|0:0|0:0|0:0|0:0,0:0:0:0:
387,370,25770,6,0,B|425:298|425:298|341:227|398:133,2,240,8|0|0,0:0|0:0|0:0,0:0:0:0:
317,309,26683,1,0,0:0:0:0:
257,366,26813,1,8,0:0:0:0:
236,285,26944,2,0,L|252:229,2,40
177,346,27205,1,0,0:0:0:0:
154,262,27335,2,0,L|179:176,1,80,8|0,0:0|0:0,0:0:0:0:
255,18,27596,5,0,0:0:0:0:
276,99,27727,2,0,L|260:155,2,40,0|0|8,0:0|0:0|0:0,0:0:0:0:
195,78,27987,1,0,0:0:0:0:
336,39,28118,1,0,0:0:0:0:
336,39,28248,2,0,B|428:77|386:186,1,160
391,170,28574,1,0,0:0:0:0:
391,170,28639,1,4,0:0:0:0:
345,320,28770,2,0,L|335:220,1,80,0|8,0:0|0:0,0:0:0:0:
268,380,29031,2,0,L|260:273,1,80,4|0,0:0|0:0,0:0:0:0:
430,371,29292,2,0,L|425:325,1,40
500,312,29422,2,0,L|495:266,4,40,8|0|8|0|2,0:0|0:0|0:0|0:0|0:0,0:0:0:0:
388,67,29944,5,8,0:0:0:0:
388,67,30074,2,0,B|308:47|308:47|225:105,1,160,2|0,0:0|0:0,0:0:0:0:
139,141,30466,2,0,B|219:121|219:121|302:179,1,160,8|0,0:0|0:0,0:0:0:0:
385,216,30857,2,0,B|305:196|305:196|222:254,1,160,2|0,0:0|0:0,0:0:0:0:
184,312,31248,2,0,L|152:230,1,80,2|0,0:0|0:0,0:0:0:0:
77,268,31509,2,0,L|106:342,1,80,10|0,0:0|0:0,0:0:0:0:
281,370,31770,6,0,B|369:381|340:293|453:311,1,176.000005371094,2|8,0:0|0:0,0:0:0:0:
310,275,32161,2,0,B|363:204|272:185|344:96,1,176.000005371094,2|0,0:0|0:0,0:0:0:0:
230,214,32552,2,0,B|195:132|133:201|92:94,1,176.000005371094,8|0,0:0|0:0,0:0:0:0:
159,271,32944,2,0,B|70:259|100:347|-12:329,1,176.000005371094,2|0,0:0|0:0,0:0:0:0:
15,242,33335,2,0,B|15:148,1,88.000002685547,2|0,0:0|0:0,0:0:0:0:
98,197,33596,2,0,B|98:109,1,88.000002685547,10|0,0:0|0:0,0:0:0:0:
255,359,33857,6,0,B|364:407|424:277,2,176.000005371094,12|8|10,0:0|0:0|0:0,0:0:0:0:
321,292,34509,1,2,0:0:0:0:
469,242,34639,2,0,L|496:349,1,88.000002685547,8|0,0:0|0:0,0:0:0:0:
382,206,34900,1,8,0:0:0:0:
382,206,35031,2,0,L|360:120,1,88.000002685547,0|8,0:0|0:0,0:0:0:0:
421,68,35292,1,0,0:0:0:0:
263,25,35422,2,0,B|154:-23|94:107,1,176.000005371094,8|8,0:0|0:0,0:0:0:0:
212,106,35813,1,0,0:0:0:0:
212,106,35879,1,0,0:0:0:0:
212,106,35944,5,8,0:0:0:0:
144,166,36074,2,0,B|174:223|239:208,1,88.000002685547,2|0,0:0|0:0,0:0:0:0:
352,196,36335,5,2,0:0:0:0:
334,108,36465,2,0,B|270:105|250:169,1,88.000002685547,2|0,0:0|0:0,0:0:0:0:
203,273,36726,5,8,0:0:0:0:
289,301,36856,2,0,B|323:247|278:198,1,88.000002685547,4|0,0:0|0:0,0:0:0:0:
244,184,37118,5,0,0:0:0:0:
255,206,37248,5,0,0:0:0:0:
268,185,37379,5,0,0:0:0:0:
203,273,37509,6,0,L|155:365,1,88.000002685547
334,108,37770,2,0,L|375:30,1,88.000002685547,8|8,0:0|0:0,0:0:0:0:
256,192,38031,5,4,0:0:0:0:
84,17,38292,6,0,B|41:74|41:74|109:169,1,160,8|0,0:0|0:0,0:0:0:0:
145,78,38683,2,0,L|199:146,1,80,0|8,0:0|0:0,0:0:0:0:
35,230,38944,2,0,B|92:273|92:273|187:205,1,160
224,285,39335,1,8,0:0:0:0:
224,285,39596,1,0,0:0:0:0:
164,221,39726,1,0,0:0:0:0:
194,140,39857,2,0,B|242:107|304:141,1,80,8|0,0:0|0:0,0:0:0:0:
310,300,40118,6,0,B|261:404|147:336,1,160,0|8,0:0|0:0,0:0:0:0:
319,212,40509,1,0,0:0:0:0:
319,212,40639,2,0,B|368:108|482:176,1,160,0|8,0:0|0:0,0:0:0:0:
449,159,41031,2,0,B|345:110|413:-4,1,160
266,81,41422,2,0,B|370:130|302:244,2,160,8|0|8,0:0|0:0|0:0,0:0:0:0:
167,142,42074,5,8,0:0:0:0:
167,142,42139,1,8,0:0:0:0:
167,142,42205,2,0,B|146:58|146:58|229:34,1,160,4|8,0:0|0:0,0:0:0:0:
237,206,42596,2,0,B|174:266|174:266|112:206,1,160
252,116,42987,2,0,B|335:139|335:139|314:223,1,160,8|4,0:0|0:0,0:0:0:0:
283,287,43379,1,0,0:0:0:0:
325,356,43509,1,8,0:0:0:0:
361,284,43639,1,0,0:0:0:0:
317,210,43770,2,0,B|275:199|226:209,1,80
148,346,44031,2,0,B|190:360|239:350,1,80,8|0,0:0|0:0,0:0:0:0:
361,284,44292,6,0,B|438:227|370:140,2,160,4|8|0,0:0|0:0|0:0,0:0:0:0:
317,210,44944,2,0,L|246:134,1,80,0|8,0:0|0:0,0:0:0:0:
226,235,45205,2,0,L|122:231,2,80
262,151,45596,1,8,0:0:0:0:
215,78,45726,6,0,B|72:58|169:181|-19:130,1,240,0|8,0:0|0:0,0:0:0:0:
0,134,46248,2,0,L|0:183,2,40,8|8|0,0:0|0:0|0:0,0:0:0:0:
92,358,46639,6,0,L|181:358,1,80,8|0,0:0|0:0,0:0:0:0:
226,292,46900,1,0,0:0:0:0:
226,292,47031,2,0,L|315:292,1,80,0|8,0:0|0:0,0:0:0:0:
354,361,47292,2,0,B|441:363|441:363|492:282,1,160
431,232,47683,2,0,B|344:230|344:230|293:311,1,160,8|0,0:0|0:0,0:0:0:0:
261,199,48074,1,0,0:0:0:0:
171,216,48205,2,0,B|119:229|88:165,1,80,8|0,0:0|0:0,0:0:0:0:
171,216,48466,6,0,B|119:307|11:258,1,160,0|8,0:0|0:0,0:0:0:0:
35,267,48857,1,0,0:0:0:0:
6,174,48987,2,0,L|17:78,2,80,0|0|8,0:0|0:0|0:0,0:0:0:0:
6,174,49379,1,0,0:0:0:0:
110,108,49509,2,0,L|100:187,2,80,0|0|8,0:0|0:0|0:0,0:0:0:0:
110,108,49900,1,0,0:0:0:0:
111,8,50031,2,0,B|212:31|212:153,1,160,0|8,0:0|0:0,0:0:0:0:
110,287,50422,5,8,0:0:0:0:
110,287,50487,1,8,0:0:0:0:
110,287,50552,2,0,B|9:264|9:142,1,160,4|8,0:0|0:0,0:0:0:0:
182,258,50944,2,0,B|261:254|242:330|337:309,1,160,2|0,0:0|0:0,0:0:0:0:
402,287,51335,2,0,B|503:264|503:142,1,160,10|6,0:0|0:0,0:0:0:0:
500,175,51726,1,0,0:0:0:0:
463,97,51857,2,0,B|410:108|418:182,1,80,8|0,0:0|0:0,0:0:0:0:
281,57,52118,2,0,B|317:97|377:53,1,80
342,232,52379,2,0,B|358:180|290:150,1,80,8|0,0:0|0:0,0:0:0:0:
222,131,52639,6,0,B|161:121|161:121|137:136|137:136|41:118,2,160,6|8|0,0:0|0:0|0:0,0:0:0:0:
181,207,53292,1,0,0:0:0:0:
226,279,53422,2,0,L|226:367,1,80,8|0,0:0|0:0,0:0:0:0:
142,286,53683,6,0,B|94:270|95:209,1,80,8|8,0:0|0:0,0:0:0:0:
95,226,53879,1,8,0:0:0:0:
95,226,53944,1,0,0:0:0:0:
270,208,54074,6,0,B|324:229|397:199|397:199|382:260,1,160,4|0,0:0|0:0,0:0:0:0:
319,37,54466,6,0,L|329:152,1,80,8|0,0:0|0:0,0:0:0:0:
344,352,54726,1,2,0:0:0:0:
344,352,54987,2,0,B|290:331|217:361|217:361|232:300,1,160,8|0,0:0|0:0,0:0:0:0:
205,253,55379,2,0,B|138:223|138:223|99:232|64:283,2,160
270,208,56031,2,0,B|337:238|337:238|376:229|411:178,1,160,8|0,0:0|0:0,0:0:0:0:
356,119,56422,1,0,0:0:0:0:
401,48,56552,2,0,L|499:48,1,80,8|0,0:0|0:0,0:0:0:0:
356,119,56813,6,0,L|258:119,1,80
404,186,57074,2,0,B|459:232|448:290|408:327,1,160,8|0,0:0|0:0,0:0:0:0:
357,260,57466,1,0,0:0:0:0:
327,337,57596,2,0,L|247:336,1,80,8|0,0:0|0:0,0:0:0:0:
186,192,57857,2,0,B|228:234|219:278,1,80
169,328,58118,2,0,B|111:343|78:313,1,80,8|0,0:0|0:0,0:0:0:0:
102,168,58379,2,0,B|160:77|248:137,1,160,0|8,0:0|0:0,0:0:0:0:
373,0,58770,5,8,0:0:0:0:
373,0,58835,1,8,0:0:0:0:
373,0,58900,2,0,B|315:91|227:31,1,160,4|8,0:0|0:0,0:0:0:0:
362,133,59292,2,0,B|372:178|372:178|322:227|350:290,1,160
442,356,59683,2,0,B|432:311|432:311|482:262|454:199,1,160,8|4,0:0|0:0,0:0:0:0:
150,133,60205,1,8,0:0:0:0:
150,133,60335,2,0,B|140:178|140:178|190:227|162:290,1,160
70,356,60726,2,0,B|80:311|80:311|30:262|58:199,1,160,8|4,0:0|0:0,0:0:0:0:
244,369,61248,6,0,L|272:278,1,80,8|0,0:0|0:0,0:0:0:0:
316,230,61509,2,0,L|288:139,1,80
241,91,61770,2,0,L|269:0,2,80,8|0|0,0:0|0:0|0:0,0:0:0:0:
167,117,62161,1,0,0:0:0:0:
167,117,62292,1,8,0:0:0:0:
64,11,62422,6,0,B|111:-14|161:16|161:16|64:33|82:138,1,240,0|8,0:0|0:0,0:0:0:0:
147,262,62944,1,8,0:0:0:0:
147,262,63009,1,8,0:0:0:0:
147,262,63074,2,0,B|105:180|-9:211,2,160,4|8|0,0:0|0:0|0:0,0:0:0:0:
227,215,63726,2,0,B|269:297|383:266,1,160
363,270,64248,1,0,0:0:0:0:
319,191,64379,2,0,B|290:141|338:83,1,80,8|0,0:0|0:0,0:0:0:0:
410,113,64639,2,0,B|439:163|391:221,1,80
251,63,64900,2,0,B|281:18|350:29,1,80,8|0,0:0|0:0,0:0:0:0:
496,219,65161,2,0,B|452:313|342:261,2,160,0|8|0,0:0|0:0|0:0,0:0:0:0:
411,189,65813,1,0,0:0:0:0:
309,331,65944,6,0,L|229:331,1,80,8|0,0:0|0:0,0:0:0:0:
189,245,66205,2,0,L|269:245,1,80
141,320,66466,2,0,B|84:320|84:320|57:284|57:284|-2:283,1,160,8|0,0:0|0:0,0:0:0:0:
109,219,66857,1,0,0:0:0:0:
38,171,66987,2,0,L|59:89,1,80,8|0,0:0|0:0,0:0:0:0:
69,85,67183,1,0,0:0:0:0:
80,77,67248,2,0,B|147:107|185:52|185:52|269:56|300:140,2,240,4|0|8,0:0|0:0|0:0,0:0:0:0:
117,7,68161,1,0,0:0:0:0:
210,142,68292,6,0,B|255:200|314:209|376:142,1,160,4|8,0:0|0:0,0:0:0:0:
405,0,68683,2,0,B|364:17|322:11|322:11|358:42|357:90|357:90|413:88|426:149,1,240,0|8,0:0|0:0,0:0:0:0:
423,199,69205,1,0,0:0:0:0:
423,199,69270,1,0,0:0:0:0:
423,199,69335,1,4,0:0:0:0:
234,383,69596,5,0,0:0:0:0:
157,332,69726,2,0,B|234:258|311:332,1,160,2|0,0:0|0:0,0:0:0:0:
136,235,70118,2,0,B|81:197|105:134,1,80,8|0,0:0|0:0,0:0:0:0:
333,153,70379,2,0,B|327:219|261:230,1,80,2|0,0:0|0:0,0:0:0:0:
146,107,70639,2,0,B|144:50|172:11,1,80,10|0,0:0|0:0,0:0:0:0:
241,24,70900,1,0,0:0:0:0:
241,24,70966,1,0,0:0:0:0:
241,24,71031,2,0,B|276:68|276:116,1,80,2|8,0:0|0:0,0:0:0:0:
115,307,71422,6,0,B|62:269|49:197|124:146,1,160,2|8,0:0|0:0,0:0:0:0:
163,231,71813,2,0,B|216:269|229:341|154:392,1,160,2|0,0:0|0:0,0:0:0:0:
115,307,72205,2,0,L|14:288,1,80,10|0,0:0|0:0,0:0:0:0:
163,231,72466,2,0,L|264:250,2,80,2|0|8,0:0|0:0|0:0,0:0:0:0:
97,168,72857,2,0,B|136:134|136:134|191:143|191:143|237:92,1,160,2|0,0:0|0:0,0:0:0:0:
303,121,73248,2,0,B|321:170|321:170|376:181|376:181|400:227,1,160,8|2,0:0|0:0,0:0:0:0:
213,26,73770,5,8,0:0:0:0:
213,26,73900,2,0,B|311:-18|373:85,1,160,2|0,0:0|0:0,0:0:0:0:
303,121,74292,1,8,0:0:0:0:
335,196,74422,2,0,L|317:281,2,80,0|2|0,0:0|0:0|0:0,0:0:0:0:
259,332,74813,2,0,B|214:287|260:230,1,80,8|0,0:0|0:0,0:0:0:0:
396,135,75074,2,0,B|475:207|409:301,1,160,2|10,0:0|0:0,0:0:0:0:
220,165,75466,5,0,0:0:0:0:
220,165,75531,1,0,0:0:0:0:
220,165,75596,2,0,B|175:120|221:63,1,80,2|0,0:0|0:0,0:0:0:0:
163,227,75857,1,8,0:0:0:0:
86,196,75987,2,0,L|1:177,1,80,2|0,0:0|0:0,0:0:0:0:
163,227,76248,1,0,0:0:0:0:
97,281,76379,2,0,L|9:320,1,80,10|0,0:0|0:0,0:0:0:0:
259,332,76639,6,0,B|214:287|260:230,1,80,2|0,0:0|0:0,0:0:0:0:
322,274,76900,1,8,0:0:0:0:
391,325,77031,2,0,B|424:288|414:231|381:203|381:203|431:250|499:217,1,240,2|8,0:0|0:0,0:0:0:0:
445,150,77552,1,0,0:0:0:0:
506,85,77683,2,0,B|425:30|366:113,1,160,2|8,0:0|0:0,0:0:0:0:
229,136,78074,2,0,B|310:191|369:108,1,160,2|0,0:0|0:0,0:0:0:0:
270,0,78466,2,0,L|293:96,1,80,10|2,0:0|0:0,0:0:0:0:
254,274,78726,2,0,B|309:193|226:134,1,160,2|8,0:0|0:0,0:0:0:0:
182,212,79118,1,0,0:0:0:0:
182,212,79183,1,0,0:0:0:0:
182,212,79248,2,0,L|96:188,2,80,2|2|8,0:0|0:0|0:0,0:0:0:0:
160,308,79639,1,8,0:0:0:0:
313,374,79770,6,0,B|346:335|415:363|415:363|462:375|521:317|486:258,1,240,4|2,0:0|0:0,0:0:0:0:
421,283,80292,1,0,0:0:0:0:
421,283,80422,1,0,0:0:0:0:
380,215,80552,2,0,L|399:113,1,80,8|0,0:0|0:0,0:0:0:0:
371,55,80813,6,0,B|313:64|311:133,1,80,6|0,0:0|0:0,0:0:0:0:
269,20,81074,1,8,0:0:0:0:
181,73,81205,2,0,B|202:18|143:-17,1,80,2|0,0:0|0:0,0:0:0:0:
241,135,81466,1,0,0:0:0:0:
160,168,81596,2,0,B|218:255|317:192,1,160,8|0,0:0|0:0,0:0:0:0:
135,271,82118,2,0,B|193:358|292:295,1,160,8|2,0:0|0:0,0:0:0:0:
431,177,82509,1,2,0:0:0:0:
431,177,82574,1,0,0:0:0:0:
431,177,82639,1,8,0:0:0:0:
346,113,82770,2,0,B|301:145|301:145|361:205|346:264,1,160,2|0,0:0|0:0,0:0:0:0:
273,305,83161,6,0,L|165:304,1,80,8|0,0:0|0:0,0:0:0:0:
270,228,83422,2,0,L|162:227,1,80,2|0,0:0|0:0,0:0:0:0:
188,151,83683,2,0,L|267:151,1,80,8|0,0:0|0:0,0:0:0:0:
117,99,83944,6,0,B|76:146|76:146|106:207|106:207|76:251,1,160,6|8,0:0|0:0,0:0:0:0:
11,202,84335,2,0,B|9:289|9:289|91:319,1,160
153,280,84726,2,0,B|208:269|220:197,1,80,10|0,0:0|0:0,0:0:0:0:
335,297,84987,6,0,B|242:285|224:377|224:377|175:341|130:371,2,240,6|2|8,0:0|0:0|0:0,0:0:0:0:
405,240,85900,1,0,0:0:0:0:
306,140,86031,2,0,B|299:206|346:225,1,80,6|0,0:0|0:0,0:0:0:0:
489,298,86292,2,0,B|530:191|416:154,1,160,8|0,0:0|0:0,0:0:0:0:
405,240,86683,1,0,0:0:0:0:
418,374,86813,2,0,L|521:378,1,80,8|0,0:0|0:0,0:0:0:0:
332,318,87074,2,0,L|229:322,1,80,4|0,0:0|0:0,0:0:0:0:
174,322,87335,1,8,0:0:0:0:
117,229,87466,5,0,0:0:0:0:
117,229,87531,1,0,0:0:0:0:
117,229,87596,2,0,B|174:225|174:225|191:206|191:206|280:201,2,138.666660319011,2|2|2,0:0|0:0|0:0,0:0:0:0:
290,116,88118,6,0,B|344:146|339:212,1,88.000002685547,8|0,0:0|0:0,0:0:0:0:
338,185,88379,1,8,0:0:0:0:
191,104,88509,1,0,0:0:0:0:
191,104,88639,2,0,L|191:3,2,88.000002685547,8|8|0,0:0|0:0|0:0,0:0:0:0:
321,280,89031,2,0,L|321:381,1,88.000002685547,4|0,0:0|0:0,0:0:0:0:
219,318,89292,6,0,L|174:325,2,40
121,265,89552,1,0,0:0:0:0:
196,197,89683,1,0,0:0:0:0:
99,146,89813,1,0,0:0:0:0:
176,80,89944,1,0,0:0:0:0:
176,80,90074,1,0,0:0:0:0:
99,146,90205,6,0,B|49:18|195:-16,1,191.999994140625,2|8,0:0|0:0,0:0:0:0:
350,88,90596,2,0,B|400:216|254:250,1,191.999994140625,2|0,0:0|0:0,0:0:0:0:
121,265,90987,2,0,L|10:244,1,95.9999970703126,8|0,0:0|0:0,0:0:0:0:
272,148,91248,6,0,B|400:179|377:327,2,191.999994140625,2|8|2,0:0|0:0|0:0,0:0:0:0:
284,240,91900,1,0,0:0:0:0:
328,368,92031,2,0,L|426:367,1,95.9999970703126,8|2,0:0|0:0,0:0:0:0:
162,329,92292,6,0,L|273:329,2,95.9999970703126,2|0|8,0:0|0:0|0:0,0:0:0:0:
119,126,92683,1,2,0:0:0:0:
119,126,92748,1,0,0:0:0:0:
119,126,92813,2,0,B|67:175|119:239,1,95.9999970703126,2|0,0:0|0:0,0:0:0:0:
284,240,93074,2,0,B|336:191|284:127,1,95.9999970703126,8|0,0:0|0:0,0:0:0:0:
90,13,93335,6,0,B|25:34|25:34|-6:104|19:164,1,191.999994140625,2|8,0:0|0:0,0:0:0:0:
331,320,93857,1,2,0:0:0:0:
368,233,93987,1,2,0:0:0:0:
299,156,94118,2,0,B|251:137|188:185,1,95.9999970703126,8|0,0:0|0:0,0:0:0:0:
409,381,94379,6,0,B|457:342|457:342|429:256|507:201,1,191.999994140625,6|8,0:0|0:0,0:0:0:0:
299,156,94770,2,0,B|251:195|251:195|279:281|201:336,1,191.999994140625
401,143,95161,2,0,L|387:32,1,95.9999970703126,8|0,0:0|0:0,0:0:0:0:
225,315,95422,2,0,B|190:368|104:340|104:340|54:375,1,191.999994140625,6|8,0:0|0:0,0:0:0:0:
159,268,95813,1,0,0:0:0:0:
91,211,95944,2,0,L|80:99,1,95.9999970703126
200,94,96205,2,0,L|211:206,1,95.9999970703126,8|0,0:0|0:0,0:0:0:0:
200,94,96466,6,0,B|325:113|332:263,2,191.999994140625,2|8|2,0:0|0:0|0:0,0:0:0:0:
340,59,97118,1,0,0:0:0:0:
340,59,97248,2,0,L|442:71,1,95.9999970703126,8|0,0:0|0:0,0:0:0:0:
200,94,97509,1,8,0:0:0:0:
110,84,97639,1,8,0:0:0:0:
110,84,97900,1,8,0:0:0:0:
312,290,98161,1,0,0:0:0:0:
402,300,98292,6,0,B|406:238|349:212,1,95.9999970703126,2|0,0:0|0:0,0:0:0:0:
140,202,98552,2,0,B|100:289|210:296|143:404,1,191.999994140625,6|8,0:0|0:0,0:0:0:0:
219,237,98944,2,0,B|258:149|149:143|215:34,1,191.999994140625,2|0,0:0|0:0,0:0:0:0:
40,254,99335,2,0,B|74:309|167:286,1,95.9999970703126,8|0,0:0|0:0,0:0:0:0:
219,237,99596,2,0,B|246:180|183:111,1,95.9999970703126,2|0,0:0|0:0,0:0:0:0:
93,88,99857,2,0,B|30:93|1:181,1,95.9999970703126,8|0,0:0|0:0,0:0:0:0:
40,254,100118,1,0,0:0:0:0:
120,193,100248,1,2,0:0:0:0:
120,193,100379,1,8,0:0:0:0:
120,193,100509,1,2,0:0:0:0:
200,331,100639,6,0,B|295:331|295:331|304:315|304:315|411:315,1,191.999994140625,2|8,0:0|0:0,0:0:0:0:
325,190,101031,2,0,B|264:219|264:219|412:222,1,191.999994140625
316,102,101422,2,0,L|203:149,1,95.9999970703126,8|0,0:0|0:0,0:0:0:0:
382,315,101683,2,0,L|495:268,1,95.9999970703126,2|0,0:0|0:0,0:0:0:0:
391,96,101944,2,0,B|315:101|315:101|301:27|217:22,1,191.999994140625,8|2,0:0|0:0,0:0:0:0:
171,65,102335,1,2,0:0:0:0:
103,18,102466,2,0,B|61:74|127:141,1,95.9999970703126,8|0,0:0|0:0,0:0:0:0:
170,211,102726,5,6,0:0:0:0:
181,288,102857,1,0,0:0:0:0:
105,302,102987,1,8,0:0:0:0:
89,223,103118,2,0,B|118:182|168:209|168:209|187:272|262:253,1,191.999994140625
237,173,103509,1,8,0:0:0:0:
237,173,103639,1,0,0:0:0:0:
324,176,103770,2,0,B|334:128|281:95,1,95.9999970703126,6|0,0:0|0:0,0:0:0:0:
237,173,104031,1,8,0:0:0:0:
209,62,104161,6,0,B|240:4|240:4|331:-13|373:68,1,191.999994140625,2|0,0:0|0:0,0:0:0:0:
354,39,104552,2,0,B|405:93|474:47,1,95.9999970703126,8|0,0:0|0:0,0:0:0:0:
483,231,104813,6,0,B|351:209|336:349,2,191.999994140625,6|10|0,0:0|0:0|0:0,0:0:0:0:
436,314,105466,1,0,0:0:0:0:
277,376,105596,2,0,L|172:357,1,95.9999970703126,8|0,0:0|0:0,0:0:0:0:
104,258,105857,5,8,0:0:0:0:
161,172,105987,1,8,0:0:0:0:
161,172,106052,1,8,0:0:0:0:
161,172,106118,1,0,0:0:0:0:
189,248,106248,2,0,B|105:226|155:142|50:110,1,191.999994140625,8|2,0:0|0:0,0:0:0:0:
323,136,106639,2,0,B|407:158|357:242|462:274,1,191.999994140625,0|2,0:0|0:0,0:0:0:0:
256,192,107422,1,0,0:0:0:0:
256,192,107683,5,0,0:0:0:0:
239,110,107813,1,8,0:0:0:0:
282,38,107944,1,8,0:0:0:0:
370,23,108074,1,8,0:0:0:0:
445,69,108205,1,8,0:0:0:0:
462,151,108335,1,8,0:0:0:0:
419,223,108466,1,0,0:0:0:0:
331,238,108596,1,0,0:0:0:0:
256,192,108726,1,0,0:0:0:0:
168,207,108856,1,0,0:0:0:0:
125,279,108987,1,4,0:0:0:0:
256,192,109118,12,0,112379,0:0:0:0:
296,384,112509,6,0,B|400:375|414:268,1,176.000005371094,2|0,3:0|0:0,0:0:0:0:
279,209,112900,2,0,B|267:266|341:310,1,88.000002685547,2|0,3:0|0:0,0:0:0:0:
439,171,113161,1,4,0:0:0:0:
256,192,113292,12,0,116161,0:0:0:0:
91,67,116292,5,4,0:0:0:0:
142,140,116422,2,0,B|191:116|173:49,1,88.000002685547
198,216,116683,2,0,B|285:216|281:156|372:157,2,176.000005371094,4|0|8,0:0|0:0|0:0,0:0:0:0:
376,43,117335,6,0,B|341:3|239:55|269:128,1,160,2|8,0:0|0:0,0:0:0:0:
471,222,117726,2,0,B|488:171|392:109|343:171,1,160,2|0,0:0|0:0,0:0:0:0:
371,384,118118,2,0,B|423:373|429:259|350:248,1,160,8|0,0:0|0:0,0:0:0:0:
281,255,118509,2,0,B|228:265|222:379|301:390,1,160,2|0,0:0|0:0,0:0:0:0:
279,383,118835,1,0,0:0:0:0:
279,383,118900,2,0,L|186:371,1,80,2|0,0:0|0:0,0:0:0:0:
69,281,119161,2,0,L|162:293,1,80,10|0,0:0|0:0,0:0:0:0:
72,72,119422,6,0,B|96:136|96:136|131:164|131:164|155:211,1,160,2|8,0:0|0:0,0:0:0:0:
285,0,119813,2,0,B|261:64|261:64|226:92|226:92|202:139,1,160,2|0,0:0|0:0,0:0:0:0:
254,209,120205,6,0,B|278:273|278:273|313:301|313:301|337:348,1,160,10|0,0:0|0:0,0:0:0:0:
467,137,120596,2,0,B|443:201|443:201|408:229|408:229|384:276,1,160,2|0,0:0|0:0,0:0:0:0:
194,288,120987,2,0,L|223:371,1,80,2|0,0:0|0:0,0:0:0:0:
388,81,121248,2,0,L|359:164,1,80,8|8,0:0|0:0,0:0:0:0:
136,217,121509,6,0,B|85:230|54:175|54:175|56:61,2,191.999994140625,12|8|10,0:0|0:0|0:0,0:0:0:0:
132,128,122161,1,2,0:0:0:0:
31,5,122292,2,0,B|109:-11|138:65,1,95.9999970703126,8|0,0:0|0:0,0:0:0:0:
210,73,122552,1,8,0:0:0:0:
307,31,122683,6,0,B|332:85|297:136|297:136|319:238,1,191.999994140625,2|2,0:0|0:0,0:0:0:0:
247,384,123074,2,0,L|221:270,1,95.9999970703126,8|0,0:0|0:0,0:0:0:0:
397,208,123335,2,0,B|387:262|387:262|359:295|315:295,1,95.9999970703126,8|0,0:0|0:0,0:0:0:0:
152,229,123596,5,2,0:0:0:0:
152,229,123726,2,0,L|166:173,2,47.9999985351563,2|0|0,0:0|0:0|0:0,0:0:0:0:
323,168,123988,5,2,0:0:0:0:
323,168,124118,2,0,L|309:224,2,47.9999985351563,2|0|0,0:0|0:0|0:0,0:0:0:0:
225,290,124379,5,2,0:0:0:0:
238,104,124509,1,4,0:0:0:0:
138,344,124770,6,0,B|99:396|27:377,2,95.9999970703126
225,290,125161,1,0,0:0:0:0:
225,290,125292,1,0,0:0:0:0:
310,326,125422,2,0,B|365:360|425:317,1,95.9999970703126,8|0,0:0|0:0,0:0:0:0:
211,194,125683,1,4,0:0:0:0:
211,194,125944,6,0,B|157:174|157:174|124:253|45:219,1,160,8|0,0:0|0:0,0:0:0:0:
80,147,126335,2,0,B|108:85|163:102,1,80,0|8,0:0|0:0,0:0:0:0:
186,39,126596,2,0,B|230:61|224:113|224:113|234:65|300:61,1,160
295,140,126987,2,0,B|350:132|352:75|352:75|367:119|412:116,1,160,8|0,0:0|0:0,0:0:0:0:
427,39,127379,1,0,0:0:0:0:
481,99,127509,2,0,B|483:161|436:175,1,80,8|0,0:0|0:0,0:0:0:0:
438,245,127770,6,0,L|345:243,1,80
295,301,128031,2,0,B|222:300|222:300|207:286|207:286|116:285,1,160,8|0,0:0|0:0,0:0:0:0:
99,351,128422,1,0,0:0:0:0:
99,351,128552,2,0,B|38:360|-4:307,1,80,8|0,0:0|0:0,0:0:0:0:
58,190,128813,2,0,B|119:181|161:234,1,80
58,190,129074,2,0,B|19:141|44:78,1,80,8|0,0:0|0:0,0:0:0:0:
209,39,129335,2,0,B|281:96|242:189,1,160,0|8,0:0|0:0,0:0:0:0:
178,143,129726,5,8,0:0:0:0:
178,143,129792,1,8,0:0:0:0:
178,143,129857,2,0,B|235:71|328:110,1,160,0|8,0:0|0:0,0:0:0:0:
356,255,130248,2,0,B|299:327|206:288,1,160
148,232,130639,2,0,L|48:214,1,80,8|0,0:0|0:0,0:0:0:0:
397,169,130900,2,0,L|497:187,2,80,0|0|8,0:0|0:0|0:0,0:0:0:0:
268,193,131292,1,0,0:0:0:0:
268,193,131552,5,0,0:0:0:0:
178,143,131683,2,0,B|136:107|158:42,1,80,8|0,0:0|0:0,0:0:0:0:
356,255,131944,2,0,B|398:291|376:356,1,80
255,312,132205,2,0,B|169:337|188:269|85:302,1,160,8|0,0:0|0:0,0:0:0:0:
100,297,132596,1,0,0:0:0:0:
44,361,132726,2,0,B|2:324|30:257,1,80,8|0,0:0|0:0,0:0:0:0:
30,209,132987,2,0,L|20:291,1,80
113,221,133248,1,8,0:0:0:0:
23,123,133379,2,0,B|65:127|65:127|82:54|82:54|141:60,1,160
198,108,133770,1,8,0:0:0:0:
268,70,133900,2,0,L|315:71,2,40,8|8|0,0:0|0:0|0:0,0:0:0:0:
412,242,134292,6,0,B|335:181|248:263,1,160,8|0,0:0|0:0,0:0:0:0:
337,292,134683,2,0,B|303:348|244:330|244:330|214:378,2,160
265,247,135335,2,0,B|202:234|172:304|172:304|142:351,1,160,8|0,0:0|0:3,0:0:0:0:
71,383,135726,1,0,0:3:0:0:
76,300,135857,2,0,L|121:228,1,80,8|0,0:0|0:0,0:0:0:0:
66,169,136118,6,0,B|15:136|101:31|162:92,1,160,0|8,0:0|0:0,0:0:0:0:
201,137,136509,1,0,0:0:0:0:
241,60,136639,2,0,B|274:9|379:95|318:156,1,160,0|8,0:0|0:0,0:0:0:0:
393,192,137031,2,0,L|470:169,2,80
342,253,137422,1,8,0:0:0:0:
342,253,137552,1,0,0:0:0:0:
414,294,137683,2,0,L|491:271,2,80,0|0|8,0:0|0:0|0:0,0:0:0:0:
275,309,138074,5,8,0:0:0:0:
275,309,138139,1,8,0:0:0:0:
275,309,138205,2,0,B|202:312|184:222|184:222|168:291|86:286,2,240,4|0|8,0:0|0:0|0:0,0:0:0:0:
342,253,139118,1,0,0:0:0:0:
268,223,139248,2,0,B|304:167|363:170,1,80,4|0,0:0|0:0,0:0:0:0:
342,253,139509,1,8,0:0:0:0:
413,210,139639,2,0,B|443:269|411:318,2,80
328,173,140031,2,0,B|297:113|329:64,1,80,8|8,0:0|0:0,0:0:0:0:
184,211,140292,5,4,0:0:0:0:
196,288,140422,1,0,0:0:0:0:
196,288,140683,2,0,B|131:206|175:126,1,160
139,43,141074,2,0,B|102:99|44:96,1,80,8|0,0:0|0:0,0:0:0:0:
328,173,141335,2,0,B|297:113|329:64,1,80
122,260,141596,2,0,B|189:263|215:315,1,80,8|0,0:0|0:0,0:0:0:0:
298,264,141857,1,8,0:0:0:0:
298,264,141922,1,8,0:0:0:0:
298,264,141987,2,0,L|316:360,1,80,0|8,0:0|0:0,0:0:0:0:
312,342,142379,6,0,B|235:391|119:363,1,191.999994140625,0|8,0:0|0:0,0:0:0:0:
9,310,142770,2,0,B|86:261|202:289,1,191.999994140625
220,184,143161,2,0,B|173:215|102:187,1,95.9999970703126,8|0,0:0|0:0,0:0:0:0:
168,113,143422,2,0,B|228:90|228:90|306:127|312:193,1,191.999994140625,0|8,0:0|0:0,0:0:0:0:
220,184,143813,1,0,0:0:0:0:
270,265,143944,2,0,L|377:257,1,95.9999970703126
406,174,144205,2,0,L|299:182,1,95.9999970703126,8|0,0:0|0:0,0:0:0:0:
302,358,144466,6,0,B|402:349|402:349|449:307|449:307|444:263,1,191.999994140625,0|8,0:0|0:0,0:0:0:0:
270,265,144857,2,0,B|219:268|219:268|195:323|195:323|83:331,1,191.999994140625
45,251,145248,2,0,B|138:247|138:247|115:204|115:204|114:136,1,191.999994140625,8|0,0:0|0:0,0:0:0:0:
199,185,145639,1,0,0:0:0:0:
189,90,145770,2,0,B|251:94|295:163,1,95.9999970703126,8|0,0:0|0:0,0:0:0:0:
343,86,146031,2,0,B|370:141|332:214,1,95.9999970703126
432,218,146292,2,0,B|397:269|315:273,1,95.9999970703126,8|0,0:0|0:0,0:0:0:0:
214,333,146552,6,0,B|216:292|216:292|284:218|385:286,1,191.999994140625,0|8,0:0|0:0,0:0:0:0:
214,333,146944,2,0,B|162:366|111:332,1,95.9999970703126
83,261,147205,1,0,0:0:0:0:
31,333,147335,2,0,B|83:366|134:332,1,95.9999970703126,8|0,0:0|0:0,0:0:0:0:
177,219,147596,6,0,B|111:127|9:190,1,191.999994140625,0|8,0:0|0:0,0:0:0:0:
119,161,147987,1,2,0:0:0:0:
194,140,148118,1,0,0:0:0:0:
251,92,148248,2,0,B|284:41|261:-13,1,95.9999970703126,0|10,0:0|0:0,0:0:0:0:
342,256,148639,6,0,B|347:379|490:388,1,191.999994140625,2|8,0:0|0:0,0:0:0:0:
277,186,149031,2,0,B|172:251|236:380,1,191.999994140625,2|0,0:0|0:0,0:0:0:0:
251,92,149422,2,0,B|188:59|143:127,1,95.9999970703126,10|0,0:0|0:0,0:0:0:0:
307,18,149683,2,0,B|369:50|414:-17,2,95.9999970703126,2|0|8,0:0|0:0|0:0,0:0:0:0:
409,146,150074,5,0,0:0:0:0:
409,146,150139,1,0,0:0:0:0:
409,146,150205,2,0,L|409:243,2,95.9999970703126,0|0|8,0:0|0:0|0:0,0:0:0:0:
453,76,150596,1,0,0:0:0:0:
325,226,150726,6,0,B|285:253|285:253|243:158|152:181,1,191.999994140625,6|8,0:0|0:0,0:0:0:0:
186,261,151118,2,0,B|120:290|32:183|131:117,1,191.999994140625
164,93,151509,2,0,B|230:64|318:171|219:237,1,191.999994140625,8|4,0:0|0:0,0:0:0:0:
368,373,152031,5,8,0:0:0:0:
368,373,152161,2,0,B|352:244|480:245|456:88,2,287.999991210938,0|8|0,0:0|0:0|0:0,0:0:0:0:
257,326,153074,1,8,0:0:0:0:
156,366,153205,1,0,0:0:0:0:
156,366,153270,1,0,0:0:0:0:
156,366,153335,2,0,B|96:374|58:323,1,95.9999970703126
254,235,153596,1,8,0:0:0:0:
368,372,153726,2,0,B|438:383|487:269|381:216,1,207.999990478516,4|0,0:0|0:0,0:0:0:0:
135,144,154118,5,8,0:0:0:0:
166,224,154248,1,0,0:0:0:0:
254,235,154379,2,0,B|300:231|319:154,1,80
224,55,154639,2,0,B|204:96|261:151,1,80,8|0,0:0|0:0,0:0:0:0:
395,147,154900,2,0,B|423:101|423:101|405:33|333:12,1,160,4|8,0:0|0:0,0:0:0:0:
303,79,155292,1,0,0:0:0:0:
224,55,155422,2,0,L|112:53,1,80
66,132,155683,2,0,L|145:133,1,80,8|0,0:0|0:0,0:0:0:0:
67,309,155944,6,0,B|99:217|99:217|186:217,1,160,4|8,0:0|0:0,0:0:0:0:
252,302,156335,2,0,B|159:302|159:302|137:375,1,160
229,379,156726,2,0,L|331:380,1,80,8|0,0:0|0:0,0:0:0:0:
454,179,156987,2,0,L|352:178,1,80,2|0,0:0|0:0,0:0:0:0:
364,310,157248,2,0,B|336:252|336:252|302:222|302:222|285:165|285:165,1,160,8|0,0:0|0:0,0:0:0:0:
374,178,157639,1,0,0:0:0:0:
337,99,157770,2,0,L|336:15,1,80,8|0,0:0|0:0,0:0:0:0:
287,173,158031,2,0,L|288:257,1,80
232,98,158292,1,8,0:0:0:0:
180,192,158422,5,0,0:0:0:0:
180,192,158487,1,0,0:0:0:0:
180,192,158552,2,0,B|123:193|123:193|96:158|96:158|9:158,2,160.000006103516,6|2|2,0:0|0:0|0:0,0:0:0:0:
112,284,159074,6,0,B|64:306|25:249,1,80,8|0,0:0|0:0,0:0:0:0:
159,81,159335,2,0,B|207:59|246:116,1,80,8|0,0:0|0:0,0:0:0:0:
400,284,159596,1,8,0:0:0:0:
400,284,159726,2,0,B|448:306|487:249,1,80,8|0,0:0|0:0,0:0:0:0:
353,81,159987,2,0,B|305:59|266:116,1,80,4|0,0:0|0:0,0:0:0:0:
232,271,160248,6,0,L|237:314,2,40
294,177,160509,2,0,L|299:220,2,40
353,81,160770,2,0,L|358:124,2,40
274,1,161031,1,0,0:0:0:0:
274,1,161161,6,0,B|158:-17|121:120,1,207.999990478516,2|8,0:0|0:0,0:0:0:0:
141,206,161552,2,0,B|214:114|114:13,1,207.999990478516,2|0,0:0|0:0,0:0:0:0:
36,0,161944,2,0,B|78:109|215:73,1,207.999990478516,8|2,0:0|0:0,0:0:0:0:
264,159,162335,1,0,0:0:0:0:
226,254,162466,2,0,L|206:391,1,103.999995239258,8|0,0:0|0:0,0:0:0:0:
328,232,162726,2,0,L|378:354,1,103.999995239258
288,58,162987,1,8,0:0:0:0:
288,58,163118,1,0,0:0:0:0:
364,90,163248,6,0,B|426:78|426:78|475:139|473:217,1,207.999990478516,2|8,0:0|0:0,0:0:0:0:
367,328,163639,2,0,B|305:340|305:340|256:279|258:201,1,207.999990478516,2|0,0:0|0:0,0:0:0:0:
488,290,164031,2,0,B|424:298|398:230,1,103.999995239258,10|0,0:0|0:0,0:0:0:0:
246,130,164292,2,0,B|310:122|336:190,1,103.999995239258,2|0,0:0|0:0,0:0:0:0:
182,183,164552,2,0,B|130:41|291:44,1,207.999990478516,8|0,0:0|0:0,0:0:0:0:
246,130,164944,1,0,0:0:0:0:
139,253,165074,2,0,L|31:251,1,103.999995239258,8|0,0:0|0:0,0:0:0:0:
237,371,165335,6,0,B|339:355|269:269|419:258,1,207.999990478516,2|8,0:0|0:0,0:0:0:0:
235,279,165726,2,0,B|261:237|277:220|277:220|335:185|373:177|436:191,1,207.999990478516,2|0,0:0|0:0,0:0:0:0:
246,130,166118,2,0,B|346:88|422:98|422:98|412:68,1,207.999990478516,10|2,0:0|0:0,0:0:0:0:
351,14,166509,2,0,B|281:20|228:52,1,103.999995239258,0|8,0:0|0:0,0:0:0:0:
155,161,166770,1,2,0:0:0:0:
155,161,166835,1,0,0:0:0:0:
155,161,166900,2,0,B|125:225|126:287,1,103.999995239258
318,203,167161,2,0,B|278:145|224:115,1,103.999995239258,10|0,0:0|0:0,0:0:0:0:
196,326,167422,2,0,B|266:320|319:288,1,103.999995239258,2|0,0:0|0:0,0:0:0:0:
155,161,167683,2,0,B|110:110|110:110|78:184|-19:184,1,207.999990478516,8|0,0:0|0:0,0:0:0:0:
25,93,168074,1,2,0:0:0:0:
125,0,168205,2,0,L|198:86,1,103.999995239258,8|0,0:0|0:0,0:0:0:0:
281,66,168466,5,2,0:0:0:0:
352,11,168596,2,0,B|386:70|338:132,1,103.999995239258,2|0,0:0|0:0,0:0:0:0:
442,70,168857,1,2,0:0:0:0:
442,70,169118,1,0,0:0:0:0:
352,110,169248,2,0,B|318:169|366:231,1,103.999995239258,8|8,0:0|0:0,0:0:0:0:
439,164,169509,6,0,B|451:262|400:332|330:286,1,207.999990478516,2|8,0:0|0:0,0:0:0:0:
269,230,169900,1,2,0:0:0:0:
220,298,170031,2,0,L|97:287,1,103.999995239258
83,217,170292,2,0,B|39:200|8:225|-37:364|97:356,1,207.999990478516,10|2,0:0|0:0,0:0:0:0:
116,288,170683,1,0,0:0:0:0:
83,216,170813,2,0,B|16:162|89:89,1,103.999995239258,8|0,0:0|0:0,0:0:0:0:
140,146,171074,2,0,B|166:64|65:42,2,103.999995239258,0|0|8,0:0|0:0|0:0,0:0:0:0:
61,124,171466,1,2,0:0:0:0:
212,41,171596,6,0,B|340:4|370:167,1,207.999990478516,2|8,0:0|0:0,0:0:0:0:
306,285,171987,1,2,0:0:0:0:
306,285,172052,1,0,0:0:0:0:
306,285,172118,2,0,B|260:226|325:174,1,103.999995239258
499,148,172379,2,0,B|470:217|393:187,1,103.999995239258,10|0,0:0|0:0,0:0:0:0:
248,128,172639,2,0,B|162:117|130:205|130:205|52:195,2,207.999990478516,2|8|2,0:0|0:0|0:0,0:0:0:0:
215,215,173292,1,2,0:0:0:0:
135,287,173422,2,0,L|23:269,1,103.999995239258,8|2,0:0|0:0,0:0:0:0:
199,382,173683,6,0,B|318:310|211:212,1,207.999990478516,6|8,0:0|0:0,0:0:0:0:
95,30,174074,2,0,B|-24:102|83:200,1,207.999990478516,2|0,0:0|0:0,0:0:0:0:
248,128,174466,2,0,B|281:70|207:8,1,103.999995239258,10|0,0:0|0:0,0:0:0:0:
357,225,174726,2,0,B|423:224|440:129,1,103.999995239258,6|0,0:0|0:0,0:0:0:0:
354,139,174987,1,8,0:0:0:0:
331,343,175118,2,0,B|364:400|455:367,1,103.999995239258,2|0,0:0|0:0,0:0:0:0:
397,297,175379,1,0,0:0:0:0:
282,272,175509,6,0,B|231:317|231:317|156:289|156:289|90:332,3,207.999990478516,10|2|8|0,0:0|0:0|0:0|0:0,0:0:0:0:
105,321,176422,1,0,0:0:0:0:
38,206,176552,1,8,0:0:0:0:
38,206,176683,1,0,0:0:0:0:
139,128,176813,2,0,B|200:134|215:209,1,103.999995239258,8|8,0:0|0:0,0:0:0:0:
211,193,177009,1,0,0:0:0:0:
211,193,177074,1,0,0:0:0:0:
369,122,177205,2,0,B|334:172|261:147,1,103.999995239258,2|0,0:0|0:0,0:0:0:0:
277,152,177466,1,0,0:0:0:0:
259,325,177596,2,0,B|233:269|291:219,1,103.999995239258,2|0,0:0|0:0,0:0:0:0:
279,230,177857,6,0,B|307:165|370:126|370:126|259:159|138:129|138:129|272:202|253:324|253:324|292:345,1,623.999971435548,2|0,0:0|0:0,0:0:0:0:
345,317,178770,1,0,0:0:0:0:
402,258,178900,2,0,B|433:195|497:187,1,103.999995239258,8|10,0:0|0:0,0:0:0:0:
125,285,179161,2,0,B|164:343|139:403,1,103.999995239258,8|0,0:0|0:0,0:0:0:0:
240,32,179422,2,0,B|170:37|131:-14,3,103.999995239258,8|0|8|8,0:0|0:0|0:0|0:0,0:0:0:0:
256,192,179944,5,2,0:0:0:0:
144,0,180205,6,0,B|328:-40|400:156,1,287.999991210938,8|2,0:0|0:0,0:0:0:0:
440,180,180726,2,0,B|480:132|456:48,1,95.9999970703126,8|0,0:0|0:0,0:0:0:0:
355,202,180987,2,0,B|363:259|374:262|447:264,1,95.9999970703126,2|0,0:0|0:0,0:0:0:0:
440,180,181248,1,8,0:0:0:0:
498,242,181379,2,0,B|503:280|486:316|486:316|416:341|378:375,1,191.999994140625,2|0,0:0|0:0,0:0:0:0:
322,318,181770,1,8,0:0:0:0:
322,318,181900,1,0,0:0:0:0:
252,369,182031,6,0,B|225:323|228:306|262:262,1,95.9999970703126,2|0,0:0|0:0,0:0:0:0:
322,318,182292,1,8,0:0:0:0:
323,234,182422,2,0,B|286:184|286:184|196:192|149:263,1,191.999994140625,2|0,0:0|0:0,0:0:0:0:
98,292,182813,2,0,B|69:242|99:195|99:195|87:103,1,191.999994140625,8|0,0:0|0:0,0:0:0:0:
87,106,183205,1,2,0:0:0:0:
22,53,183335,2,0,B|63:19|63:19|108:28,1,95.9999970703126,8|0,0:0|0:0,0:0:0:0:
168,85,183596,1,2,0:0:0:0:
228,147,183726,2,0,L|334:181,1,95.9999970703126,0|8,0:0|0:0,0:0:0:0:
251,71,183987,1,0,0:0:0:0:
170,236,184118,6,0,B|231:310|240:321|362:272,2,191.999994140625,2|8|0,0:0|0:0|0:0,0:0:0:0:
337,97,184770,1,2,0:0:0:0:
170,236,185031,2,0,B|75:251|61:254|42:384,1,191.999994140625,2|0,0:0|0:0,0:0:0:0:
189,154,185422,1,8,0:0:0:0:
155,73,185552,1,0,0:0:0:0:
69,51,185683,6,0,B|99:131|31:121|66:207,2,127.99999609375,2|2|2,0:0|0:0|0:0,0:0:0:0:
262,192,186205,6,0,B|330:176|330:176|356:115|286:45,1,191.999994140625,2|8,0:0|0:0,0:0:0:0:
262,192,186596,2,0,B|235:251|298:306,1,95.9999970703126
358,310,186857,1,0,0:0:0:0:
426,258,186987,2,0,B|453:199|390:144,1,95.9999970703126,8|0,0:0|0:0,0:0:0:0:
220,111,187248,6,0,B|143:105|179:177|50:143,2,127.99999609375,2|2|2,0:0|0:0|0:0,0:0:0:0:
145,242,187770,5,2,0:0:0:0:
250,384,187944,5,2,0:0:0:0:
313,225,188118,5,2,0:0:0:0:
242,294,188292,5,0,0:0:0:0:
242,294,188552,6,0,B|350:356|415:230,1,191.999994140625,8|0,0:0|0:0,0:0:0:0:
444,144,188944,1,0,0:0:0:0:
397,42,189074,2,0,B|339:62|344:133,1,95.9999970703126,8|0,0:0|0:0,0:0:0:0:
216,53,189335,2,0,B|204:113|268:144,1,95.9999970703126,4|0,0:0|0:0,0:0:0:0:
104,199,189596,2,0,B|150:239|209:199,1,95.9999970703126,8|0,0:0|0:0,0:0:0:0:
313,225,189857,5,0,0:0:0:0:
334,330,189987,1,0,0:0:0:0:
243,320,190118,2,0,L|136:350,1,95.9999970703126,8|0,0:0|0:0,0:0:0:0:
417,289,190379,2,0,L|544:300,1,95.9999970703126
193,208,190639,2,0,B|255:100|388:133,1,191.999994140625,8|0,0:0|0:0,0:0:0:0:
191,52,191031,2,0,L|114:41,2,47.9999985351563,8|0|0,0:0|0:0|0:0,0:0:0:0:
313,225,191292,2,0,B|388:214|388:214|457:162|414:68,1,191.999994140625,4|2,0:0|0:0,0:0:0:0:
193,208,191683,2,0,L|234:330,1,95.9999970703126,8|0,0:0|0:0,0:0:0:0:
344,342,191944,6,0,L|485:329,2,127.99999609375,2|2|2,0:0|0:0|0:0,0:0:0:0:
313,225,192466,1,0,0:0:0:0:
100,359,192726,6,0,B|3:359|-22:285|14:215,1,191.999994140625,8|0,0:0|0:0,0:0:0:0:
30,197,193074,1,0,0:0:0:0:
72,186,193161,1,0,0:0:0:0:
108,208,193248,1,8,0:0:0:0:
171,146,193379,2,0,B|215:119|215:119|276:185|376:112,1,191.999994140625
285,68,193770,1,8,0:0:0:0:
368,50,193900,1,0,0:0:0:0:
415,207,194031,6,0,B|356:276|241:237,2,127.99999609375,2|2|2,0:0|0:0|0:0,0:0:0:0:
434,119,194552,1,2,0:0:0:0:
256,192,194683,12,0,195987,0:0:0:0:
259,277,196118,5,6,0:0:0:0:
180,152,196292,5,2,0:0:0:0:
328,146,196466,5,2,0:0:0:0:
338,289,196639,6,0,B|352:363|276:392,1,111.999996582031,10|0,0:0|0:0,0:0:0:0:
127,211,196900,6,0,B|58:186|70:106,1,111.999996582031,8|0,0:0|0:0,0:0:0:0:
301,68,197161,5,8,0:0:0:0:
301,68,197292,2,0,B|358:19|421:71,1,111.999996582031,8|8,0:0|0:0,0:0:0:0:
216,316,197552,21,0,0:0:0:0:
216,316,197618,1,0,0:0:0:0:
216,316,197683,2,2,B|194:267|124:252|124:252|192:197|179:118|179:118|247:166|323:133|323:133|308:226|358:274|358:274|281:292|234:348,1,720.000027465821,2|0,0:0|0:0,0:0:0:0:
83,62,198726,6,0,B|171:-39|305:39,1,207.999990478516,2|8,0:0|0:0,0:0:0:0:
312,212,199118,2,0,B|224:313|90:235,1,207.999990478516,2|0,0:0|0:0,0:0:0:0:
320,113,199509,2,0,B|383:121|421:209,1,103.999995239258,10|0,0:0|0:0,0:0:0:0:
181,106,199770,2,0,B|148:174|148:174|71:157|47:241,2,207.999990478516,2|8|0,0:0|0:0|0:0,0:0:0:0:
249,163,200422,1,0,0:0:0:0:
312,212,200552,2,0,L|277:315,1,103.999995239258,10|2,0:0|0:0,0:0:0:0:
141,380,200813,6,0,B|-19:353|65:198,1,207.999990478516,2|8,0:0|0:0,0:0:0:0:
145,14,201205,1,2,0:0:0:0:
145,14,201270,1,0,0:0:0:0:
145,14,201335,2,0,B|201:53|173:135,1,103.999995239258
373,135,201596,2,0,B|367:202|282:219,1,103.999995239258,10|0,0:0|0:0,0:0:0:0:
160,214,201857,6,0,B|133:86|289:50,2,207.999990478516,2|8|0,0:0|0:0|0:0,0:0:0:0:
247,156,202509,1,2,0:0:0:0:
251,262,202639,2,0,L|260:388,1,103.999995239258,8|0,0:0|0:0,0:0:0:0:
258,365,202900,6,0,B|201:356|201:356|147:274|57:330,1,207.999990478516,6|8,0:0|0:0,0:0:0:0:
125,382,203292,1,2,0:0:0:0:
71,321,203422,2,0,B|30:255|88:200,1,103.999995239258
334,211,203683,2,0,B|297:278|220:256,1,103.999995239258,8|0,0:0|0:0,0:0:0:0:
247,156,203944,6,0,B|368:72|436:210,1,207.999990478516,6|8,0:0|0:0,0:0:0:0:
145,157,204335,2,0,B|132:10|286:20,1,207.999990478516,2|0,0:0|0:0,0:0:0:0:
68,223,204726,2,0,B|-65:160|20:32,1,207.999990478516,10|6,0:0|0:0,0:0:0:0:
6,54,205248,2,0,B|139:116|53:244,1,207.999990478516,8|0,0:0|0:0,0:0:0:0:
17,295,205639,1,0,0:0:0:0:
141,368,205770,2,0,L|258:369,1,103.999995239258,8|0,0:0|0:0,0:0:0:0:
381,291,206031,5,10,0:0:0:0:
285,289,206161,1,10,0:0:0:0:
285,289,206422,1,8,0:0:0:0:
131,93,206683,5,0,0:0:0:0:
227,95,206813,2,0,B|281:62|271:4,1,103.999995239258,8|8,0:0|0:0,0:0:0:0:
227,95,207074,2,0,B|308:203|415:132,1,207.999990478516,2|8,0:0|0:0,0:0:0:0:
285,289,207466,2,0,B|204:181|97:252,1,207.999990478516,2|0,0:0|0:0,0:0:0:0:
337,367,207857,2,0,L|446:356,1,103.999995239258,10|0,0:0|0:0,0:0:0:0:
208,236,208118,2,0,L|99:247,1,103.999995239258,2|0,0:0|0:0,0:0:0:0:
304,148,208379,2,0,L|413:137,1,103.999995239258,8|0,0:0|0:0,0:0:0:0:
175,17,208639,2,0,L|66:28,2,103.999995239258,0|0|10,0:0|0:0|0:0,0:0:0:0:
175,17,209031,1,2,0:0:0:0:
257,80,209161,6,0,B|186:91|174:159|174:159|53:175,1,207.999990478516,2|8,0:0|0:0,0:0:0:0:
51,366,209552,1,2,0:0:0:0:
51,366,209618,1,0,0:0:0:0:
51,366,209683,2,0,B|114:384|153:318,1,103.999995239258,2|0,0:0|0:0,0:0:0:0:
284,368,209944,2,0,B|331:322|293:255,1,103.999995239258,10|0,0:0|0:0,0:0:0:0:
160,238,210205,2,0,B|112:283|150:350,1,103.999995239258,2|0,0:0|0:0,0:0:0:0:
395,384,210466,2,0,B|501:297|389:172,1,207.999990478516,8|2,0:0|0:0,0:0:0:0:
367,286,210857,1,2,0:0:0:0:
313,116,210987,2,0,L|435:116,1,103.999995239258,8|2,0:0|0:0,0:0:0:0:
483,1,211248,6,0,B|420:2|420:2|387:42|387:42|271:42,1,207.999990478516,4|8,0:0|0:0,0:0:0:0:
235,100,211639,1,2,0:0:0:0:
257,177,211770,2,0,B|202:183|193:175|155:120,1,103.999995239258
81,202,212031,2,0,B|113:246|111:258|82:318,1,103.999995239258,10|0,0:0|0:0,0:0:0:0:
181,247,212292,1,6,0:0:0:0:
208,354,212422,2,0,B|230:303|241:299|308:294,1,103.999995239258,0|8,0:0|0:0,0:0:0:0:
289,384,212683,2,0,B|344:384|344:384|401:304|343:230,1,207.999990478516,2|0,0:0|0:0,0:0:0:0:
257,177,213074,2,0,B|223:114|298:57,1,103.999995239258,8|0,0:0|0:0,0:0:0:0:
441,206,213335,2,0,B|403:266|316:230,1,103.999995239258,6|0,0:0|0:0,0:0:0:0:
336,160,213596,2,0,B|356:68|356:68|340:-2|249:-4,1,207.999990478516,8|0,0:0|0:0,0:0:0:0:
275,0,213987,1,0,0:0:0:0:
181,96,214118,1,8,0:0:0:0:
181,96,214248,1,0,0:0:0:0:
87,175,214379,6,0,L|114:301,1,103.999995239258,8|8,0:0|0:0,0:0:0:0:
108,276,214574,1,8,0:0:0:0:
108,276,214639,1,0,0:0:0:0:
359,355,214770,6,0,B|301:209|167:280,1,207.999990478516,8|0,0:0|0:0,0:0:0:0:
70,374,215161,2,0,B|127:399|189:319,1,103.999995239258
250,120,215422,5,2,0:0:0:0:
250,120,215944,1,8,0:0:0:0:
172,79,216205,1,2,0:0:0:0:
172,79,216335,1,2,0:0:0:0:
175,165,216466,1,2,0:0:0:0:
248,34,216596,2,0,L|301:35,2,51.999997619629,8|0|8,0:0|0:0|0:0,0:0:0:0:
250,120,216857,1,8,0:0:0:0:
319,173,216987,1,8,0:0:0:0:
385,120,217118,1,2,0:0:0:0:
248,224,217248,6,0,B|216:277|257:343,1,103.999995239258,2|2,0:0|0:0,0:0:0:0:
432,382,217509,6,0,B|472:359|472:359|446:262|341:279,1,207.999990478516,6|8,0:0|0:0,0:0:0:0:
246,323,217900,1,2,0:0:0:0:
344,381,218031,2,0,L|352:263,1,103.999995239258
150,308,218292,1,8,0:0:0:0:
150,308,218552,6,0,B|141:374|141:374|113:293|25:311,2,207.999990478516,2|10|2,0:0|0:0|0:0,0:0:0:0:
60,384,219205,1,2,0:0:0:0:
103,236,219335,2,0,L|76:125,1,103.999995239258,8|2,0:0|0:0,0:0:0:0:
53,21,219596,6,0,B|194:-3|195:147,1,207.999990478516,2|8,0:0|0:0,0:0:0:0:
329,106,219987,1,2,0:0:0:0:
329,106,220052,1,0,0:0:0:0:
329,106,220118,2,0,B|350:177|264:214,1,103.999995239258,2|0,0:0|0:0,0:0:0:0:
409,288,220379,2,0,B|358:341|282:285,1,103.999995239258,10|0,0:0|0:0,0:0:0:0:
188,254,220639,6,0,B|102:235|102:235|121:332|20:340,2,207.999990478516,2|8|2,0:0|0:0|0:0,0:0:0:0:
28,260,221292,1,2,0:0:0:0:
42,177,221422,2,0,B|91:131|168:176,1,103.999995239258,8|2,0:0|0:0,0:0:0:0:
247,316,221683,6,0,B|160:398|47:327,1,207.999990478516,4|8,0:0|0:0,0:0:0:0:
269,80,222074,2,0,B|296:196|178:258,1,207.999990478516,2|0,0:0|0:0,0:0:0:0:
103,253,222466,2,0,B|38:233|39:144,1,103.999995239258,10|0,0:0|0:0,0:0:0:0:
198,0,222726,6,0,B|292:-19|342:-8|370:101,1,207.999990478516,6|8,0:0|0:0,0:0:0:0:
284,261,223118,2,0,B|220:189|205:140|285:61,1,207.999990478516,2|0,0:0|0:0,0:0:0:0:
429,159,223509,2,0,B|402:183|294:153,1,103.999995239258,10|0,0:0|0:0,0:0:0:0:
69,53,223770,6,0,B|74:142|74:142|99:176|99:176|104:281,2,207.999990478516,6|10|0,0:0|0:0|0:0,0:0:0:0:
149,111,224422,1,0,0:0:0:0:
23,222,224552,2,0,L|28:325,1,103.999995239258,10|0,0:0|0:0,0:0:0:0:
209,367,224813,5,8,0:0:0:0:
205,283,224944,1,8,0:0:0:0:
205,283,225205,1,10,0:0:0:0:
303,17,225466,5,0,0:0:0:0:
307,101,225596,2,0,B|313:179|258:210,1,103.999995239258
221,134,225857,6,0,B|349:46|426:192,1,207.999990478516,2|10,0:0|0:0,0:0:0:0:
344,344,226248,1,0,0:0:0:0:
344,344,226313,1,0,0:0:0:0:
344,344,226379,2,0,B|337:265|392:234,1,103.999995239258,2|2,0:0|0:0,0:0:0:0:
499,128,226639,2,0,B|505:206|450:237,1,103.999995239258,10|2,0:0|0:0,0:0:0:0:
277,196,226900,6,0,B|149:284|72:138,2,207.999990478516,2|10|2,0:0|0:0|0:0,0:0:0:0:
277,196,227552,1,0,0:0:0:0:
137,62,227683,2,0,B|141:130|222:152,1,103.999995239258,10|2,0:0|0:0,0:0:0:0:
374,23,227944,6,0,B|364:78|364:78|302:13|191:73,1,207.999990478516,2|10,0:0|0:0,0:0:0:0:
387,217,228335,1,0,0:0:0:0:
387,217,228466,2,0,B|441:182|418:94,1,103.999995239258,2|2,0:0|0:0,0:0:0:0:
186,276,228726,2,0,B|189:340|277:364,1,103.999995239258,10|2,0:0|0:0,0:0:0:0:
317,320,228987,6,0,B|219:278|95:330,2,207.999990478516,2|10|0,0:0|0:0|0:0,0:0:0:0:
447,326,229639,1,2,0:0:0:0:
447,326,229770,1,8,0:0:0:0:
387,217,229900,1,0,0:0:0:0:
317,320,230031,6,0,B|336:287|336:287|260:209|353:122,1,207.999990478516,6|10,0:0|0:0,0:0:0:0:
387,217,230422,1,0,0:0:0:0:
244,300,230552,2,0,L|130:282,1,103.999995239258,0|2,0:0|0:0,0:0:0:0:
107,190,230813,2,0,L|209:206,1,103.999995239258,10|0,0:0|0:0,0:0:0:0:
74,104,231074,6,0,B|159:117|159:117|200:81|200:81|300:101,1,207.999990478516,6|10,0:0|0:0,0:0:0:0:
315,37,231466,2,0,B|362:83|362:83|353:144|353:144|305:170|305:170|298:235,1,207.999990478516,2|2,0:0|0:0,0:0:0:0:
422,340,231857,2,0,B|424:266|424:266|395:237,1,103.999995239258,10|2,0:0|0:0,0:0:0:0:
126,302,232118,6,0,B|148:365|148:365|229:391|293:330,2,207.999990478516,6|10|2,0:0|0:0|0:0,0:0:0:0:
210,296,232770,1,0,0:0:0:0:
87,223,232900,2,0,L|59:107,1,103.999995239258,8|0,0:0|0:0,0:0:0:0:
221,26,233161,5,10,0:0:0:0:
163,90,233292,2,8,L|110:61,2,51.999997619629
349,294,233552,2,0,L|447:347,1,103.999995239258,10|0,0:0|0:0,0:0:0:0:
330,203,233813,5,0,0:0:0:0:
182,181,233944,1,2,0:0:0:0:
256,192,234205,6,2,L|256:252,12,51.999997619629,6|0|0|0|0|0|0|0|0|0|0|0|2,0:0|0:0|0:0|0:0|0:0|0:0|0:0|0:0|0:0|0:0|0:0|0:0|0:0,0:0:0:0:
256,102,235118,1,0,0:0:0:0:
360,216,235248,6,0,B|478:192|479:21,1,207.999990478516,6|8,0:0|0:0,0:0:0:0:
300,322,235639,1,0,0:0:0:0:
300,322,235770,2,0,B|379:412|528:327,1,207.999990478516,2|8,0:0|0:0,0:0:0:0:
490,345,236292,5,6,0:0:0:0:
256,192,236422,12,0,239683,0:0:0:0:
206,82,239813,6,0,B|95:155|148:268,1,207.999990478516,2|0,0:0|0:0,0:0:0:0:
331,320,240205,2,0,B|321:245|238:220,1,103.999995239258,8|0,0:0|0:0,0:0:0:0:
51,322,240466,1,6,0:0:0:0:
256,192,240596,12,0,243335,0:0:0:0:
111,74,243466,6,0,L|120:137,2,51.999997619629,0|0|4,0:0|0:0|0:0,0:0:0:0:
192,81,243726,2,0,B|182:19|182:19|132:-7,1,103.999995239258,0|2,0:0|0:0,0:0:0:0:
38,132,243987,2,0,B|50:187|50:187|96:203|96:203|112:271|112:271|63:318,1,207.999990478516,2|2,0:0|0:0,0:0:0:0:
7,285,244379,2,0,L|21:351,4,51.999997619629,8|0|0|0|0,0:0|0:0|0:0|0:0|0:0,0:0:0:0:
368,355,244900,6,0,B|441:254|323:142,1,207.999990478516,8|0,0:0|0:0,0:0:0:0:
278,95,245292,2,0,B|205:196|323:308,1,207.999990478516,2|0,3:0|0:0,0:0:0:0:
440,134,245683,6,0,B|404:58|321:70,2,103.999995239258,2|0|0,3:0|0:0|0:0,0:0:0:0:
222,219,246074,2,0,B|258:295|341:283,2,103.999995239258,2|0|0,3:0|0:0|0:0,0:0:0:0:
166,135,246466,2,0,B|121:167|121:167|111:264|177:332,1,207.999990478516,2|0,3:0|0:0,0:0:0:0:
336,366,246857,1,0,0:0:0:0:
336,366,246922,1,0,0:0:0:0:
336,366,246987,2,0,B|381:334|381:334|391:237|325:169,1,207.999990478516,2|0,3:0|0:0,0:0:0:0:
342,189,247379,1,2,3:0:0:0:
464,251,247509,2,0,B|446:160|393:127,1,103.999995239258
279,48,247770,6,0,B|305:106|311:107|382:90,1,103.999995239258,2|0,3:0|0:0,0:0:0:0:
356,17,248031,1,0,0:0:0:0:
482,67,248161,2,0,B|441:84|441:84|425:158|425:158|330:194,1,207.999990478516,2|0,0:0|0:0,0:0:0:0:
253,183,248552,2,0,B|170:151|170:151|154:77|154:77|113:60,1,207.999990478516,8|4,0:0|0:0,0:0:0:0:
113,60,249074,6,0,B|10:156|116:276,1,207.999990478516,8|0,0:0|0:0,0:0:0:0:
169,283,249466,1,2,3:0:0:0:
98,333,249596,2,0,B|148:393|224:346,1,103.999995239258
252,304,249857,6,0,B|371:263|421:385,1,207.999990478516,2|0,3:0|0:0,0:0:0:0:
327,384,250248,2,0,B|357:261|486:286,1,207.999990478516,2|0,3:0|0:0,0:0:0:0:
359,226,250639,2,0,B|316:169|385:104,1,103.999995239258,2|0,3:0|0:0,0:0:0:0:
425,179,250900,1,0,0:0:0:0:
436,94,251031,2,0,L|420:26,2,51.999997619629,0|0|2,0:0|0:0|3:0,0:0:0:0:
361,130,251292,1,0,0:0:0:0:
304,71,251422,1,0,0:0:0:0:
304,71,251552,2,0,B|276:136|185:109,1,103.999995239258,2|0,3:0|0:0,0:0:0:0:
148,80,251813,5,0,0:0:0:0:
148,80,251879,1,0,0:0:0:0:
148,80,251944,1,4,0:0:0:0:
48,146,252074,2,0,L|28:33,1,103.999995239258,0|2,0:0|0:0,0:0:0:0:
248,242,252335,6,0,B|201:282|201:282|114:260|114:260|45:310,2,207.999990478516,2|2|0,0:0|0:0|0:0,0:0:0:0:
288,335,252987,2,0,B|381:234|516:272,1,207.999990478516,2|8,0:0|0:0,0:0:0:0:
248,242,253379,2,0,B|155:141|20:179,1,207.999990478516,2|0,0:0|0:0,0:0:0:0:
304,157,253770,2,0,B|397:56|532:94,1,207.999990478516,8|0,0:0|0:0,0:0:0:0:
255,83,254161,2,0,B|162:-18|27:20,1,207.999990478516,2|2,0:0|0:0,0:0:0:0:
68,11,254552,6,0,B|106:67|189:79,1,103.999995239258,2|2,0:0|0:0,0:0:0:0:
304,157,254813,2,0,B|370:152|422:86,1,103.999995239258,10|2,0:0|0:0,0:0:0:0:
406,13,255074,6,0,B|397:115|397:115|407:137|407:137|401:233,1,207.999990478516,10|8,0:0|0:0,0:0:0:0:
299,362,255466,2,0,B|308:260|308:260|298:238|298:238|304:142,1,207.999990478516,2|0,0:0|0:0,0:0:0:0:
208,14,255857,6,0,B|199:116|199:116|209:138|209:138|203:234,1,207.999990478516,10|8,0:0|0:0,0:0:0:0:
101,363,256249,2,0,B|110:261|110:261|100:239|100:239|106:143,1,207.999990478516,2|2,0:0|0:0,0:0:0:0:
105,157,256639,6,0,B|38:160|9:241,1,103.999995239258,10|2,0:0|0:0,0:0:0:0:
303,156,256900,2,0,B|334:96|278:31,1,103.999995239258,10|2,0:0|0:0,0:0:0:0:
213,341,257161,6,0,B|321:298|321:298|466:323,2,223.999993164063,0|8|0,0:0|0:0|0:0,0:0:0:0:
402,228,257813,1,2,0:0:0:0:
497,369,257944,2,0,B|551:304|462:227,1,111.999996582031,8|0,0:0|0:0,0:0:0:0:
478,178,258205,1,8,0:0:0:0:
402,228,258335,1,2,0:0:0:0:
319,188,258466,6,0,B|198:146|229:271|67:179,2,223.999993164063,0|2|8,0:0|0:0|0:0,0:0:0:0:
65,121,259118,5,0,0:0:0:0:
65,121,259183,1,0,0:0:0:0:
65,121,259248,1,10,0:0:0:0:
122,38,259379,2,0,B|189:82|159:156,1,111.999996582031,10|0,0:0|0:0,0:0:0:0:
412,62,259639,5,10,0:0:0:0:
456,152,259770,2,0,B|384:188|335:125,1,111.999996582031,10|0,0:0|0:0,0:0:0:0:
288,384,260031,5,10,0:0:0:0:
189,385,260162,2,0,B|194:305|273:294,1,111.999996582031,10|0,0:0|0:0,0:0:0:0:
224,208,260422,5,0,0:0:0:0:
258,156,260552,5,0,0:0:0:0:
285,211,260683,5,0,0:0:0:0:
240,180,260813,5,0,0:0:0:0:
274,184,260944,5,0,0:0:0:0:
253,211,261074,5,8,0:0:0:0:
256,192,261205,5,0,0:0:0:0:
256,0,261596,5,4,0:0:0:0:
256,192,261726,12,0,264466,0:0:0:0:
