osu file format v14

[General]
AudioFilename: audio.mp3
AudioLeadIn: 0
PreviewTime: 90074
Countdown: 0
SampleSet: Normal
StackLeniency: 0.6
Mode: 0
LetterboxInBreaks: 0
WidescreenStoryboard: 0

[Editor]
Bookmarks: 90277,115842
DistanceSpacing: 0.5
BeatDivisor: 8
GridSize: 4
TimelineZoom: 1

[Metadata]
Title:Eiyuu no Tsurugi
TitleUnicode:英雄の剣
Artist:Shoichiro Sakamoto
ArtistUnicode:坂本 昌一郎
Creator:audinor
Version:Final
Source:
Tags:megalomachia sound_sepher instrumental jun.a 坂本 昌一郎 electronic cm78 eiyū ken hero's sword gensou toshokan 幻葬図書館
BeatmapID:3833517
BeatmapSetID:1864097

[Difficulty]
HPDrainRate:7
CircleSize:4
OverallDifficulty:9
ApproachRate:9
SliderMultiplier:2
SliderTickRate:1

[Events]
//Background and Video events
0,0,"uZddP0LH9ZOG.jpg",0,0
//Break Periods
//Storyboard Layer 0 (Background)
//Storyboard Layer 1 (Fail)
//Storyboard Layer 2 (Pass)
//Storyboard Layer 3 (Foreground)
//Storyboard Layer 4 (Overlay)
//Storyboard Sound Samples

[TimingPoints]
2553,260.869565217391,4,1,1,60,1,0
31770,-90.9090909090909,4,1,1,70,0,0
33857,-90.9090909090909,4,1,1,80,0,0
37118,-90.9090909090909,4,1,1,65,0,0
38292,-100,4,1,1,60,0,0
90205,-83.3333333333333,4,1,1,75,0,1
108987,-90.9090909090909,4,1,1,75,0,1
112509,-90.9090909090909,4,1,1,60,0,0
113161,-90.9090909090909,4,1,1,60,0,1
117335,-100,4,1,1,60,0,0
119422,-100,4,1,1,70,0,0
121509,-90.9090909090909,4,1,1,80,0,0
125683,-100,4,1,1,60,0,0
161161,-83.3333333333333,4,1,1,75,0,1
180205,-83.3333333333333,4,1,1,70,0,0
197683,-66.6666666666667,4,1,1,60,0,0
198726,-90.9090909090909,4,1,1,75,0,1
215422,-90.9090909090909,4,1,1,60,0,0
217509,-90.9090909090909,4,1,1,75,0,1
236552,-90.9090909090909,4,1,1,60,0,0
255074,-90.9090909090909,4,1,1,70,0,0
257161,-83.3333333333333,4,1,1,80,0,0

[Colours]
Combo1 : 255,128,64
Combo2 : 223,223,223
Combo3 : 253,187,66

[HitObjects]
94,12,2553,6,0,B|-14:71|48:196,1,200,2|0,0:0|0:0,0:0:0:0:
101,239,2944,1,2,0:0:0:0:
105,244,3205,1,0,0:0:0:0:
109,250,3466,1,0,0:0:0:0:
114,255,3726,1,0,0:0:0:0:
185,307,3857,2,0,B|239:264|236:184,1,100
310,186,4118,5,0,0:0:0:0:
390,149,4248,1,0,0:0:0:0:
390,149,4313,1,0,0:0:0:0:
390,149,4379,2,0,B|386:14|255:47,1,200,0|2,0:0|0:0,0:0:0:0:
360,301,4900,1,0,0:0:0:0:
360,301,5031,1,2,0:0:0:0:
500,363,5292,1,0,0:0:0:0:
360,301,5552,2,0,B|251:282|299:381|129:351,1,200
92,299,5944,1,0,0:0:0:0:
92,299,6205,5,0,0:0:0:0:
172,242,6335,1,0,0:0:0:0:
172,242,6400,1,0,0:0:0:0:
172,242,6466,2,0,B|240:119|104:44,1,200,0|2,0:0|0:0,0:0:0:0:
302,134,6987,5,0,0:0:0:0:
353,69,7118,1,2,0:0:0:0:
357,64,7379,1,0,0:0:0:0:
361,58,7640,1,0,0:0:0:0:
366,53,7900,1,0,0:0:0:0:
434,0,8031,2,0,B|466:42|437:110,1,100
505,175,8292,5,0,0:0:0:0:
403,207,8422,1,0,0:0:0:0:
403,207,8487,1,0,0:0:0:0:
403,207,8552,2,0,B|272:209|286:385,1,200,0|2,0:0|0:0,0:0:0:0:
202,366,8944,1,0,0:0:0:0:
202,366,9009,1,0,0:0:0:0:
202,366,9074,1,0,0:0:0:0:
133,298,9205,6,0,B|89:205|194:200|123:69,2,200,2|10|6,0:0|0:0|0:0,0:0:0:0:
261,17,9987,1,0,0:0:0:0:
303,86,10118,2,0,B|351:129|411:83,1,100,2|0,0:0|0:0,0:0:0:0:
259,163,10379,5,2,0:0:0:0:
325,260,10509,1,0,0:0:0:0:
325,260,10574,1,0,0:0:0:0:
325,260,10639,2,0,B|203:235|173:383,1,200,2|4,0:0|0:0,0:0:0:0:
178,359,11161,1,0,0:0:0:0:
178,359,11422,1,0,0:0:0:0:
178,359,11683,1,0,0:0:0:0:
132,32,11944,5,4,0:0:0:0:
57,170,12074,1,0,0:0:0:0:
187,117,12205,1,4,0:0:0:0:
45,71,12335,1,0,0:0:0:0:
149,202,12466,5,0,3:0:0:0:
234,235,12596,1,0,0:0:0:0:
234,235,12661,1,0,0:0:0:0:
234,235,12726,1,8,0:0:0:0:
308,196,12857,1,0,0:0:0:0:
321,109,12987,6,0,B|455:90|448:273,1,200,0|8,0:0|0:0,0:0:0:0:
388,288,13379,1,0,0:0:0:0:
446,354,13509,1,0,0:0:0:0:
506,292,13639,1,0,0:0:0:0:
447,225,13770,2,0,B|437:154|484:104,1,100,8|0,0:0|0:0,0:0:0:0:
412,9,14031,6,0,B|308:1|331:85|209:64,1,200,0|8,0:0|0:0,0:0:0:0:
151,11,14422,1,0,0:0:0:0:
151,11,14487,1,0,0:0:0:0:
151,11,14552,1,0,0:0:0:0:
101,83,14683,1,0,0:0:0:0:
178,181,14813,1,8,0:0:0:0:
226,66,14944,1,0,0:0:0:0:
85,172,15074,5,0,0:0:0:0:
64,259,15205,1,0,0:0:0:0:
64,259,15270,1,0,0:0:0:0:
64,259,15335,2,0,B|41:319|94:377,1,100,8|0,0:0|0:0,0:0:0:0:
230,372,15596,5,0,0:0:0:0:
305,312,15726,2,0,B|397:192|281:95,1,200
235,75,16118,5,0,0:0:0:0:
253,220,16248,1,0,0:0:0:0:
422,185,16379,1,8,0:0:0:0:
403,49,16509,1,0,0:0:0:0:
403,49,16574,1,0,0:0:0:0:
403,49,16639,1,0,0:0:0:0:
481,103,16770,1,0,0:0:0:0:
361,254,16900,5,8,0:0:0:0:
403,285,16966,1,0,0:0:0:0:
450,282,17031,1,0,0:0:0:0:
491,257,17096,1,0,0:0:0:0:
508,214,17161,1,4,0:0:0:0:
422,185,17292,1,0,0:0:0:0:
299,336,17422,6,0,B|181:366|118:243,1,200,8|0,0:0|0:0,0:0:0:0:
132,168,17813,1,0,0:0:0:0:
203,218,17944,1,8,0:0:0:0:
58,317,18074,1,0,0:0:0:0:
50,211,18205,5,0,0:0:0:0:
211,133,18335,1,0,0:0:0:0:
138,69,18466,1,8,0:0:0:0:
51,109,18596,1,0,0:0:0:0:
51,109,18661,1,0,0:0:0:0:
51,109,18726,1,0,0:0:0:0:
53,11,18857,1,0,0:0:0:0:
232,22,18987,2,0,B|305:37|311:122,1,100,8|0,0:0|0:0,0:0:0:0:
398,79,19248,5,0,0:0:0:0:
452,157,19379,1,0,0:0:0:0:
452,157,19444,1,0,0:0:0:0:
452,157,19509,2,0,B|497:303|326:314,1,200,8|0,0:0|0:0,0:0:0:0:
282,367,19900,1,0,0:0:0:0:
217,296,20031,1,0,0:0:0:0:
282,237,20161,5,0,0:0:0:0:
282,237,20226,1,0,0:0:0:0:
282,237,20292,1,4,0:0:0:0:
150,362,20422,1,0,0:0:0:0:
50,225,20552,1,8,0:0:0:0:
170,100,20683,5,4,0:0:0:0:
223,167,20813,1,0,0:0:0:0:
158,225,20944,1,4,0:0:0:0:
88,52,21074,5,8,0:0:0:0:
129,11,21139,1,0,0:0:0:0:
187,4,21205,1,8,0:0:0:0:
240,34,21270,1,0,0:0:0:0:
262,91,21335,1,0,0:0:0:0:
347,47,21466,5,0,0:0:0:0:
347,47,21531,1,0,0:0:0:0:
347,47,21596,2,0,B|472:55|462:219,1,200,8|0,0:0|0:0,0:0:0:0:
410,250,21987,1,0,0:0:0:0:
469,317,22118,1,8,0:0:0:0:
405,376,22248,1,0,0:0:0:0:
340,311,22379,5,0,0:0:0:0:
237,374,22509,1,0,0:0:0:0:
234,238,22639,1,8,0:0:0:0:
175,170,22770,5,0,0:0:0:0:
175,170,22835,1,0,0:0:0:0:
175,170,22900,1,0,0:0:0:0:
117,99,23031,1,0,0:0:0:0:
141,258,23161,1,8,0:0:0:0:
210,84,23292,1,0,0:0:0:0:
56,26,23422,5,0,0:0:0:0:
0,97,23552,1,0,0:0:0:0:
0,97,23618,1,0,0:0:0:0:
0,97,23683,2,0,B|-39:216|60:288,1,200,8|0,0:0|0:0,0:0:0:0:
106,337,24074,1,0,0:0:0:0:
178,378,24205,1,8,0:0:0:0:
246,332,24335,1,0,0:0:0:0:
319,374,24466,5,0,0:0:0:0:
241,243,24596,1,0,0:0:0:0:
378,236,24726,1,8,0:0:0:0:
308,168,24857,5,0,0:0:0:0:
308,168,24922,1,0,0:0:0:0:
308,168,24987,1,0,0:0:0:0:
467,313,25118,1,0,0:0:0:0:
502,109,25248,1,8,0:0:0:0:
471,58,25313,1,0,0:0:0:0:
424,23,25379,1,0,0:0:0:0:
367,14,25444,1,0,0:0:0:0:
313,33,25509,1,4,0:0:0:0:
12,100,25770,6,0,B|42:164|126:143,1,100,8|0,0:0|0:0,0:0:0:0:
168,103,26031,1,0,0:0:0:0:
135,27,26161,1,0,0:0:0:0:
92,148,26292,1,8,0:0:0:0:
211,186,26422,1,0,0:0:0:0:
252,261,26552,5,0,0:0:0:0:
294,343,26683,1,0,0:0:0:0:
294,343,26748,1,0,0:0:0:0:
294,343,26813,1,8,0:0:0:0:
204,335,26944,2,0,L|137:322,2,50
340,271,27205,1,0,0:0:0:0:
410,327,27335,2,0,B|477:341|517:264,1,100,8|0,0:0|0:0,0:0:0:0:
426,74,27596,5,0,0:0:0:0:
352,31,27726,1,0,0:0:0:0:
352,31,27792,1,0,0:0:0:0:
352,31,27857,2,0,B|309:175|483:176,1,200,8|0,0:0|0:0,0:0:0:0:
340,271,28248,1,0,0:0:0:0:
225,198,28379,1,8,0:0:0:0:
239,37,28509,5,0,0:0:0:0:
239,37,28574,1,0,0:0:0:0:
239,37,28639,1,4,0:0:0:0:
78,131,28770,1,0,0:0:0:0:
78,309,28900,1,8,0:0:0:0:
222,383,29031,2,0,B|353:405|439:296,1,200,4|0,0:0|0:0,0:0:0:0:
486,152,29422,5,8,0:0:0:0:
464,106,29487,1,0,0:0:0:0:
430,70,29552,1,8,0:0:0:0:
382,56,29617,1,0,0:0:0:0:
333,60,29683,2,0,L|346:279,1,200,2|8,0:0|0:0,0:0:0:0:
244,10,30074,2,0,L|256:228,1,200,2|0,0:0|0:0,0:0:0:0:
267,318,30466,1,8,0:0:0:0:
176,271,30596,1,0,0:0:0:0:
185,376,30726,5,0,0:0:0:0:
176,271,30857,1,2,0:0:0:0:
176,271,30922,1,0,0:0:0:0:
176,271,30987,2,0,B|166:197|91:189,1,100,8|0,0:0|0:0,0:0:0:0:
23,204,31248,5,2,0:0:0:0:
62,283,31379,1,0,0:0:0:0:
164,111,31509,1,10,0:0:0:0:
128,32,31639,1,0,0:0:0:0:
164,111,31770,6,0,L|403:167,1,220.000006713867,2|8,0:0|0:0,0:0:0:0:
247,31,32161,2,0,L|477:86,1,220.000006713867,2|0,0:0|0:0,0:0:0:0:
496,190,32552,1,8,0:0:0:0:
422,276,32683,1,0,0:0:0:0:
422,276,32748,1,0,0:0:0:0:
422,276,32813,1,0,0:0:0:0:
309,288,32944,1,2,0:0:0:0:
469,361,33074,1,8,0:0:0:0:
350,135,33205,1,0,0:0:0:0:
350,135,33270,1,0,0:0:0:0:
350,135,33335,5,2,0:0:0:0:
212,177,33466,1,0,0:0:0:0:
167,343,33596,1,10,0:0:0:0:
309,288,33726,1,0,0:0:0:0:
97,67,33857,6,0,B|-18:149|65:297,1,220.000006713867,12|8,0:0|0:0,0:0:0:0:
388,340,34248,2,0,B|503:258|420:110,1,220.000006713867,0|2,0:0|0:0,0:0:0:0:
97,67,34639,2,0,B|-18:149|65:297,1,220.000006713867,8|8,0:0|0:0,0:0:0:0:
371,228,35031,1,0,0:0:0:0:
275,47,35161,1,8,0:0:0:0:
117,170,35292,1,0,0:0:0:0:
190,345,35422,6,0,B|258:380|308:328,1,110.000003356934,8|0,0:0|0:0,0:0:0:0:
378,42,35683,2,8,B|310:7|260:59,1,110.000003356934,8|0,0:0|0:0,0:0:0:0:
255,84,35879,1,0,0:0:0:0:
255,84,35944,1,8,0:0:0:0:
496,15,36074,2,0,L|481:78,1,55.0000016784668,2|0,0:0|0:0,0:0:0:0:
434,295,36205,1,0,0:0:0:0:
144,242,36335,5,2,0:0:0:0:
375,370,36466,2,0,L|357:271,1,55.0000016784668,2|0,0:0|0:0,0:0:0:0:
332,106,36596,1,0,0:0:0:0:
281,241,36726,5,8,0:0:0:0:
512,369,36857,1,4,0:0:0:0:
73,20,37118,5,0,0:0:0:0:
10,86,37248,1,0,0:0:0:0:
31,169,37379,1,0,0:0:0:0:
111,191,37509,1,0,0:0:0:0:
189,211,37639,1,0,0:0:0:0:
210,285,37770,1,8,0:0:0:0:
162,352,37900,1,8,0:0:0:0:
87,322,38031,5,4,0:0:0:0:
87,322,38292,2,0,B|199:268|283:370,1,200,8|0,0:0|0:0,0:0:0:0:
342,304,38683,2,0,B|320:238|361:167,1,100,0|8,0:0|0:0,0:0:0:0:
486,10,38944,6,0,B|352:-30|336:134,1,200
232,170,39335,2,0,B|272:36|108:20,1,200,8|0,0:0|0:0,0:0:0:0:
56,63,39726,1,0,0:0:0:0:
128,125,39857,2,0,B|131:186|83:252,1,100,8|0,0:0|0:0,0:0:0:0:
234,372,40118,6,0,B|306:242|436:349,2,200,0|8|0,0:0|0:0|0:0,0:0:0:0:
456,237,40770,1,0,0:0:0:0:
502,156,40900,1,8,0:0:0:0:
472,72,41031,2,0,B|423:27|349:40,1,100
34,255,41422,6,0,B|163:301|205:129,1,200,8|0,0:0|0:0,0:0:0:0:
159,91,41813,1,0,0:0:0:0:
79,67,41944,1,8,0:0:0:0:
89,44,42009,1,8,0:0:0:0:
107,27,42074,1,8,0:0:0:0:
129,15,42139,1,8,0:0:0:0:
153,9,42204,1,4,0:0:0:0:
315,237,42466,5,8,0:0:0:0:
272,316,42596,2,0,B|398:365|420:207,1,200
295,91,42987,2,0,B|236:134|271:225,1,100,8|0,0:0|0:0,0:0:0:0:
356,163,43248,6,0,B|436:54|277:-15,1,200,4|8,0:0|0:0,0:0:0:0:
138,50,43639,1,0,0:0:0:0:
138,50,43705,1,0,0:0:0:0:
138,50,43770,1,0,0:0:0:0:
53,78,43900,1,0,0:0:0:0:
31,161,44031,2,0,B|20:214|50:293,1,100,8|0,0:0|0:0,0:0:0:0:
199,368,44292,6,0,B|332:388|360:248,2,200,4|8|0,0:0|0:0|0:0,0:0:0:0:
427,222,44944,1,0,0:0:0:0:
494,282,45074,1,8,0:0:0:0:
486,364,45205,2,0,B|441:392|352:357,1,100
244,63,45596,5,8,0:0:0:0:
335,66,45726,2,0,B|322:186|179:154,1,200
63,29,46118,1,8,0:0:0:0:
103,278,46248,1,8,0:0:0:0:
103,278,46313,1,8,0:0:0:0:
103,278,46379,1,0,0:0:0:0:
103,278,46639,6,0,B|166:271|213:353,1,100,8|0,0:0|0:0,0:0:0:0:
331,360,46900,1,0,0:0:0:0:
404,303,47031,2,0,B|496:206|406:79,1,200
430,119,47552,1,0,0:0:0:0:
358,56,47683,2,0,B|296:51|245:121,1,100,8|0,0:0|0:0,0:0:0:0:
190,22,47944,2,0,B|109:141|238:195,1,200,0|8,0:0|0:0,0:0:0:0:
184,260,48335,1,0,0:0:0:0:
144,341,48466,6,0,B|56:357|56:357|3:313|-4:245,2,200,0|8|0,0:0|0:0|0:0,0:0:0:0:
292,283,49118,1,0,0:0:0:0:
356,347,49248,1,8,0:0:0:0:
444,325,49379,2,0,B|473:262|457:181,1,100
38,9,49770,6,0,B|81:60|154:45,1,100,8|0,0:0|0:0,0:0:0:0:
296,7,50031,2,0,B|412:13|385:166,1,200,0|8,0:0|0:0,0:0:0:0:
241,205,50422,1,8,0:0:0:0:
241,205,50487,1,8,0:0:0:0:
241,205,50552,2,0,B|233:131|304:93,1,100,4|0,0:0|0:0,0:0:0:0:
346,271,50813,1,8,0:0:0:0:
346,271,50944,2,0,B|282:395|152:305,1,200,2|0,0:0|0:0,0:0:0:0:
125,250,51335,2,0,B|86:206|112:122,1,100,10|0,0:0|0:0,0:0:0:0:
286,1,51596,5,6,0:0:0:0:
374,52,51726,1,0,0:0:0:0:
386,151,51857,1,8,0:0:0:0:
293,108,51987,1,0,0:0:0:0:
293,108,52052,1,0,0:0:0:0:
293,108,52118,1,0,0:0:0:0:
374,52,52248,1,0,0:0:0:0:
465,89,52379,2,0,B|503:138|471:208,1,100,8|0,0:0|0:0,0:0:0:0:
428,255,52639,6,0,B|363:363|239:264,2,200,6|8|0,0:0|0:0|0:0,0:0:0:0:
175,324,53292,1,0,0:0:0:0:
91,343,53422,1,8,0:0:0:0:
38,272,53552,1,0,0:0:0:0:
78,190,53683,5,8,0:0:0:0:
266,159,53813,1,8,0:0:0:0:
266,159,53879,1,8,0:0:0:0:
266,159,53944,1,0,0:0:0:0:
147,2,54074,6,0,B|92:121|197:198,1,200,4|0,0:0|0:0,0:0:0:0:
464,245,54466,2,0,B|501:186|435:111,1,100,8|0,0:0|0:0,0:0:0:0:
238,333,54726,5,2,0:0:0:0:
238,333,54987,6,0,B|293:320|370:383,1,100,8|0,0:0|0:0,0:0:0:0:
161,253,55248,1,0,0:0:0:0:
64,284,55379,2,0,B|-21:196|66:86,2,200
237,115,56031,6,0,B|193:56|121:74,1,100,8|0,0:0|0:0,0:0:0:0:
241,206,56292,2,0,B|358:246|375:95,1,200,0|8,0:0|0:0,0:0:0:0:
457,149,56683,1,0,0:0:0:0:
457,149,56748,1,0,0:0:0:0:
457,149,56813,2,0,B|541:234|435:358,2,200,0|8|0,0:0|0:0|0:0,0:0:0:0:
304,26,57466,5,0,0:0:0:0:
224,62,57596,1,8,0:0:0:0:
166,137,57726,1,0,0:0:0:0:
156,227,57857,1,0,0:0:0:0:
156,227,58118,6,0,B|192:283|288:269,1,100,8|0,0:0|0:0,0:0:0:0:
116,37,58379,2,0,B|-8:42|23:225,1,200,0|8,0:0|0:0,0:0:0:0:
159,370,58770,1,8,0:0:0:0:
159,370,58835,1,8,0:0:0:0:
159,370,58900,2,0,B|288:394|236:308|397:340,1,200,4|8,0:0|0:0,0:0:0:0:
495,241,59292,1,0,0:0:0:0:
511,160,59422,1,0,0:0:0:0:
436,106,59552,1,0,0:0:0:0:
359,158,59683,1,8,0:0:0:0:
359,158,59944,6,0,B|260:263|162:158,1,200,4|8,0:0|0:0,0:0:0:0:
25,1,60335,2,0,B|149:46|61:207,1,200
3,276,60726,1,8,0:0:0:0:
116,358,60857,1,0,0:0:0:0:
116,358,60922,1,0,0:0:0:0:
116,358,60987,2,0,B|252:383|192:299|307:310,2,200,4|8|0,0:0|0:0|0:0,0:0:0:0:
399,344,61639,1,0,0:0:0:0:
467,276,61770,1,8,0:0:0:0:
425,189,61900,1,0,0:0:0:0:
337,199,62031,1,0,0:0:0:0:
337,199,62292,5,8,0:0:0:0:
255,142,62422,2,0,B|258:10|391:31,1,200
453,81,62813,1,8,0:0:0:0:
185,13,62944,1,8,0:0:0:0:
185,13,63009,1,8,0:0:0:0:
185,13,63074,1,4,0:0:0:0:
185,13,63335,6,0,B|122:16|99:90,1,100,8|0,0:0|0:0,0:0:0:0:
31,100,63596,1,0,0:0:0:0:
155,143,63726,2,0,B|231:258|98:324,2,200
42,256,64379,2,0,B|0:303|41:378,1,100,8|0,0:0|0:0,0:0:0:0:
289,253,64639,2,0,B|271:115|135:146,1,200,0|8,0:0|0:0,0:0:0:0:
227,333,65031,1,0,0:0:0:0:
227,333,65096,1,0,0:0:0:0:
227,333,65161,2,0,B|342:376|317:292|435:327,1,200,0|8,0:0|0:0,0:0:0:0:
490,259,65552,1,0,0:0:0:0:
455,178,65683,1,0,0:0:0:0:
491,101,65813,1,0,0:0:0:0:
430,33,65944,1,8,0:0:0:0:
389,115,66074,1,0,0:0:0:0:
247,19,66205,6,0,B|123:39|147:172,1,200,0|8,0:0|0:0,0:0:0:0:
215,211,66596,1,0,0:0:0:0:
26,232,66726,6,0,B|94:231|98:331,1,100
249,123,66987,1,8,0:0:0:0:
315,344,67118,1,0,0:0:0:0:
315,344,67183,1,0,0:0:0:0:
315,344,67248,2,0,B|448:365|449:218,1,200,4|8,0:0|0:0,0:0:0:0:
406,44,67639,1,0,0:0:0:0:
355,113,67770,1,0,0:0:0:0:
489,39,67900,1,0,0:0:0:0:
326,11,68031,2,0,B|266:1|211:55,1,100,8|0,0:0|0:0,0:0:0:0:
205,16,68226,1,0,0:0:0:0:
205,16,68292,6,0,B|131:123|29:14,1,200,4|8,0:0|0:0,0:0:0:0:
0,126,68683,2,0,B|129:136|86:279,1,200,0|0,3:0|0:0,0:0:0:0:
30,331,69074,1,8,0:0:0:0:
199,369,69205,1,0,0:0:0:0:
199,369,69270,1,0,0:0:0:0:
199,369,69335,1,4,0:0:0:0:
273,228,69466,1,0,0:0:0:0:
109,182,69596,1,0,0:0:0:0:
298,332,69726,2,0,B|412:303|371:132,1,200,2|0,0:0|0:0,0:0:0:0:
260,12,70118,1,8,0:0:0:0:
190,73,70248,1,0,0:0:0:0:
378,172,70379,6,0,B|443:181|484:115,1,100,2|0,0:0|0:0,0:0:0:0:
174,301,70639,2,0,B|141:165|5:236,1,200,10|0,0:0|0:0,0:0:0:0:
121,375,71031,1,2,0:0:0:0:
121,375,71096,1,0,0:0:0:0:
121,375,71161,2,0,B|186:411|251:349,1,100,8|0,0:0|0:0,0:0:0:0:
428,258,71422,6,0,B|436:116|305:111,1,200,2|8,0:0|0:0,0:0:0:0:
280,29,71813,1,2,0:0:0:0:
278,186,71944,1,0,0:0:0:0:
408,114,72074,1,0,0:0:0:0:
280,29,72205,2,0,B|209:34|186:118,1,100,10|0,0:0|0:0,0:0:0:0:
69,22,72466,6,0,B|21:136|142:180,1,200,2|8,0:0|0:0,0:0:0:0:
39,319,72857,2,0,B|161:303|139:176,1,200,2|0,0:0|0:0,0:0:0:0:
46,227,73248,1,8,0:0:0:0:
452,366,73509,6,0,B|515:240|379:182,1,200,2|8,0:0|0:0,0:0:0:0:
336,243,73900,1,2,0:0:0:0:
404,110,74031,1,0,0:0:0:0:
263,116,74161,1,0,0:0:0:0:
336,243,74292,2,0,B|360:365|220:365,1,200,8|2,0:0|0:0,0:0:0:0:
165,300,74683,1,0,0:0:0:0:
121,94,74813,6,0,B|191:113|184:212,1,100,8|0,0:0|0:0,0:0:0:0:
26,118,75074,2,0,B|7:47|96:4,1,100,2|0,0:0|0:0,0:0:0:0:
92,190,75335,2,0,B|40:241|-41:185,1,100,10|0,0:0|0:0,0:0:0:0:
222,5,75596,6,0,B|353:-5|357:170,1,200,2|8,0:0|0:0,0:0:0:0:
445,173,75987,1,2,0:0:0:0:
445,173,76052,1,0,0:0:0:0:
445,173,76118,1,0,0:0:0:0:
368,232,76248,1,0,0:0:0:0:
441,71,76379,1,10,0:0:0:0:
368,232,76509,1,0,0:0:0:0:
440,302,76639,6,0,B|347:379|240:302,1,200,2|8,0:0|0:0,0:0:0:0:
113,71,77031,2,0,B|171:82|171:82|216:136|161:256,1,200,2|0,0:0|0:0,0:0:0:0:
30,330,77422,1,8,0:0:0:0:
21,150,77552,1,0,0:0:0:0:
228,6,77683,6,0,B|364:5|351:164,1,200,2|8,0:0|0:0,0:0:0:0:
175,359,78074,2,0,B|39:360|52:201,1,200,2|0,0:0|0:0,0:0:0:0:
352,129,78466,1,10,0:0:0:0:
465,361,78596,1,2,0:0:0:0:
227,232,78726,6,0,B|339:221|374:368,1,200,2|8,0:0|0:0,0:0:0:0:
442,263,79118,1,0,0:0:0:0:
442,263,79183,1,0,0:0:0:0:
442,263,79248,1,2,0:0:0:0:
270,345,79379,1,2,0:0:0:0:
155,151,79509,1,8,0:0:0:0:
175,119,79574,1,8,0:0:0:0:
204,96,79639,1,8,0:0:0:0:
241,93,79704,1,8,0:0:0:0:
276,107,79769,1,4,0:0:0:0:
51,346,80031,5,8,0:0:0:0:
17,271,80161,2,0,B|8:197|8:197|31:159|31:159|18:68,1,200,2|0,0:0|0:0,0:0:0:0:
10,0,80552,1,8,0:0:0:0:
372,22,80813,6,0,B|494:54|435:226,1,200,6|8,0:0|0:0,0:0:0:0:
369,277,81205,1,2,0:0:0:0:
330,161,81335,1,0,0:0:0:0:
480,273,81466,1,0,0:0:0:0:
303,368,81596,1,8,0:0:0:0:
303,368,81857,6,0,L|242:359,1,50
129,343,81987,1,0,0:0:0:0:
218,113,82118,6,0,B|251:221|117:230,1,150,8|0,0:0|0:0,0:0:0:0:
154,224,82379,1,2,0:0:0:0:
86,78,82509,1,2,0:0:0:0:
261,6,82639,1,8,0:0:0:0:
320,166,82770,2,0,B|435:164|383:255|508:261,1,200,2|0,0:0|0:0,0:0:0:0:
422,93,83161,1,8,0:0:0:0:
351,5,83292,1,0,0:0:0:0:
351,5,83357,1,0,0:0:0:0:
351,5,83422,1,2,0:0:0:0:
422,93,83552,1,0,0:0:0:0:
506,21,83683,1,8,0:0:0:0:
320,166,83813,1,0,0:0:0:0:
433,343,83944,6,0,B|338:300|231:376,1,200,6|8,0:0|0:0,0:0:0:0:
133,264,84335,1,0,0:0:0:0:
219,268,84466,1,0,0:0:0:0:
113,355,84596,1,0,0:0:0:0:
58,222,84726,2,0,B|53:162|117:123,1,100,10|0,0:0|0:0,0:0:0:0:
166,9,84987,6,0,B|223:139|371:52,1,200,6|8,0:0|0:0,0:0:0:0:
482,261,85379,1,2,0:0:0:0:
484,128,85509,1,0,0:0:0:0:
363,174,85639,1,0,0:0:0:0:
361,308,85770,1,8,0:0:0:0:
361,308,86031,6,0,B|234:300|163:369,2,200,6|8|0,0:0|0:0|0:0,0:0:0:0:
195,185,86683,1,0,0:0:0:0:
195,185,86748,1,0,0:0:0:0:
195,185,86813,1,8,0:0:0:0:
246,113,86944,1,0,0:0:0:0:
136,258,87074,1,4,0:0:0:0:
24,129,87205,1,0,0:0:0:0:
163,17,87335,2,0,B|225:-8|298:27,1,100,8|0,0:0|0:0,0:0:0:0:
287,27,87531,1,0,0:0:0:0:
287,27,87596,5,2,0:0:0:0:
491,234,87770,5,2,0:0:0:0:
232,323,87944,5,2,0:0:0:0:
437,110,88118,5,8,0:0:0:0:
362,268,88248,1,0,0:0:0:0:
219,192,88379,1,8,0:0:0:0:
287,27,88509,1,0,0:0:0:0:
396,361,88639,5,8,0:0:0:0:
114,200,88770,1,8,0:0:0:0:
114,200,89031,5,4,0:0:0:0:
114,200,89292,2,0,L|101:137,2,50
82,289,89552,1,0,0:0:0:0:
176,273,89683,1,0,0:0:0:0:
148,374,89813,1,0,0:0:0:0:
148,374,89879,1,0,0:0:0:0:
148,374,89944,1,0,0:0:0:0:
114,200,90074,1,0,0:0:0:0:
114,200,90139,1,0,0:0:0:0:
114,200,90205,6,0,B|137:32|319:94,1,239.999992675781,2|8,0:0|0:0,0:0:0:0:
406,264,90596,2,0,B|383:432|201:370,1,239.999992675781,2|0,0:0|0:0,0:0:0:0:
241,168,90987,2,0,B|312:180|314:291,1,119.999996337891,8|0,0:0|0:0,0:0:0:0:
15,172,91248,6,0,B|13:2|169:12,2,239.999992675781,2|8|2,0:0|0:0|0:0,0:0:0:0:
218,250,91900,1,0,0:0:0:0:
61,369,92031,1,8,0:0:0:0:
138,135,92161,1,2,0:0:0:0:
328,59,92292,6,0,B|469:86|430:275,1,239.999992675781,2|8,0:0|0:0,0:0:0:0:
257,363,92683,1,2,0:0:0:0:
257,363,92748,1,0,0:0:0:0:
257,363,92813,2,0,B|296:274|398:325,1,119.999996337891,2|0,0:0|0:0,0:0:0:0:
251,12,93074,2,0,B|212:101|110:50,1,119.999996337891,8|0,0:0|0:0,0:0:0:0:
85,14,93335,6,0,B|-49:69|42:244,1,239.999992675781,2|8,0:0|0:0,0:0:0:0:
240,248,93726,1,0,0:0:0:0:
240,248,93792,1,0,0:0:0:0:
240,248,93857,1,2,0:0:0:0:
115,377,93987,1,2,0:0:0:0:
28,214,94118,1,8,0:0:0:0:
198,334,94248,1,0,0:0:0:0:
390,267,94379,6,0,B|460:136|319:64,1,239.999992675781,6|8,0:0|0:0,0:0:0:0:
226,88,94770,1,0,0:0:0:0:
226,88,94835,1,0,0:0:0:0:
226,88,94900,1,0,0:0:0:0:
317,196,95031,1,0,0:0:0:0:
297,346,95161,1,8,0:0:0:0:
194,221,95292,1,0,0:0:0:0:
325,67,95422,6,0,B|467:58|502:256,1,239.999992675781,6|8,0:0|0:0,0:0:0:0:
297,346,95813,1,0,0:0:0:0:
297,346,95879,1,0,0:0:0:0:
297,346,95944,2,0,B|358:276|458:324,1,119.999996337891
256,8,96205,2,0,B|195:78|95:30,1,119.999996337891,8|0,0:0|0:0,0:0:0:0:
56,12,96466,6,0,B|197:64|111:232,2,239.999992675781,2|8|2,0:0|0:0|0:0,0:0:0:0:
22,181,97118,1,0,0:0:0:0:
127,318,97248,1,8,0:0:0:0:
256,220,97379,1,0,0:0:0:0:
37,278,97509,5,8,0:0:0:0:
235,365,97639,1,8,0:0:0:0:
235,365,97705,1,8,0:0:0:0:
235,365,97770,1,0,0:0:0:0:
376,214,97900,2,0,B|408:150|395:122|395:122|348:114|348:114|321:62|353:7,1,239.999992675781,8|0,0:0|0:0,0:0:0:0:
430,7,98292,1,2,0:0:0:0:
489,68,98422,1,0,0:0:0:0:
224,13,98552,6,0,B|77:19|61:190,1,239.999992675781,6|8,0:0|0:0,0:0:0:0:
302,384,98944,2,0,B|449:378|465:207,1,239.999992675781,2|0,0:0|0:0,0:0:0:0:
177,127,99335,2,0,B|137:184|153:268,1,119.999996337891,8|0,0:0|0:0,0:0:0:0:
412,62,99596,6,0,B|290:70|373:222|226:198,1,239.999992675781,2|8,0:0|0:0,0:0:0:0:
145,349,99987,1,0,0:0:0:0:
29,230,100118,1,0,0:0:0:0:
29,230,100248,1,2,0:0:0:0:
70,76,100379,1,8,0:0:0:0:
209,35,100509,1,2,0:0:0:0:
348,179,100639,6,0,B|416:336|224:346,1,239.999992675781,2|8,0:0|0:0,0:0:0:0:
423,69,101031,1,0,0:0:0:0:
423,69,101096,1,0,0:0:0:0:
423,69,101161,2,0,B|497:84|495:192,1,119.999996337891,2|0,0:0|0:0,0:0:0:0:
151,266,101422,2,0,B|94:216|150:123,1,119.999996337891,8|0,0:0|0:0,0:0:0:0:
433,366,101683,6,0,B|325:258|175:351,1,239.999992675781,2|8,0:0|0:0,0:0:0:0:
135,376,102074,1,0,0:0:0:0:
135,376,102139,1,0,0:0:0:0:
135,376,102205,1,2,0:0:0:0:
229,202,102335,1,2,0:0:0:0:
108,59,102466,1,8,0:0:0:0:
1,231,102596,1,0,0:0:0:0:
236,83,102726,6,0,B|394:40|455:221,1,239.999992675781,6|8,0:0|0:0,0:0:0:0:
433,366,103118,1,0,0:0:0:0:
433,366,103183,1,0,0:0:0:0:
433,366,103248,1,0,0:0:0:0:
261,279,103379,1,0,0:0:0:0:
496,267,103509,1,8,0:0:0:0:
342,368,103639,1,0,0:0:0:0:
438,173,103770,6,0,B|461:103|397:77|397:77|381:86|381:86|316:90|304:15,1,239.999992675781,6|8,0:0|0:0,0:0:0:0:
228,69,104161,1,2,0:0:0:0:
143,194,104292,1,0,0:0:0:0:
85,55,104422,1,0,0:0:0:0:
143,194,104552,1,8,0:0:0:0:
53,309,104683,1,0,0:0:0:0:
143,194,104813,6,0,B|281:204|183:332|370:338,2,239.999992675781,6|10|0,0:0|0:0|0:0,0:0:0:0:
384,266,105466,1,0,0:0:0:0:
146,334,105596,1,8,0:0:0:0:
384,266,105726,1,0,0:0:0:0:
231,96,105857,5,8,0:0:0:0:
321,332,105987,1,8,0:0:0:0:
321,332,106052,1,8,0:0:0:0:
321,332,106118,1,0,0:0:0:0:
485,147,106248,2,0,B|494:-5|297:25,1,239.999992675781,8|2,0:0|0:0,0:0:0:0:
326,21,106574,1,0,0:0:0:0:
326,21,106639,1,0,0:0:0:0:
376,104,106770,1,0,0:0:0:0:
101,247,106900,6,0,B|41:284|6:251|12:126|141:151|224:179|171:373|397:286,1,479.999985351563,2|0,0:0|0:0,0:0:0:0:
379,291,107683,1,0,0:0:0:0:
457,345,107813,1,8,0:0:0:0:
457,345,107879,1,8,0:0:0:0:
457,345,107944,1,8,0:0:0:0:
481,185,108074,1,8,0:0:0:0:
281,150,108205,1,8,0:0:0:0:
248,313,108335,1,8,0:0:0:0:
506,274,108466,5,0,0:0:0:0:
401,106,108596,1,0,0:0:0:0:
211,209,108726,1,0,0:0:0:0:
346,374,108857,1,0,0:0:0:0:
211,209,108987,5,4,0:0:0:0:
135,266,109118,1,0,0:0:0:0:
135,266,109183,1,0,0:0:0:0:
135,266,109248,2,0,B|60:164|111:18,1,220.000006713867
211,209,109639,2,0,B|230:83|369:16,1,220.000006713867,0|0,3:0|0:0,0:0:0:0:
287,263,110031,2,0,B|388:187|535:239,1,220.000006713867,0|0,3:0|0:0,0:0:0:0:
211,209,110422,2,0,B|109:284|-37:233,1,220.000006713867,0|0,3:0|0:0,0:0:0:0:
256,129,110813,1,0,0:0:0:0:
256,129,111074,5,0,0:0:0:0:
249,355,111205,1,0,0:0:0:0:
249,355,111270,1,0,0:0:0:0:
249,355,111335,2,0,L|492:384,1,220.000006713867
275,272,111726,2,0,L|467:120,1,220.000006713867,0|0,3:0|0:0,0:0:0:0:
206,218,112118,2,0,L|234:-24,1,220.000006713867,0|0,3:0|0:0,0:0:0:0:
136,268,112509,2,0,L|-15:75,1,220.000006713867,2|0,3:0|0:0,0:0:0:0:
159,358,112900,1,2,3:0:0:0:
159,358,113161,5,4,0:0:0:0:
69,369,113292,1,0,0:0:0:0:
69,369,113357,1,0,0:0:0:0:
69,369,113422,2,0,B|-3:240|106:151,1,220.000006713867
271,82,113813,2,0,B|195:208|63:158,1,220.000006713867,0|0,3:0|0:0,0:0:0:0:
271,82,114205,2,0,B|418:84|441:223,1,220.000006713867,0|0,3:0|0:0,0:0:0:0:
252,283,114596,2,0,B|180:153|289:65,1,220.000006713867,0|0,3:0|0:0,0:0:0:0:
436,198,114987,2,0,B|360:324|228:274,1,220.000006713867,0|0,3:0|0:0,0:0:0:0:
175,352,115379,1,0,0:0:0:0:
175,352,115444,1,0,0:0:0:0:
175,352,115509,6,0,B|51:313|32:187,1,220.000006713867,0|0,3:0|0:0,0:0:0:0:
205,11,115900,2,0,B|329:50|348:176,1,220.000006713867,0|0,3:0|0:0,0:0:0:0:
345,164,116226,1,0,0:0:0:0:
345,164,116292,1,4,0:0:0:0:
196,150,116422,1,0,0:0:0:0:
446,89,116552,1,0,0:0:0:0:
404,362,116683,2,0,B|340:380|290:319,1,110.000003356934,4|0,0:0|0:0,0:0:0:0:
369,283,116944,1,0,0:0:0:0:
206,367,117074,5,8,0:0:0:0:
187,315,117139,1,8,0:0:0:0:
149,275,117204,1,8,0:0:0:0:
98,256,117269,1,8,0:0:0:0:
43,254,117335,6,0,B|-2:209|24:130,1,100,2|0,0:0|0:0,0:0:0:0:
96,181,117596,1,8,0:0:0:0:
231,17,117726,6,0,B|293:36|296:98,1,100,2|0,0:0|0:0,0:0:0:0:
218,101,117987,1,0,0:0:0:0:
414,193,118118,6,0,B|403:122|461:91,1,100,8|0,0:0|0:0,0:0:0:0:
493,169,118379,1,0,0:0:0:0:
319,333,118509,6,0,B|363:379|455:353,1,100,2|8,0:0|0:0,0:0:0:0:
188,338,118770,1,0,0:0:0:0:
188,338,118835,1,0,0:0:0:0:
188,338,118900,2,0,B|169:280|207:234,1,100,2|0,0:0|0:0,0:0:0:0:
324,46,119161,2,0,B|343:104|305:150,1,100,10|0,0:0|0:0,0:0:0:0:
38,31,119422,6,0,B|94:-2|182:22,1,100,2|0,0:0|0:0,0:0:0:0:
103,97,119683,1,8,0:0:0:0:
328,237,119813,6,0,B|299:190|315:117,1,100,2|0,0:0|0:0,0:0:0:0:
398,175,120074,1,0,0:0:0:0:
230,304,120205,6,0,B|197:251|97:276,1,100,10|0,0:0|0:0,0:0:0:0:
162,351,120466,1,0,0:0:0:0:
393,321,120596,6,0,B|461:314|500:390,1,100,2|8,0:0|0:0,0:0:0:0:
457,23,120857,1,0,0:0:0:0:
457,23,120922,1,0,0:0:0:0:
457,23,120987,2,0,B|392:16|372:61,1,100,2|0,0:0|0:0,0:0:0:0:
102,17,121248,1,8,0:0:0:0:
149,31,121313,1,8,0:0:0:0:
189,60,121378,1,8,0:0:0:0:
217,102,121443,1,8,0:0:0:0:
233,149,121508,1,12,0:0:0:0:
57,201,121639,1,0,0:0:0:0:
200,323,121770,1,8,0:0:0:0:
389,263,121900,1,0,0:0:0:0:
200,323,122031,6,0,B|141:353|76:310,1,110.000003356934,10|2,0:0|0:0,0:0:0:0:
353,61,122292,2,0,B|412:31|477:74,1,110.000003356934,8|0,0:0|0:0,0:0:0:0:
506,129,122552,1,8,0:0:0:0:
215,232,122683,5,2,0:0:0:0:
278,5,122813,1,8,0:0:0:0:
425,184,122944,1,2,0:0:0:0:
396,384,123074,2,0,B|463:381|474:288,1,110.000003356934,8|0,0:0|0:0,0:0:0:0:
284,128,123335,2,0,B|217:131|206:224,1,110.000003356934,8|0,0:0|0:0,0:0:0:0:
215,232,123531,1,0,0:0:0:0:
215,232,123596,5,2,0:0:0:0:
24,57,123726,2,0,L|45:140,1,55.0000016784668,2|0,0:0|0:0,0:0:0:0:
86,337,123857,1,0,0:0:0:0:
303,240,123987,5,2,0:0:0:0:
32,256,124118,2,0,L|64:178,1,55.0000016784668,2|0,0:0|0:0,0:0:0:0:
133,0,124248,1,0,0:0:0:0:
241,314,124379,5,2,0:0:0:0:
350,39,124509,1,4,0:0:0:0:
350,39,124770,5,0,0:0:0:0:
431,77,124900,1,0,0:0:0:0:
446,166,125031,1,0,0:0:0:0:
396,240,125161,1,0,0:0:0:0:
347,134,125292,1,0,0:0:0:0:
228,138,125422,1,8,0:0:0:0:
180,249,125552,1,0,0:0:0:0:
294,349,125683,1,4,0:0:0:0:
294,349,125944,6,0,B|251:308|184:342,1,100,8|0,0:0|0:0,0:0:0:0:
61,204,126205,1,0,0:0:0:0:
61,204,126335,2,0,B|173:125|52:4,2,200
21,113,126987,1,8,0:0:0:0:
21,113,127248,5,0,0:0:0:0:
188,32,127379,1,0,0:0:0:0:
191,224,127509,2,0,B|153:278|70:274,1,100,8|0,0:0|0:0,0:0:0:0:
191,224,127770,6,0,B|259:332|380:283,2,200,0|8|0,0:0|0:0|0:0,0:0:0:0:
408,211,128422,1,0,0:0:0:0:
493,207,128552,1,8,0:0:0:0:
448,130,128683,1,0,0:0:0:0:
359,129,128813,2,0,B|308:23|161:50,1,200,0|8,0:0|0:0,0:0:0:0:
114,101,129205,1,0,0:0:0:0:
211,310,129335,2,0,B|271:291|281:207,1,100
82,2,129596,1,8,0:0:0:0:
40,29,129661,1,8,0:0:0:0:
17,73,129726,1,8,0:0:0:0:
14,123,129791,1,8,0:0:0:0:
22,172,129856,1,0,0:0:0:0:
22,172,130118,5,8,0:0:0:0:
47,315,130248,2,0,B|152:401|249:303,1,200
235,126,130639,2,0,B|175:161|175:254,1,100,8|0,0:0|0:0,0:0:0:0:
283,207,130900,6,0,B|380:116|271:14,1,200,0|8,0:0|0:0,0:0:0:0:
415,218,131292,1,0,0:0:0:0:
421,32,131422,1,0,0:0:0:0:
415,218,131552,1,0,0:0:0:0:
421,32,131683,2,0,B|473:52|474:150,1,100,8|0,0:0|0:0,0:0:0:0:
457,334,131944,6,0,B|348:395|252:261,2,200,0|8|0,0:0|0:0|0:0,0:0:0:0:
33,229,132726,1,8,0:0:0:0:
79,328,132857,2,0,B|175:244|95:130,1,200
24,84,133248,1,8,0:0:0:0:
142,226,133379,2,0,B|226:322|340:242,1,200
373,167,133770,1,8,0:0:0:0:
286,8,133900,1,8,0:0:0:0:
286,8,133966,1,8,0:0:0:0:
286,8,134031,1,0,0:0:0:0:
286,8,134292,6,0,B|232:52|263:145,1,100,8|0,0:0|0:0,0:0:0:0:
481,243,134552,1,0,0:0:0:0:
481,243,134683,2,0,B|528:103|387:76,2,200
359,362,135335,2,0,B|299:393|234:322,1,100,8|0,0:0|0:0,0:0:0:0:
252,97,135596,2,0,B|308:133|279:225,1,100,0|0,0:3|0:3,0:3:0:0:
200,174,135857,1,8,0:0:0:0:
200,174,136118,5,0,0:0:0:0:
152,83,136248,1,0,0:0:0:0:
79,157,136379,1,8,0:0:0:0:
129,259,136509,1,0,0:0:0:0:
79,157,136639,5,0,0:0:0:0:
224,281,136770,1,0,0:0:0:0:
104,353,136900,1,8,0:0:0:0:
42,286,137031,1,0,0:0:0:0:
224,281,137161,6,0,B|352:255|412:363,1,200,0|8,0:0|0:0,0:0:0:0:
323,378,137552,1,0,0:0:0:0:
251,188,137683,2,0,B|221:124|254:64,1,100
495,46,137944,1,8,0:0:0:0:
469,88,138009,1,8,0:0:0:0:
428,115,138074,1,8,0:0:0:0:
379,122,138139,1,8,0:0:0:0:
329,116,138204,1,4,0:0:0:0:
28,9,138466,5,8,0:0:0:0:
110,54,138596,2,0,B|93:144|93:144|81:148|81:148|58:267,1,200
3,302,138987,2,0,B|45:351|119:306,1,100,8|0,0:0|0:0,0:0:0:0:
371,373,139248,6,0,B|425:223|276:230,1,200,4|8,0:0|0:0,0:0:0:0:
325,123,139639,2,0,B|475:177|468:28,1,200
380,27,140031,1,8,0:0:0:0:
208,7,140161,1,8,0:0:0:0:
208,7,140226,1,8,0:0:0:0:
208,7,140292,1,4,0:0:0:0:
137,81,140422,1,0,0:0:0:0:
178,181,140552,1,8,0:0:0:0:
258,311,140683,6,0,B|164:243|87:372,1,200
23,226,141074,1,8,0:0:0:0:
178,181,141205,1,0,0:0:0:0:
65,10,141335,6,0,B|18:52|53:137,1,100
423,131,141596,2,0,B|381:84|296:119,1,100,8|0,0:0|0:0,0:0:0:0:
343,375,141857,1,8,0:0:0:0:
343,375,141922,1,8,0:0:0:0:
343,375,141987,1,0,0:0:0:0:
364,196,142118,1,8,0:0:0:0:
364,196,142379,6,0,B|240:183|226:344,1,200,0|8,0:0|0:0,0:0:0:0:
135,298,142770,2,0,B|148:174|-13:160,1,200
24,84,143161,2,0,B|86:91|109:30,1,100,8|0,0:0|0:0,0:0:0:0:
327,280,143422,6,0,B|459:258|510:389,1,200,0|8,0:0|0:0,0:0:0:0:
432,60,143813,2,0,B|385:185|246:163,1,200
211,107,144205,2,0,B|204:41|272:6,1,100,8|0,0:0|0:0,0:0:0:0:
219,288,144466,6,0,B|147:190|23:257,1,200,0|8,0:0|0:0,0:0:0:0:
307,260,144857,2,0,B|379:358|503:291,1,200
131,339,145248,2,0,B|106:201|261:170,1,200,8|0,0:0|0:0,0:0:0:0:
219,181,145770,2,0,B|264:120|209:45,1,100,8|0,0:0|0:0,0:0:0:0:
164,26,146031,2,0,B|88:17|51:102,1,100
58,163,146292,2,0,B|88:232|180:222,1,100,8|0,0:0|0:0,0:0:0:0:
361,19,146552,6,0,B|489:3|506:173,1,200,0|8,0:0|0:0,0:0:0:0:
484,224,146944,2,0,B|433:342|278:272,1,200
251,219,147335,2,0,B|223:155|268:96,1,100,8|0,0:0|0:0,0:0:0:0:
317,286,147596,6,0,B|218:363|151:235,1,200,0|8,0:0|0:0,0:0:0:0:
144,146,147987,2,0,B|126:21|271:27,1,200,2|0,0:0|0:0,0:0:0:0:
349,62,148379,1,10,0:0:0:0:
427,95,148509,1,0,0:0:0:0:
474,308,148639,6,0,B|369:293|423:404|271:381,1,200,2|8,0:0|0:0,0:0:0:0:
72,174,149031,2,0,B|177:159|123:270|275:247,1,200,2|0,0:0|0:0,0:0:0:0:
349,62,149422,1,10,0:0:0:0:
131,14,149552,1,0,0:0:0:0:
1,217,149683,2,0,B|19:352|162:347,1,200,2|8,0:0|0:0,0:0:0:0:
336,186,150074,1,0,0:0:0:0:
336,186,150139,1,0,0:0:0:0:
336,186,150205,1,0,0:0:0:0:
237,131,150335,1,0,0:0:0:0:
126,258,150466,1,8,0:0:0:0:
217,322,150596,1,0,0:0:0:0:
444,156,150726,6,0,B|555:197|495:349,1,200,6|8,0:0|0:0,0:0:0:0:
336,186,151118,2,0,B|316:69|477:45,1,200
406,273,151509,2,0,B|314:348|213:220,1,200,8|4,0:0|0:0,0:0:0:0:
31,19,152031,5,8,0:0:0:0:
113,36,152161,2,0,B|156:147|44:258,1,200
188,365,152552,2,0,B|167:295|79:285,1,100,8|0,0:0|0:0,0:0:0:0:
246,109,152813,5,0,0:0:0:0:
316,160,152944,1,0,0:0:0:0:
366,91,153074,1,8,0:0:0:0:
301,34,153205,1,0,0:0:0:0:
301,34,153270,1,0,0:0:0:0:
301,34,153335,1,0,0:0:0:0:
231,219,153466,1,0,0:0:0:0:
424,288,153596,1,8,0:0:0:0:
488,65,153726,6,0,B|452:96|457:133|457:133|479:150|479:150|507:179|491:247,1,200,4|0,0:0|0:0,0:0:0:0:
348,351,154118,1,8,0:0:0:0:
264,307,154248,1,0,0:0:0:0:
231,219,154379,2,0,B|221:142|271:109,1,100
264,307,154639,2,0,B|202:354|148:327,1,100,8|0,0:0|0:0,0:0:0:0:
16,78,154900,6,0,B|137:85|125:238,1,200,4|8,0:0|0:0,0:0:0:0:
187,58,155292,1,0,0:0:0:0:
231,219,155422,1,0,0:0:0:0:
380,177,155552,1,0,0:0:0:0:
340,25,155683,2,0,B|294:53|318:135,1,100,8|0,0:0|0:0,0:0:0:0:
512,317,155944,6,0,B|450:211|323:295,1,200,4|8,0:0|0:0,0:0:0:0:
84,321,156335,2,0,B|146:427|273:343,1,200
211,136,156726,1,8,0:0:0:0:
41,155,156857,1,0,0:0:0:0:
179,284,156987,2,0,B|242:285|269:227,1,100,2|0,0:0|0:0,0:0:0:0:
247,0,157248,2,0,B|295:140|437:78,1,200,8|0,0:0|0:0,0:0:0:0:
462,37,157639,1,0,0:0:0:0:
426,184,157770,2,0,B|426:241|478:292,1,100,8|0,0:0|0:0,0:0:0:0:
426,184,158031,6,0,B|323:230|367:385,1,200,0|8,0:0|0:0,0:0:0:0:
263,383,158422,1,0,0:0:0:0:
263,383,158487,1,0,0:0:0:0:
263,383,158552,5,6,0:0:0:0:
88,161,158726,5,2,0:0:0:0:
331,123,158900,5,2,0:0:0:0:
115,308,159074,5,8,0:0:0:0:
211,80,159205,1,0,0:0:0:0:
354,239,159335,1,8,0:0:0:0:
263,383,159466,1,0,0:0:0:0:
40,245,159596,5,8,0:0:0:0:
415,176,159726,1,8,0:0:0:0:
415,176,159987,5,4,0:0:0:0:
475,241,160248,1,0,0:0:0:0:
475,241,160313,1,0,0:0:0:0:
475,241,160379,1,0,0:0:0:0:
412,312,160509,1,0,0:0:0:0:
354,239,160639,1,0,0:0:0:0:
301,311,160770,1,0,0:0:0:0:
301,311,160835,1,0,0:0:0:0:
301,311,160900,1,0,0:0:0:0:
229,242,161031,1,0,0:0:0:0:
229,242,161096,1,0,0:0:0:0:
229,242,161161,6,0,B|207:74|384:78,1,239.999992675781,2|8,0:0|0:0,0:0:0:0:
205,348,161552,2,0,B|70:451|-14:295,1,239.999992675781,2|0,0:0|0:0,0:0:0:0:
66,132,161944,2,0,B|116:175|92:301,1,119.999996337891,8|0,0:0|0:0,0:0:0:0:
32,40,162205,2,0,B|166:-63|251:92,2,239.999992675781,2|8|0,0:0|0:0|0:0,0:0:0:0:
229,242,162857,1,0,0:0:0:0:
445,115,162987,1,8,0:0:0:0:
229,242,163118,1,0,0:0:0:0:
442,381,163248,6,0,B|532:281|448:119,1,239.999992675781,2|8,0:0|0:0,0:0:0:0:
295,5,163639,1,2,0:0:0:0:
295,5,163705,1,0,0:0:0:0:
295,5,163770,2,0,B|329:77|431:42,1,119.999996337891
271,384,164031,2,0,B|237:312|135:347,1,119.999996337891,10|0,0:0|0:0,0:0:0:0:
11,156,164292,6,0,B|91:-3|260:94,2,239.999992675781,2|8|0,0:0|0:0|0:0,0:0:0:0:
229,242,164944,1,0,0:0:0:0:
456,142,165074,1,8,0:0:0:0:
217,158,165205,1,0,0:0:0:0:
470,231,165335,6,0,B|617:138|454:28,1,239.999992675781,2|8,0:0|0:0,0:0:0:0:
147,71,165726,2,0,B|0:164|163:274,1,239.999992675781,2|0,0:0|0:0,0:0:0:0:
320,153,166118,1,10,0:0:0:0:
320,153,166379,5,2,0:0:0:0:
141,258,166509,1,0,0:0:0:0:
329,361,166639,1,8,0:0:0:0:
470,231,166770,1,2,0:0:0:0:
309,63,166900,5,0,0:0:0:0:
240,241,167031,1,0,0:0:0:0:
421,311,167161,1,10,0:0:0:0:
482,119,167292,1,0,0:0:0:0:
309,63,167422,6,0,B|167:12|72:167,1,239.999992675781,2|8,0:0|0:0,0:0:0:0:
71,337,167813,1,0,0:0:0:0:
240,241,167944,1,0,0:0:0:0:
97,130,168074,1,2,0:0:0:0:
176,350,168205,1,8,0:0:0:0:
377,239,168335,1,0,0:0:0:0:
294,46,168466,5,2,0:0:0:0:
111,241,168596,1,2,0:0:0:0:
111,241,168661,1,0,0:0:0:0:
111,241,168726,1,0,0:0:0:0:
373,368,168857,2,0,B|419:356|419:356|506:260|438:155,1,239.999992675781,2|0,0:0|0:0,0:0:0:0:
194,14,169248,1,8,0:0:0:0:
149,15,169313,1,8,0:0:0:0:
108,33,169378,1,8,0:0:0:0:
74,63,169443,1,8,0:0:0:0:
48,100,169509,6,0,B|1:263|171:304,1,239.999992675781,2|8,0:0|0:0,0:0:0:0:
445,197,169900,2,0,B|492:34|322:-6,1,239.999992675781,2|0,0:0|0:0,0:0:0:0:
136,293,170292,2,0,B|222:313|270:229,1,119.999996337891,10|0,0:0|0:0,0:0:0:0:
509,384,170552,6,0,B|481:239|319:301,2,239.999992675781,2|8|0,0:0|0:0|0:0,0:0:0:0:
263,365,171205,1,0,0:0:0:0:
238,152,171335,1,8,0:0:0:0:
461,72,171466,1,2,0:0:0:0:
238,152,171596,6,0,B|92:164|87:3,1,239.999992675781,2|8,0:0|0:0,0:0:0:0:
344,177,171987,1,2,0:0:0:0:
344,177,172052,1,0,0:0:0:0:
344,177,172118,2,0,B|405:222|393:311,1,119.999996337891
23,105,172379,2,0,B|31:29|114:-4,1,119.999996337891,10|0,0:0|0:0,0:0:0:0:
332,322,172639,6,0,B|216:394|78:382,1,239.999992675781,2|8,0:0|0:0,0:0:0:0:
30,194,173031,1,0,0:0:0:0:
30,194,173096,1,0,0:0:0:0:
30,194,173161,1,2,0:0:0:0:
196,67,173292,1,2,0:0:0:0:
259,247,173422,1,8,0:0:0:0:
104,384,173552,1,2,0:0:0:0:
103,98,173683,6,0,B|115:-71|304:13,1,239.999992675781,6|8,0:0|0:0,0:0:0:0:
435,154,174074,1,2,0:0:0:0:
435,154,174139,1,0,0:0:0:0:
435,154,174205,1,0,0:0:0:0:
259,247,174335,1,0,0:0:0:0:
363,63,174466,1,10,0:0:0:0:
511,220,174596,1,0,0:0:0:0:
407,384,174726,5,6,0:0:0:0:
168,252,174857,1,0,0:0:0:0:
168,252,174922,1,0,0:0:0:0:
168,252,174987,1,8,0:0:0:0:
276,14,175118,2,0,B|404:-72|498:100,1,239.999992675781,2|0,0:0|0:0,0:0:0:0:
161,368,175509,2,0,B|22:300|124:132,1,239.999992675781,10|2,0:0|0:0,0:0:0:0:
325,148,175900,1,0,0:0:0:0:
316,350,176031,1,8,0:0:0:0:
325,148,176161,1,0,0:0:0:0:
163,53,176292,1,0,0:0:0:0:
260,258,176422,1,0,0:0:0:0:
461,123,176552,1,8,0:0:0:0:
323,0,176683,1,0,0:0:0:0:
195,187,176813,5,8,0:0:0:0:
433,310,176944,1,8,0:0:0:0:
433,310,177009,1,0,0:0:0:0:
433,310,177074,1,0,0:0:0:0:
248,69,177205,2,0,B|94:48|67:237,1,239.999992675781,2|0,0:0|0:0,0:0:0:0:
484,384,177596,2,0,B|551:304|489:238,1,119.999996337891,2|0,0:0|0:0,0:0:0:0:
86,286,177857,6,0,B|137:265|206:316|206:316|196:275|196:275|294:323|395:245|432:145|406:89|383:73,1,479.999985351563,2|0,0:0|0:0,0:0:0:0:
404,117,178639,1,0,0:0:0:0:
404,117,178770,1,0,0:0:0:0:
361,36,178900,5,8,0:0:0:0:
296,175,179031,1,10,0:0:0:0:
457,263,179161,1,8,0:0:0:0:
510,109,179292,1,0,0:0:0:0:
277,72,179422,5,8,0:0:0:0:
335,257,179552,1,0,0:0:0:0:
172,300,179683,1,8,0:0:0:0:
113,121,179813,1,8,0:0:0:0:
277,72,179944,1,2,0:0:0:0:
265,353,180205,6,0,B|131:431|36:282,1,239.999992675781,8|0,0:0|0:0,0:0:0:0:
16,119,180596,1,2,0:0:0:0:
197,187,180726,1,8,0:0:0:0:
55,309,180857,1,0,0:0:0:0:
16,119,180987,5,2,0:0:0:0:
277,72,181118,1,0,0:0:0:0:
277,72,181183,1,0,0:0:0:0:
277,72,181248,1,8,0:0:0:0:
413,262,181379,2,0,B|332:379|200:282,1,239.999992675781,2|0,0:0|0:0,0:0:0:0:
393,32,181770,2,0,B|455:53|448:146,1,119.999996337891,8|0,0:0|0:0,0:0:0:0:
118,249,182031,5,2,0:0:0:0:
174,28,182161,1,0,0:0:0:0:
348,127,182292,1,8,0:0:0:0:
302,337,182422,1,2,0:0:0:0:
302,337,182683,5,0,0:0:0:0:
62,377,182813,6,0,B|-48:296|30:145,1,239.999992675781,8|0,0:0|0:0,0:0:0:0:
120,46,183205,1,2,0:0:0:0:
173,183,183335,1,8,0:0:0:0:
21,162,183466,1,0,0:0:0:0:
303,215,183596,5,2,0:0:0:0:
54,303,183726,1,0,0:0:0:0:
120,46,183857,1,8,0:0:0:0:
341,0,183987,1,0,0:0:0:0:
417,231,184118,6,0,B|399:311|319:326,1,119.999996337891,2|0,0:0|0:0,0:0:0:0:
455,7,184379,2,0,B|593:76|479:262,1,239.999992675781,8|0,0:0|0:0,0:0:0:0:
254,312,184770,1,2,0:0:0:0:
269,72,184900,1,8,0:0:0:0:
86,183,185031,6,0,B|38:332|193:365,1,239.999992675781,2|0,0:0|0:0,0:0:0:0:
354,166,185422,1,8,0:0:0:0:
146,22,185552,1,0,0:0:0:0:
52,263,185683,5,2,0:0:0:0:
389,349,185857,5,2,0:0:0:0:
320,0,186031,5,2,0:0:0:0:
167,212,186205,6,0,B|267:335|426:234,1,239.999992675781,2|8,0:0|0:0,0:0:0:0:
459,53,186596,1,0,0:0:0:0:
459,53,186857,5,0,0:0:0:0:
193,105,186987,1,8,0:0:0:0:
386,350,187118,1,0,0:0:0:0:
320,0,187248,5,2,0:0:0:0:
184,306,187422,5,2,0:0:0:0:
512,234,187596,5,2,0:0:0:0:
159,77,187770,5,2,0:0:0:0:
391,380,187944,5,2,0:0:0:0:
490,30,188118,5,2,0:0:0:0:
356,188,188292,5,0,0:0:0:0:
356,188,188552,6,0,B|305:249|210:197,1,119.999996337891,8|0,0:0|0:0,0:0:0:0:
47,107,188813,1,0,0:0:0:0:
249,28,188944,1,0,0:0:0:0:
238,298,189074,1,8,0:0:0:0:
42,354,189205,1,0,0:0:0:0:
113,156,189335,5,4,0:0:0:0:
302,356,189466,1,0,0:0:0:0:
34,276,189596,1,8,0:0:0:0:
46,28,189726,1,0,0:0:0:0:
291,101,189857,5,0,0:0:0:0:
113,306,189987,1,0,0:0:0:0:
125,26,190118,1,8,0:0:0:0:
393,25,190248,1,0,0:0:0:0:
395,310,190379,1,0,0:0:0:0:
395,310,190639,6,0,B|340:250|392:157,1,119.999996337891,8|0,0:0|0:0,0:0:0:0:
467,242,190900,1,0,0:0:0:0:
122,178,191031,1,8,0:0:0:0:
122,178,191292,6,0,B|261:118|268:319,1,239.999992675781,4|2,0:0|0:0,0:0:0:0:
49,368,191683,1,8,0:0:0:0:
29,109,191813,1,0,0:0:0:0:
294,66,191944,5,2,0:0:0:0:
327,368,192118,5,2,0:0:0:0:
22,246,192292,5,2,0:0:0:0:
372,200,192466,5,0,0:0:0:0:
372,200,192726,2,0,B|441:195|487:321,1,119.999996337891,8|0,0:0|0:0,0:0:0:0:
375,112,192987,5,0,0:0:0:0:
413,103,193073,5,0,0:0:0:0:
443,77,193160,5,0,0:0:0:0:
466,44,193247,5,8,0:0:0:0:
225,4,193379,2,0,B|85:35|141:226,1,239.999992675781
253,384,193770,1,8,0:0:0:0:
463,267,193900,1,0,0:0:0:0:
284,132,194031,5,2,0:0:0:0:
64,350,194205,5,2,0:0:0:0:
427,374,194379,5,2,0:0:0:0:
381,70,194552,6,0,B|281:-49|145:93,2,239.999992675781,2|8|0,0:0|0:0|0:0,0:0:0:0:
119,144,195205,1,0,0:0:0:0:
45,93,195335,2,0,B|-6:148|23:225,1,119.999996337891,8|0,0:0|0:0,0:0:0:0:
309,352,195596,2,0,B|319:175|143:234,1,239.999992675781,0|8,0:0|0:0,0:0:0:0:
195,353,195987,1,0,0:0:0:0:
195,353,196052,1,0,0:0:0:0:
195,353,196118,5,6,0:0:0:0:
458,127,196292,1,2,0:0:0:0:
186,5,196466,1,2,0:0:0:0:
164,130,196639,5,10,0:0:0:0:
212,126,196705,1,0,0:0:0:0:
252,100,196770,1,0,0:0:0:0:
278,59,196835,1,0,0:0:0:0:
305,19,196900,1,8,0:0:0:0:
352,9,196966,1,0,0:0:0:0:
399,14,197031,1,0,0:0:0:0:
441,36,197096,1,0,0:0:0:0:
457,80,197161,1,8,0:0:0:0:
450,127,197226,1,0,0:0:0:0:
424,168,197292,1,8,0:0:0:0:
385,195,197357,1,0,0:0:0:0:
340,213,197422,1,8,0:0:0:0:
300,239,197487,1,0,0:0:0:0:
267,274,197552,1,0,0:0:0:0:
251,319,197618,1,0,0:0:0:0:
261,361,197683,2,2,B|321:290|417:268|417:268|354:208|373:91|373:91|278:133|193:73|193:73|208:172|123:241|123:241|212:259|257:353,1,900.000034332277,2|0,0:0|0:0,0:0:0:0:
288,28,198726,6,0,B|167:-52|79:68,1,220.000006713867,2|8,0:0|0:0,0:0:0:0:
41,342,199118,2,0,B|162:422|250:302,1,220.000006713867,2|0,0:0|0:0,0:0:0:0:
92,51,199509,2,0,B|48:104|66:196,1,110.000003356934,10|0,0:0|0:0,0:0:0:0:
398,278,199770,6,0,B|384:119|209:154,2,220.000006713867,2|8|0,0:0|0:0|0:0,0:0:0:0:
191,230,200422,1,0,0:0:0:0:
331,62,200552,1,10,0:0:0:0:
511,144,200683,1,2,0:0:0:0:
419,359,200813,6,0,B|310:403|176:318,1,220.000006713867,2|8,0:0|0:0,0:0:0:0:
99,72,201205,1,2,0:0:0:0:
99,72,201270,1,0,0:0:0:0:
99,72,201335,2,0,B|156:102|143:178,1,110.000003356934
511,144,201596,2,0,B|454:114|467:38,1,110.000003356934,10|0,0:0|0:0,0:0:0:0:
84,309,201857,6,0,B|176:194|308:264,2,220.000006713867,2|8|0,0:0|0:0|0:0,0:0:0:0:
312,343,202509,1,2,0:0:0:0:
233,96,202639,1,8,0:0:0:0:
2,59,202770,1,0,0:0:0:0:
84,309,202900,6,0,B|148:194|96:87,1,220.000006713867,6|8,0:0|0:0,0:0:0:0:
396,29,203292,1,2,0:0:0:0:
396,29,203357,1,0,0:0:0:0:
396,29,203422,2,0,B|353:74|377:151,1,110.000003356934
509,342,203683,2,0,B|527:284|484:239,1,110.000003356934,8|0,0:0|0:0,0:0:0:0:
234,96,203944,6,0,B|270:260|418:238,1,220.000006713867,6|8,0:0|0:0,0:0:0:0:
154,72,204335,2,0,B|94:229|230:291,1,220.000006713867,2|0,0:0|0:0,0:0:0:0:
111,0,204726,2,0,B|-41:69|10:209,1,220.000006713867,10|6,0:0|0:0,0:0:0:0:
349,378,205248,5,8,0:0:0:0:
462,190,205379,1,0,0:0:0:0:
313,88,205509,1,0,0:0:0:0:
194,270,205639,1,0,0:0:0:0:
470,339,205770,5,8,0:0:0:0:
417,67,205900,1,0,0:0:0:0:
177,107,206031,1,10,0:0:0:0:
221,361,206161,1,10,0:0:0:0:
221,361,206226,1,0,0:0:0:0:
221,361,206292,1,2,0:0:0:0:
313,88,206422,2,0,B|251:-45|110:3,1,220.000006713867,8|0,0:0|0:0,0:0:0:0:
221,361,206813,1,8,0:0:0:0:
267,332,206878,1,8,0:0:0:0:
303,290,206943,1,8,0:0:0:0:
318,238,207008,1,8,0:0:0:0:
313,183,207074,6,0,B|163:151|107:283,1,220.000006713867,2|8,0:0|0:0,0:0:0:0:
406,233,207466,2,0,B|509:119|423:4,1,220.000006713867,2|0,0:0|0:0,0:0:0:0:
319,288,207857,2,0,B|343:370|417:370,1,110.000003356934,10|0,0:0|0:0,0:0:0:0:
289,22,208118,6,0,B|170:-5|87:144,2,220.000006713867,2|8|0,0:0|0:0|0:0,0:0:0:0:
119,347,208900,5,10,0:0:0:0:
247,159,209031,1,2,0:0:0:0:
53,12,209161,2,0,B|-49:100|41:243,1,220.000006713867,2|8,0:0|0:0,0:0:0:0:
262,335,209552,1,2,0:0:0:0:
262,335,209618,1,0,0:0:0:0:
262,335,209683,2,0,B|244:256|165:252,1,110.000003356934,2|0,0:0|0:0,0:0:0:0:
353,53,209944,2,0,B|371:132|450:136,1,110.000003356934,10|0,0:0|0:0,0:0:0:0:
268,8,210205,6,0,B|142:7|140:171,1,220.000006713867,2|8,0:0|0:0,0:0:0:0:
389,293,210596,1,0,0:0:0:0:
389,293,210661,1,0,0:0:0:0:
389,293,210726,1,2,0:0:0:0:
501,58,210857,1,2,0:0:0:0:
255,143,210987,1,8,0:0:0:0:
176,347,211118,1,2,0:0:0:0:
451,373,211248,6,0,B|563:275|456:155,1,220.000006713867,4|8,0:0|0:0,0:0:0:0:
268,8,211639,1,2,0:0:0:0:
268,8,211705,1,0,0:0:0:0:
268,8,211770,2,0,B|288:84|397:58,1,110.000003356934
176,347,212031,2,0,B|156:271|47:297,1,110.000003356934,10|0,0:0|0:0,0:0:0:0:
350,64,212292,6,0,B|225:118|270:283,1,220.000006713867,6|8,0:0|0:0,0:0:0:0:
60,50,212683,1,2,0:0:0:0:
60,50,212748,1,0,0:0:0:0:
60,50,212813,1,0,0:0:0:0:
9,233,212944,1,0,0:0:0:0:
176,347,213074,1,8,0:0:0:0:
232,149,213205,1,0,0:0:0:0:
476,186,213335,6,0,B|356:182|343:347,2,220.000006713867,6|8|0,0:0|0:0|0:0,0:0:0:0:
427,377,213987,1,0,0:0:0:0:
178,248,214118,1,8,0:0:0:0:
395,78,214248,1,0,0:0:0:0:
344,331,214379,5,8,0:0:0:0:
95,196,214509,1,8,0:0:0:0:
95,196,214574,1,8,0:0:0:0:
95,196,214639,1,0,0:0:0:0:
262,0,214770,2,0,B|362:73|306:223,1,220.000006713867,8|0,0:0|0:0,0:0:0:0:
406,0,215161,1,0,0:0:0:0:
479,38,215292,1,0,0:0:0:0:
500,252,215422,6,2,B|265:199|351:415|81:343,1,440.000013427735,2|8,0:0|0:0,0:0:0:0:
95,347,216205,1,2,0:0:0:0:
52,268,216335,1,2,0:0:0:0:
116,202,216466,1,2,0:0:0:0:
281,353,216596,1,8,0:0:0:0:
281,353,216661,1,0,0:0:0:0:
281,353,216726,1,8,0:0:0:0:
271,130,216857,1,8,0:0:0:0:
111,21,216987,1,8,0:0:0:0:
216,214,217118,1,2,0:0:0:0:
408,94,217248,1,2,0:0:0:0:
408,94,217379,1,2,0:0:0:0:
408,94,217509,6,0,B|535:118|468:313,1,220.000006713867,6|8,0:0|0:0,0:0:0:0:
281,353,217900,1,2,0:0:0:0:
347,212,218031,1,0,0:0:0:0:
281,353,218161,1,0,0:0:0:0:
205,59,218292,2,0,B|275:10|350:71,1,110.000003356934,8|0,0:0|0:0,0:0:0:0:
80,185,218552,2,0,B|-17:262|88:427,2,220.000006713867,2|10|2,0:0|0:0|0:0,0:0:0:0:
272,135,219205,1,2,0:0:0:0:
460,273,219335,1,8,0:0:0:0:
226,243,219466,1,2,0:0:0:0:
486,165,219596,6,0,B|499:21|331:32,1,220.000006713867,2|8,0:0|0:0,0:0:0:0:
266,335,219987,1,2,0:0:0:0:
266,335,220052,1,0,0:0:0:0:
266,335,220118,2,0,B|317:383|401:342,1,110.000003356934,2|0,0:0|0:0,0:0:0:0:
225,24,220379,2,0,B|157:44|151:137,1,110.000003356934,10|0,0:0|0:0,0:0:0:0:
67,383,220639,6,0,B|157:273|32:179,1,220.000006713867,2|8,0:0|0:0,0:0:0:0:
47,191,221161,5,2,0:0:0:0:
266,335,221292,1,2,0:0:0:0:
415,146,221422,1,8,0:0:0:0:
225,24,221552,1,2,0:0:0:0:
47,191,221683,6,0,B|152:272|250:178,1,220.000006713867,4|8,0:0|0:0,0:0:0:0:
473,363,222074,1,2,0:0:0:0:
473,363,222139,1,0,0:0:0:0:
473,363,222205,2,0,B|511:298|470:246,1,110.000003356934,2|0,0:0|0:0,0:0:0:0:
141,31,222466,2,0,B|103:96|144:148,1,110.000003356934,10|0,0:0|0:0,0:0:0:0:
505,105,222726,6,0,B|474:-22|329:34,1,220.000006713867,6|8,0:0|0:0,0:0:0:0:
166,286,223118,1,2,0:0:0:0:
166,286,223183,1,0,0:0:0:0:
166,286,223248,2,0,B|150:352|223:388,1,110.000003356934
374,125,223509,1,10,0:0:0:0:
132,127,223639,1,0,0:0:0:0:
347,218,223770,2,0,B|419:238|452:166,1,110.000003356934,6|0,0:0|0:0,0:0:0:0:
165,34,224031,2,0,B|6:23|48:206,1,220.000006713867,10|0,0:0|0:0,0:0:0:0:
83,369,224422,1,0,0:0:0:0:
262,256,224552,1,10,0:0:0:0:
237,74,224683,1,0,0:0:0:0:
41,167,224813,5,8,0:0:0:0:
222,371,224944,1,8,0:0:0:0:
222,371,225009,1,8,0:0:0:0:
222,371,225074,1,0,0:0:0:0:
469,239,225205,2,0,B|492:100|322:60,1,220.000006713867,10|0,0:0|0:0,0:0:0:0:
170,161,225596,1,0,0:0:0:0:
360,213,225726,1,0,0:0:0:0:
151,0,225857,6,0,B|19:29|45:217,1,220.000006713867,2|10,0:0|0:0,0:0:0:0:
289,304,226248,1,0,0:0:0:0:
289,304,226313,1,0,0:0:0:0:
289,304,226379,2,0,B|291:233|217:180,1,110.000003356934,2|2,0:0|0:0,0:0:0:0:
14,286,226639,2,0,B|12:357|86:410,1,110.000003356934,10|2,0:0|0:0,0:0:0:0:
430,137,226900,6,0,B|378:1|242:49,2,220.000006713867,2|10|2,0:0|0:0|0:0,0:0:0:0:
359,376,227552,1,0,0:0:0:0:
156,231,227683,1,10,0:0:0:0:
260,48,227813,1,2,0:0:0:0:
487,236,227944,6,0,B|411:341|280:238,1,220.000006713867,2|10,0:0|0:0,0:0:0:0:
107,6,228335,1,0,0:0:0:0:
107,6,228400,1,0,0:0:0:0:
107,6,228466,2,0,B|163:31|192:101,1,110.000003356934,2|2,0:0|0:0,0:0:0:0:
120,361,228726,2,0,B|64:336|35:266,1,110.000003356934,10|2,0:0|0:0,0:0:0:0:
260,48,228987,6,0,B|396:-2|471:118,1,220.000006713867,2|10,0:0|0:0,0:0:0:0:
507,344,229379,1,0,0:0:0:0:
507,344,229444,1,0,0:0:0:0:
507,344,229509,1,0,0:0:0:0:
281,260,229639,1,2,0:0:0:0:
456,97,229770,1,8,0:0:0:0:
507,344,229900,1,0,0:0:0:0:
220,355,230031,6,0,B|124:252|239:131,1,220.000006713867,6|10,0:0|0:0,0:0:0:0:
482,228,230422,1,0,0:0:0:0:
482,228,230487,1,0,0:0:0:0:
482,228,230552,2,0,B|447:280|378:282,1,110.000003356934,0|2,0:0|0:0,0:0:0:0:
127,79,230813,2,0,B|162:27|231:25,1,110.000003356934,10|0,0:0|0:0,0:0:0:0:
67,190,231074,6,0,B|-53:123|51:-41,1,220.000006713867,6|10,0:0|0:0,0:0:0:0:
318,171,231466,1,2,0:0:0:0:
318,171,231531,1,0,0:0:0:0:
318,171,231596,2,0,B|316:248|236:285,1,110.000003356934,0|2,0:0|0:0,0:0:0:0:
319,78,231857,2,0,B|386:41|458:92,1,110.000003356934,10|2,0:0|0:0,0:0:0:0:
323,360,232118,6,0,B|178:406|155:250,2,220.000006713867,6|10|2,0:0|0:0|0:0,0:0:0:0:
452,207,232770,1,0,0:0:0:0:
319,78,232900,1,8,0:0:0:0:
269,265,233031,1,0,0:0:0:0:
512,74,233161,5,10,0:0:0:0:
233,5,233292,1,8,0:0:0:0:
233,5,233357,1,8,0:0:0:0:
233,5,233422,1,8,0:0:0:0:
225,382,233552,2,0,B|395:406|368:226,1,220.000006713867,10|0,0:0|0:0,0:0:0:0:
77,34,233944,2,0,B|12:83|61:173,1,110.000003356934,2|0,0:0|0:0,0:0:0:0:
411,63,234205,6,2,B|216:87|358:266|89:267|89:267|117:164|200:165,1,550.000016784668,6|0,0:0|0:0,0:0:0:0:
175,167,234987,1,2,0:0:0:0:
296,301,235118,1,0,0:0:0:0:
129,353,235248,6,0,B|53:368|-2:303,1,110.000003356934,6|2,0:0|0:0,0:0:0:0:
155,75,235509,2,0,B|231:60|286:125,1,110.000003356934,8|0,0:0|0:0,0:0:0:0:
378,287,235770,5,2,0:0:0:0:
265,382,235900,1,0,0:0:0:0:
170,255,236031,1,8,0:0:0:0:
295,167,236161,1,0,0:0:0:0:
26,124,236292,5,6,0:0:0:0:
26,124,236552,2,0,B|20:-29|186:5,1,220.000006713867,2|0,3:0|0:0,0:0:0:0:
226,68,236944,2,0,B|379:62|345:228,1,220.000006713867,2|0,3:0|0:0,0:0:0:0:
274,260,237335,2,0,B|280:413|114:379,1,220.000006713867,2|0,3:0|0:0,0:0:0:0:
77,308,237726,2,0,B|71:155|237:189,1,220.000006713867,2|0,3:0|0:0,0:0:0:0:
180,278,238118,1,2,3:0:0:0:
80,116,238248,1,0,0:0:0:0:
144,52,238379,5,0,0:0:0:0:
201,0,238509,1,0,0:0:0:0:
201,0,238574,1,0,0:0:0:0:
201,0,238639,2,0,B|339:-7|374:161,1,220.000006713867,2|0,3:0|0:0,0:0:0:0:
444,165,239031,2,0,B|451:303|283:338,1,220.000006713867,2|0,3:0|0:0,0:0:0:0:
260,384,239422,2,0,B|122:391|87:223,1,220.000006713867,2|0,3:0|0:0,0:0:0:0:
16,215,239813,2,0,B|9:77|177:42,1,220.000006713867,2|0,0:0|0:0,0:0:0:0:
254,195,240205,1,8,0:0:0:0:
55,382,240335,1,0,0:0:0:0:
6,111,240466,1,6,0:0:0:0:
398,5,240726,6,0,B|515:27|468:202,1,220.000006713867,2|0,3:0|0:0,0:0:0:0:
134,75,241118,2,0,B|156:-42|331:5,1,220.000006713867,2|0,3:0|0:0,0:0:0:0:
203,349,241509,2,0,B|86:327|133:152,1,220.000006713867,2|0,3:0|0:0,0:0:0:0:
467,279,241901,2,0,B|445:396|270:349,1,220.000006713867,2|0,3:0|0:0,0:0:0:0:
323,170,242292,1,2,3:0:0:0:
237,260,242422,1,0,0:0:0:0:
127,172,242552,1,0,0:0:0:0:
36,76,242683,1,0,0:0:0:0:
36,76,242748,1,0,0:0:0:0:
36,76,242813,6,0,B|125:-36|276:39,1,220.000006713867,2|0,3:0|0:0,0:0:0:0:
151,361,243205,2,0,B|9:339|-1:171,1,220.000006713867,2|0,3:0|0:0,0:0:0:0:
4,218,243531,1,0,0:0:0:0:
4,218,243596,1,4,0:0:0:0:
258,106,243726,1,0,0:0:0:0:
262,381,243857,1,2,0:0:0:0:
479,238,243987,2,0,B|534:94|353:58,1,220.000006713867,2|2,0:0|0:0,0:0:0:0:
213,250,244379,1,8,0:0:0:0:
258,280,244444,1,0,0:0:0:0:
308,303,244509,1,0,0:0:0:0:
361,318,244574,1,0,0:0:0:0:
415,325,244639,1,0,0:0:0:0:
151,361,244770,5,0,0:0:0:0:
151,361,244835,1,0,0:0:0:0:
151,361,244900,2,0,B|10:348|62:160,1,220.000006713867,8|0,0:0|0:0,0:0:0:0:
294,25,245292,2,0,B|435:38|383:226,1,220.000006713867,2|0,3:0|0:0,0:0:0:0:
50,117,245683,2,0,B|63:-24|251:28,1,220.000006713867,2|0,3:0|0:0,0:0:0:0:
390,275,246074,2,0,B|377:416|189:364,1,220.000006713867,2|0,3:0|0:0,0:0:0:0:
218,192,246466,1,2,3:0:0:0:
365,90,246596,1,0,0:0:0:0:
497,174,246726,1,0,0:0:0:0:
500,333,246857,1,0,0:0:0:0:
500,333,246922,1,0,0:0:0:0:
500,333,246987,6,0,B|401:419|267:307,1,220.000006713867,2|0,3:0|0:0,0:0:0:0:
432,28,247379,2,0,B|518:127|406:261,1,220.000006713867,2|0,3:0|0:0,0:0:0:0:
128,76,247770,2,0,B|227:-10|361:102,1,220.000006713867,2|0,3:0|0:0,0:0:0:0:
192,384,248161,2,0,B|106:285|218:151,1,220.000006713867,2|0,0:0|0:0,0:0:0:0:
319,192,248552,1,8,0:0:0:0:
62,247,248683,1,0,0:0:0:0:
62,247,248748,1,0,0:0:0:0:
62,247,248813,1,4,0:0:0:0:
62,247,249074,6,0,B|11:139|50:10,1,220.000006713867,8|0,0:0|0:0,0:0:0:0:
329,305,249466,2,0,B|221:356|92:317,1,220.000006713867,2|0,3:0|0:0,0:0:0:0:
389,78,249857,6,0,B|440:186|401:315,1,220.000006713867,2|0,3:0|0:0,0:0:0:0:
122,20,250249,2,0,B|230:-31|359:8,1,220.000006713867,2|0,3:0|0:0,0:0:0:0:
238,157,250639,1,2,3:0:0:0:
238,157,250770,1,0,0:0:0:0:
443,179,250900,1,0,0:0:0:0:
500,355,251031,1,0,0:0:0:0:
500,355,251096,1,0,0:0:0:0:
500,355,251161,2,0,B|375:381|267:273,1,220.000006713867,2|0,3:0|0:0,0:0:0:0:
0,287,251552,2,0,B|125:261|233:369,1,220.000006713867,2|0,3:0|0:0,0:0:0:0:
204,343,251879,1,0,0:0:0:0:
204,343,251944,5,4,0:0:0:0:
98,140,252074,1,0,0:0:0:0:
335,188,252205,1,2,0:0:0:0:
244,4,252335,2,0,B|363:62|470:2,1,220.000006713867,2|2,0:0|0:0,0:0:0:0:
497,220,252726,1,0,0:0:0:0:
497,220,252792,1,0,0:0:0:0:
497,220,252857,1,0,0:0:0:0:
364,376,252987,6,0,B|377:302|304:274,1,110.000003356934,2|0,0:0|0:0,0:0:0:0:
287,359,253248,1,8,0:0:0:0:
100,214,253379,6,0,B|173:235|203:167,1,110.000003356934,2|0,0:0|0:0,0:0:0:0:
124,140,253639,1,0,0:0:0:0:
435,53,253770,6,0,B|401:3|339:20,1,110.000003356934,8|0,0:0|0:0,0:0:0:0:
368,96,254031,1,0,0:0:0:0:
158,43,254161,6,0,B|106:73|127:159,2,110.000003356934,2|8|2,0:0|0:0|0:0,0:0:0:0:
361,258,254552,6,0,B|296:237|229:308,1,110.000003356934,2|2,0:0|0:0,0:0:0:0:
55,66,254813,2,0,B|120:87|187:16,1,110.000003356934,10|2,0:0|0:0,0:0:0:0:
147,309,255074,6,0,B|87:272|17:313,1,110.000003356934,10|0,0:0|0:0,0:0:0:0:
95,375,255335,1,8,0:0:0:0:
258,281,255466,6,0,B|248:203|337:157,1,110.000003356934,2|8,0:0|0:0,0:0:0:0:
361,258,255726,1,0,0:0:0:0:
387,16,255857,6,0,B|373:80|454:136,1,110.000003356934,10|0,0:0|0:0,0:0:0:0:
472,42,256118,1,8,0:0:0:0:
224,14,256248,6,0,B|170:31|142:99,2,110.000003356934,2|8|2,0:0|0:0|0:0,0:0:0:0:
8,208,256639,6,0,B|76:229|73:312,1,110.000003356934,10|2,0:0|0:0,0:0:0:0:
441,328,256900,2,0,B|437:268|505:247,1,110.000003356934,10|2,0:0|0:0,0:0:0:0:
507,251,257096,1,8,0:0:0:0:
507,251,257161,5,0,0:0:0:0:
329,362,257292,1,0,0:0:0:0:
206,178,257422,1,8,0:0:0:0:
383,82,257552,1,0,0:0:0:0:
223,291,257683,6,0,B|158:334|108:338,1,119.999996337891,0|2,0:0|0:0,0:0:0:0:
30,73,257944,2,0,B|93:29|141:26,1,119.999996337891,8|0,0:0|0:0,0:0:0:0:
331,154,258205,5,8,0:0:0:0:
82,242,258335,1,2,0:0:0:0:
305,376,258466,1,0,0:0:0:0:
512,267,258596,1,0,0:0:0:0:
272,65,258726,6,0,B|215:107|242:209,1,119.999996337891,2|2,0:0|0:0,0:0:0:0:
474,374,258987,2,0,B|531:332|504:230,1,119.999996337891,8|0,0:0|0:0,0:0:0:0:
189,256,259248,5,10,0:0:0:0:
433,49,259379,2,0,L|429:129,1,59.9999981689454,10|8,0:0|0:0,0:0:0:0:
434,288,259509,1,0,0:0:0:0:
272,65,259639,5,10,0:0:0:0:
434,288,259770,2,0,L|354:318,1,59.9999981689454,10|8,0:0|0:0,0:0:0:0:
155,376,259900,1,0,0:0:0:0:
353,145,260031,5,10,0:0:0:0:
67,229,260161,1,10,0:0:0:0:
67,229,260422,5,0,0:0:0:0:
100,147,260552,1,0,0:0:0:0:
189,160,260683,1,0,0:0:0:0:
208,245,260813,1,0,0:0:0:0:
129,303,260944,1,0,0:0:0:0:
11,153,261074,1,8,0:0:0:0:
162,65,261205,1,0,0:0:0:0:
271,190,261335,1,0,0:0:0:0:
271,190,261400,1,0,0:0:0:0:
271,190,261466,1,0,0:0:0:0:
117,383,261596,5,4,0:0:0:0:
256,192,261661,12,0,264466,0:0:0:0:
