osu file format v14

[General]
AudioFilename: audio.mp3
AudioLeadIn: 0
PreviewTime: 90074
Countdown: 0
SampleSet: Normal
StackLeniency: 0.5
Mode: 0
LetterboxInBreaks: 0
WidescreenStoryboard: 1

[Editor]
Bookmarks: 90277,115842
DistanceSpacing: 0.8
BeatDivisor: 8
GridSize: 4
TimelineZoom: 1

[Metadata]
Title:Eiyuu no Tsurugi
TitleUnicode:英雄の剣
Artist:Shoichiro Sakamoto
ArtistUnicode:坂本 昌一郎
Creator:audinor
Version:Extra
Source:
Tags:megalomachia sound_sepher instrumental jun.a 坂本 昌一郎 electronic cm78 eiyū ken hero's sword gensou toshokan 幻葬図書館
BeatmapID:4468656
BeatmapSetID:1864097

[Difficulty]
HPDrainRate:7
CircleSize:4
OverallDifficulty:9
ApproachRate:9
SliderMultiplier:1.8
SliderTickRate:1

[Events]
//Background and Video events
0,0,"uZddP0LH9ZOG.jpg",0,0
//Break Periods
//Storyboard Layer 0 (Background)
//Storyboard Layer 1 (Fail)
//Storyboard Layer 2 (Pass)
//Storyboard Layer 3 (Foreground)
//Storyboard Layer 4 (Overlay)
//Storyboard Sound Samples

[TimingPoints]
2553,260.869565217391,4,1,1,60,1,0
31770,-90.9090909090909,4,1,1,70,0,0
33857,-90.9090909090909,4,1,1,80,0,0
37118,-90.9090909090909,4,1,1,65,0,0
38292,-100,4,1,1,60,0,0
87596,-66.6666666666667,4,1,1,60,0,0
88118,-76.9230769230769,4,1,1,60,0,0
89292,-100,4,1,1,60,0,0
90205,-83.3333333333333,4,1,1,75,0,1
108987,-90.9090909090909,4,1,1,75,0,1
112509,-90.9090909090909,4,1,1,60,0,0
113161,-90.9090909090909,4,1,1,60,0,1
117335,-100,4,1,1,60,0,0
119422,-100,4,1,1,70,0,0
121509,-100,4,1,1,80,0,0
125683,-100,4,1,1,60,0,0
153726,-83.3333333333333,4,1,1,60,0,0
154118,-100,4,1,1,60,0,0
158552,-76.9230769230769,4,1,1,60,0,0
159074,-100,4,1,1,60,0,0
161161,-76.9230769230769,4,1,1,75,0,1
180205,-83.3333333333333,4,1,1,70,0,0
197683,-66.6666666666667,4,1,1,60,0,0
198726,-76.9230769230769,4,1,1,75,0,1
215422,-76.9230769230769,4,1,1,60,0,1
217509,-76.9230769230769,4,1,1,75,0,1
236552,-76.9230769230769,4,1,1,60,0,1
239944,-76.9230769230769,4,1,1,60,0,0
240466,-76.9230769230769,4,1,1,60,0,1
243335,-76.9230769230769,4,1,1,60,0,0
255074,-76.9230769230769,4,1,1,70,0,0
257161,-76.9230769230769,4,1,1,80,0,0

[Colours]
Combo1 : 255,128,64
Combo2 : 223,223,223
Combo3 : 253,187,66

[HitObjects]
136,17,2553,6,0,B|95:128|200:194,1,180,2|0,0:0|0:0,0:0:0:0:
268,193,2944,1,2,0:0:0:0:
268,193,3205,1,0,0:0:0:0:
268,193,3466,1,0,0:0:0:0:
268,193,3726,1,0,0:0:0:0:
268,40,3857,2,0,B|206:80|245:163,1,90
268,193,4118,1,0,0:0:0:0:
269,344,4248,1,0,0:0:0:0:
269,344,4313,1,0,0:0:0:0:
269,344,4379,2,0,B|331:304|292:221,1,90
141,124,4639,5,2,0:0:0:0:
141,124,4900,1,0,0:0:0:0:
28,231,5031,2,0,B|135:285|199:169,2,180,2|0|0,0:0|0:0|0:0,0:0:0:0:
247,34,5813,1,0,0:0:0:0:
70,76,5944,2,0,B|97:131|156:123,1,90
321,83,6205,5,0,0:0:0:0:
316,179,6335,1,0,0:0:0:0:
316,179,6400,1,0,0:0:0:0:
316,179,6466,2,0,B|333:278|250:256|273:356,1,180,0|2,0:0|0:0,0:0:0:0:
489,288,6987,1,0,0:0:0:0:
509,371,7118,2,0,B|407:417|330:291,2,180,2|0|0,0:0|0:0|0:0,0:0:0:0:
310,182,7900,1,0,0:0:0:0:
290,99,8031,2,0,B|392:53|469:179,1,180
263,296,8422,1,0,0:0:0:0:
263,296,8487,1,0,0:0:0:0:
263,296,8552,2,0,B|161:342|84:216,1,180,0|2,0:0|0:0,0:0:0:0:
91,150,8944,5,0,0:0:0:0:
91,150,9009,1,0,0:0:0:0:
91,150,9074,1,0,0:0:0:0:
204,19,9205,2,0,L|169:124,1,90,2|0,0:0|0:0,0:0:0:0:
11,92,9466,2,0,L|-3:-15,1,90,10|0,0:0|0:0,0:0:0:0:
98,60,9726,2,0,L|90:160,1,90,6|0,0:0|0:0,0:0:0:0:
30,213,9987,1,0,0:0:0:0:
105,247,10118,2,0,B|207:201|284:327,1,180,2|2,0:0|0:0,0:0:0:0:
447,147,10509,1,0,0:0:0:0:
447,147,10574,1,0,0:0:0:0:
447,147,10639,2,0,B|345:193|268:67,1,180,2|4,0:0|0:0,0:0:0:0:
289,98,11161,5,0,0:0:0:0:
289,98,11422,1,0,0:0:0:0:
289,98,11683,1,0,0:0:0:0:
471,375,11944,5,4,0:0:0:0:
492,258,12074,1,0,0:0:0:0:
376,234,12205,1,4,0:0:0:0:
352,352,12335,1,0,0:0:0:0:
421,310,12466,1,0,3:0:0:0:
492,258,12596,2,0,L|458:213,1,45
441,188,12726,1,8,0:0:0:0:
393,127,12857,1,0,0:0:0:0:
262,208,12987,6,0,B|180:202|212:295|60:264,1,180,0|8,0:0|0:0,0:0:0:0:
49,200,13379,1,0,0:0:0:0:
49,200,13444,1,0,0:0:0:0:
49,200,13509,1,0,0:0:0:0:
122,154,13639,1,0,0:0:0:0:
210,269,13770,1,8,0:0:0:0:
76,340,13900,1,0,0:0:0:0:
171,346,14031,6,0,B|229:378|286:318,1,90
346,236,14292,1,8,0:0:0:0:
353,368,14422,1,0,0:0:0:0:
353,368,14487,1,0,0:0:0:0:
353,368,14552,2,0,B|399:321|471:363,1,90
343,115,14813,2,0,B|296:161|224:119,1,90,8|0,0:0|0:0,0:0:0:0:
217,61,15074,1,0,0:0:0:0:
363,31,15205,5,0,0:0:0:0:
363,31,15270,1,0,0:0:0:0:
363,31,15335,2,0,B|465:70|423:206,1,180,8|0,0:0|0:0,0:0:0:0:
243,217,15726,1,0,0:0:0:0:
190,143,15857,2,0,B|180:89|226:52,1,90,8|0,0:0|0:0,0:0:0:0:
206,297,16118,2,0,B|164:332|109:311,1,90
243,217,16379,1,8,0:0:0:0:
325,198,16509,1,0,0:0:0:0:
325,198,16574,1,0,0:0:0:0:
325,198,16639,2,0,B|376:216|385:274,1,90
63,367,16900,5,8,0:0:0:0:
87,328,16965,1,0,0:0:0:0:
120,299,17030,1,0,0:0:0:0:
162,287,17095,1,0,0:0:0:0:
206,297,17160,1,4,0:0:0:0:
418,54,17422,5,8,0:0:0:0:
336,13,17552,2,0,B|241:8|282:88|162:61,1,180
96,10,17944,1,8,0:0:0:0:
84,94,18074,1,0,0:0:0:0:
164,208,18205,5,0,0:0:0:0:
217,138,18335,1,0,0:0:0:0:
172,63,18466,1,8,0:0:0:0:
75,180,18596,5,0,0:0:0:0:
22,250,18726,1,0,0:0:0:0:
67,325,18857,1,0,0:0:0:0:
152,297,18987,2,0,L|269:303,1,90,8|0,0:0|0:0,0:0:0:0:
409,245,19248,1,0,0:0:0:0:
466,161,19379,1,0,0:0:0:0:
466,161,19444,1,0,0:0:0:0:
466,161,19509,2,0,L|376:156,1,90,8|0,0:0|0:0,0:0:0:0:
419,71,19770,1,0,0:0:0:0:
409,245,19900,6,0,B|412:360|261:368,1,180
299,363,20226,1,0,0:0:0:0:
299,363,20292,1,4,0:0:0:0:
137,205,20422,2,0,B|192:192|238:266,1,90,0|8,0:0|0:0,0:0:0:0:
147,384,20683,2,0,B|92:397|46:323,1,90,4|0,0:0|0:0,0:0:0:0:
150,293,20944,1,4,0:0:0:0:
280,170,21074,5,8,0:0:0:0:
257,131,21139,1,0,0:0:0:0:
220,106,21204,1,8,0:0:0:0:
176,100,21269,1,0,0:0:0:0:
132,106,21334,1,0,0:0:0:0:
505,21,21596,6,0,B|394:13|370:157,1,180,8|0,0:0|0:0,0:0:0:0:
402,284,21987,2,0,B|464:191|351:99,1,180
345,213,22379,1,0,0:0:0:0:
225,63,22509,2,0,B|273:163|410:111,1,180
320,35,22900,1,0,0:0:0:0:
475,108,23031,1,0,0:0:0:0:
345,213,23161,2,0,B|286:211|255:276,1,90,8|0,0:0|0:0,0:0:0:0:
353,351,23422,1,0,0:0:0:0:
225,328,23552,1,0,0:0:0:0:
225,328,23618,1,0,0:0:0:0:
225,328,23683,2,0,B|166:330|135:265,1,90,8|0,0:0|0:0,0:0:0:0:
268,252,23944,1,0,0:0:0:0:
112,215,24074,2,0,B|53:213|22:278,2,90,0|8|0,0:0|0:0|0:0,0:0:0:0:
197,11,24466,6,0,B|236:111|149:97|198:197,1,180,0|8,0:0|0:0,0:0:0:0:
315,373,24857,2,0,B|276:273|363:287|314:187,1,180
408,323,25248,1,8,0:0:0:0:
496,222,25379,1,0,0:0:0:0:
496,222,25444,1,0,0:0:0:0:
496,222,25509,1,4,0:0:0:0:
421,153,25639,5,0,0:0:0:0:
496,89,25770,2,0,B|516:36|470:-7,1,90,8|0,0:0|0:0,0:0:0:0:
421,153,26031,1,0,0:0:0:0:
320,23,26161,2,0,B|299:76|345:119,1,90,0|8,0:0|0:0,0:0:0:0:
421,153,26422,1,0,0:0:0:0:
510,306,26552,6,0,B|530:253|484:210,1,90
421,153,26813,1,8,0:0:0:0:
361,238,26944,1,0,0:0:0:0:
361,238,27009,1,0,0:0:0:0:
361,238,27074,2,0,B|340:291|386:334,1,90
272,186,27335,2,0,B|181:210|176:326,1,180,8|0,0:0|0:0,0:0:0:0:
234,92,27726,1,0,0:0:0:0:
234,92,27792,1,0,0:0:0:0:
234,92,27857,2,0,B|152:44|67:123,1,180,8|0,0:0|0:0,0:0:0:0:
335,121,28248,1,0,0:0:0:0:
306,21,28379,1,8,0:0:0:0:
404,52,28509,6,0,L|457:68,2,45,0|0|4,0:0|0:0|0:0,0:0:0:0:
505,194,28770,1,0,0:0:0:0:
335,121,28900,1,8,0:0:0:0:
482,79,29031,2,0,B|463:141|393:155,1,90,4|0,0:0|0:0,0:0:0:0:
243,313,29292,2,0,B|269:210|404:229,1,180,0|8,0:0|0:0,0:0:0:0:
341,316,29683,6,0,B|411:346|458:289,2,90,2|0|8,0:0|0:0|0:0,0:0:0:0:
201,176,30074,1,2,0:0:0:0:
137,242,30205,2,0,B|88:201|130:128,1,90
307,34,30466,5,8,0:0:0:0:
229,49,30596,2,0,B|230:111|310:117,1,90
485,134,30857,5,2,0:0:0:0:
485,134,30922,1,0,0:0:0:0:
485,134,30987,2,0,B|432:120|398:162,1,90,8|0,0:0|0:0,0:0:0:0:
352,368,31248,5,2,0:0:0:0:
381,286,31379,1,0,0:0:0:0:
261,218,31509,1,10,0:0:0:0:
232,300,31640,1,0,0:0:0:0:
261,218,31770,6,0,B|217:99|57:142,1,198.000006042481,2|8,0:0|0:0,0:0:0:0:
311,112,32161,2,0,B|436:133|478:-26,1,198.000006042481,2|0,0:0|0:0,0:0:0:0:
368,204,32552,2,0,B|286:301|404:418,1,198.000006042481,8|0,0:0|0:0,0:0:0:0:
311,112,32944,5,2,0:0:0:0:
311,112,33009,1,0,0:0:0:0:
311,112,33074,2,0,B|341:53|292:8,1,99.0000030212403,8|0,0:0|0:0,0:0:0:0:
174,252,33335,1,2,0:0:0:0:
137,173,33466,2,0,B|107:114|26:132,1,99.0000030212403,0|10,0:0|0:0,0:0:0:0:
105,350,33726,5,0,0:0:0:0:
105,350,33792,1,0,0:0:0:0:
105,350,33857,2,0,L|336:341,1,198.000006042481,12|8,0:0|0:0,0:0:0:0:
407,34,34248,2,0,L|176:43,1,198.000006042481,0|2,0:0|0:0,0:0:0:0:
383,282,34639,2,0,L|504:121,1,198.000006042481,8|8,0:0|0:0,0:0:0:0:
129,102,35031,2,0,L|8:263,1,198.000006042481
484,369,35422,6,0,L|512:241,1,99.0000030212403,8|0,0:0|0:0,0:0:0:0:
28,15,35683,2,0,L|0:143,1,99.0000030212403,8|0,0:0|0:0,0:0:0:0:
304,256,35944,5,8,0:0:0:0:
208,128,36074,2,0,L|166:82,2,49.5000015106202,2|0|0,0:0|0:0|0:0,0:0:0:0:
235,335,36335,5,2,0:0:0:0:
277,49,36466,2,0,L|286:-14,2,49.5000015106202,2|0|0,0:0|0:0|0:0,0:0:0:0:
256,192,36726,5,8,0:0:0:0:
256,192,36857,1,4,0:0:0:0:
5,361,37118,5,0,0:0:0:0:
41,273,37248,1,0,0:0:0:0:
135,274,37379,1,0,0:0:0:0:
184,362,37509,1,0,0:0:0:0:
276,362,37639,1,0,0:0:0:0:
328,280,37770,1,8,0:0:0:0:
279,192,37900,1,8,0:0:0:0:
187,192,38030,1,4,0:0:0:0:
187,192,38292,6,0,B|155:135|201:83,1,90,8|0,0:0|0:0,0:0:0:0:
188,292,38552,1,0,0:0:0:0:
188,292,38683,2,0,B|134:405|8:339,2,180
81,190,39335,2,0,B|113:247|67:299,1,90,8|0,0:0|0:0,0:0:0:0:
245,129,39596,2,0,B|227:191|158:196,1,90
389,210,39857,2,0,B|332:241|280:196,1,90,8|0,0:0|0:0,0:0:0:0:
347,132,40118,6,0,B|333:19|215:36,2,180,0|8|0,0:0|0:0|0:0,0:0:0:0:
435,131,40770,1,0,0:0:0:0:
475,205,40900,1,8,0:0:0:0:
389,210,41031,1,0,0:0:0:0:
347,132,41161,1,0,0:0:0:0:
177,283,41422,6,0,B|120:267|77:330,1,90,8|0,0:0|0:0,0:0:0:0:
161,191,41683,2,0,B|203:149|170:80,1,90
252,223,41944,2,0,B|266:280|342:286,1,90,8|8,0:0|0:0,0:0:0:0:
74,214,42205,6,0,B|-21:269|22:379,1,180,4|8,0:0|0:0,0:0:0:0:
130,323,42596,5,0,0:0:0:0:
216,306,42726,1,0,0:0:0:0:
252,223,42857,1,0,0:0:0:0:
221,137,42987,2,0,B|160:176|183:237,1,90,8|0,0:0|0:0,0:0:0:0:
417,332,43248,6,0,L|444:125,1,180,4|8,0:0|0:0,0:0:0:0:
355,103,43639,2,0,L|331:281,1,180
252,223,44031,2,0,L|279:16,1,180,8|4,0:0|0:0,0:0:0:0:
42,347,44552,6,0,B|126:268|219:336,1,180,8|0,0:0|0:0,0:0:0:0:
85,215,44944,1,0,0:0:0:0:
27,152,45074,1,8,0:0:0:0:
50,69,45205,2,0,B|128:60|151:135,1,90
376,117,45596,5,8,0:0:0:0:
244,215,45726,2,0,B|322:224|345:149,1,90
416,40,45987,1,0,0:0:0:0:
300,79,46118,1,8,0:0:0:0:
464,147,46248,1,8,0:0:0:0:
464,147,46313,1,8,0:0:0:0:
464,147,46379,1,0,0:0:0:0:
211,307,46639,6,0,B|282:386|391:342,1,180,8|0,0:0|0:0,0:0:0:0:
345,79,47031,2,0,L|328:192,1,90,0|8,0:0|0:0,0:0:0:0:
234,199,47292,2,0,B|305:278|414:234,1,180
183,113,47683,2,0,B|112:34|3:78,1,180,8|0,0:0|0:0,0:0:0:0:
90,148,48074,1,0,0:0:0:0:
0,173,48205,2,0,B|20:243|81:243,1,90,8|0,0:0|0:0,0:0:0:0:
278,276,48466,5,0,0:0:0:0:
191,310,48596,1,0,0:0:0:0:
261,369,48726,2,0,B|321:379|321:379|372:327|366:252,1,180,8|0,0:0|0:0,0:0:0:0:
304,189,49118,2,0,B|280:135|339:84,2,90,0|8|0,0:0|0:0|0:0,0:0:0:0:
456,167,49509,1,0,0:0:0:0:
318,105,49770,6,0,B|342:159|283:210,1,90,8|0,0:0|0:0,0:0:0:0:
77,212,50031,2,0,B|123:102|232:130,1,180,0|8,0:0|0:0,0:0:0:0:
325,298,50422,1,8,0:0:0:0:
325,298,50487,1,8,0:0:0:0:
325,298,50552,2,0,B|206:313|176:204,1,180,4|8,0:0|0:0,0:0:0:0:
303,188,50944,2,0,B|421:172|451:281,1,180,2|0,0:0|0:0,0:0:0:0:
443,102,51335,2,0,B|397:212|288:184,1,180,10|6,0:0|0:0,0:0:0:0:
398,4,51726,1,0,0:0:0:0:
398,4,51857,1,8,0:0:0:0:
303,188,51987,2,0,B|230:93|309:12,1,180
180,195,52379,2,0,B|126:177|111:88,1,90,8|0,0:0|0:0,0:0:0:0:
256,298,52639,6,0,B|149:290|206:378|68:357,2,180,6|8|0,0:0|0:0|0:0,0:0:0:0:
335,357,53292,1,0,0:0:0:0:
426,318,53422,1,8,0:0:0:0:
432,227,53552,1,0,0:0:0:0:
329,216,53683,5,8,0:0:0:0:
335,357,53813,1,8,0:0:0:0:
335,357,53879,1,8,0:0:0:0:
335,357,53944,1,0,0:0:0:0:
432,227,54074,6,0,B|475:173|436:103,1,90,4|0,0:0|0:0,0:0:0:0:
256,298,54335,1,0,0:0:0:0:
426,318,54466,2,0,B|492:329|511:251,1,90,8|0,0:0|0:0,0:0:0:0:
286,139,54726,1,2,0:0:0:0:
73,203,54987,6,0,B|-18:266|48:372,1,180,8|0,0:0|0:0,0:0:0:0:
112,325,55379,2,0,B|147:368|230:358,1,90,0|8,0:0|0:0,0:0:0:0:
286,139,55639,6,0,B|232:124|232:124|167:163|180:249,1,180
305,323,56031,2,0,B|359:338|359:338|424:299|411:213,1,180,8|0,0:0|0:0,0:0:0:0:
329,216,56422,1,0,0:0:0:0:
286,139,56552,2,0,B|278:75|349:56,1,90,8|0,0:0|0:0,0:0:0:0:
187,121,56813,2,0,B|145:71|194:17,1,90
126,190,57074,2,0,B|29:150|36:42,1,180,8|0,0:0|0:0,0:0:0:0:
222,217,57466,1,0,0:0:0:0:
222,217,57531,1,0,0:0:0:0:
222,217,57596,1,8,0:0:0:0:
33,232,57726,2,0,B|130:272|123:380,1,180
267,310,58118,6,0,B|322:324|356:270,1,90,8|0,0:0|0:0,0:0:0:0:
321,17,58379,2,0,B|277:99|373:89|319:208,1,180,0|8,0:0|0:0,0:0:0:0:
456,321,58770,1,8,0:0:0:0:
456,321,58835,1,8,0:0:0:0:
456,321,58900,2,0,B|519:216|398:138,1,180,4|8,0:0|0:0,0:0:0:0:
181,153,59292,2,0,B|189:214|254:220,1,90
326,188,59552,1,0,0:0:0:0:
186,64,59683,1,8,0:0:0:0:
186,64,59944,6,0,B|153:34|153:34|51:64|85:173,1,180,4|8,0:0|0:0,0:0:0:0:
219,349,60335,2,0,B|252:379|252:379|354:349|320:240,1,180
326,188,60726,1,8,0:0:0:0:
89,228,60857,1,0,0:0:0:0:
89,228,60922,1,0,0:0:0:0:
89,228,60987,2,0,B|89:281|149:315,1,90,4|0,0:0|0:0,0:0:0:0:
326,188,61248,2,0,B|326:135|266:101,1,90,8|0,0:0|0:0,0:0:0:0:
163,203,61509,6,0,L|279:232,2,90,0|0|8,0:0|0:0|0:0,0:0:0:0:
89,228,61900,2,0,B|-24:237|6:357,1,180
138,323,62292,1,8,0:0:0:0:
219,383,62422,2,0,B|264:350|235:297,2,90
100,134,62813,5,8,0:0:0:0:
87,102,62878,1,0,0:0:0:0:
85,69,62943,1,8,0:0:0:0:
97,37,63008,1,8,0:0:0:0:
117,10,63073,1,4,0:0:0:0:
346,190,63335,6,0,L|333:295,1,90,8|0,0:0|0:0,0:0:0:0:
321,99,63596,1,0,0:0:0:0:
321,99,63726,2,0,B|384:84|445:140|432:220,2,180
232,266,64379,2,0,B|266:211|224:153,1,90,8|0,0:0|0:0,0:0:0:0:
163,133,64639,1,0,0:0:0:0:
88,164,64770,1,0,0:0:0:0:
62,245,64900,1,8,0:0:0:0:
62,245,65161,6,0,B|146:258|97:343|199:365,1,180,0|8,0:0|0:0,0:0:0:0:
284,347,65552,1,0,0:0:0:0:
379,323,65683,2,0,B|395:257|331:217,1,90
263,260,65944,1,8,0:0:0:0:
206,179,66074,2,0,B|236:55|363:96,1,180
358,239,66466,2,0,B|407:285|473:250,1,90,8|0,0:0|0:0,0:0:0:0:
336,89,66726,2,0,B|213:125|185:-5,1,180,0|8,0:0|0:0,0:0:0:0:
206,179,67118,1,0,0:0:0:0:
206,179,67183,1,0,0:0:0:0:
206,179,67248,2,0,B|113:91|212:1,1,180,4|8,0:0|0:0,0:0:0:0:
62,111,67639,2,0,B|92:-13|218:27,1,180
281,218,68031,2,0,B|254:281|173:269,1,90,8|0,0:0|0:0,0:0:0:0:
44,333,68292,6,0,B|116:335|116:335|160:369|160:369|230:370,1,180,4|8,0:0|0:0,0:0:0:0:
112,254,68683,2,0,B|184:252|184:252|228:218|228:218|298:217,1,180
307,314,69074,2,0,L|403:313,1,90,8|0,0:0|0:0,0:0:0:0:
486,256,69335,1,4,0:0:0:0:
402,195,69466,1,0,0:0:0:0:
402,195,69726,2,0,B|347:92|444:17,1,180,2|0,0:0|0:0,0:0:0:0:
426,31,70118,2,0,B|452:89|389:147,1,90,8|0,0:0|0:0,0:0:0:0:
266,117,70379,6,0,L|157:104,1,90,2|0,0:0|0:0,0:0:0:0:
266,267,70639,2,0,L|157:280,1,90,10|0,0:0|0:0,0:0:0:0:
128,192,70900,1,0,0:0:0:0:
45,193,71031,1,2,0:0:0:0:
45,193,71096,1,0,0:0:0:0:
45,193,71161,2,0,B|87:225|140:185,1,90,8|0,0:0|0:0,0:0:0:0:
230,30,71422,6,0,B|345:4|363:125,1,180,2|8,0:0|0:0,0:0:0:0:
372,248,71813,2,0,B|398:363|277:381,1,180,2|0,0:0|0:0,0:0:0:0:
245,301,72205,2,0,B|237:245|311:222,1,90,10|0,0:0|0:0,0:0:0:0:
412,223,72466,6,0,B|372:247|372:247|346:184|361:115,1,180,2|8,0:0|0:0,0:0:0:0:
248,90,72857,2,0,B|208:66|208:66|182:129|197:198,1,180,2|0,0:0|0:0,0:0:0:0:
108,255,73248,2,0,B|68:279|68:279|42:216|57:147,1,180,8|2,0:0|0:0,0:0:0:0:
127,71,73639,1,0,0:0:0:0:
39,3,73770,2,0,B|-17:35|6:111,1,90,8|2,0:0|0:0,0:0:0:0:
208,164,74031,2,0,B|264:132|241:56,1,90
238,264,74292,2,0,B|276:255|306:274|306:274|299:348|392:369,1,180,8|2,0:0|0:0,0:0:0:0:
360,359,74813,2,0,B|303:335|305:275,1,90,8|0,0:0|0:0,0:0:0:0:
380,222,75074,2,0,B|437:246|435:306,1,90,2|0,0:0|0:0,0:0:0:0:
360,359,75335,2,0,B|303:335|305:275,1,90,10|0,0:0|0:0,0:0:0:0:
380,222,75596,6,0,B|405:132|322:132|374:20,1,180,2|8,0:0|0:0,0:0:0:0:
165,2,75987,2,0,B|140:92|223:92|171:204,1,180,2|0,0:0|0:0,0:0:0:0:
278,133,76379,2,0,B|288:74|227:46,1,90,10|0,0:0|0:0,0:0:0:0:
52,157,76639,2,0,B|13:205|99:321|174:255,1,180,2|8,0:0|0:0,0:0:0:0:
123,351,77031,2,0,B|145:408|289:392|269:294,1,180,2|0,0:0|0:0,0:0:0:0:
327,386,77422,2,0,B|388:395|446:263|351:231,1,180,8|2,0:0|0:0,0:0:0:0:
234,251,77813,1,0,0:0:0:0:
278,133,77944,1,8,0:0:0:0:
184,0,78074,2,0,B|123:-11|65:120|160:152,1,180,2|0,0:0|0:0,0:0:0:0:
278,133,78466,2,0,B|288:74|227:46,1,90,10|2,0:0|0:0,0:0:0:0:
388,32,78726,2,0,B|366:-24|222:-8|242:89,1,180,2|8,0:0|0:0,0:0:0:0:
486,136,79118,5,0,0:0:0:0:
486,136,79183,1,0,0:0:0:0:
486,136,79248,2,0,B|445:171|396:144,1,90,2|2,0:0|0:0,0:0:0:0:
270,269,79509,1,8,0:0:0:0:
302,297,79574,1,8,0:0:0:0:
347,301,79639,1,8,0:0:0:0:
388,285,79704,1,8,0:0:0:0:
415,249,79769,1,4,0:0:0:0:
207,163,80031,5,8,0:0:0:0:
207,163,80161,2,0,B|115:122|24:196,1,180,2|0,0:0|0:0,0:0:0:0:
95,254,80552,1,8,0:0:0:0:
11,280,80683,1,0,0:0:0:0:
78,342,80813,2,0,B|145:348|172:286,2,90,6|0|8,0:0|0:0|0:0,0:0:0:0:
219,78,81205,2,0,B|180:133|220:187,2,90,2|0|0,0:0|0:0|0:0,0:0:0:0:
369,317,81596,2,0,B|340:255|273:263,2,90,8|0|0,0:0|0:0|0:0,0:0:0:0:
218,249,82118,5,8,0:0:0:0:
297,174,82248,1,0,0:0:0:0:
297,174,82313,1,0,0:0:0:0:
297,174,82379,1,2,0:0:0:0:
117,201,82509,1,2,0:0:0:0:
235,334,82639,1,8,0:0:0:0:
204,153,82770,6,0,B|178:107|178:107|111:68|37:127,1,180,2|0,0:0|0:0,0:0:0:0:
297,174,83161,1,8,0:0:0:0:
388,183,83292,1,0,0:0:0:0:
470,157,83422,2,0,B|521:117|497:51,1,90,2|0,0:0|0:0,0:0:0:0:
388,183,83683,2,0,B|397:247|466:259,1,90,8|0,0:0|0:0,0:0:0:0:
406,98,83944,6,0,B|378:42|378:42|246:22,1,180,6|8,0:0|0:0,0:0:0:0:
106,286,84335,2,0,B|134:342|134:342|266:362,1,180
162,147,84726,2,0,L|73:132,1,90,10|0,0:0|0:0,0:0:0:0:
350,237,84987,2,0,L|438:251,2,90,6|0|8,0:0|0:0|0:0,0:0:0:0:
348,105,85379,6,0,B|316:222|174:156|152:308,1,270,2|8,0:0|0:0,0:0:0:0:
223,75,85900,1,0,0:0:0:0:
223,75,85966,1,0,0:0:0:0:
223,75,86031,2,0,B|308:161|180:251|300:346,1,270,6|0,0:0|0:0,0:0:0:0:
366,339,86552,1,0,0:0:0:0:
426,277,86683,1,0,0:0:0:0:
403,192,86813,2,0,B|376:131|291:142,1,90,8|0,0:0|0:0,0:0:0:0:
426,277,87074,2,0,B|453:338|538:327,1,90,4|0,0:0|0:0,0:0:0:0:
484,215,87335,1,8,0:0:0:0:
463,134,87466,1,0,0:0:0:0:
463,134,87531,1,0,0:0:0:0:
463,134,87596,2,0,B|386:18|326:156,2,180.000006866455,2|2|2,0:0|0:0|0:0,0:0:0:0:
230,147,88118,5,8,0:0:0:0:
252,41,88248,1,0,0:0:0:0:
140,16,88379,1,8,0:0:0:0:
115,118,88509,1,0,0:0:0:0:
227,226,88639,5,8,0:0:0:0:
78,197,88770,2,0,B|75:283|173:291,1,116.999994644165,8|0,0:0|0:0,0:0:0:0:
134,369,89031,1,4,0:0:0:0:
134,369,89292,5,0,0:0:0:0:
134,369,89357,1,0,0:0:0:0:
134,369,89422,1,0,0:0:0:0:
225,334,89552,1,0,0:0:0:0:
227,226,89683,2,0,L|203:168,2,45
126,194,89944,1,0,0:0:0:0:
69,282,90074,1,0,0:0:0:0:
225,334,90205,6,0,B|349:335|335:166,1,215.999993408203,2|8,0:0|0:0,0:0:0:0:
112,39,90596,2,0,B|-12:38|2:207,1,215.999993408203,2|0,0:0|0:0,0:0:0:0:
269,130,90987,2,0,B|281:59|218:25,1,107.999996704102,8|0,0:0|0:0,0:0:0:0:
370,377,91248,6,0,B|483:298|452:155,2,215.999993408203,2|8|2,0:0|0:0|0:0,0:0:0:0:
250,247,91900,1,0,0:0:0:0:
162,291,92031,2,0,B|201:373|292:339,1,107.999996704102,8|2,0:0|0:0,0:0:0:0:
493,111,92292,6,0,B|436:-7|292:41,1,215.999993408203,2|8,0:0|0:0,0:0:0:0:
95,197,92683,1,2,0:0:0:0:
95,197,92748,1,0,0:0:0:0:
95,197,92813,2,0,B|167:187|191:109,1,107.999996704102,2|0,0:0|0:0,0:0:0:0:
372,313,93074,2,0,B|399:245|343:185,1,107.999996704102,8|0,0:0|0:0,0:0:0:0:
81,91,93335,6,0,B|-51:162|39:299,2,215.999993408203,2|8|2,0:0|0:0|0:0,0:0:0:0:
251,46,93987,1,2,0:0:0:0:
251,46,94118,1,8,0:0:0:0:
371,137,94248,1,0,0:0:0:0:
153,153,94379,6,0,B|104:254|197:229|118:363,1,215.999993408203,6|8,0:0|0:0,0:0:0:0:
299,172,94770,2,0,B|327:280|241:238|293:384,1,215.999993408203
81,91,95161,2,0,B|113:23|185:23,1,107.999996704102,8|0,0:0|0:0,0:0:0:0:
371,137,95422,6,0,B|465:199|399:270|517:319,1,215.999993408203,6|8,0:0|0:0,0:0:0:0:
153,153,95813,2,0,B|65:224|139:288|26:349,1,215.999993408203
463,92,96205,2,0,B|401:36|327:60,1,107.999996704102,8|0,0:0|0:0,0:0:0:0:
237,289,96466,6,0,B|308:427|456:355,2,215.999993408203,2|8|2,0:0|0:0|0:0,0:0:0:0:
233,45,97118,1,0,0:0:0:0:
45,41,97248,2,0,B|13:95|62:168,1,107.999996704102,8|0,0:0|0:0,0:0:0:0:
331,167,97509,1,8,0:0:0:0:
125,332,97639,1,8,0:0:0:0:
125,332,97900,6,0,B|151:201|10:119,1,215.999993408203,8|0,0:0|0:0,0:0:0:0:
123,92,98292,1,2,0:0:0:0:
203,143,98422,1,0,0:0:0:0:
332,37,98552,6,0,B|467:32|468:172,1,215.999993408203,6|8,0:0|0:0,0:0:0:0:
248,363,98944,1,2,0:0:0:0:
248,363,99009,1,0,0:0:0:0:
248,363,99074,2,0,B|211:310|265:246,1,107.999996704102
501,244,99335,2,0,B|538:297|484:361,1,107.999996704102,8|0,0:0|0:0,0:0:0:0:
139,288,99596,6,0,B|187:133|319:157,1,215.999993408203,2|8,0:0|0:0,0:0:0:0:
393,363,99987,1,0,0:0:0:0:
393,363,100118,1,0,0:0:0:0:
252,262,100248,1,2,0:0:0:0:
413,185,100379,1,8,0:0:0:0:
267,72,100509,1,2,0:0:0:0:
434,30,100639,6,0,B|551:95|484:235,1,215.999993408203,2|8,0:0|0:0,0:0:0:0:
184,96,101031,1,0,0:0:0:0:
184,96,101096,1,0,0:0:0:0:
184,96,101161,2,0,B|164:26|256:-17,1,107.999996704102,2|0,0:0|0:0,0:0:0:0:
430,269,101422,2,0,B|450:339|358:382,1,107.999996704102,8|0,0:0|0:0,0:0:0:0:
136,212,101683,6,0,B|19:147|86:7,2,215.999993408203,2|8|2,0:0|0:0|0:0,0:0:0:0:
315,264,102335,1,2,0:0:0:0:
433,159,102466,1,8,0:0:0:0:
433,159,102596,1,0,0:0:0:0:
386,1,102726,6,0,B|256:24|257:166,1,215.999993408203,6|8,0:0|0:0,0:0:0:0:
292,369,103118,1,0,0:0:0:0:
501,321,103248,2,0,B|503:253|431:231,1,107.999996704102,2|0,0:0|0:0,0:0:0:0:
151,292,103509,2,0,B|149:360|221:382,1,107.999996704102,8|0,0:0|0:0,0:0:0:0:
288,41,103770,6,0,B|250:13|250:13|176:118|61:47,1,215.999993408203,6|8,0:0|0:0,0:0:0:0:
262,263,104161,2,0,B|300:291|300:291|374:186|489:257,1,215.999993408203,2|0,0:0|0:0,0:0:0:0:
186,159,104552,6,0,B|79:130|21:249,1,161.999995056153,8|0,0:0|0:0,0:0:0:0:
9,210,104813,2,0,B|47:238|47:238|121:133|236:204,1,215.999993408203,6|10,0:0|0:0,0:0:0:0:
342,141,105205,1,0,0:0:0:0:
348,2,105335,1,0,0:0:0:0:
198,33,105466,1,0,0:0:0:0:
342,141,105596,6,0,B|418:164|464:90,1,107.999996704102,8|0,0:0|0:0,0:0:0:0:
277,83,105857,1,8,0:0:0:0:
264,295,105987,1,8,0:0:0:0:
264,295,106052,1,8,0:0:0:0:
264,295,106118,1,0,0:0:0:0:
355,249,106248,6,0,B|263:153|145:253,1,215.999993408203,8|2,0:0|0:0,0:0:0:0:
208,349,106639,2,0,B|261:396|336:339,1,107.999996704102
450,202,106900,6,0,B|393:58|280:122|280:122|171:22|78:191,1,431.999986816407,2|0,0:0|0:0,0:0:0:0:
104,148,107683,5,0,0:0:0:0:
58,243,107813,1,8,0:0:0:0:
58,243,107879,1,8,0:0:0:0:
58,243,107944,1,8,0:0:0:0:
131,305,108074,1,8,0:0:0:0:
190,221,108205,2,0,B|227:163|186:76,1,107.999996704102,8|8,0:0|0:0,0:0:0:0:
278,264,108466,1,0,0:0:0:0:
351,326,108596,1,0,0:0:0:0:
410,242,108727,2,0,B|447:184|406:97,1,107.999996704102
333,187,108987,5,4,0:0:0:0:
422,52,109118,1,0,0:0:0:0:
422,52,109183,1,0,0:0:0:0:
422,52,109248,2,0,B|337:1|337:1|221:46,1,198.000006042481,2|0,0:0|0:0,0:0:0:0:
52,108,109639,2,0,B|144:72|144:72|229:123,1,198.000006042481,2|0,3:0|0:0,0:0:0:0:
417,223,110031,2,0,B|332:172|332:172|216:217,1,198.000006042481,2|0,3:0|0:0,0:0:0:0:
47,279,110422,2,0,B|139:243|139:243|224:294,1,198.000006042481,2|0,3:0|0:0,0:0:0:0:
252,374,110813,1,2,0:0:0:0:
252,374,110944,1,0,0:0:0:0:
440,313,111074,5,0,0:0:0:0:
430,212,111205,1,0,0:0:0:0:
430,212,111270,1,0,0:0:0:0:
430,212,111335,2,0,B|318:241|350:375,1,198.000006042481,2|0,0:0|0:0,0:0:0:0:
193,284,111726,2,0,B|305:255|273:121,1,198.000006042481,2|0,3:0|0:0,0:0:0:0:
348,366,112118,2,0,B|319:254|185:286,1,198.000006042481,2|0,3:0|0:0,0:0:0:0:
275,130,112509,2,0,B|304:242|438:210,1,198.000006042481,2|0,3:0|0:0,0:0:0:0:
379,114,112900,1,2,3:0:0:0:
379,114,113161,5,4,0:0:0:0:
313,27,113292,1,0,0:0:0:0:
313,27,113357,1,0,0:0:0:0:
313,27,113422,2,0,B|202:20|166:146,1,198.000006042481,2|0,0:0|0:0,0:0:0:0:
335,206,113813,6,0,B|396:113|305:19,1,198.000006042481,2|0,3:0|0:0,0:0:0:0:
335,206,114205,2,0,B|384:305|511:273,1,198.000006042481,2|0,3:0|0:0,0:0:0:0:
335,206,114596,2,0,B|286:107|159:139,1,198.000006042481,2|0,3:0|0:0,0:0:0:0:
191,316,114987,2,0,B|301:323|337:197,1,198.000006042481,2|0,3:0|0:0,0:0:0:0:
167,136,115379,1,0,0:0:0:0:
167,136,115444,1,0,0:0:0:0:
167,136,115509,2,0,B|105:227|196:321,1,198.000006042481,2|0,3:0|0:0,0:0:0:0:
334,205,115900,2,0,B|444:212|480:86,1,198.000006042481,2|0,3:0|0:0,0:0:0:0:
477,94,116226,1,0,0:0:0:0:
477,94,116292,1,4,0:0:0:0:
289,54,116422,6,0,B|322:117|402:94,1,99.0000030212403
241,185,116683,1,4,0:0:0:0:
241,185,116944,1,0,0:0:0:0:
182,122,117074,5,8,0:0:0:0:
182,122,117139,1,8,0:0:0:0:
182,122,117205,1,8,0:0:0:0:
182,122,117270,1,8,0:0:0:0:
182,122,117335,2,0,B|128:99|73:113,1,90,2|0,0:0|0:0,0:0:0:0:
241,185,117596,1,8,0:0:0:0:
308,245,117726,2,0,B|362:268|417:254,1,90,2|0,0:0|0:0,0:0:0:0:
241,185,117987,1,0,0:0:0:0:
357,151,118118,2,0,B|412:134|433:78,2,90,8|0|0,0:0|0:0|0:0,0:0:0:0:
134,222,118509,2,0,B|79:239|58:295,1,90,2|8,0:0|0:0,0:0:0:0:
182,122,118770,1,0,0:0:0:0:
182,122,118835,1,0,0:0:0:0:
182,122,118900,2,0,B|128:99|73:113,1,90,2|0,0:0|0:0,0:0:0:0:
274,78,119161,2,0,B|238:31|184:15,1,90,10|0,0:0|0:0,0:0:0:0:
162,330,119422,6,0,B|201:276|272:303,1,90,2|0,0:0|0:0,0:0:0:0:
231,374,119683,1,8,0:0:0:0:
435,305,119813,6,0,B|369:315|338:246,1,90,2|0,0:0|0:0,0:0:0:0:
417,225,120074,1,0,0:0:0:0:
153,210,120205,6,0,B|198:223|232:177,1,90,10|0,0:0|0:0,0:0:0:0:
169,125,120466,1,0,0:0:0:0:
101,71,120596,2,0,B|135:25|195:41,1,90,2|8,0:0|0:0,0:0:0:0:
466,106,120857,5,0,0:0:0:0:
466,106,120922,1,0,0:0:0:0:
466,106,120987,2,0,B|404:137|355:88,1,90,2|0,0:0|0:0,0:0:0:0:
293,281,121248,5,8,0:0:0:0:
248,285,121313,1,8,0:0:0:0:
208,305,121378,1,8,0:0:0:0:
175,336,121443,1,8,0:0:0:0:
150,373,121509,2,0,B|138:317|77:295,1,90,12|0,0:0|0:0,0:0:0:0:
408,275,121770,2,0,B|365:313|376:377,1,90,8|0,0:0|0:0,0:0:0:0:
192,212,122031,5,10,0:0:0:0:
275,121,122161,1,2,0:0:0:0:
192,134,122292,1,8,0:0:0:0:
296,197,122422,1,0,0:0:0:0:
120,77,122552,6,0,L|22:102,1,90,8|2,0:0|0:0,0:0:0:0:
328,45,122813,2,0,L|434:45,1,90,8|2,0:0|0:0,0:0:0:0:
91,194,123074,6,0,B|71:246|113:290,1,90,8|0,0:0|0:0,0:0:0:0:
396,228,123335,2,0,B|416:176|374:132,1,90,8|0,0:0|0:0,0:0:0:0:
265,361,123596,5,2,0:0:0:0:
204,275,123726,2,0,L|170:330,2,45,2|0|0,0:0|0:0|0:0,0:0:0:0:
256,192,123987,1,2,0:0:0:0:
201,113,124118,1,2,0:0:0:0:
201,113,124183,1,0,0:0:0:0:
201,113,124248,1,0,0:0:0:0:
311,271,124379,1,2,0:0:0:0:
247,23,124509,5,4,0:0:0:0:
247,23,124770,1,0,0:0:0:0:
201,113,124900,1,0,0:0:0:0:
256,192,125031,1,0,0:0:0:0:
311,271,125161,1,0,0:0:0:0:
265,361,125292,5,0,0:0:0:0:
204,275,125422,1,8,0:0:0:0:
256,192,125552,1,0,0:0:0:0:
303,105,125683,5,4,0:0:0:0:
303,105,125944,6,0,B|403:75|454:176,1,180,8|0,0:0|0:0,0:0:0:0:
476,256,126335,2,0,B|409:269|386:204,1,90,0|8,0:0|0:0,0:0:0:0:
233,48,126596,6,0,B|200:8|200:8|116:14|82:81,1,180
85,153,126987,1,8,0:0:0:0:
85,153,127248,5,0,0:0:0:0:
180,203,127379,1,0,0:0:0:0:
259,129,127509,2,0,B|273:66|199:24,1,90,8|0,0:0|0:0,0:0:0:0:
309,216,127770,6,0,B|394:172|371:27,2,180,0|8|0,0:0|0:0|0:0,0:0:0:0:
307,305,128422,1,0,0:0:0:0:
307,305,128552,2,0,B|374:320|417:268,1,90,8|0,0:0|0:0,0:0:0:0:
238,349,128813,2,0,B|162:262|47:354,1,180,0|8,0:0|0:0,0:0:0:0:
76,332,129205,1,0,0:0:0:0:
6,233,129335,2,0,B|73:248|116:196,1,90
92,218,129596,1,8,0:0:0:0:
45,126,129726,1,8,0:0:0:0:
45,126,129792,1,8,0:0:0:0:
45,126,129857,1,0,0:0:0:0:
241,39,130118,5,8,0:0:0:0:
250,145,130248,2,0,B|162:153|190:229|68:217,1,180
175,289,130639,2,0,B|237:303|257:222,1,90,8|0,0:0|0:0,0:0:0:0:
380,342,130900,6,0,B|429:227|310:188,1,180,0|8,0:0|0:0,0:0:0:0:
157,142,131292,2,0,B|42:93|3:212,1,180
247,250,131683,2,0,B|185:236|165:317,1,90,8|0,0:0|0:0,0:0:0:0:
437,182,131944,6,0,B|486:157|486:157|502:90|432:27,2,180,0|8|0,0:0|0:0|0:0,0:0:0:0:
281,147,132596,1,0,0:0:0:0:
245,71,132726,1,8,0:0:0:0:
291,0,132857,2,0,B|365:18|374:79,1,90
367,304,133248,5,8,0:0:0:0:
218,364,133379,2,0,B|144:260|224:170,1,180
365,227,133770,1,8,0:0:0:0:
276,270,133900,5,8,0:0:0:0:
276,270,133966,1,8,0:0:0:0:
276,270,134031,1,0,0:0:0:0:
82,100,134292,6,0,B|126:56|191:76,1,90,8|0,0:0|0:0,0:0:0:0:
238,113,134552,1,0,0:0:0:0:
303,53,134683,2,0,B|363:150|463:99,2,180
232,10,135335,1,8,0:0:0:0:
232,10,135596,1,0,0:3:0:0:
159,152,135726,1,0,0:3:0:0:
56,30,135857,2,0,B|115:29|155:92,1,90,8|0,0:0|0:0,0:0:0:0:
56,30,136118,6,0,B|92:63|92:63|78:143|7:201,1,180,0|8,0:0|0:0,0:0:0:0:
113,241,136509,1,0,0:0:0:0:
38,303,136639,2,0,B|60:358|135:355,1,90
208,307,136900,1,8,0:0:0:0:
208,307,137031,2,0,B|244:260|204:196,1,90
56,30,137422,6,0,B|19:76|59:140,1,90,8|0,0:0|0:0,0:0:0:0:
310,166,137683,2,0,B|287:66|171:67,1,180,0|8,0:0|0:0,0:0:0:0:
329,265,138074,1,8,0:0:0:0:
329,265,138139,1,8,0:0:0:0:
329,265,138205,1,4,0:0:0:0:
47,363,138466,5,8,0:0:0:0:
73,284,138596,2,0,B|156:301|156:301|167:312|167:312|270:331,1,180
326,382,138987,2,0,L|437:384,1,90,8|0,0:0|0:0,0:0:0:0:
329,265,139248,2,0,L|440:267,1,90,4|0,0:0|0:0,0:0:0:0:
491,324,139509,1,8,0:0:0:0:
486,199,139639,6,0,B|433:90|300:172,1,180
261,60,140031,1,8,0:0:0:0:
111,224,140161,5,8,0:0:0:0:
111,224,140226,1,8,0:0:0:0:
111,224,140292,2,0,B|176:232|201:164,1,90,4|0,0:0|0:0,0:0:0:0:
123,135,140552,1,8,0:0:0:0:
99,316,140683,6,0,B|214:347|276:228,1,180
53,90,141074,2,0,B|91:36|167:61,1,90,8|0,0:0|0:0,0:0:0:0:
310,178,141335,2,0,B|364:216|339:292,1,90
160,216,141596,2,0,B|106:178|131:102,1,90,8|0,0:0|0:0,0:0:0:0:
437,91,141857,1,8,0:0:0:0:
437,91,141922,1,8,0:0:0:0:
437,91,141987,1,0,0:0:0:0:
480,185,142118,1,8,0:0:0:0:
480,185,142379,6,0,B|480:300|370:318,1,180,0|8,0:0|0:0,0:0:0:0:
298,344,142770,2,0,B|210:319|228:402|94:334,1,180
105,267,143161,2,0,B|5:209|44:105,1,180,8|0,0:0|0:0,0:0:0:0:
246,38,143683,1,8,0:0:0:0:
246,38,143813,2,0,B|246:153|136:171,1,180
154,72,144205,2,0,B|129:19|53:36,1,90,8|0,0:0|0:0,0:0:0:0:
278,267,144466,2,0,B|163:267|145:157,1,180,0|8,0:0|0:0,0:0:0:0:
246,38,144857,2,0,B|360:38|379:148,1,180
388,367,145248,2,0,B|377:264|468:185,1,180,8|0,0:0|0:0,0:0:0:0:
448,205,145770,2,0,B|446:261|494:291,1,90,8|0,0:0|0:0,0:0:0:0:
376,136,146031,2,0,B|425:109|427:53,1,90
358,234,146292,2,0,B|310:204|260:230,1,90,8|0,0:0|0:0,0:0:0:0:
216,298,146552,6,0,B|131:353|36:284,1,180,0|8,0:0|0:0,0:0:0:0:
55,143,146944,2,0,B|140:88|235:157,1,180
151,237,147335,2,0,B|120:257|106:219|138:175|155:215,1,90,8|0,0:0|0:0,0:0:0:0:
443,193,147596,6,0,B|343:174|372:254|247:218,1,180,0|8,0:0|0:0,0:0:0:0:
405,66,147987,2,0,B|420:18|491:1|528:104|490:124,1,180,2|0,0:0|0:0,0:0:0:0:
399,324,148379,2,0,B|414:372|485:389|522:286|484:266,1,180,10|2,0:0|0:0,0:0:0:0:
225,43,148900,5,8,0:0:0:0:
174,126,149031,2,0,B|272:150|321:46,1,180,2|0,0:0|0:0,0:0:0:0:
123,43,149422,2,0,B|62:78|93:154,1,90,10|0,0:0|0:0,0:0:0:0:
121,208,149683,2,0,B|194:296|315:243,1,180,2|8,0:0|0:0,0:0:0:0:
384,187,150074,1,0,0:0:0:0:
384,187,150139,1,0,0:0:0:0:
384,187,150205,1,0,0:0:0:0:
442,284,150335,1,0,0:0:0:0:
304,340,150466,6,0,B|346:386|415:354,1,90,8|0,0:0|0:0,0:0:0:0:
475,174,150726,5,6,0:0:0:0:
404,89,150857,1,0,0:0:0:0:
309,133,150987,1,8,0:0:0:0:
361,269,151118,2,0,B|267:228|149:236,1,180
138,118,151509,2,0,B|187:154|235:133,1,90,8|0,0:0|0:0,0:0:0:0:
254,45,151770,5,4,0:0:0:0:
254,45,151900,2,0,B|205:9|157:30,1,90,0|8,0:0|0:0,0:0:0:0:
68,81,152161,2,0,B|24:123|36:173,1,90
100,231,152422,1,0,0:0:0:0:
41,299,152552,2,0,B|60:352|60:352|126:312|206:348,1,180,8|0,0:0|0:0,0:0:0:0:
396,243,153074,5,8,0:0:0:0:
406,152,153205,1,0,0:0:0:0:
406,152,153270,1,0,0:0:0:0:
406,152,153335,1,0,0:0:0:0:
329,87,153466,1,0,0:0:0:0:
242,114,153596,1,8,0:0:0:0:
227,281,153726,6,0,B|281:257|314:289|314:289|323:317|323:317|368:367|441:329,1,215.999993408203,4|0,0:0|0:0,0:0:0:0:
185,354,154118,1,8,0:0:0:0:
110,311,154248,1,0,0:0:0:0:
110,311,154313,1,0,0:0:0:0:
110,311,154379,2,0,B|94:256|151:204,1,90
242,114,154639,2,0,B|258:169|201:221,1,90,8|0,0:0|0:0,0:0:0:0:
150,127,154900,6,0,B|166:8|293:24,1,180,4|8,0:0|0:0,0:0:0:0:
346,69,155292,1,0,0:0:0:0:
346,69,155422,1,0,0:0:0:0:
430,54,155552,1,0,0:0:0:0:
503,96,155683,2,0,B|504:150|458:172,1,90,8|0,0:0|0:0,0:0:0:0:
370,304,155944,6,0,B|265:287|306:363|176:328,1,180,4|8,0:0|0:0,0:0:0:0:
70,174,156335,2,0,B|175:157|134:233|264:198,1,180
346,69,156726,2,0,B|241:52|282:128|152:93,1,180,8|2,0:0|0:0,0:0:0:0:
118,0,157118,1,0,0:0:0:0:
70,174,157248,2,0,B|18:278|96:342,1,180,8|0,0:0|0:0,0:0:0:0:
242,293,157639,1,0,0:0:0:0:
189,356,157770,2,0,B|139:312|173:233,1,90,8|0,0:0|0:0,0:0:0:0:
435,278,158031,2,0,B|487:174|409:110,1,180,0|8,0:0|0:0,0:0:0:0:
302,235,158422,1,0,0:0:0:0:
302,235,158487,1,0,0:0:0:0:
302,235,158552,2,0,B|406:280|309:354,2,155.999992858887,6|2|2,0:0|0:0|0:0,0:0:0:0:
79,177,159074,5,8,0:0:0:0:
109,43,159205,1,0,0:0:0:0:
245,134,159335,1,8,0:0:0:0:
126,258,159466,1,0,0:0:0:0:
183,0,159596,1,8,0:0:0:0:
183,0,159726,1,8,0:0:0:0:
366,169,159987,6,0,B|408:216|408:216|383:289|298:321,1,180,4|0,0:0|0:0,0:0:0:0:
334,303,160313,1,0,0:0:0:0:
334,303,160379,1,0,0:0:0:0:
255,241,160509,2,0,L|209:247,2,45
176,335,160770,1,0,0:0:0:0:
176,335,160835,1,0,0:0:0:0:
176,335,160900,2,0,B|134:364|66:342,1,90
73,154,161161,6,0,B|188:49|302:177,1,233.999989288331,2|8,0:0|0:0,0:0:0:0:
383,335,161552,2,0,B|234:287|288:125,1,233.999989288331,2|0,0:0|0:0,0:0:0:0:
454,80,161944,2,0,B|530:126|501:209,1,116.999994644165,8|0,0:0|0:0,0:0:0:0:
222,339,162205,6,0,B|86:400|-21:280,2,233.999989288331,2|8|0,0:0|0:0|0:0,0:0:0:0:
369,207,162857,1,0,0:0:0:0:
291,23,162987,1,8,0:0:0:0:
291,23,163118,1,0,0:0:0:0:
151,161,163248,6,0,B|171:286|344:276,1,233.999989288331,2|8,0:0|0:0,0:0:0:0:
501,38,163639,1,2,0:0:0:0:
501,38,163705,1,0,0:0:0:0:
501,38,163770,2,0,B|436:25|394:94,1,116.999994644165
306,373,164031,2,0,B|371:386|413:317,1,116.999994644165,10|0,0:0|0:0,0:0:0:0:
261,138,164292,6,0,B|182:6|34:102,2,233.999989288331,2|8|0,0:0|0:0|0:0,0:0:0:0:
208,329,164944,1,0,0:0:0:0:
71,196,165074,1,8,0:0:0:0:
71,196,165205,1,0,0:0:0:0:
261,138,165335,6,0,B|378:90|348:212|504:130,1,233.999989288331,2|8,0:0|0:0,0:0:0:0:
221,53,165726,2,0,B|69:139|240:233,1,233.999989288331,2|0,0:0|0:0,0:0:0:0:
483,140,166118,1,10,0:0:0:0:
483,140,166379,5,2,0:0:0:0:
396,47,166509,1,0,0:0:0:0:
356,222,166639,1,8,0:0:0:0:
445,315,166770,1,2,0:0:0:0:
356,222,166900,6,0,B|285:258|309:353,1,116.999994644165
80,194,167161,2,0,B|151:158|127:63,1,116.999994644165,10|0,0:0|0:0,0:0:0:0:
85,278,167422,2,0,B|211:240|170:372|334:307,2,233.999989288331,2|8|0,0:0|0:0|0:0,0:0:0:0:
350,137,168074,1,2,0:0:0:0:
350,137,168205,2,0,B|224:175|265:43|101:108,1,233.999989288331,8|2,0:0|0:0,0:0:0:0:
432,41,168596,1,2,0:0:0:0:
432,41,168661,1,0,0:0:0:0:
432,41,168726,1,0,0:0:0:0:
179,11,168857,2,0,B|279:0|302:83,1,116.999994644165,2|0,0:0|0:0,0:0:0:0:
178,183,169118,1,0,0:0:0:0:
33,93,169248,6,0,L|34:24,3,58.4999973220826,8|8|8|8,0:0|0:0|0:0|0:0,0:0:0:0:
7,136,169509,6,0,B|137:207|101:358,1,233.999989288331,2|8,0:0|0:0,0:0:0:0:
292,364,169900,1,2,0:0:0:0:
421,258,170031,2,0,B|356:207|287:249,1,116.999994644165
179,11,170292,2,0,B|213:66|286:43,1,116.999994644165,10|0,0:0|0:0,0:0:0:0:
512,165,170552,6,0,B|370:114|290:273,2,233.999989288331,2|8|0,0:0|0:0|0:0,0:0:0:0:
224,299,171205,1,0,0:0:0:0:
224,299,171335,2,0,B|182:228|241:151,1,116.999994644165,8|2,0:0|0:0,0:0:0:0:
496,310,171596,2,0,B|455:381|359:369,1,116.999994644165,2|0,0:0|0:0,0:0:0:0:
322,316,171857,1,8,0:0:0:0:
141,338,171987,5,2,0:0:0:0:
141,338,172052,1,0,0:0:0:0:
141,338,172118,2,0,B|71:274|89:199,1,116.999994644165
467,170,172379,2,0,B|446:262|372:284,1,116.999994644165,10|0,0:0|0:0,0:0:0:0:
119,42,172639,2,0,B|209:13|265:66,1,116.999994644165,2|0,0:0|0:0,0:0:0:0:
281,122,172900,6,0,B|185:211|57:109,1,233.999989288331,8|2,0:0|0:0,0:0:0:0:
281,122,173292,1,2,0:0:0:0:
354,37,173422,2,0,B|411:92|391:167,1,116.999994644165,8|2,0:0|0:0,0:0:0:0:
83,362,173683,6,0,B|140:215|279:265,1,233.999989288331,6|8,0:0|0:0,0:0:0:0:
512,121,174074,2,0,B|455:268|316:218,1,233.999989288331,2|0,0:0|0:0,0:0:0:0:
175,194,174466,2,0,B|248:202|271:279,1,116.999994644165,10|0,0:0|0:0,0:0:0:0:
497,357,174726,2,0,B|336:354|323:169,1,233.999989288331,6|8,0:0|0:0,0:0:0:0:
407,0,175118,5,2,0:0:0:0:
407,0,175183,1,0,0:0:0:0:
407,0,175248,2,0,L|386:123,1,116.999994644165
105,384,175509,2,0,L|126:261,1,116.999994644165,10|0,0:0|0:0,0:0:0:0:
218,87,175770,6,0,B|249:174|249:174|272:190|272:190|322:343,2,233.999989288331,2|8|0,0:0|0:0|0:0,0:0:0:0:
213,303,176422,1,0,0:0:0:0:
406,368,176552,2,0,B|485:376|518:302,1,116.999994644165,8|0,0:0|0:0,0:0:0:0:
398,97,176813,1,8,0:0:0:0:
155,37,176944,1,8,0:0:0:0:
155,37,177205,6,0,B|88:57|73:99|73:99|92:127|92:127|62:176|-9:196,1,233.999989288331,2|0,0:0|0:0,0:0:0:0:
21,185,177531,1,0,0:0:0:0:
21,185,177596,2,0,B|5:257|55:303,1,116.999994644165,2|0,0:0|0:0,0:0:0:0:
372,326,177857,6,0,B|424:391|525:329|441:205|328:223|304:320|330:407|191:385|87:341,1,467.999978576661,2|0,0:0|0:0,0:0:0:0:
117,351,178639,5,0,0:0:0:0:
187,273,178770,1,0,0:0:0:0:
187,273,178835,1,0,0:0:0:0:
187,273,178900,1,8,0:0:0:0:
117,188,179031,1,10,0:0:0:0:
230,180,179161,1,8,0:0:0:0:
96,273,179292,1,0,0:0:0:0:
276,254,179422,1,8,0:0:0:0:
261,340,179552,1,0,0:0:0:0:
170,111,179683,1,8,0:0:0:0:
170,111,179813,1,8,0:0:0:0:
170,111,179944,1,2,0:0:0:0:
512,121,180205,6,0,B|470:108|470:108|412:208|316:168,1,215.999993408203,8|0,0:0|0:0,0:0:0:0:
327,172,180596,1,2,0:0:0:0:
345,18,180726,1,8,0:0:0:0:
375,100,180857,1,0,0:0:0:0:
291,92,180987,2,0,B|211:-1|70:26,1,215.999993408203,2|8,0:0|0:0,0:0:0:0:
67,104,181379,1,2,0:0:0:0:
67,104,181444,1,0,0:0:0:0:
67,104,181509,2,0,B|-8:76|9:-6,1,107.999996704102
112,173,181770,1,8,0:0:0:0:
89,251,181900,1,0,0:0:0:0:
7,278,182031,1,2,0:0:0:0:
89,251,182161,1,0,0:0:0:0:
175,289,182292,1,8,0:0:0:0:
211,370,182422,1,2,0:0:0:0:
211,370,182683,1,0,0:0:0:0:
175,289,182813,2,0,B|296:253|395:387,1,215.999993408203,8|0,0:0|0:0,0:0:0:0:
491,248,183205,5,2,0:0:0:0:
404,149,183335,1,8,0:0:0:0:
491,248,183466,1,0,0:0:0:0:
491,248,183531,1,0,0:0:0:0:
491,248,183596,2,0,B|538:195|482:109,3,107.999996704102,2|0|8|0,0:0|0:0|0:0|0:0,0:0:0:0:
352,6,184118,5,2,0:0:0:0:
352,6,184379,2,0,B|309:-6|309:-6|275:49|202:24|202:24|149:97,1,215.999993408203,8|0,0:0|0:0,0:0:0:0:
141,236,184770,2,0,B|92:180|136:102,1,107.999996704102,2|8,0:0|0:0,0:0:0:0:
216,168,185031,2,0,B|272:328|111:335,1,215.999993408203,2|0,0:0|0:0,0:0:0:0:
63,288,185422,1,8,0:0:0:0:
63,288,185552,1,0,0:0:0:0:
311,264,185683,5,2,0:0:0:0:
420,297,185857,5,2,0:0:0:0:
342,378,186031,5,2,0:0:0:0:
141,237,186205,5,2,0:0:0:0:
141,237,186270,1,0,0:0:0:0:
141,237,186335,2,0,B|95:179|139:112,1,107.999996704102,0|8,0:0|0:0,0:0:0:0:
185,15,186596,2,0,B|231:73|187:140,1,107.999996704102
71,81,186857,1,0,0:0:0:0:
126,135,186987,1,8,0:0:0:0:
199,116,187118,1,0,0:0:0:0:
441,303,187248,5,2,0:0:0:0:
386,249,187422,5,2,0:0:0:0:
313,268,187596,5,2,0:0:0:0:
506,231,187770,5,2,0:0:0:0:
441,42,187944,5,2,0:0:0:0:
294,149,188118,5,2,0:0:0:0:
358,372,188292,5,0,0:0:0:0:
358,372,188552,6,0,B|316:388|316:388|317:369|317:369|218:385|194:264,1,215.999993408203,8|0,0:0|0:0,0:0:0:0:
62,211,188944,5,0,0:0:0:0:
62,211,189009,1,0,0:0:0:0:
62,211,189074,1,8,0:0:0:0:
118,81,189205,1,0,0:0:0:0:
170,175,189335,1,4,0:0:0:0:
2,119,189466,1,0,0:0:0:0:
134,253,189596,5,8,0:0:0:0:
170,175,189726,1,0,0:0:0:0:
118,81,189857,1,0,0:0:0:0:
62,211,189987,5,0,0:0:0:0:
26,289,190117,1,8,0:0:0:0:
78,383,190248,1,0,0:0:0:0:
181,365,190379,6,0,B|240:314|194:218,1,107.999996704102
32,21,190639,2,0,B|-27:72|19:168,1,107.999996704102,8|0,0:0|0:0,0:0:0:0:
1,118,190835,1,0,0:0:0:0:
1,118,190900,1,0,0:0:0:0:
134,253,191031,2,0,L|100:131,1,107.999996704102,8|0,0:0|0:0,0:0:0:0:
158,14,191292,2,0,L|192:136,1,107.999996704102,4|0,0:0|0:0,0:0:0:0:
65,336,191552,1,2,0:0:0:0:
65,336,191683,2,0,L|31:214,1,107.999996704102,8|0,0:0|0:0,0:0:0:0:
320,268,191944,5,2,0:0:0:0:
388,132,192118,5,2,0:0:0:0:
507,212,192292,5,2,0:0:0:0:
361,27,192466,5,0,0:0:0:0:
507,212,192726,6,0,B|468:145|531:76,1,107.999996704102,8|0,0:0|0:0,0:0:0:0:
320,268,192987,5,0,0:0:0:0:
333,301,193073,5,0,0:0:0:0:
333,337,193160,5,0,0:0:0:0:
320,370,193247,5,8,0:0:0:0:
141,221,193379,6,0,B|82:264|20:201,1,107.999996704102
94,151,193639,1,0,0:0:0:0:
48,77,193770,2,0,B|107:34|169:97,1,107.999996704102,8|0,0:0|0:0,0:0:0:0:
486,313,194031,5,2,0:0:0:0:
320,370,194205,5,2,0:0:0:0:
287,190,194379,5,2,0:0:0:0:
451,140,194552,6,0,B|309:187|325:6|109:93,1,323.999990112305,2|0,0:0|0:0,0:0:0:0:
141,221,195074,1,0,0:0:0:0:
198,153,195205,1,0,0:0:0:0:
173,340,195335,1,8,0:0:0:0:
50,238,195466,1,0,0:0:0:0:
50,238,195531,1,0,0:0:0:0:
50,238,195596,2,0,B|49:308|110:338,1,107.999996704102
222,276,195857,1,8,0:0:0:0:
338,374,195987,5,0,0:0:0:0:
338,374,196052,1,0,0:0:0:0:
338,374,196118,5,6,0:0:0:0:
458,257,196292,5,2,0:0:0:0:
319,197,196466,5,2,0:0:0:0:
145,357,196639,1,10,0:0:0:0:
145,357,196705,1,0,0:0:0:0:
145,357,196770,6,0,B|114:384|58:366,1,53.9999983520508
103,149,196900,2,0,B|41:129|32:29,1,107.999996704102,8|0,0:0|0:0,0:0:0:0:
280,35,197161,5,8,0:0:0:0:
457,174,197292,2,0,B|521:243|501:306,1,107.999996704102,8|8,0:0|0:0,0:0:0:0:
235,326,197552,21,0,0:0:0:0:
235,326,197618,1,0,0:0:0:0:
235,326,197683,2,2,B|211:271|132:255|132:255|208:193|194:104|194:104|271:158|356:120|356:120|339:225|396:279|396:279|309:299|256:363,1,810.000030899049,2|0,0:0|0:0,0:0:0:0:
371,380,198596,5,0,0:0:0:0:
371,380,198661,1,0,0:0:0:0:
371,380,198726,2,0,B|512:354|483:174,1,233.999989288331,2|8,0:0|0:0,0:0:0:0:
211,0,199118,2,0,B|70:26|99:206,1,233.999989288331,2|0,0:0|0:0,0:0:0:0:
454,142,199509,2,0,B|459:61|385:19,1,116.999994644165,10|0,0:0|0:0,0:0:0:0:
124,323,199770,6,0,B|245:415|344:253,2,233.999989288331,2|8|0,0:0|0:0|0:0,0:0:0:0:
219,193,200422,1,0,0:0:0:0:
108,102,200552,1,10,0:0:0:0:
2,214,200683,1,2,0:0:0:0:
219,193,200813,6,0,B|276:156|276:156|293:49|219:-20,1,233.999989288331,2|8,0:0|0:0,0:0:0:0:
70,267,201205,1,2,0:0:0:0:
70,267,201270,1,0,0:0:0:0:
70,267,201335,2,0,B|26:317|63:380,1,116.999994644165
362,219,201596,2,0,B|406:169|369:106,1,116.999994644165,10|0,0:0|0:0,0:0:0:0:
159,365,201857,6,0,B|219:324|268:342|268:342|275:356|275:356|342:383|402:323,1,233.999989288331,2|8,0:0|0:0,0:0:0:0:
372,346,202379,5,0,0:0:0:0:
459,218,202509,1,2,0:0:0:0:
297,158,202639,1,8,0:0:0:0:
297,158,202770,1,0,0:0:0:0:
512,310,202900,6,0,B|584:179|433:101,1,233.999989288331,6|8,0:0|0:0,0:0:0:0:
156,23,203292,1,2,0:0:0:0:
156,23,203357,1,0,0:0:0:0:
156,23,203422,2,0,B|157:110|253:125,1,116.999994644165
245,345,203683,2,0,B|319:300|284:209,1,116.999994644165,8|0,0:0|0:0,0:0:0:0:
56,42,203944,6,0,B|72:177|224:212,1,233.999989288331,6|8,0:0|0:0,0:0:0:0:
363,38,204335,2,0,B|254:119|299:268,1,233.999989288331,2|0,0:0|0:0,0:0:0:0:
512,303,204726,2,0,B|387:249|280:363,1,233.999989288331,10|6,0:0|0:0,0:0:0:0:
297,346,205248,5,8,0:0:0:0:
209,384,205379,1,0,0:0:0:0:
153,303,205509,1,0,0:0:0:0:
69,344,205639,1,0,0:0:0:0:
23,257,205770,1,8,0:0:0:0:
23,257,205900,1,0,0:0:0:0:
165,105,206031,5,10,0:0:0:0:
123,206,206161,2,0,B|108:138|182:92,1,116.999994644165,10|2,0:0|0:0,0:0:0:0:
406,142,206422,2,0,B|398:190|398:190|305:257|200:160,1,233.999989288331,8|0,0:0|0:0,0:0:0:0:
275,95,206813,1,8,0:0:0:0:
217,17,206944,1,8,0:0:0:0:
406,40,207074,6,0,B|541:90|464:246,1,233.999989288331,2|8,0:0|0:0,0:0:0:0:
150,377,207466,1,2,0:0:0:0:
150,377,207531,1,0,0:0:0:0:
150,377,207596,2,0,B|119:292|232:256,1,116.999994644165
512,308,207857,2,0,B|496:397|380:371,1,116.999994644165,10|0,0:0|0:0,0:0:0:0:
128,177,208118,6,0,B|290:166|308:329,2,233.999989288331,2|8|0,0:0|0:0|0:0,0:0:0:0:
47,15,208770,1,0,0:0:0:0:
233,10,208900,1,10,0:0:0:0:
233,10,209031,1,2,0:0:0:0:
325,149,209161,2,0,B|465:171|501:3,1,233.999989288331,2|8,0:0|0:0,0:0:0:0:
158,73,209552,1,2,0:0:0:0:
158,73,209618,1,0,0:0:0:0:
158,73,209683,2,0,B|96:116|140:207,1,116.999994644165,2|0,0:0|0:0,0:0:0:0:
322,364,209944,2,0,B|384:321|340:230,1,116.999994644165,10|0,0:0|0:0,0:0:0:0:
28,235,210205,6,0,B|80:290|80:290|167:222|248:277,1,233.999989288331,2|8,0:0|0:0,0:0:0:0:
391,12,210596,1,0,0:0:0:0:
391,12,210661,1,0,0:0:0:0:
391,12,210726,1,2,0:0:0:0:
248,96,210857,1,2,0:0:0:0:
376,190,210987,1,8,0:0:0:0:
512,105,211118,1,2,0:0:0:0:
391,12,211248,6,0,B|329:29|329:29|266:88|299:206,1,233.999989288331,4|8,0:0|0:0,0:0:0:0:
52,384,211639,2,0,B|114:367|114:367|177:308|144:190,1,233.999989288331,2|0,0:0|0:0,0:0:0:0:
56,68,212031,2,0,B|19:132|75:214,1,116.999994644165,10|0,0:0|0:0,0:0:0:0:
315,320,212292,6,0,B|472:301|458:126,1,233.999989288331,6|8,0:0|0:0,0:0:0:0:
158,91,212683,2,0,B|95:236|254:311,1,233.999989288331,2|0,0:0|0:0,0:0:0:0:
420,76,213074,2,0,B|325:-50|180:49,1,233.999989288331,8|6,0:0|0:0,0:0:0:0:
214,28,213596,5,8,0:0:0:0:
420,76,213726,1,0,0:0:0:0:
295,164,213857,1,0,0:0:0:0:
315,320,213987,1,0,0:0:0:0:
295,164,214118,1,8,0:0:0:0:
219,292,214248,1,0,0:0:0:0:
295,164,214379,1,8,0:0:0:0:
458,165,214509,6,0,B|514:142|492:67,2,58.4999973220826,8|8|0,0:0|0:0|0:0,0:0:0:0:
154,93,214770,2,0,B|84:50|148:-27,1,116.999994644165,8|0,0:0|0:0,0:0:0:0:
295,164,215031,1,0,0:0:0:0:
249,377,215161,6,2,B|126:387|127:253,1,175.499991966248,0|0,0:0|0:0,0:0:0:0:
46,222,215422,6,2,B|238:119|281:412|510:265,1,467.999978576661,2|8,0:0|0:0,0:0:0:0:
479,282,216205,1,2,0:0:0:0:
428,182,216335,1,2,0:0:0:0:
483,69,216466,1,2,0:0:0:0:
293,150,216596,1,8,0:0:0:0:
348,37,216727,1,8,0:0:0:0:
168,118,216857,1,8,0:0:0:0:
223,5,216988,1,8,0:0:0:0:
257,80,217118,1,2,0:0:0:0:
128,42,217248,1,2,0:0:0:0:
128,42,217379,1,2,0:0:0:0:
128,42,217509,2,0,B|-5:134|150:231,1,233.999989288331,6|8,0:0|0:0,0:0:0:0:
364,293,217900,5,2,0:0:0:0:
364,293,217966,1,0,0:0:0:0:
364,293,218031,2,0,B|372:207|287:182,1,116.999994644165
76,286,218292,2,0,B|68:372|153:397,1,116.999994644165,8|0,0:0|0:0,0:0:0:0:
306,375,218552,2,0,B|457:418|460:260,1,233.999989288331,2|10,0:0|0:0,0:0:0:0:
437,82,218944,1,0,0:0:0:0:
284,66,219074,1,2,0:0:0:0:
284,66,219205,1,2,0:0:0:0:
218,207,219335,2,0,B|183:277|261:340,1,116.999994644165,8|2,0:0|0:0,0:0:0:0:
499,152,219596,6,0,B|565:-24|344:-1,1,233.999989288331,2|8,0:0|0:0,0:0:0:0:
56,94,219987,1,2,0:0:0:0:
56,94,220052,1,0,0:0:0:0:
56,94,220118,2,0,B|83:172|147:185,1,116.999994644165,2|0,0:0|0:0,0:0:0:0:
284,384,220379,2,0,B|338:321|317:259,1,116.999994644165,10|0,0:0|0:0,0:0:0:0:
399,0,220639,2,0,B|317:-15|274:33,1,116.999994644165,2|0,0:0|0:0,0:0:0:0:
81,264,220900,2,0,B|218:300|307:152,1,233.999989288331,8|2,0:0|0:0,0:0:0:0:
127,11,221292,1,2,0:0:0:0:
129,179,221422,2,0,B|226:164|222:57,1,116.999994644165,8|2,0:0|0:0,0:0:0:0:
494,250,221683,6,0,B|450:389|287:351,1,233.999989288331,4|8,0:0|0:0,0:0:0:0:
123,313,222074,1,2,0:0:0:0:
222,268,222205,1,2,0:0:0:0:
123,313,222335,1,0,0:0:0:0:
205,379,222466,2,0,B|278:410|335:327,1,116.999994644165,10|0,0:0|0:0,0:0:0:0:
391,22,222726,6,0,B|244:50|284:199,1,233.999989288331,6|8,0:0|0:0,0:0:0:0:
174,5,223118,2,0,B|60:102|169:211,1,233.999989288331,2|0,0:0|0:0,0:0:0:0:
30,133,223509,2,0,B|-19:274|129:314,1,233.999989288331,10|6,0:0|0:0,0:0:0:0:
325,333,223900,1,0,0:0:0:0:
483,201,224031,2,0,B|385:88|276:196,1,233.999989288331,10|0,0:0|0:0,0:0:0:0:
174,384,224422,1,0,0:0:0:0:
325,333,224552,1,10,0:0:0:0:
125,263,224683,1,0,0:0:0:0:
281,191,224813,6,0,B|292:116|209:80,1,116.999994644165,8|8,0:0|0:0,0:0:0:0:
233,92,225205,6,0,B|229:258|416:228,1,233.999989288331,10|0,0:0|0:0,0:0:0:0:
491,100,225596,1,0,0:0:0:0:
436,17,225726,1,0,0:0:0:0:
257,3,225857,6,0,B|132:-11|171:107|-8:48,1,233.999989288331,2|10,0:0|0:0,0:0:0:0:
122,283,226248,1,0,0:0:0:0:
122,283,226313,1,0,0:0:0:0:
122,283,226379,1,2,0:0:0:0:
250,229,226509,1,2,0:0:0:0:
153,176,226639,1,10,0:0:0:0:
216,328,226770,1,2,0:0:0:0:
216,328,226900,6,0,B|388:361|360:196,1,233.999989288331,2|10,0:0|0:0,0:0:0:0:
306,2,227292,1,0,0:0:0:0:
255,117,227422,1,2,0:0:0:0:
426,70,227552,1,0,0:0:0:0:
342,108,227683,2,0,B|355:49|286:-20,1,116.999994644165,10|2,0:0|0:0,0:0:0:0:
46,19,227944,6,0,B|-68:148|115:220,1,233.999989288331,2|10,0:0|0:0,0:0:0:0:
393,247,228335,5,0,0:0:0:0:
393,247,228400,1,0,0:0:0:0:
393,247,228466,2,0,B|465:248|498:161,1,116.999994644165,2|2,0:0|0:0,0:0:0:0:
143,36,228726,2,0,B|106:97|164:169,1,116.999994644165,10|2,0:0|0:0,0:0:0:0:
237,374,228987,6,0,B|342:270|248:121,1,233.999989288331,2|10,0:0|0:0,0:0:0:0:
3,227,229379,5,0,0:0:0:0:
3,227,229444,1,0,0:0:0:0:
3,227,229509,1,0,0:0:0:0:
137,307,229639,1,2,0:0:0:0:
148,146,229770,1,8,0:0:0:0:
3,227,229900,1,0,0:0:0:0:
137,307,230031,6,0,B|202:318|237:271|237:271|240:246|240:246|285:188|363:210,1,233.999989288331,6|10,0:0|0:0,0:0:0:0:
457,12,230422,1,0,0:0:0:0:
441,139,230552,1,0,0:0:0:0:
347,51,230683,1,2,0:0:0:0:
322,203,230813,6,0,B|315:282|394:342,1,116.999994644165,10|0,0:0|0:0,0:0:0:0:
223,102,231074,2,0,B|111:181|142:346,1,233.999989288331,6|10,0:0|0:0,0:0:0:0:
170,0,231466,2,0,B|41:-12|-2:160,1,233.999989288331,2|2,0:0|0:0,0:0:0:0:
322,203,231857,2,0,B|405:204|426:116,1,116.999994644165,10|2,0:0|0:0,0:0:0:0:
96,183,232118,6,0,B|86:316|215:387,2,233.999989288331,6|10|2,0:0|0:0|0:0,0:0:0:0:
253,52,232770,1,0,0:0:0:0:
52,26,232900,1,8,0:0:0:0:
184,199,233031,1,0,0:0:0:0:
184,199,233096,1,0,0:0:0:0:
184,199,233161,1,10,0:0:0:0:
339,1,233292,6,0,B|372:70|312:125,1,116.999994644165,8|8,0:0|0:0,0:0:0:0:
65,314,233552,2,0,B|173:188|322:266,1,233.999989288331,10|0,0:0|0:0,0:0:0:0:
468,340,233944,2,0,B|414:380|339:317,1,116.999994644165,2|0,0:0|0:0,0:0:0:0:
52,26,234205,6,2,B|273:53|109:260|420:261|420:261|387:142|320:145,1,584.999973220826,6|0,0:0|0:0,0:0:0:0:
367,162,234987,1,2,0:0:0:0:
319,318,235118,1,0,0:0:0:0:
492,309,235248,2,0,B|526:250|470:162,1,116.999994644165,6|2,0:0|0:0,0:0:0:0:
286,0,235509,2,0,B|320:58|424:54,1,116.999994644165,8|0,0:0|0:0,0:0:0:0:
319,318,235770,2,0,B|387:317|435:225,1,116.999994644165,2|0,0:0|0:0,0:0:0:0:
286,0,236031,2,0,B|251:58|307:146,1,116.999994644165,8|0,0:0|0:0,0:0:0:0:
93,222,236292,5,6,0:0:0:0:
256,192,236422,12,0,239683,0:0:0:0:
114,106,239813,6,0,B|231:3|341:98,1,233.999989288331,2|0,0:0|0:0,0:0:0:0:
273,362,240205,2,0,B|212:320|229:249,1,116.999994644165,8|0,0:0|0:0,0:0:0:0:
418,49,240466,5,6,0:0:0:0:
256,192,240596,12,0,243335,0:0:0:0:
6,32,243466,5,0,0:0:0:0:
6,32,243531,1,0,0:0:0:0:
6,32,243596,1,4,0:0:0:0:
41,128,243726,1,0,0:0:0:0:
109,43,243857,1,2,0:0:0:0:
273,88,243987,6,0,B|197:76|160:186,1,116.999994644165,2|0,0:0|0:0,0:0:0:0:
262,177,244248,1,2,0:0:0:0:
143,316,244379,6,0,L|79:306,1,58.4999973220826,8|0,0:0|0:0,0:0:0:0:
96,229,244509,2,0,L|153:238,1,58.4999973220826
229,308,244639,1,0,0:0:0:0:
308,284,244770,5,0,0:0:0:0:
308,284,244835,1,0,0:0:0:0:
308,284,244900,2,0,B|381:283|421:362,1,116.999994644165,8|0,0:0|0:0,0:0:0:0:
403,216,245161,1,0,0:0:0:0:
357,118,245292,2,0,B|321:181|232:176,1,116.999994644165,2|0,3:0|0:0,0:0:0:0:
403,216,245552,1,0,0:0:0:0:
512,266,245683,2,0,B|474:203|523:129,1,116.999994644165,2|0,3:0|0:0,0:0:0:0:
403,216,245944,1,0,0:0:0:0:
273,88,246074,5,2,3:0:0:0:
273,88,246139,1,0,0:0:0:0:
273,88,246205,2,0,L|141:75,1,116.999994644165
106,312,246466,2,0,B|250:326|264:149,1,233.999989288331,2|0,3:0|0:0,0:0:0:0:
366,169,246857,5,0,0:0:0:0:
366,169,246922,1,0,0:0:0:0:
366,169,246987,2,0,B|449:133|408:47,1,116.999994644165,2|0,3:0|0:0,0:0:0:0:
316,245,247248,1,0,0:0:0:0:
369,313,247379,2,0,B|441:366|495:288,1,116.999994644165,2|0,3:0|0:0,0:0:0:0:
412,236,247639,1,0,0:0:0:0:
260,175,247770,2,0,B|177:139|218:53,1,116.999994644165,2|0,3:0|0:0,0:0:0:0:
316,245,248031,1,0,0:0:0:0:
258,311,248161,2,0,B|185:364|131:286,2,116.999994644165,2|0|0,0:0|0:0|0:0,0:0:0:0:
208,245,248552,1,8,0:0:0:0:
36,355,248683,1,0,0:0:0:0:
36,355,248748,1,0,0:0:0:0:
36,355,248813,1,4,0:0:0:0:
36,355,249074,6,0,B|-8:227|87:101,1,233.999989288331,8|0,0:0|0:0,0:0:0:0:
169,97,249466,1,2,3:0:0:0:
143,188,249596,1,0,0:0:0:0:
98,36,249726,1,0,0:0:0:0:
249,105,249857,6,0,L|372:139,1,116.999994644165,2|0,3:0|0:0,0:0:0:0:
428,82,250118,1,0,0:0:0:0:
430,212,250248,1,2,3:0:0:0:
430,212,250313,1,0,0:0:0:0:
430,212,250379,2,0,L|307:246,1,116.999994644165
246,325,250639,2,0,L|369:359,1,116.999994644165,2|0,3:0|0:0,0:0:0:0:
437,308,250900,1,0,0:0:0:0:
220,240,251031,5,0,0:0:0:0:
220,240,251096,1,0,0:0:0:0:
220,240,251161,2,0,B|103:229|26:382,1,233.999989288331,2|0,3:0|0:0,0:0:0:0:
313,220,251552,2,0,B|381:124|287:-19,1,233.999989288331,2|0,3:0|0:0,0:0:0:0:
299,0,251879,1,0,0:0:0:0:
299,0,251944,1,4,0:0:0:0:
236,119,252074,1,0,0:0:0:0:
313,220,252205,1,2,0:0:0:0:
440,195,252335,2,0,B|495:145|473:50,1,116.999994644165,2|0,0:0|0:0,0:0:0:0:
105,165,252596,6,0,L|104:243,5,58.4999973220826,2|0|0|0|0|0,0:0|0:0|0:0|0:0|0:0|0:0,0:0:0:0:
131,258,252987,6,0,B|208:237|255:312,1,116.999994644165,2|0,0:0|0:0,0:0:0:0:
171,338,253248,1,8,0:0:0:0:
21,213,253379,6,0,B|-18:146|64:88,1,116.999994644165,2|0,0:0|0:0,0:0:0:0:
105,165,253639,1,0,0:0:0:0:
327,78,253770,6,0,B|281:149|171:108,1,116.999994644165,8|0,0:0|0:0,0:0:0:0:
247,32,254031,1,0,0:0:0:0:
407,172,254161,6,0,B|400:100|491:74,2,116.999994644165,2|8|2,0:0|0:0|0:0,0:0:0:0:
328,370,254552,2,0,B|405:383|441:321,1,116.999994644165,2|2,0:0|0:0,0:0:0:0:
512,136,254813,2,0,B|435:123|399:185,1,116.999994644165,10|2,0:0|0:0,0:0:0:0:
171,334,255074,6,0,B|93:360|50:272,1,116.999994644165,10|2,0:0|0:0,0:0:0:0:
142,245,255335,1,8,0:0:0:0:
317,146,255466,6,0,B|333:65|431:72,1,116.999994644165,2|10,0:0|0:0,0:0:0:0:
407,172,255726,1,0,0:0:0:0:
405,334,255857,6,0,B|474:377|522:310,1,116.999994644165,10|2,0:0|0:0,0:0:0:0:
456,269,256118,1,8,0:0:0:0:
211,185,256248,2,0,B|168:124|74:167,2,116.999994644165,2|10|2,0:0|0:0|0:0,0:0:0:0:
7,131,256639,6,0,B|-6:214|75:244,1,116.999994644165,10|2,0:0|0:0,0:0:0:0:
355,311,256900,2,0,B|438:324|468:243,1,116.999994644165,10|2,0:0|0:0,0:0:0:0:
455,268,257096,1,8,0:0:0:0:
459,271,257161,1,0,0:0:0:0:
476,94,257292,2,0,B|421:23|345:44,1,116.999994644165,0|8,0:0|0:0,0:0:0:0:
372,222,257552,1,0,0:0:0:0:
292,0,257683,2,0,B|211:1|184:79,1,116.999994644165,0|2,0:0|0:0,0:0:0:0:
281,308,257944,1,8,0:0:0:0:
111,67,258074,2,0,B|85:147|144:191,1,116.999994644165,0|8,0:0|0:0,0:0:0:0:
417,375,258335,1,2,0:0:0:0:
94,261,258466,2,0,B|166:310|239:248,1,116.999994644165
204,271,258661,1,0,0:0:0:0:
204,271,258726,2,0,B|209:175|287:152,1,116.999994644165,2|2,0:0|0:0,0:0:0:0:
473,22,258987,1,8,0:0:0:0:
424,149,259118,6,0,L|369:118,1,58.4999973220826
291,75,259248,1,10,0:0:0:0:
509,116,259379,6,0,B|539:201|463:251,1,116.999994644165,10|0,0:0|0:0,0:0:0:0:
299,316,259639,1,10,0:0:0:0:
156,162,259770,1,10,0:0:0:0:
156,162,259835,1,8,0:0:0:0:
156,162,259900,1,0,0:0:0:0:
349,8,260031,5,10,0:0:0:0:
349,8,260161,1,10,0:0:0:0:
349,8,260422,5,0,0:0:0:0:
266,153,260552,1,0,0:0:0:0:
375,88,260683,1,0,0:0:0:0:
291,75,260813,1,0,0:0:0:0:
380,172,260944,1,0,0:0:0:0:
297,232,261074,1,8,0:0:0:0:
315,306,261205,1,0,0:0:0:0:
296,379,261335,6,0,L|306:306,2,58.4999973220826
296,379,261596,5,4,0:0:0:0:
256,192,261726,12,0,264466,0:0:0:0:
