osu file format v14

[General]
AudioFilename: audio.mp3
AudioLeadIn: 0
PreviewTime: 90074
Countdown: 0
SampleSet: Normal
StackLeniency: 0.5
Mode: 0
LetterboxInBreaks: 0
WidescreenStoryboard: 1

[Editor]
Bookmarks: 90277,115842
DistanceSpacing: 0.8
BeatDivisor: 4
GridSize: 4
TimelineZoom: 1

[Metadata]
Title:Eiyuu no Tsurugi
TitleUnicode:英雄の剣
Artist:Shoichiro Sakamoto
ArtistUnicode:坂本 昌一郎
Creator:audinor
Version:Another
Source:
Tags:megalomachia sound_sepher instrumental jun.a 坂本 昌一郎 electronic cm78 eiyū ken hero's sword gensou toshokan 幻葬図書館
BeatmapID:4468957
BeatmapSetID:1864097

[Difficulty]
HPDrainRate:7
CircleSize:4
OverallDifficulty:9
ApproachRate:9
SliderMultiplier:1.6
SliderTickRate:1

[Events]
//Background and Video events
0,0,"uZddP0LH9ZOG.jpg",0,0
//Break Periods
//Storyboard Layer 0 (Background)
//Storyboard Layer 1 (Fail)
//Storyboard Layer 2 (Pass)
//Storyboard Layer 3 (Foreground)
//Storyboard Layer 4 (Overlay)
//Storyboard Sound Samples

[TimingPoints]
2553,260.869565217391,4,1,1,60,1,0
31770,-90.9090909090909,4,1,1,70,0,0
33857,-90.9090909090909,4,1,1,80,0,0
37118,-90.9090909090909,4,1,1,65,0,0
38292,-100,4,1,1,60,0,0
87596,-76.9230769230769,4,1,1,60,0,0
88118,-90.9090909090909,4,1,1,60,0,0
89292,-100,4,1,1,60,0,0
90205,-83.3333333333333,4,1,1,75,0,1
108987,-90.9090909090909,4,1,1,75,0,1
112509,-90.9090909090909,4,1,1,60,0,0
113161,-90.9090909090909,4,1,1,60,0,1
117335,-100,4,1,1,60,0,0
119422,-100,4,1,1,70,0,0
121509,-83.3333333333333,4,1,1,80,0,0
125683,-83.3333333333333,4,1,1,60,0,0
141987,-58.8235294117647,4,1,1,60,0,0
142379,-83.3333333333333,4,1,1,60,0,0
153726,-76.9230769230769,4,1,1,60,0,0
154118,-100,4,1,1,60,0,0
158552,-66.6666666666667,4,1,1,60,0,0
159074,-100,4,1,1,60,0,0
161161,-76.9230769230769,4,1,1,75,0,1
180205,-83.3333333333333,4,1,1,70,0,0
196118,-62.5,4,1,1,70,0,0
196639,-71.4285714285714,4,1,1,70,0,0
197683,-66.6666666666667,4,1,1,60,0,0
198726,-76.9230769230769,4,1,1,75,0,1
215422,-76.9230769230769,4,1,1,60,0,1
217509,-76.9230769230769,4,1,1,75,0,1
236552,-76.9230769230769,4,1,1,60,0,1
239944,-76.9230769230769,4,1,1,60,0,0
240466,-76.9230769230769,4,1,1,60,0,1
243335,-76.9230769230769,4,1,1,60,0,0
255074,-76.9230769230769,4,1,1,70,0,0
257161,-71.4285714285714,4,1,1,80,0,0

[Colours]
Combo1 : 255,128,64
Combo2 : 223,223,223
Combo3 : 253,187,66

[HitObjects]
75,23,2553,6,0,B|116:122|224:68,1,160,2|0,0:0|0:0,0:0:0:0:
274,13,2944,1,2,0:0:0:0:
274,13,3205,1,0,0:0:0:0:
274,13,3466,1,0,0:0:0:0:
274,13,3726,1,0,0:0:0:0:
350,52,3857,2,0,B|386:100|359:159,1,80
287,105,4118,1,0,0:0:0:0:
453,140,4248,1,0,0:0:0:0:
453,140,4313,1,0,0:0:0:0:
453,140,4379,2,0,B|420:233|318:212,1,160,0|2,0:0|0:0,0:0:0:0:
328,213,4900,5,0,0:0:0:0:
263,265,5031,2,0,B|179:255|202:328|76:292,2,160,2|0|0,0:0|0:0|0:0,0:0:0:0:
263,265,5813,1,0,0:0:0:0:
324,331,5944,2,0,B|408:321|385:394|511:358,1,160
244,369,6335,1,0,0:0:0:0:
244,369,6400,1,0,0:0:0:0:
244,369,6466,2,0,B|191:384|121:294|185:241,1,160,0|2,0:0|0:0,0:0:0:0:
341,35,6987,5,0,0:0:0:0:
365,135,7118,1,2,0:0:0:0:
365,135,7379,1,0,0:0:0:0:
365,135,7639,1,0,0:0:0:0:
365,135,7900,1,0,0:0:0:0:
291,196,8031,2,0,B|256:164|191:177,1,80
349,278,8292,1,0,0:0:0:0:
253,312,8422,1,0,0:0:0:0:
253,312,8487,1,0,0:0:0:0:
253,312,8552,2,0,B|151:337|97:236,1,160,0|2,0:0|0:0,0:0:0:0:
95,182,8944,2,0,L|51:167,3,40
41,137,9205,6,0,L|142:173,1,80,2|0,0:0|0:0,0:0:0:0:
224,12,9466,2,0,L|243:117,1,80,10|0,0:0|0:0,0:0:0:0:
414,100,9726,2,0,L|332:169,1,80,6|0,0:0|0:0,0:0:0:0:
140,80,9987,5,0,0:0:0:0:
140,80,10118,2,0,B|80:56|76:-8,1,80,2|0,0:0|0:0,0:0:0:0:
327,232,10379,1,2,0:0:0:0:
314,75,10509,1,0,0:0:0:0:
314,75,10574,1,0,0:0:0:0:
314,75,10639,2,0,B|386:17|386:17|479:17,4,160,2|4|0|0|0,0:0|0:0|0:0|0:0|0:0,0:0:0:0:
444,298,11944,5,4,0:0:0:0:
372,356,12074,1,0,0:0:0:0:
317,282,12205,1,4,0:0:0:0:
386,223,12335,1,0,0:0:0:0:
444,298,12466,1,0,3:0:0:0:
372,356,12596,2,0,B|328:385|267:361,1,80,0|8,0:0|0:0,0:0:0:0:
221,321,12857,1,0,0:0:0:0:
109,380,12987,6,0,B|17:352|40:229,2,160,0|8|0,0:0|0:0|0:0,0:0:0:0:
148,195,13639,2,0,B|240:223|217:346,1,160
36,254,14031,2,0,B|66:202|34:141,1,80
9,100,14292,1,8,0:0:0:0:
75,41,14422,1,0,0:0:0:0:
75,41,14487,1,0,0:0:0:0:
75,41,14552,1,0,0:0:0:0:
114,114,14683,1,0,0:0:0:0:
191,57,14813,2,0,B|243:87|304:55,1,80,8|0,0:0|0:0,0:0:0:0:
312,144,15074,1,0,0:0:0:0:
260,281,15205,5,0,0:0:0:0:
260,281,15270,1,0,0:0:0:0:
260,281,15335,2,0,B|145:229|237:142,1,160,8|0,0:0|0:0,0:0:0:0:
396,124,15726,1,0,0:0:0:0:
396,124,15857,2,0,B|431:175|411:233,1,80,8|0,0:0|0:0,0:0:0:0:
248,362,16118,6,0,B|148:388|86:291,1,160,0|8,0:0|0:0,0:0:0:0:
356,270,16509,2,0,B|402:263|402:263|431:282|431:282|466:280|466:280|506:312,1,160
252,78,16900,6,0,B|352:52|414:149,1,160,8|4,0:0|0:0,0:0:0:0:
144,182,17422,2,0,B|98:189|98:189|69:170|69:170|33:171|33:171|-6:140,1,160,8|0,0:0|0:0,0:0:0:0:
219,190,17813,2,0,B|216:259|147:264,1,80,0|8,0:0|0:0,0:0:0:0:
102,268,18074,1,0,0:0:0:0:
231,357,18205,2,0,B|167:377|137:326,1,80
102,268,18466,1,8,0:0:0:0:
144,182,18596,1,0,0:0:0:0:
144,182,18661,1,0,0:0:0:0:
144,182,18726,2,0,B|207:161|237:212,1,80
276,295,18987,2,0,B|262:360|203:361,1,80,8|0,0:0|0:0,0:0:0:0:
48,159,19248,6,0,L|48:53,1,80
48,79,19444,1,0,0:0:0:0:
48,79,19509,2,0,B|138:41|134:125|231:58,1,160,8|0,0:0|0:0,0:0:0:0:
262,14,19900,2,0,B|317:-16|360:37,1,80
378,88,20161,1,0,0:0:0:0:
378,88,20226,1,0,0:0:0:0:
378,88,20292,1,4,0:0:0:0:
287,157,20422,2,0,L|292:101,2,40,0|0|8,0:0|0:0|0:0,0:0:0:0:
460,30,20683,2,0,B|536:110|432:174,1,160,4|4,0:0|0:0,0:0:0:0:
237,238,21074,1,8,0:0:0:0:
146,235,21205,1,8,0:0:0:0:
85,172,21335,2,0,B|81:111|135:81,1,80
237,238,21596,6,0,B|240:343|114:341,1,160,8|0,0:0|0:0,0:0:0:0:
287,157,21987,2,0,B|194:107|259:-1,1,160
329,238,22379,2,0,B|418:182|479:293,1,160,0|8,0:0|0:0,0:0:0:0:
340,323,22770,1,0,0:0:0:0:
340,323,22835,1,0,0:0:0:0:
340,323,22900,2,0,B|379:359|451:332,1,80
466,271,23161,1,8,0:0:0:0:
436,190,23292,1,0,0:0:0:0:
294,153,23422,5,0,0:0:0:0:
235,213,23552,1,0,0:0:0:0:
235,213,23618,1,0,0:0:0:0:
235,213,23683,2,0,B|134:237|97:127,1,160,8|0,0:0|0:0,0:0:0:0:
165,84,24074,1,0,0:0:0:0:
21,169,24205,2,0,B|5:120|60:76,1,80,8|0,0:0|0:0,0:0:0:0:
183,10,24466,2,0,B|199:59|144:103,1,80
101,25,24726,1,8,0:0:0:0:
271,2,24857,6,0,B|360:32|372:155,1,160
260,202,25248,2,0,B|171:172|159:49,1,160,8|4,0:0|0:0,0:0:0:0:
164,83,25770,2,0,B|253:113|265:236,1,160,8|0,0:0|0:0,0:0:0:0:
257,286,26161,1,0,0:0:0:0:
188,328,26292,2,0,B|133:334|98:273,1,80,8|0,0:0|0:0,0:0:0:0:
257,286,26552,1,0,0:0:0:0:
337,308,26683,2,0,B|369:352|334:413,1,80,0|8,0:0|0:0,0:0:0:0:
184,244,26944,1,0,0:0:0:0:
184,244,27009,1,0,0:0:0:0:
184,244,27074,2,0,B|151:199|186:138,1,80
293,145,27335,2,0,B|325:189|290:250,1,80,8|0,0:0|0:0,0:0:0:0:
221,96,27596,6,0,B|295:23|392:101,1,160,0|8,0:0|0:0,0:0:0:0:
468,186,27987,1,0,0:0:0:0:
386,165,28118,1,0,0:0:0:0:
466,110,28248,2,0,B|539:184|471:282,1,160
486,256,28574,1,0,0:0:0:0:
486,256,28639,1,4,0:0:0:0:
319,225,28770,1,0,0:0:0:0:
393,305,28900,1,8,0:0:0:0:
340,363,29031,6,0,B|381:405|446:370,1,80,4|0,0:0|0:0,0:0:0:0:
187,267,29292,6,0,L|123:258,5,40,0|0|8|0|8|0,0:0|0:0|0:0|0:0|0:0|0:0,0:0:0:0:
97,251,29683,2,0,B|73:158|168:96,1,160,2|8,0:0|0:0,0:0:0:0:
214,164,30074,2,0,B|269:85|378:118,1,160,2|0,0:0|0:0,0:0:0:0:
354,197,30466,2,0,B|449:189|494:293,1,160,8|0,0:0|0:0,0:0:0:0:
226,326,30857,1,2,0:0:0:0:
226,326,30922,1,0,0:0:0:0:
226,326,30987,2,0,B|130:333|85:229,1,160,8|2,0:0|0:0,0:0:0:0:
96,250,31509,1,10,0:0:0:0:
96,250,31770,6,0,B|67:203|121:142,1,88.000002685547,2|0,0:0|0:0,0:0:0:0:
172,221,32031,1,8,0:0:0:0:
47,99,32161,2,0,B|102:-2|220:42,1,176.000005371094,2|0,0:0|0:0,0:0:0:0:
148,107,32552,1,8,0:0:0:0:
301,127,32683,2,0,B|259:177|187:117,1,88.000002685547
330,51,32944,1,2,0:0:0:0:
330,51,33009,1,0,0:0:0:0:
330,51,33074,2,0,B|431:106|387:224,1,176.000005371094,8|2,0:0|0:0,0:0:0:0:
375,280,33466,1,0,0:0:0:0:
301,127,33596,2,0,B|280:70|366:34,1,88.000002685547,10|0,0:0|0:0,0:0:0:0:
504,196,33857,6,0,B|524:302|440:360,1,176.000005371094,12|8,0:0|0:0,0:0:0:0:
223,305,34248,2,0,B|159:290|159:290|131:271|131:271|33:247,1,176.000005371094,0|2,0:0|0:0,0:0:0:0:
504,196,34639,6,0,B|524:302|440:360,1,176.000005371094,8|8,0:0|0:0,0:0:0:0:
249,124,35031,2,0,B|185:109|185:109|157:90|157:90|59:66,1,176.000005371094
413,252,35422,2,0,L|306:226,1,88.000002685547,8|0,0:0|0:0,0:0:0:0:
109,178,35683,1,8,0:0:0:0:
210,220,35813,6,0,B|188:248|137:232,1,44.0000013427735
24,185,35944,1,8,0:0:0:0:
82,71,36074,2,0,B|170:55|211:133,1,132.00000402832,2|0,0:0|0:0,0:0:0:0:
198,113,36335,1,2,0:0:0:0:
231,342,36466,2,0,B|173:273|220:199,1,132.00000402832,2|0,0:0|0:0,0:0:0:0:
209,219,36727,1,8,0:0:0:0:
381,84,36857,2,0,B|350:168|262:164,1,132.00000402832,4|0,0:0|0:0,0:0:0:0:
285,164,37118,5,0,0:0:0:0:
231,170,37248,1,0,0:0:0:0:
299,251,37379,5,0,0:0:0:0:
271,85,37509,1,0,0:0:0:0:
271,85,37639,1,0,0:0:0:0:
139,183,37770,1,8,0:0:0:0:
139,183,37900,1,8,0:0:0:0:
139,183,38031,1,4,0:0:0:0:
139,183,38292,6,0,B|126:236|126:236|167:291|232:278,1,160,8|0,0:0|0:0,0:0:0:0:
282,337,38683,2,0,B|335:328|368:372,1,80,0|8,0:0|0:0,0:0:0:0:
149,348,38944,6,0,B|57:403|13:272,1,160
28,196,39335,1,8,0:0:0:0:
28,196,39596,5,0,0:0:0:0:
99,130,39726,1,0,0:0:0:0:
182,171,39857,2,0,B|199:237|153:256,1,80,8|0,0:0|0:0,0:0:0:0:
99,130,40118,6,0,B|164:36|258:108,1,160,0|8,0:0|0:0,0:0:0:0:
308,147,40509,1,0,0:0:0:0:
322,60,40639,1,0,0:0:0:0:
236,93,40770,1,0,0:0:0:0:
226,183,40900,1,8,0:0:0:0:
290,248,41031,1,0,0:0:0:0:
382,209,41161,2,0,B|418:164|386:109,1,80
226,183,41422,2,0,B|158:259|241:343,2,160,8|0|8,0:0|0:0|0:0,0:0:0:0:
70,325,42074,1,8,0:0:0:0:
70,325,42139,1,8,0:0:0:0:
70,325,42205,2,0,B|138:249|55:165,1,160,4|8,0:0|0:0,0:0:0:0:
2,34,42596,6,0,B|-1:92|68:110,1,80
121,115,42857,1,0,0:0:0:0:
158,50,42987,2,0,B|106:76|125:145,1,80,8|0,0:0|0:0,0:0:0:0:
277,142,43248,2,0,B|228:110|178:161,2,80,4|0|8,0:0|0:0|0:0,0:0:0:0:
158,50,43639,6,0,B|256:5|330:67,1,160
355,135,44031,1,8,0:0:0:0:
355,135,44292,6,0,B|255:185|177:125,1,160,4|8,0:0|0:0,0:0:0:0:
238,234,44683,1,0,0:0:0:0:
141,222,44813,2,0,B|93:193|98:137,2,80,0|0|8,0:0|0:0|0:0,0:0:0:0:
201,140,45205,1,0,0:0:0:0:
69,275,45335,2,0,B|21:246|26:190,2,80,0|0|8,0:0|0:0|0:0,0:0:0:0:
294,304,45726,2,0,B|384:293|401:183,1,160
131,345,46118,5,8,0:0:0:0:
210,357,46248,1,8,0:0:0:0:
210,357,46313,1,8,0:0:0:0:
210,357,46379,1,0,0:0:0:0:
201,140,46639,6,0,B|180:40|64:42,1,160,8|0,0:0|0:0,0:0:0:0:
201,140,47031,2,0,B|222:240|338:238,1,160
312,237,47552,1,0,0:0:0:0:
289,90,47683,2,0,B|285:139|338:162,1,80,8|0,0:0|0:0,0:0:0:0:
370,92,47944,2,0,B|365:-8|230:13,1,160,0|8,0:0|0:0,0:0:0:0:
193,59,48335,5,0,0:0:0:0:
193,59,48400,1,0,0:0:0:0:
193,59,48466,2,0,B|121:76|118:6|29:27,1,160,0|8,0:0|0:0,0:0:0:0:
74,110,48857,2,0,B|12:133|-16:78,1,80
124,192,49118,2,0,B|112:257|51:253,1,80,0|8,0:0|0:0,0:0:0:0:
214,169,49379,1,0,0:0:0:0:
214,169,49509,2,0,B|259:227|211:350,1,160,0|8,0:0|0:0,0:0:0:0:
214,169,50031,2,0,B|169:111|217:-12,1,160,0|8,0:0|0:0,0:0:0:0:
323,146,50422,5,8,0:0:0:0:
323,146,50487,1,8,0:0:0:0:
323,146,50552,2,0,B|412:105|473:203,1,160,4|8,0:0|0:0,0:0:0:0:
140,231,50944,2,0,B|51:272|-10:174,1,160,2|0,0:0|0:0,0:0:0:0:
214,169,51335,2,0,L|266:264,1,80,10|0,0:0|0:0,0:0:0:0:
214,169,51596,2,0,L|162:74,1,80,6|0,0:0|0:0,0:0:0:0:
104,63,51857,1,8,0:0:0:0:
168,15,51987,1,0,0:0:0:0:
168,15,52052,1,0,0:0:0:0:
168,15,52118,1,0,0:0:0:0:
244,33,52248,1,0,0:0:0:0:
317,5,52379,2,0,B|373:23|379:77,1,80,8|0,0:0|0:0,0:0:0:0:
374,56,52639,6,0,B|377:155|328:121|334:235,2,160,6|8|0,0:0|0:0|0:0,0:0:0:0:
268,119,53292,1,0,0:0:0:0:
247,234,53422,2,0,B|261:302|308:319,1,80,8|0,0:0|0:0,0:0:0:0:
433,269,53683,1,8,0:0:0:0:
454,151,53813,2,0,L|403:140,1,40,8|8,0:0|0:0,0:0:0:0:
333,208,53944,1,0,0:0:0:0:
377,333,54074,2,0,B|491:387|514:262,1,160,4|0,0:0|0:0,0:0:0:0:
247,234,54466,2,0,B|133:180|110:305,1,160,8|2,0:0|0:0,0:0:0:0:
117,275,54987,6,0,B|231:329|254:204,1,160,8|0,0:0|0:0,0:0:0:0:
245,148,55379,2,0,B|232:86|160:95,1,80,0|8,0:0|0:0,0:0:0:0:
89,121,55639,2,0,B|41:163|85:221,1,80
213,317,55900,1,0,0:0:0:0:
319,289,56031,2,0,B|384:223|340:129,1,160,8|0,0:0|0:0,0:0:0:0:
310,63,56422,1,0,0:0:0:0:
412,17,56552,2,0,B|435:79|493:91,1,80,8|0,0:0|0:0,0:0:0:0:
310,63,56813,6,0,B|268:-21|146:10,1,160,0|8,0:0|0:0,0:0:0:0:
192,94,57205,1,0,0:0:0:0:
192,94,57335,1,0,0:0:0:0:
105,60,57466,1,0,0:0:0:0:
122,150,57596,2,0,B|159:192|223:178,1,80,8|0,0:0|0:0,0:0:0:0:
391,167,57857,6,0,B|436:157|436:157|398:208|303:197,1,160,0|8,0:0|0:0,0:0:0:0:
270,156,58248,1,0,0:0:0:0:
214,265,58379,2,0,B|280:257|311:291,1,80
31,220,58639,6,0,L|28:279,3,40,8|0|8|8,0:0|0:0|0:0|0:0,0:0:0:0:
27,305,58900,6,0,B|126:319|130:189,1,160,4|8,0:0|0:0,0:0:0:0:
97,75,59292,2,0,B|35:153|145:222,1,160
260,251,59683,6,0,B|222:158|108:219,1,160,8|4,0:0|0:0,0:0:0:0:
126,208,60205,1,8,0:0:0:0:
126,208,60335,2,0,B|163:300|277:239,1,160
359,148,60726,1,8,0:0:0:0:
288,57,60857,1,0,0:0:0:0:
288,57,60922,1,0,0:0:0:0:
288,57,60987,2,0,B|233:25|185:42,1,80,4|0,0:0|0:0,0:0:0:0:
258,248,61248,2,0,B|313:280|361:263,1,80,8|0,0:0|0:0,0:0:0:0:
156,142,61509,6,0,B|60:126|-17:201,1,160,0|8,0:0|0:0,0:0:0:0:
359,148,61900,1,0,0:0:0:0:
359,148,62031,2,0,B|455:164|532:89,1,160,0|8,0:0|0:0,0:0:0:0:
253,154,62422,2,0,B|264:236|200:229|216:320,1,160
280,366,62813,1,8,0:0:0:0:
332,288,62944,1,8,0:0:0:0:
332,288,63009,1,8,0:0:0:0:
332,288,63074,2,0,B|319:206|260:230|250:138,1,160,4|8,0:0|0:0,0:0:0:0:
252,153,63596,5,0,0:0:0:0:
176,107,63726,2,0,B|246:23|336:108,1,160
316,91,64248,1,0,0:0:0:0:
332,199,64379,2,0,B|262:283|172:198,1,160,8|0,0:0|0:0,0:0:0:0:
191,214,64770,1,0,0:0:0:0:
107,171,64900,2,0,B|63:161|0:191,1,80,8|0,0:0|0:0,0:0:0:0:
15,318,65161,6,0,B|91:385|158:292,1,160,0|8,0:0|0:0,0:0:0:0:
80,263,65552,1,0,0:0:0:0:
151,300,65683,2,0,B|186:351|250:312,1,80
337,175,65944,2,0,B|275:179|277:254,1,80,8|0,0:0|0:0,0:0:0:0:
350,384,66205,2,0,B|376:328|310:292,1,80
225,85,66466,6,0,B|199:195|306:233,1,160,8|0,0:0|0:0,0:0:0:0:
436,164,66857,1,0,0:0:0:0:
436,164,66922,1,0,0:0:0:0:
436,164,66987,2,0,B|462:54|355:16,1,160,8|4,0:0|0:0,0:0:0:0:
146,31,67509,5,8,0:0:0:0:
146,31,67639,2,0,B|55:17|102:91|-19:70,1,160
111,213,68031,2,0,B|157:168|123:105,1,80,8|0,0:0|0:0,0:0:0:0:
56,153,68292,1,4,0:0:0:0:
30,230,68422,1,0,0:0:0:0:
85,292,68552,1,8,0:0:0:0:
172,288,68683,1,0,3:0:0:0:
170,280,68748,1,0,0:0:0:0:
169,273,68813,2,0,B|216:270|247:285,1,80
343,111,69074,2,0,B|296:114|265:99,1,80,8|0,0:0|0:0,0:0:0:0:
256,192,69335,5,4,0:0:0:0:
256,192,69596,1,0,0:0:0:0:
375,213,69726,2,0,B|472:162|412:56,1,160,2|0,0:0|0:0,0:0:0:0:
314,292,70118,2,0,B|276:322|305:397,1,80,8|0,0:0|0:0,0:0:0:0:
256,192,70379,2,0,B|211:174|160:236,1,80,2|0,0:0|0:0,0:0:0:0:
343,111,70639,2,0,B|336:63|256:50,1,80,10|0,0:0|0:0,0:0:0:0:
122,167,70900,1,0,0:0:0:0:
122,167,70966,1,0,0:0:0:0:
122,167,71031,1,2,0:0:0:0:
49,199,71161,1,8,0:0:0:0:
49,199,71422,6,0,B|44:254|44:254|110:260|131:317,1,160,2|8,0:0|0:0,0:0:0:0:
266,232,71813,2,0,B|271:177|271:177|205:171|184:114,1,160,2|0,0:0|0:0,0:0:0:0:
213,297,72205,2,0,B|253:339|311:303,1,80,10|0,0:0|0:0,0:0:0:0:
109,141,72466,2,0,B|69:99|11:135,2,80,2|0|8,0:0|0:0|0:0,0:0:0:0:
209,44,72857,2,0,B|287:18|288:99|380:52,1,160,2|0,0:0|0:0,0:0:0:0:
431,121,73248,2,0,B|457:174|338:222|324:134,1,160,8|2,0:0|0:0,0:0:0:0:
482,338,73770,1,8,0:0:0:0:
379,366,73900,2,0,B|353:313|472:265|486:353,1,160,2|0,0:0|0:0,0:0:0:0:
280,265,74292,2,0,B|306:318|187:366|173:278,1,160,8|2,0:0|0:0,0:0:0:0:
177,293,74683,1,0,0:0:0:0:
100,248,74813,6,0,B|64:207|99:151,1,80,8|0,0:0|0:0,0:0:0:0:
204,157,75074,2,0,B|221:105|287:107,1,80,2|0,0:0|0:0,0:0:0:0:
332,188,75335,2,0,B|385:177|416:235,1,80,10|0,0:0|0:0,0:0:0:0:
332,188,75596,6,0,B|351:141|351:141|424:119|481:169,1,160,2|8,0:0|0:0,0:0:0:0:
498,289,75987,1,2,0:0:0:0:
498,289,76118,2,0,B|479:336|479:336|406:358|349:308,1,160,0|10,0:0|0:0,0:0:0:0:
307,267,76509,1,0,0:0:0:0:
227,289,76639,2,0,L|48:261,1,160,2|8,0:0|0:0,0:0:0:0:
178,201,77031,2,0,L|36:87,1,160,2|0,0:0|0:0,0:0:0:0:
237,150,77422,2,0,L|171:-19,1,160,8|2,0:0|0:0,0:0:0:0:
179,0,77813,2,0,B|238:5|262:59,1,80,0|8,0:0|0:0,0:0:0:0:
364,221,78074,2,0,B|282:242|232:141,1,160,2|0,0:0|0:0,0:0:0:0:
443,158,78466,2,0,B|502:163|526:217,1,80,10|2,0:0|0:0,0:0:0:0:
362,74,78726,2,0,B|339:155|226:148,1,160,2|8,0:0|0:0,0:0:0:0:
191,277,79118,1,0,0:0:0:0:
191,277,79183,1,0,0:0:0:0:
191,277,79248,2,0,B|132:272|108:218,1,80,2|2,0:0|0:0,0:0:0:0:
42,58,79509,2,0,B|101:63|125:117,1,80,8|8,0:0|0:0,0:0:0:0:
62,321,79770,6,0,B|-1:238|80:143,1,160,4|8,0:0|0:0,0:0:0:0:
252,312,80161,2,0,B|148:325|106:207,1,160,2|0,0:0|0:0,0:0:0:0:
348,144,80552,2,0,B|307:240|184:217,1,160,8|6,0:0|0:0,0:0:0:0:
211,131,80944,1,0,0:0:0:0:
286,83,81074,1,8,0:0:0:0:
209,41,81205,1,2,0:0:0:0:
209,41,81270,1,0,0:0:0:0:
209,41,81335,2,0,B|161:34|133:96,1,80
348,144,81596,2,0,B|396:151|424:89,1,80,8|0,0:0|0:0,0:0:0:0:
202,216,81857,2,0,L|177:254,2,40
277,180,82118,1,8,0:0:0:0:
313,271,82248,5,0,0:0:0:0:
313,271,82313,1,0,0:0:0:0:
313,271,82379,1,2,0:0:0:0:
221,330,82509,1,2,0:0:0:0:
112,278,82639,1,8,0:0:0:0:
95,151,82770,6,0,B|105:107|139:81|139:81|179:74|240:101,1,160,2|0,0:0|0:0,0:0:0:0:
112,278,83161,2,0,B|64:298|20:251,1,80,8|0,0:0|0:0,0:0:0:0:
277,180,83422,2,0,B|365:158|353:221|437:194,1,160,2|8,0:0|0:0,0:0:0:0:
473,102,83813,5,0,0:0:0:0:
473,102,83879,1,0,0:0:0:0:
473,102,83944,2,0,B|401:58|290:99,1,160,6|8,0:0|0:0,0:0:0:0:
305,258,84335,1,0,0:0:0:0:
218,246,84466,1,0,0:0:0:0:
305,258,84596,1,0,0:0:0:0:
218,246,84726,2,0,B|187:204|129:217,1,80,10|0,0:0|0:0,0:0:0:0:
338,351,84987,6,0,B|445:316|386:198,1,160,6|8,0:0|0:0,0:0:0:0:
130,125,85379,2,0,B|23:160|82:278,1,160,2|0,0:0|0:0,0:0:0:0:
168,328,85770,2,0,B|200:369|269:355,1,80,8|0,0:0|0:0,0:0:0:0:
316,137,86031,2,0,B|284:96|215:110,1,80,6|0,0:0|0:0,0:0:0:0:
181,206,86292,2,0,B|280:215|334:104,1,160,8|0,0:0|0:0,0:0:0:0:
355,53,86683,1,0,0:0:0:0:
433,99,86813,1,8,0:0:0:0:
408,182,86944,1,0,0:0:0:0:
486,221,87074,2,0,B|450:299|351:290,1,160,4|8,0:0|0:0,0:0:0:0:
176,343,87466,5,0,0:0:0:0:
176,343,87531,5,0,0:0:0:0:
176,343,87596,2,0,B|126:280|100:376|13:258,2,138.666660319011,2|2|2,0:0|0:0|0:0,0:0:0:0:
266,253,88118,5,8,0:0:0:0:
266,253,88248,1,0,0:0:0:0:
176,128,88379,2,0,B|165:198|216:231,1,88.000002685547,8|0,0:0|0:0,0:0:0:0:
326,194,88639,1,8,0:0:0:0:
326,194,88770,2,0,B|337:124|286:91,1,88.000002685547,8|0,0:0|0:0,0:0:0:0:
227,31,89031,1,4,0:0:0:0:
227,31,89292,6,0,L|155:15,2,40
308,110,89552,1,0,0:0:0:0:
193,211,89683,1,0,0:0:0:0:
266,253,89813,6,0,L|250:325,2,40
214,355,90074,1,0,0:0:0:0:
291,383,90205,6,0,B|412:393|460:251,1,191.999994140625,2|8,0:0|0:0,0:0:0:0:
193,211,90596,2,0,B|72:201|24:343,1,191.999994140625,2|0,0:0|0:0,0:0:0:0:
369,249,90987,2,0,B|403:194|370:136,1,95.9999970703126,8|0,0:0|0:0,0:0:0:0:
212,32,91248,6,0,B|135:123|206:233,2,191.999994140625,2|8|2,0:0|0:0|0:0,0:0:0:0:
325,11,91900,1,0,0:0:0:0:
411,72,92031,1,8,0:0:0:0:
305,101,92161,1,2,0:0:0:0:
212,32,92292,6,0,B|168:4|96:20,1,95.9999970703126,2|0,0:0|0:0,0:0:0:0:
225,125,92552,1,8,0:0:0:0:
99,146,92683,2,0,B|52:170|30:240,1,95.9999970703126,2|2,0:0|0:0,0:0:0:0:
283,190,92944,1,0,0:0:0:0:
175,274,93074,2,0,B|197:398|327:378,2,191.999994140625,8|2|8,0:0|0:0|0:0,0:0:0:0:
412,227,93726,1,0,0:0:0:0:
412,227,93792,1,0,0:0:0:0:
412,227,93857,1,2,0:0:0:0:
421,132,93987,1,2,0:0:0:0:
353,62,94118,2,0,B|300:41|248:98,1,95.9999970703126,8|0,0:0|0:0,0:0:0:0:
91,337,94379,6,0,B|212:383|290:273,1,191.999994140625,6|8,0:0|0:0,0:0:0:0:
195,11,94770,2,0,B|94:92|150:215,1,191.999994140625
415,252,95161,2,0,B|394:124|260:111,1,191.999994140625,8|6,0:0|0:0,0:0:0:0:
266,301,95552,2,0,B|265:373|336:378,1,95.9999970703126,0|8,0:0|0:0,0:0:0:0:
471,133,95813,2,0,B|387:47|261:139,1,191.999994140625
247,204,96205,1,8,0:0:0:0:
138,181,96335,1,0,0:0:0:0:
138,181,96400,1,0,0:0:0:0:
138,181,96466,2,0,L|36:167,1,95.9999970703126,2|0,0:0|0:0,0:0:0:0:
207,366,96726,2,0,L|-18:337,1,191.999994140625,8|2,0:0|0:0,0:0:0:0:
156,267,97118,1,0,0:0:0:0:
120,95,97248,2,0,L|18:81,1,95.9999970703126,8|0,0:0|0:0,0:0:0:0:
70,256,97509,5,8,0:0:0:0:
70,256,97639,1,8,0:0:0:0:
70,256,97900,1,8,0:0:0:0:
442,128,98161,5,0,0:0:0:0:
442,128,98291,1,2,0:0:0:0:
442,128,98422,1,0,0:0:0:0:
341,90,98552,6,0,B|338:217|478:224,1,191.999994140625,6|8,0:0|0:0,0:0:0:0:
278,25,98944,1,2,0:0:0:0:
278,25,99009,1,0,0:0:0:0:
278,25,99074,2,0,B|222:64|249:145,1,95.9999970703126
235,301,99335,2,0,B|291:262|264:181,1,95.9999970703126,8|0,0:0|0:0,0:0:0:0:
77,102,99596,2,0,B|68:237|234:226,2,191.999994140625,2|8|0,0:0|0:0|0:0,0:0:0:0:
165,129,100248,1,2,0:0:0:0:
139,35,100379,6,0,B|87:-9|7:36,1,95.9999970703126,8|2,0:0|0:0,0:0:0:0:
165,129,100639,2,0,B|217:173|297:128,1,95.9999970703126,2|0,0:0|0:0,0:0:0:0:
227,61,100900,1,8,0:0:0:0:
318,55,101031,1,0,0:0:0:0:
318,55,101096,1,0,0:0:0:0:
318,55,101161,2,0,B|358:27|408:71,1,95.9999970703126,2|0,0:0|0:0,0:0:0:0:
111,200,101422,2,0,B|229:275|319:201,2,191.999994140625,8|2|8,0:0|0:0|0:0,0:0:0:0:
111,200,102205,5,2,0:0:0:0:
67,116,102335,1,2,0:0:0:0:
103,27,102466,2,0,B|169:63|160:119,1,95.9999970703126,8|0,0:0|0:0,0:0:0:0:
32,357,102726,2,0,B|13:221|139:191,1,191.999994140625,6|8,0:0|0:0,0:0:0:0:
399,169,103118,2,0,B|290:253|201:159,1,191.999994140625
345,85,103509,2,0,B|405:45|452:93,1,95.9999970703126,8|0,0:0|0:0,0:0:0:0:
264,88,103770,2,0,B|204:128|157:80,1,95.9999970703126,6|0,0:0|0:0,0:0:0:0:
306,15,104031,1,8,0:0:0:0:
174,94,104161,6,0,B|88:29|2:116,1,191.999994140625,2|0,0:0|0:0,0:0:0:0:
227,269,104552,2,0,B|260:223|212:164,1,95.9999970703126,8|0,0:0|0:0,0:0:0:0:
319,144,104813,2,0,B|438:150|379:211|511:206,2,191.999994140625,6|10|0,0:0|0:0|0:0,0:0:0:0:
345,240,105466,1,0,0:0:0:0:
227,269,105596,2,0,B|194:315|242:374,1,95.9999970703126,8|0,0:0|0:0,0:0:0:0:
305,317,105857,5,8,0:0:0:0:
206,177,105987,1,8,0:0:0:0:
206,177,106052,1,8,0:0:0:0:
206,177,106118,1,0,0:0:0:0:
134,348,106248,1,8,0:0:0:0:
134,348,106509,5,2,0:0:0:0:
82,267,106639,1,0,0:0:0:0:
37,354,106770,1,0,0:0:0:0:
134,348,106900,6,0,B|196:336|231:360|231:360|226:338|226:338|302:377|401:325|442:184|337:79,1,479.999985351563,2|0,0:0|0:0,0:0:0:0:
363,111,107683,1,0,0:0:0:0:
309,191,107813,1,8,0:0:0:0:
264,101,107944,2,0,B|275:29|346:19,1,95.9999970703126,8|8,0:0|0:0,0:0:0:0:
199,182,108205,2,0,B|142:136|168:69,1,95.9999970703126,8|8,0:0|0:0,0:0:0:0:
401,208,108466,2,0,B|457:253|431:320,1,95.9999970703126
363,111,108727,2,0,B|430:84|475:141,1,95.9999970703126
296,338,108987,5,4,0:0:0:0:
256,192,109118,12,0,112379,0:0:0:0:
381,141,112509,6,0,B|319:63|212:115,1,176.000005371094,2|0,3:0|0:0,0:0:0:0:
247,324,112900,2,0,B|296:297|283:240,1,88.000002685547,2|0,3:0|0:0,0:0:0:0:
131,64,113161,1,4,0:0:0:0:
256,192,113292,12,0,116031,0:0:0:0:
94,45,116161,5,0,0:0:0:0:
94,45,116226,1,0,0:0:0:0:
94,45,116292,1,4,0:0:0:0:
51,154,116422,1,0,0:0:0:0:
180,120,116552,1,0,0:0:0:0:
142,237,116683,2,0,B|211:260|254:195,1,88.000002685547,4|0,0:0|0:0,0:0:0:0:
383,68,116944,6,0,L|379:17,5,44.0000013427735,0|0|8|8|8|8,0:0|0:0|0:0|0:0|0:0|0:0,0:0:0:0:
383,68,117335,6,0,B|295:109|337:209,1,160,2|8,0:0|0:0,0:0:0:0:
495,262,117726,2,0,B|503:165|395:151,1,160,2|0,0:0|0:0,0:0:0:0:
274,267,118118,2,0,B|353:322|419:236,1,160,8|0,0:0|0:0,0:0:0:0:
413,243,118509,1,2,0:0:0:0:
236,192,118639,2,0,B|186:211|191:276,1,80,8|0,0:0|0:0,0:0:0:0:
145,162,118900,1,2,0:0:0:0:
73,223,119031,1,0,0:0:0:0:
73,223,119096,1,0,0:0:0:0:
73,223,119161,2,0,B|81:170|22:142,1,80,10|0,0:0|0:0,0:0:0:0:
232,348,119422,6,0,B|345:330|383:390,1,160,2|8,0:0|0:0,0:0:0:0:
470,169,119813,1,2,0:0:0:0:
385,172,119944,2,0,B|373:214|432:259,1,80
499,87,120205,1,10,0:0:0:0:
459,15,120335,1,0,0:0:0:0:
374,16,120466,2,0,L|279:17,1,80,0|2,0:0|0:0,0:0:0:0:
331,94,120726,1,8,0:0:0:0:
229,124,120857,5,0,0:0:0:0:
229,124,120922,1,0,0:0:0:0:
229,124,120987,2,0,B|178:116|161:71,2,80,2|0|8,0:0|0:0|0:0,0:0:0:0:
111,209,121379,1,8,0:0:0:0:
3,140,121509,6,0,B|66:34|177:85,1,191.999994140625,12|8,0:0|0:0,0:0:0:0:
509,244,121900,2,0,B|446:350|335:299,1,191.999994140625,0|2,0:0|0:0,0:0:0:0:
25,76,122292,2,0,B|113:-9|207:68,1,191.999994140625,8|8,0:0|0:0,0:0:0:0:
486,307,122683,2,0,B|398:393|304:315,1,191.999994140625,2|2,0:0|0:0,0:0:0:0:
105,240,123074,2,0,B|62:182|139:127,1,95.9999970703126,8|0,0:0|0:0,0:0:0:0:
407,144,123335,2,0,B|450:202|373:257,1,95.9999970703126,8|0,0:0|0:0,0:0:0:0:
178,327,123596,5,2,0:0:0:0:
95,332,123726,1,2,0:0:0:0:
334,50,123987,5,2,0:0:0:0:
417,61,124117,1,2,0:0:0:0:
256,192,124379,5,2,0:0:0:0:
256,192,124509,1,4,0:0:0:0:
256,192,124770,5,0,0:0:0:0:
163,182,124900,2,0,B|170:124|224:96,1,95.9999970703126
293,277,125161,2,0,B|240:300|188:267,1,95.9999970703126
311,116,125422,2,0,B|357:151|355:212,2,95.9999970703126,8|0|4,0:0|0:0|0:0,0:0:0:0:
311,116,125944,6,0,B|448:88|483:234,1,191.999994140625,8|0,0:0|0:0,0:0:0:0:
468,285,126335,1,0,0:0:0:0:
468,285,126466,1,8,0:0:0:0:
399,337,126596,2,0,L|287:358,1,95.9999970703126
304,354,126857,1,0,0:0:0:0:
286,220,126987,6,0,B|241:352|97:309,1,191.999994140625,8|0,0:0|0:0,0:0:0:0:
144,211,127379,1,0,0:0:0:0:
214,150,127509,2,0,B|162:92|222:35,1,95.9999970703126,8|0,0:0|0:0,0:0:0:0:
317,6,127770,2,0,B|403:9|388:110|489:96,1,191.999994140625,0|8,0:0|0:0,0:0:0:0:
476,97,128161,1,0,0:0:0:0:
432,177,128292,2,0,B|363:170|330:105,1,95.9999970703126
375,251,128552,2,0,B|334:307|261:303,1,95.9999970703126,8|0,0:0|0:0,0:0:0:0:
465,263,128813,2,0,B|493:326|453:387,1,95.9999970703126
220,364,129074,2,0,B|191:300|231:239,1,95.9999970703126,8|0,0:0|0:0,0:0:0:0:
215,270,129335,2,0,B|253:383|90:383,1,191.999994140625,0|8,0:0|0:0,0:0:0:0:
43,200,129726,5,8,0:0:0:0:
43,200,129792,1,8,0:0:0:0:
43,200,129857,2,0,B|34:151|71:108|71:108|204:147,1,191.999994140625,0|8,0:0|0:0,0:0:0:0:
244,175,130248,1,0,0:0:0:0:
131,232,130379,1,0,0:0:0:0:
131,232,130509,1,0,0:0:0:0:
159,133,130639,2,0,B|241:43|341:123,1,191.999994140625,8|0,0:0|0:0,0:0:0:0:
377,192,131031,1,0,0:0:0:0:
377,192,131096,1,0,0:0:0:0:
377,192,131161,1,8,0:0:0:0:
215,270,131292,2,0,B|133:360|33:280,1,191.999994140625
303,333,131683,2,0,B|357:297|406:329,1,95.9999970703126,8|0,0:0|0:0,0:0:0:0:
459,380,131944,6,0,B|516:347|516:347|533:258|496:209,1,191.999994140625,0|8,0:0|0:0,0:0:0:0:
377,192,132335,1,0,0:0:0:0:
377,192,132466,2,0,B|341:138|373:89,1,95.9999970703126
512,82,132726,2,0,B|483:140|424:136,1,95.9999970703126,8|0,0:0|0:0,0:0:0:0:
308,33,132987,2,0,B|213:-34|132:62,1,191.999994140625,0|8,0:0|0:0,0:0:0:0:
169,197,133379,2,0,B|224:162|194:86,1,95.9999970703126
106,129,133639,1,0,0:0:0:0:
88,248,133770,1,8,0:0:0:0:
28,179,133900,1,8,0:0:0:0:
28,179,133966,1,8,0:0:0:0:
28,179,134031,1,0,0:0:0:0:
288,289,134292,6,0,B|182:295|229:378|75:366,1,191.999994140625,8|0,0:0|0:0,0:0:0:0:
271,199,134683,2,0,B|377:193|330:110|484:122,1,191.999994140625
440,121,135205,1,0,0:0:0:0:
379,59,135335,2,0,B|287:162|431:208,1,191.999994140625,8|0,0:0|0:3,0:0:0:0:
483,259,135726,1,0,0:3:0:0:
441,328,135857,2,0,B|391:367|315:333,1,95.9999970703126,8|0,0:0|0:0,0:0:0:0:
228,281,136118,6,0,B|116:234|16:329,1,191.999994140625,0|8,0:0|0:0,0:0:0:0:
46,303,136509,1,0,0:0:0:0:
5,201,136639,2,0,B|-10:150|40:107,1,95.9999970703126
255,194,136900,2,0,B|270:245|220:288,2,95.9999970703126,8|0|0,0:0|0:0|0:0,0:0:0:0:
255,194,137422,2,0,B|240:143|290:100,1,95.9999970703126,8|0,0:0|0:0,0:0:0:0:
444,63,137683,2,0,B|548:126|495:240,1,191.999994140625,0|8,0:0|0:0,0:0:0:0:
227,280,138074,5,8,0:0:0:0:
227,280,138139,1,8,0:0:0:0:
227,280,138205,2,0,B|123:217|176:103,1,191.999994140625,4|8,0:0|0:0,0:0:0:0:
255,194,138596,2,0,B|252:315|127:326,1,191.999994140625
24,167,138987,2,0,B|26:45|151:34,1,191.999994140625,8|4,0:0|0:0,0:0:0:0:
255,62,139379,1,0,0:0:0:0:
255,194,139509,1,8,0:0:0:0:
139,175,139639,1,0,0:0:0:0:
139,175,139705,1,0,0:0:0:0:
139,175,139770,1,0,0:0:0:0:
206,130,139900,1,0,0:0:0:0:
190,246,140031,2,0,B|151:299|84:248,1,95.9999970703126,8|8,0:0|0:0,0:0:0:0:
3,231,140292,6,0,B|121:243|82:383,1,191.999994140625,4|8,0:0|0:0,0:0:0:0:
272,384,140683,2,0,B|154:372|193:232,1,191.999994140625
281,283,141074,1,8,0:0:0:0:
281,283,141205,1,0,0:0:0:0:
85,370,141335,2,0,B|31:392|9:321,1,95.9999970703126
279,199,141596,2,0,B|325:234|274:289,1,95.9999970703126,8|0,0:0|0:0,0:0:0:0:
112,191,141857,1,8,0:0:0:0:
112,191,141922,1,8,0:0:0:0:
112,191,141987,2,0,B|78:133|136:131|84:53,1,136.000002593994,0|8,0:0|0:0,0:0:0:0:
90,59,142379,6,0,B|63:97|63:97|151:126|234:38,1,191.999994140625,0|8,0:0|0:0,0:0:0:0:
260,16,142770,2,0,B|336:93|239:191,1,191.999994140625
175,259,143161,2,0,B|126:202|38:231|38:231|65:269,1,191.999994140625,8|0,0:0|0:0,0:0:0:0:
220,347,143552,1,0,0:0:0:0:
220,347,143618,1,0,0:0:0:0:
220,347,143683,1,8,0:0:0:0:
321,351,143813,1,0,0:0:0:0:
365,264,143944,2,0,B|393:204|355:158,1,95.9999970703126
174,167,144205,2,0,B|146:227|184:273,1,95.9999970703126,8|0,0:0|0:0,0:0:0:0:
461,171,144466,6,0,B|436:53|276:64,1,191.999994140625,0|8,0:0|0:0,0:0:0:0:
197,84,144857,2,0,B|107:164|196:297,1,191.999994140625
262,345,145248,2,0,B|376:382|447:238,1,191.999994140625,8|0,0:0|0:0,0:0:0:0:
290,173,145639,1,0,0:0:0:0:
290,173,145705,1,0,0:0:0:0:
290,173,145770,2,0,L|325:280,1,95.9999970703126,8|0,0:0|0:0,0:0:0:0:
331,195,146031,2,0,L|220:171,1,95.9999970703126
293,220,146292,2,0,L|368:136,1,95.9999970703126,8|0,0:0|0:0,0:0:0:0:
56,17,146552,2,0,B|85:149|201:101,1,191.999994140625,0|8,0:0|0:0,0:0:0:0:
308,11,146944,6,0,B|253:-25|199:55,1,95.9999970703126
280,85,147205,1,0,0:0:0:0:
249,166,147335,2,0,B|304:202|358:122,1,95.9999970703126,8|0,0:0|0:0,0:0:0:0:
205,236,147596,2,0,B|73:265|121:381,1,191.999994140625,0|8,0:0|0:0,0:0:0:0:
284,311,147987,1,2,0:0:0:0:
284,311,148052,1,0,0:0:0:0:
284,311,148118,2,0,B|346:337|384:275,1,95.9999970703126
417,384,148379,2,0,B|549:355|501:239,1,191.999994140625,10|2,0:0|0:0,0:0:0:0:
306,130,148770,2,0,L|317:242,1,95.9999970703126,0|8,0:0|0:0,0:0:0:0:
370,72,149031,6,0,B|347:30|347:30|259:18|216:97,1,191.999994140625,2|0,0:0|0:0,0:0:0:0:
168,172,149422,1,10,0:0:0:0:
223,248,149552,1,0,0:0:0:0:
160,325,149683,2,0,B|103:363|31:307,1,95.9999970703126,2|0,0:0|0:0,0:0:0:0:
223,248,149944,1,8,0:0:0:0:
283,325,150074,1,0,0:0:0:0:
283,325,150139,1,0,0:0:0:0:
283,325,150205,2,0,B|340:363|412:307,1,95.9999970703126
277,169,150466,2,0,B|334:131|406:187,1,95.9999970703126,8|0,0:0|0:0,0:0:0:0:
410,248,150726,6,0,B|319:290|316:207|180:262,1,191.999994140625,6|8,0:0|0:0,0:0:0:0:
255,72,151118,2,0,B|164:30|161:113|25:58,1,191.999994140625
160,185,151509,2,0,B|108:202|53:182,1,95.9999970703126,8|0,0:0|0:0,0:0:0:0:
160,185,151770,1,4,0:0:0:0:
173,330,151900,2,0,B|184:276|229:238,1,95.9999970703126,0|8,0:0|0:0,0:0:0:0:
475,204,152161,6,0,B|413:308|285:226,1,191.999994140625
301,124,152552,2,0,B|363:20|491:102,1,191.999994140625,8|0,0:0|0:0,0:0:0:0:
350,381,152944,1,0,0:0:0:0:
350,381,153009,1,0,0:0:0:0:
350,381,153074,2,0,B|418:375|412:300,1,95.9999970703126,8|0,0:0|0:0,0:0:0:0:
301,124,153335,1,0,0:0:0:0:
215,112,153466,1,0,0:0:0:0:
163,183,153596,1,8,0:0:0:0:
198,263,153726,2,0,B|258:285|290:257|290:257|295:241|295:241|347:204|400:236,1,207.999990478516,4|0,0:0|0:0,0:0:0:0:
152,384,154118,6,0,B|94:363|102:295,1,80,8|0,0:0|0:0,0:0:0:0:
88,197,154379,2,0,B|135:157|190:198,1,80
280,247,154639,2,0,B|290:307|227:334,1,80,8|0,0:0|0:0,0:0:0:0:
16,255,154900,6,0,B|-35:153|79:108,1,160,4|8,0:0|0:0,0:0:0:0:
257,98,155292,1,0,0:0:0:0:
331,132,155422,1,0,0:0:0:0:
257,98,155552,1,0,0:0:0:0:
331,132,155683,2,0,B|373:156|435:100,1,80,8|0,0:0|0:0,0:0:0:0:
238,12,155944,6,0,B|130:57|190:171,1,160,4|8,0:0|0:0,0:0:0:0:
422,251,156335,2,0,B|530:206|470:92,1,160
287,272,156726,2,0,B|245:296|262:378,1,80,8|0,0:0|0:0,0:0:0:0:
287,272,156987,6,0,B|274:257|252:251|252:251|203:306|113:257,2,160,2|8|0,0:0|0:0|0:0,0:0:0:0:
185,195,157639,1,0,0:0:0:0:
117,152,157770,2,0,B|97:101|149:59,1,80,8|0,0:0|0:0,0:0:0:0:
322,23,158031,2,0,B|344:132|219:133,1,160,0|8,0:0|0:0,0:0:0:0:
72,4,158422,1,0,0:0:0:0:
72,4,158487,1,0,0:0:0:0:
72,4,158552,2,0,B|56:87|132:55|114:174,2,160.000006103516,6|2|2,0:0|0:0|0:0,0:0:0:0:
256,192,159074,12,4,159987,0:0:0:0:
151,289,160248,6,0,L|100:276,2,40
234,227,160509,6,0,L|183:214,2,40
306,147,160770,6,0,L|255:134,2,40
389,85,161031,6,0,L|338:72,1,40
444,0,161161,6,0,B|534:113|411:189,1,207.999990478516,2|8,0:0|0:0,0:0:0:0:
334,260,161552,1,2,0:0:0:0:
306,147,161683,1,0,0:0:0:0:
389,85,161813,1,0,0:0:0:0:
426,178,161944,2,0,B|463:242|391:294,1,103.999995239258,8|0,0:0|0:0,0:0:0:0:
174,131,162205,2,0,B|196:-6|364:21,2,207.999990478516,2|8|0,0:0|0:0|0:0,0:0:0:0:
197,295,162857,1,0,0:0:0:0:
228,205,162987,1,8,0:0:0:0:
228,205,163118,1,0,0:0:0:0:
101,304,163248,6,0,B|163:428|296:342,1,207.999990478516,2|8,0:0|0:0,0:0:0:0:
426,178,163639,1,2,0:0:0:0:
426,178,163705,1,0,0:0:0:0:
426,178,163770,2,0,B|379:132|320:162,1,103.999995239258
392,372,164031,2,0,B|455:354|458:288,1,103.999995239258,10|0,0:0|0:0,0:0:0:0:
218,31,164292,6,0,B|171:76|171:76|189:186|257:229,1,207.999990478516,2|8,0:0|0:0,0:0:0:0:
227,204,164813,1,0,0:0:0:0:
330,157,164944,1,0,0:0:0:0:
330,157,165009,1,0,0:0:0:0:
330,157,165074,2,0,B|344:81|272:42,1,103.999995239258,8|0,0:0|0:0,0:0:0:0:
59,74,165335,2,0,B|-8:184|122:269,1,207.999990478516,2|8,0:0|0:0,0:0:0:0:
410,260,165726,2,0,B|348:146|209:217,1,207.999990478516,2|0,0:0|0:0,0:0:0:0:
4,236,166118,2,0,B|60:286|142:233,1,103.999995239258,10|0,0:0|0:0,0:0:0:0:
292,282,166379,5,2,0:0:0:0:
206,302,166509,1,0,0:0:0:0:
232,206,166639,1,8,0:0:0:0:
256,111,166770,1,2,0:0:0:0:
170,131,166900,1,0,0:0:0:0:
232,206,167031,1,0,0:0:0:0:
322,184,167161,2,0,B|382:145|344:52,1,103.999995239258,10|0,0:0|0:0,0:0:0:0:
118,20,167422,6,0,B|0:79|73:216,2,207.999990478516,2|8|0,0:0|0:0|0:0,0:0:0:0:
160,263,168074,1,2,0:0:0:0:
128,343,168205,2,0,B|75:383|21:335,1,103.999995239258,8|0,0:0|0:0,0:0:0:0:
151,151,168466,5,2,0:0:0:0:
218,334,168596,1,2,0:0:0:0:
218,334,168857,2,0,B|269:303|269:303|311:350|366:322|366:322|422:389,1,207.999990478516,2|0,0:0|0:0,0:0:0:0:
327,252,169248,1,8,0:0:0:0:
327,252,169379,1,8,0:0:0:0:
239,194,169509,6,0,B|134:111|246:12,1,207.999990478516,2|8,0:0|0:0,0:0:0:0:
400,20,169900,2,0,B|505:103|393:202,1,207.999990478516,2|0,0:0|0:0,0:0:0:0:
214,268,170292,2,0,B|161:312|101:266,1,103.999995239258,10|0,0:0|0:0,0:0:0:0:
314,105,170552,2,0,B|278:45|333:-6,1,103.999995239258,2|0,0:0|0:0,0:0:0:0:
416,270,170813,2,0,B|469:314|529:268,1,103.999995239258,8|0,0:0|0:0,0:0:0:0:
314,105,171074,2,0,B|358:45|306:-6,2,103.999995239258,0|0|8,0:0|0:0|0:0,0:0:0:0:
192,165,171466,5,2,0:0:0:0:
214,268,171596,2,0,B|332:288|391:165,1,207.999990478516,2|8,0:0|0:0,0:0:0:0:
101,10,171987,2,0,B|24:102|101:214,1,207.999990478516,2|0,0:0|0:0,0:0:0:0:
116,312,172379,1,10,0:0:0:0:
192,165,172509,1,0,0:0:0:0:
192,165,172574,1,0,0:0:0:0:
192,165,172639,2,0,B|225:105|172:37,1,103.999995239258,2|0,0:0|0:0,0:0:0:0:
298,228,172900,2,0,B|366:226|398:146,1,103.999995239258,8|0,0:0|0:0,0:0:0:0:
341,331,173161,2,0,B|376:389|461:377,2,103.999995239258,2|2|8,0:0|0:0|0:0,0:0:0:0:
230,288,173552,1,2,0:0:0:0:
406,267,173683,6,0,B|526:186|411:86,1,207.999990478516,6|8,0:0|0:0,0:0:0:0:
193,199,174074,2,0,B|73:280|188:380,1,207.999990478516,2|0,0:0|0:0,0:0:0:0:
323,103,174466,2,0,B|288:52|192:69,1,103.999995239258,10|0,0:0|0:0,0:0:0:0:
101,160,174726,2,0,B|136:211|232:194,1,103.999995239258,6|0,0:0|0:0,0:0:0:0:
253,149,174987,1,8,0:0:0:0:
141,36,175118,2,0,B|77:6|77:6|1:63|27:154,1,207.999990478516,2|0,0:0|0:0,0:0:0:0:
274,236,175509,2,0,B|338:266|338:266|414:209|388:118,1,207.999990478516,10|2,0:0|0:0,0:0:0:0:
274,236,175900,1,0,0:0:0:0:
408,320,176031,2,0,B|468:278|471:187,1,103.999995239258,8|0,0:0|0:0,0:0:0:0:
182,225,176292,2,0,B|188:297|265:346,1,103.999995239258
312,357,176552,1,8,0:0:0:0:
312,357,176683,1,0,0:0:0:0:
126,308,176813,5,8,0:0:0:0:
54,325,176944,2,0,B|69:384|152:385,1,103.999995239258,8|0,0:0|0:0,0:0:0:0:
278,120,177205,1,2,0:0:0:0:
278,120,177466,1,0,0:0:0:0:
278,120,177531,1,0,0:0:0:0:
278,120,177596,2,0,B|263:61|180:60,1,103.999995239258,2|0,0:0|0:0,0:0:0:0:
22,209,177857,6,0,B|185:133|224:373|378:250|378:250|321:203|293:201|217:249,1,519.99997619629,2|0,0:0|0:0,0:0:0:0:
260,224,178639,1,0,0:0:0:0:
230,384,178770,1,0,0:0:0:0:
396,345,178900,2,0,B|475:322|470:227,1,103.999995239258,8|10,0:0|0:0,0:0:0:0:
351,151,179161,2,0,B|331:230|416:274,1,103.999995239258,8|0,0:0|0:0,3:0:0:0:
351,151,179422,2,0,B|291:94|211:145,1,103.999995239258,8|0,0:0|0:0,0:0:0:0:
512,203,179683,2,0,B|532:124|447:80,2,103.999995239258,8|8|2,0:0|0:0|0:0,3:0:0:0:
158,50,180205,6,0,B|127:2|127:2|91:120|206:95|184:249,1,287.999991210938,8|2,0:0|0:0,0:0:0:0:
144,298,180726,1,8,0:0:0:0:
98,224,180857,1,0,0:0:0:0:
26,269,180987,2,0,B|20:327|107:363,1,95.9999970703126,2|0,0:0|0:0,0:0:0:0:
209,370,181248,1,8,0:0:0:0:
338,329,181379,2,0,B|391:305|378:211,1,95.9999970703126,2|0,0:0|0:0,0:0:0:0:
260,291,181639,5,0,0:0:0:0:
260,291,181770,2,0,B|270:233|217:192,1,95.9999970703126,8|0,0:0|0:0,0:0:0:0:
30,61,182031,5,2,0:0:0:0:
54,138,182161,1,0,0:0:0:0:
145,114,182292,1,8,0:0:0:0:
125,35,182422,1,2,0:0:0:0:
125,35,182683,5,0,0:0:0:0:
54,138,182813,2,0,B|30:190|72:227|72:227|123:176|179:199,1,191.999994140625,8|0,0:0|0:0,0:0:0:0:
230,203,183205,1,2,0:0:0:0:
301,160,183335,2,0,B|259:117|298:48,1,95.9999970703126,8|0,0:0|0:0,0:0:0:0:
385,168,183596,1,2,0:0:0:0:
337,299,183726,1,0,0:0:0:0:
385,168,183857,2,0,B|370:109|438:69,1,95.9999970703126,8|0,0:0|0:0,0:0:0:0:
454,221,184118,1,2,0:0:0:0:
454,221,184379,2,0,B|463:323|372:387,1,191.999994140625,8|0,0:0|0:0,0:0:0:0:
221,324,184770,2,0,B|212:222|303:158,2,191.999994140625,2|2|0,0:0|0:0|0:0,0:0:0:0:
62,361,185422,5,8,0:0:0:0:
1,308,185552,1,0,0:0:0:0:
51,240,185683,5,2,0:0:0:0:
150,136,185857,5,2,0:0:0:0:
302,160,186031,5,2,0:0:0:0:
60,112,186205,6,0,B|125:-3|228:86,1,191.999994140625,2|8,0:0|0:0,0:0:0:0:
389,143,186596,2,0,B|349:190|276:146,1,95.9999970703126,2|0,0:0|0:0,0:0:0:0:
336,87,186857,1,0,0:0:0:0:
418,61,186987,2,0,B|478:72|477:157,1,95.9999970703126,10|0,0:0|0:0,0:0:0:0:
204,330,187248,5,2,0:0:0:0:
139,248,187422,5,2,0:0:0:0:
236,226,187596,5,2,0:0:0:0:
204,330,187770,5,2,0:0:0:0:
16,194,187944,5,2,0:0:0:0:
217,77,188118,5,2,0:0:0:0:
467,358,188552,6,0,B|442:299|462:273|462:273|481:264|481:264|506:207|455:159,1,191.999994140625,8|0,0:0|0:0,0:0:0:0:
367,52,188944,1,0,0:0:0:0:
367,52,189009,1,0,0:0:0:0:
367,52,189074,2,0,B|345:110|425:161,1,95.9999970703126,8|0,0:0|0:0,0:0:0:0:
220,203,189335,2,0,B|259:251|343:207,1,95.9999970703126,4|0,0:0|0:0,0:0:0:0:
315,384,189596,2,0,B|376:374|380:279,1,95.9999970703126,8|0,0:0|0:0,0:0:0:0:
307,222,189857,2,0,B|267:173|183:217,1,95.9999970703126
149,369,190118,2,0,B|171:311|91:260,1,95.9999970703126,8|0,0:0|0:0,0:0:0:0:
201,37,190379,2,0,B|139:46|135:141,1,95.9999970703126
93,188,190639,1,8,0:0:0:0:
250,278,190770,1,0,0:0:0:0:
250,278,190835,1,0,0:0:0:0:
250,278,190900,2,0,L|238:382,1,95.9999970703126,0|8,0:0|0:0,0:0:0:0:
441,228,191161,1,0,0:0:0:0:
274,125,191292,6,0,B|221:140|210:172|210:172|297:141|338:213,1,191.999994140625,4|2,0:0|0:0,0:0:0:0:
431,333,191683,2,0,B|376:334|349:277,1,95.9999970703126,8|0,0:0|0:0,0:0:0:0:
355,39,191944,5,2,0:0:0:0:
407,133,192118,5,2,0:0:0:0:
313,182,192292,5,2,0:0:0:0:
5,74,192726,6,0,B|101:56|91:138|189:112,1,191.999994140625,8|0,0:0|0:0,0:0:0:0:
185,112,193074,1,0,0:0:0:0:
185,112,193161,1,0,0:0:0:0:
185,112,193248,2,0,B|206:175|141:213,1,95.9999970703126,8|0,0:0|0:0,0:0:0:0:
84,209,193509,1,0,0:0:0:0:
57,279,193639,1,0,0:0:0:0:
106,342,193770,1,8,0:0:0:0:
178,330,193900,1,0,0:0:0:0:
214,257,194031,5,2,0:0:0:0:
307,140,194205,5,2,0:0:0:0:
437,210,194379,5,2,0:0:0:0:
351,353,194552,5,2,0:0:0:0:
256,192,194683,12,8,195857,0:0:0:0:
163,26,195987,5,0,0:0:0:0:
163,26,196052,1,0,0:0:0:0:
163,26,196118,2,0,B|69:16|113:121|-61:76,2,170.666666666667,6|2|2,0:0|0:0|0:0,0:0:0:0:
312,38,196639,6,0,B|397:23|452:101,1,111.999996582031,10|0,0:0|0:0,0:0:0:0:
357,275,196900,6,0,B|442:260|497:338,1,111.999996582031,8|0,0:0|0:0,0:0:0:0:
512,155,197161,5,8,0:0:0:0:
512,155,197292,2,0,B|448:141|390:195,1,111.999996582031,8|8,0:0|0:0,0:0:0:0:
216,316,197552,21,0,0:0:0:0:
216,316,197618,1,0,0:0:0:0:
216,316,197683,2,2,B|194:267|124:252|124:252|192:197|179:118|179:118|247:166|323:133|323:133|308:226|358:274|358:274|281:292|234:348,1,720.000027465821,2|0,0:0|0:0,0:0:0:0:
63,109,198726,6,0,B|131:-7|276:57,1,207.999990478516,2|8,0:0|0:0,0:0:0:0:
434,173,199118,2,0,B|366:289|221:225,1,207.999990478516,2|0,0:0|0:0,0:0:0:0:
423,84,199509,2,0,B|496:75|513:137,1,103.999995239258,10|0,0:0|0:0,0:0:0:0:
180,303,199770,6,0,B|102:197|222:115,2,207.999990478516,2|8|0,0:0|0:0|0:0,0:0:0:0:
180,303,200422,1,0,0:0:0:0:
366,351,200552,2,0,B|406:292|363:245,1,103.999995239258,10|2,0:0|0:0,0:0:0:0:
82,141,200813,6,0,B|130:264|295:228,1,207.999990478516,2|8,0:0|0:0,0:0:0:0:
348,42,201205,1,2,0:0:0:0:
348,42,201270,1,0,0:0:0:0:
348,42,201335,2,0,B|304:-7|237:28,1,103.999995239258
182,306,201596,2,0,B|246:292|249:216,1,103.999995239258,10|0,0:0|0:0,0:0:0:0:
53,48,201857,2,0,B|32:110|96:151,1,103.999995239258,2|0,0:0|0:0,0:0:0:0:
340,190,202118,2,0,B|370:71|220:3,1,207.999990478516,8|0,0:0|0:0,0:0:0:0:
264,137,202509,1,2,0:0:0:0:
408,234,202639,2,0,L|533:234,1,103.999995239258,8|0,0:0|0:0,0:0:0:0:
307,305,202900,6,0,B|235:303|235:303|205:339|205:339|102:338,1,207.999990478516,6|8,0:0|0:0,0:0:0:0:
36,217,203292,2,0,B|21:134|179:97|199:222,1,207.999990478516,2|0,0:0|0:0,0:0:0:0:
367,19,203683,2,0,B|379:102|221:139|201:14,1,207.999990478516,8|6,0:0|0:0,0:0:0:0:
286,13,204074,1,0,0:0:0:0:
441,97,204205,5,8,0:0:0:0:
382,179,204335,1,2,0:0:0:0:
282,204,204466,2,0,B|209:214|152:151,1,103.999995239258
395,319,204726,2,0,B|422:250|505:232,1,103.999995239258,10|0,0:0|0:0,0:0:0:0:
177,288,204987,6,0,B|48:264|-22:413,2,207.999990478516,6|8|0,0:0|0:0|0:0,0:0:0:0:
311,283,205639,1,0,0:0:0:0:
382,179,205770,1,8,0:0:0:0:
333,75,205900,1,0,0:0:0:0:
201,71,206031,6,0,B|164:122|191:176,1,103.999995239258,10|10,0:0|0:0,0:0:0:0:
187,169,206226,1,0,0:0:0:0:
187,169,206292,1,2,0:0:0:0:
433,276,206422,2,0,B|524:185|420:46,1,207.999990478516,8|0,0:0|0:0,0:0:0:0:
392,15,206813,1,8,0:0:0:0:
333,75,206944,1,8,0:0:0:0:
179,0,207074,6,0,B|94:15|94:15|52:64|69:145,1,207.999990478516,2|8,0:0|0:0,0:0:0:0:
160,240,207466,1,2,0:0:0:0:
291,202,207596,2,0,B|292:132|216:98,1,103.999995239258
35,260,207857,2,0,B|34:330|110:364,1,103.999995239258,10|0,0:0|0:0,0:0:0:0:
263,378,208118,6,0,B|391:398|425:238,2,207.999990478516,2|8|0,0:0|0:0|0:0,0:0:0:0:
315,286,208770,1,0,0:0:0:0:
315,286,208900,1,10,0:0:0:0:
483,347,209030,1,2,0:0:0:0:
393,181,209161,6,0,B|465:154|509:239,2,103.999995239258,2|0|8,0:0|0:0|0:0,0:0:0:0:
244,57,209552,1,2,0:0:0:0:
244,57,209618,1,0,0:0:0:0:
244,57,209683,2,0,B|231:132|135:128,1,103.999995239258,2|0,0:0|0:0,0:0:0:0:
392,93,209944,2,0,B|332:44|384:-36,1,103.999995239258,10|0,0:0|0:0,0:0:0:0:
242,190,210205,6,0,B|133:254|52:131,2,207.999990478516,2|8|2,0:0|0:0|0:0,0:0:0:0:
242,190,210857,1,2,0:0:0:0:
287,344,210987,2,0,L|411:348,1,103.999995239258,8|2,0:0|0:0,0:0:0:0:
200,305,211248,6,0,B|129:306|129:306|90:261|90:261|0:260,1,207.999990478516,4|8,0:0|0:0,0:0:0:0:
309,262,211639,2,0,B|380:263|380:263|419:218|419:218|509:217,1,207.999990478516,2|0,0:0|0:0,0:0:0:0:
238,91,212031,2,0,B|187:142|243:210,1,103.999995239258,10|0,0:0|0:0,0:0:0:0:
341,59,212292,6,0,B|258:-50|120:40,1,207.999990478516,6|8,0:0|0:0,0:0:0:0:
124,222,212683,2,0,B|207:331|345:241,1,207.999990478516,2|0,0:0|0:0,0:0:0:0:
115,122,213074,2,0,L|1:142,1,103.999995239258,8|0,0:0|0:0,0:0:0:0:
357,167,213335,2,0,L|456:219,1,103.999995239258,6|0,0:0|0:0,0:0:0:0:
202,369,213596,2,0,L|236:136,1,207.999990478516,8|0,0:0|0:0,0:0:0:0:
232,163,213987,1,0,0:0:0:0:
140,223,214118,1,8,0:0:0:0:
140,223,214248,1,0,0:0:0:0:
304,248,214379,1,8,0:0:0:0:
249,85,214509,2,0,L|258:17,2,51.999997619629,8|8|0,0:0|0:0|0:0,0:0:0:0:
111,314,214770,6,0,B|37:281|92:168|-26:141,1,207.999990478516,8|0,0:0|0:0,0:0:0:0:
372,41,215161,2,0,B|446:74|391:187|509:214,1,207.999990478516,0|2,0:0|0:0,0:0:0:0:
483,206,215944,1,8,0:0:0:0:
483,206,216205,1,2,0:0:0:0:
464,299,216335,1,2,0:0:0:0:
464,299,216400,1,0,0:0:0:0:
464,299,216466,2,0,B|407:330|344:285,1,103.999995239258,2|8,0:0|0:0,0:0:0:0:
353,195,216726,1,8,0:0:0:0:
353,195,216857,1,8,0:0:0:0:
264,247,216987,1,8,0:0:0:0:
245,154,217117,1,2,0:0:0:0:
245,154,217182,1,0,0:0:0:0:
245,154,217248,2,0,B|188:123|125:168,1,103.999995239258,2|2,0:0|0:0,0:0:0:0:
50,84,217509,6,0,B|68:24|68:24|152:-7|228:59,1,207.999990478516,6|8,0:0|0:0,0:0:0:0:
320,76,217900,1,2,0:0:0:0:
413,26,218031,2,0,B|483:38|520:-11,1,103.999995239258
436,137,218292,2,0,B|390:191|414:248,1,103.999995239258,8|0,0:0|0:0,0:0:0:0:
247,357,218552,6,0,B|111:406|112:222,2,207.999990478516,2|10|2,0:0|0:0|0:0,0:0:0:0:
205,280,219205,1,2,0:0:0:0:
294,281,219335,2,0,B|362:279|370:370,1,103.999995239258,8|2,0:0|0:0,0:0:0:0:
65,177,219596,6,0,B|31:48|180:15,1,207.999990478516,2|8,0:0|0:0,0:0:0:0:
346,17,219987,1,2,0:0:0:0:
346,17,220052,1,0,0:0:0:0:
346,17,220118,2,0,B|301:74|208:21,1,103.999995239258,2|0,0:0|0:0,0:0:0:0:
111,303,220379,2,0,B|156:246|249:299,1,103.999995239258,10|0,0:0|0:0,0:0:0:0:
476,186,220639,6,0,B|415:68|251:145,2,207.999990478516,2|8|2,0:0|0:0|0:0,0:0:0:0:
421,316,221292,1,2,0:0:0:0:
301,253,221422,1,8,0:0:0:0:
226,361,221552,1,2,0:0:0:0:
301,253,221683,6,0,B|212:167|196:318|77:190,1,207.999990478516,4|8,0:0|0:0,0:0:0:0:
66,102,222074,1,2,0:0:0:0:
171,27,222205,2,0,B|243:25|269:100,1,103.999995239258,2|0,0:0|0:0,0:0:0:0:
112,319,222466,2,0,B|74:257|126:197,1,103.999995239258,10|0,0:0|0:0,0:0:0:0:
366,99,222726,6,0,B|460:154|459:304,1,207.999990478516,6|8,0:0|0:0,0:0:0:0:
307,169,223118,2,0,B|360:263|285:393,1,207.999990478516,2|0,0:0|0:0,0:0:0:0:
218,150,223509,2,0,B|217:258|86:333,1,207.999990478516,10|6,0:0|0:0,0:0:0:0:
111,318,224031,2,0,B|111:209|242:134,1,207.999990478516,10|0,0:0|0:0,0:0:0:0:
366,99,224422,2,0,L|376:47,2,51.999997619629,0|0|10,0:0|0:0|0:0,0:0:0:0:
463,185,224683,1,0,0:0:0:0:
447,319,224813,1,8,0:0:0:0:
447,319,224944,1,8,0:0:0:0:
447,319,225205,1,10,0:0:0:0:
65,65,225466,5,0,0:0:0:0:
65,65,225597,1,0,0:0:0:0:
65,65,225726,1,0,0:0:0:0:
0,128,225857,6,0,B|116:199|160:56,1,207.999990478516,2|10,0:0|0:0,0:0:0:0:
266,248,226248,5,0,0:0:0:0:
266,248,226313,1,0,0:0:0:0:
266,248,226379,2,0,B|206:285|221:362,1,103.999995239258,2|2,0:0|0:0,0:0:0:0:
328,115,226639,2,0,B|361:52|309:-6,1,103.999995239258,10|2,0:0|0:0,0:0:0:0:
29,249,226900,6,0,B|32:391|179:377,2,207.999990478516,2|10|2,0:0|0:0|0:0,0:0:0:0:
212,165,227552,1,0,0:0:0:0:
127,227,227683,2,0,B|76:171|142:92,1,103.999995239258,10|2,0:0|0:0,0:0:0:0:
328,115,227944,6,0,B|469:126|467:279,1,207.999990478516,2|10,0:0|0:0,0:0:0:0:
230,67,228335,5,0,0:0:0:0:
230,67,228400,1,0,0:0:0:0:
230,67,228466,2,0,B|157:74|131:-10,1,103.999995239258,2|2,0:0|0:0,0:0:0:0:
349,219,228726,2,0,B|391:278|331:343,1,103.999995239258,10|2,0:0|0:0,0:0:0:0:
328,115,228987,2,0,B|358:48|444:67,1,103.999995239258,2|0,0:0|0:0,0:0:0:0:
245,196,229248,2,0,B|177:302|31:227,1,207.999990478516,10|0,0:0|0:0,0:0:0:0:
145,166,229639,1,2,0:0:0:0:
231,328,229770,2,0,L|86:354,1,103.999995239258,8|0,0:0|0:0,0:0:0:0:
38,106,230031,6,0,B|79:117|79:117|127:63|184:93|184:93|229:65,1,207.999990478516,6|10,0:0|0:0,0:0:0:0:
471,174,230422,2,0,B|471:95|322:98|349:221,1,207.999990478516,0|2,0:0|0:0,0:0:0:0:
231,328,230813,2,0,B|285:363|285:363|344:288|430:346,1,207.999990478516,10|6,0:0|0:0,0:0:0:0:
427,251,231205,1,0,0:0:0:0:
346,201,231335,2,0,B|279:190|235:253,1,103.999995239258,10|2,0:0|0:0,0:0:0:0:
151,361,231596,1,0,0:0:0:0:
151,361,231726,1,2,0:0:0:0:
77,278,231857,2,0,B|144:289|188:226,1,103.999995239258,10|2,0:0|0:0,0:0:0:0:
180,26,232118,6,0,B|31:51|97:203,2,207.999990478516,6|10|2,0:0|0:0|0:0,0:0:0:0:
180,26,232770,1,0,0:0:0:0:
316,58,232900,1,8,0:0:0:0:
229,162,233031,1,0,0:0:0:0:
229,162,233096,1,0,0:0:0:0:
229,162,233161,2,0,L|237:108,4,51.999997619629,10|0|8|8|8,0:0|0:0|0:0|0:0|0:0,0:0:0:0:
283,222,233552,2,0,L|275:276,4,51.999997619629,10|0|0|0|0,0:0|0:0|0:0|0:0|0:0,0:0:0:0:
394,185,233944,6,0,L|443:152,2,51.999997619629,2|0|0,0:0|0:0|0:0,0:0:0:0:
118,199,234205,6,2,B|94:205|94:205|69:232,12,51.999997619629,6|0|0|0|0|0|0|0|0|0|0|0|2,0:0|0:0|0:0|0:0|0:0|0:0|0:0|0:0|0:0|0:0|0:0|0:0|0:0,0:0:0:0:
135,279,235118,1,0,0:0:0:0:
61,307,235248,5,6,0:0:0:0:
187,345,235379,1,2,0:0:0:0:
279,266,235509,2,0,B|288:192|224:153,1,103.999995239258,8|0,0:0|0:0,0:0:0:0:
38,10,235770,2,0,B|29:84|93:123,2,103.999995239258,2|0|8,0:0|0:0|0:0,0:0:0:0:
187,93,236161,5,0,0:0:0:0:
135,192,236292,1,6,0:0:0:0:
256,192,236422,12,0,239683,0:0:0:0:
134,97,239813,6,0,B|256:50|325:152,1,207.999990478516,2|0,0:0|0:0,0:0:0:0:
260,306,240205,2,0,B|199:256|231:177,1,103.999995239258,8|0,0:0|0:0,0:0:0:0:
351,32,240466,1,6,0:0:0:0:
256,192,240596,12,0,243335,0:0:0:0:
63,34,243466,6,0,L|77:97,1,51.999997619629
142,120,243596,1,4,0:0:0:0:
28,157,243726,2,0,B|60:222|145:201,1,103.999995239258,0|2,0:0|0:0,0:0:0:0:
242,68,243987,2,0,B|210:3|125:24,1,103.999995239258,2|0,0:0|0:0,0:0:0:0:
142,120,244248,1,2,0:0:0:0:
240,183,244379,6,0,L|303:175,3,51.999997619629,8|0|0|0,0:0|0:0|0:0|0:0,0:0:0:0:
328,172,244639,1,0,0:0:0:0:
213,364,244900,2,0,B|130:301|130:301|19:354,1,207.999990478516,8|0,0:0|0:0,0:0:0:0:
290,300,245292,2,0,B|373:237|373:237|484:290,1,207.999990478516,2|0,3:0|0:0,0:0:0:0:
195,254,245683,2,0,B|112:191|112:191|1:244,1,207.999990478516,2|0,3:0|0:0,0:0:0:0:
272,190,246075,2,0,B|355:127|355:127|466:180,1,207.999990478516,2|0,3:0|0:0,0:0:0:0:
181,143,246466,2,0,B|98:80|98:80|-13:133,1,207.999990478516,2|0,3:0|0:0,0:0:0:0:
267,41,246857,5,0,0:0:0:0:
267,41,246922,1,0,0:0:0:0:
267,41,246987,2,0,B|353:-6|361:93|483:43,1,207.999990478516,2|0,3:0|0:0,0:0:0:0:
448,171,247379,2,0,B|362:124|354:223|232:173,1,207.999990478516,2|0,3:0|0:0,0:0:0:0:
300,307,247770,2,0,B|386:260|394:359|516:309,1,207.999990478516,2|0,3:0|0:0,0:0:0:0:
212,307,248161,2,0,B|126:260|118:359|-4:309,1,207.999990478516,2|0,0:0|0:0,0:0:0:0:
61,199,248552,1,8,0:0:0:0:
16,92,248683,1,0,0:0:0:0:
16,92,248748,1,0,0:0:0:0:
16,92,248813,1,4,0:0:0:0:
289,188,249074,6,0,B|387:152|387:152|424:6,1,207.999990478516,8|0,0:0|0:0,0:0:0:0:
283,210,249466,2,0,B|382:245|382:245|504:157,1,207.999990478516,2|0,3:0|0:0,0:0:0:0:
265,223,249857,2,0,B|318:314|318:314|468:325,1,207.999990478516,2|0,3:0|0:0,0:0:0:0:
242,222,250248,2,0,B|225:325|225:325|117:364,1,207.999990478516,2|0,3:0|0:0,0:0:0:0:
229,210,250639,2,0,B|130:245|130:245|8:157,1,207.999990478516,2|0,3:0|0:0,0:0:0:0:
435,33,251031,5,0,0:0:0:0:
435,33,251096,1,0,0:0:0:0:
435,33,251161,2,0,B|332:-30|200:73,1,207.999990478516,2|0,3:0|0:0,0:0:0:0:
348,209,251552,2,0,B|454:151|430:-14,1,207.999990478516,2|0,3:0|0:0,0:0:0:0:
329,92,251944,5,4,0:0:0:0:
454,253,252074,2,0,B|502:219|505:138,1,103.999995239258,0|2,0:0|0:0,0:0:0:0:
256,271,252335,2,0,B|202:246|130:284,1,103.999995239258,2|0,0:0|0:0,0:0:0:0:
85,192,252596,6,0,L|14:191,4,51.999997619629,2|0|0|0|0,0:0|0:0|0:0|0:0|0:0,0:0:0:0:
124,92,252987,1,2,0:0:0:0:
124,92,253118,2,0,B|117:18|11:23,1,103.999995239258,0|8,0:0|0:0,0:0:0:0:
239,111,253379,1,2,0:0:0:0:
239,111,253510,2,0,B|273:45|181:-8,1,103.999995239258
326,188,253770,1,8,0:0:0:0:
326,188,253901,2,0,B|388:148|336:55,1,103.999995239258
360,284,254161,1,2,0:0:0:0:
360,284,254292,2,0,B|425:318|479:226,1,103.999995239258,8|2,0:0|0:0,0:0:0:0:
190,192,254552,6,0,L|70:189,1,103.999995239258,2|2,0:0|0:0,0:0:0:0:
88,271,254813,2,0,L|208:274,1,103.999995239258,10|2,0:0|0:0,0:0:0:0:
326,188,255074,6,0,B|460:136|376:17,1,207.999990478516,10|8,0:0|0:0,0:0:0:0:
197,230,255466,2,0,B|107:342|260:389,1,207.999990478516,2|0,0:0|0:0,0:0:0:0:
287,129,255857,2,0,B|309:-12|164:0,1,207.999990478516,10|8,0:0|0:0,0:0:0:0:
259,262,256248,2,0,B|312:396|431:312,1,207.999990478516,2|2,0:0|0:0,0:0:0:0:
201,141,256639,2,0,L|72:140,2,103.999995239258,10|2|10,0:0|0:0|0:0,0:0:0:0:
64,235,257031,1,2,0:0:0:0:
64,235,257096,1,8,0:0:0:0:
64,235,257161,2,0,B|-38:132|91:26,1,223.999993164063,0|8,0:0|0:0,0:0:0:0:
448,149,257552,2,0,B|550:252|421:358,1,223.999993164063,0|2,0:0|0:0,0:0:0:0:
64,235,257944,2,0,B|-38:132|91:26,1,223.999993164063,8|8,0:0|0:0,0:0:0:0:
448,149,258335,2,0,B|550:252|421:358,1,223.999993164063,2|0,0:0|0:0,0:0:0:0:
116,145,258726,2,0,B|149:69|228:63,1,111.999996582031,2|2,0:0|0:0,0:0:0:0:
396,239,258987,2,0,B|363:315|284:321,1,111.999996582031,8|0,0:0|0:0,0:0:0:0:
208,156,259248,5,10,0:0:0:0:
304,228,259379,1,10,0:0:0:0:
144,236,259639,5,10,0:0:0:0:
368,148,259770,1,10,0:0:0:0:
252,192,260031,5,10,0:0:0:0:
252,192,260161,1,10,0:0:0:0:
88,48,260422,5,0,0:0:0:0:
46,119,260552,1,0,0:0:0:0:
117,163,260683,1,0,0:0:0:0:
161,91,260813,1,0,0:0:0:0:
88,48,260944,1,0,0:0:0:0:
46,119,261074,1,8,0:0:0:0:
117,163,261205,1,0,0:0:0:0:
161,91,261335,6,0,L|191:35,3,55.9999982910157
208,0,261596,5,4,0:0:0:0:
256,192,261726,12,0,264466,0:0:0:0:
