osu file format v14

[General]
AudioFilename: CROSSBEATS - Wanna Be Your Special (Remix ver.) Shoichiro Hirata feat. SUIMI.mp3
AudioLeadIn: 2000
PreviewTime: 67017
Countdown: 0
SampleSet: Soft
StackLeniency: 0.7
Mode: 0
LetterboxInBreaks: 0
WidescreenStoryboard: 0

[Editor]
DistanceSpacing: 1.4
BeatDivisor: 4
GridSize: 8
TimelineZoom: 2.5

[Metadata]
Title:Wanna Be Your Special (Remix ver.)
TitleUnicode:Wanna Be Your Special (Remix ver.)
Artist:Shoichiro Hirata feat. SUIMI
ArtistUnicode:Shoichiro Hirata feat. SUIMI
Creator:PuttyoU
Version:MASTER
Source:CROSS×BEATS
Tags:
BeatmapID:809891
BeatmapSetID:369606

[Difficulty]
HPDrainRate:7
CircleSize:4.3
OverallDifficulty:8.5
ApproachRate:9.3
SliderMultiplier:2
SliderTickRate:2

[Events]
//Background and Video events
0,0,"BackGround.png",0,0
//Break Periods
//Storyboard Layer 0 (Background)
//Storyboard Layer 1 (Fail)
//Storyboard Layer 2 (Pass)
//Storyboard Layer 3 (Foreground)
//Storyboard Sound Samples

[TimingPoints]
120,437.956204379562,4,2,1,40,1,0
557,-71.4285714285714,4,2,1,50,0,0
995,-100,4,2,1,50,0,0
7127,-100,4,2,1,35,0,0
8003,-100,4,2,1,40,0,0
14134,-83.3333333333333,4,2,1,50,0,0
15010,-100,4,2,1,50,0,0
16981,-83.3333333333333,4,2,1,50,0,0
18733,-66.6666666666667,4,2,1,50,0,0
20484,-55.5555555555556,4,2,1,50,0,0
22017,-100,4,2,1,50,0,0
30776,-100,4,2,1,55,0,0
32528,-100,4,2,1,60,0,0
34280,-100,4,2,1,70,0,0
36032,-142.857142857143,4,2,2,60,0,0
39536,-100,4,2,1,40,0,0
43039,-142.857142857143,4,2,1,50,0,0
46543,-100,4,2,1,40,0,0
49171,-100,4,2,1,50,0,0
49609,-166.666666666667,4,2,1,50,0,0
50047,-76.9230769230769,4,2,1,60,0,0
71068,-83.3333333333333,4,2,1,50,0,0
71944,-66.6666666666667,4,2,1,50,0,0
72382,-76.9230769230769,4,2,1,50,0,0
73696,-66.6666666666667,4,2,1,50,0,0
74134,-76.9230769230769,4,2,1,50,0,0
75886,-83.3333333333333,4,2,1,50,0,0
76324,-76.9230769230769,4,2,1,50,0,0
77200,-66.6666666666667,4,2,1,50,0,0
78076,-83.3333333333333,4,2,1,50,0,0
78952,-66.6666666666667,4,2,1,50,0,0
79390,-76.9230769230769,4,2,1,50,0,0
80703,-66.6666666666667,4,2,1,50,0,0
81141,-76.9230769230769,4,2,1,50,0,0
81579,-66.6666666666667,4,2,1,50,0,0
82017,-76.9230769230769,4,2,1,50,0,0
84207,-66.6666666666667,4,2,1,50,0,0
84645,-76.9230769230769,4,2,1,50,0,0
85083,-83.3333333333333,4,2,1,50,0,0
85955,-66.6666666666667,4,2,1,50,0,0
86397,-76.9230769230769,4,2,1,50,0,0
87711,-66.6666666666667,4,2,1,50,0,0
88154,-76.9230769230769,4,2,1,50,0,0
89901,-83.3333333333333,4,2,1,50,0,0
90338,-76.9230769230769,4,2,1,50,0,0
91214,-66.6666666666667,4,2,1,50,0,0
92090,-83.3333333333333,4,2,1,50,0,0
92966,-66.6666666666667,4,2,1,50,0,0
93404,-76.9230769230769,4,2,1,50,0,0
94718,-66.6666666666667,4,2,1,50,0,0
95156,-76.9230769230769,4,2,1,50,0,0
95594,-66.6666666666667,4,2,1,50,0,0
96032,-76.9230769230769,4,2,1,50,0,0
97346,-100,4,2,1,50,0,0
97784,-55.5555555555556,4,2,1,50,0,0
98222,-66.6666666666667,4,2,1,50,0,0
98660,-76.9230769230769,4,2,1,50,0,0
99098,-83.3333333333333,4,2,1,50,0,0
99974,-66.6666666666667,4,2,1,50,0,0
100411,-76.9230769230769,4,2,1,50,0,0
101725,-66.6666666666667,4,2,1,50,0,0
102163,-76.9230769230769,4,2,1,50,0,0
103920,-83.3333333333333,4,2,1,50,0,0
104353,-76.9230769230769,4,2,1,50,0,0
105229,-66.6666666666667,4,2,1,50,0,0
106105,-83.3333333333333,4,2,1,50,0,0
106981,-66.6666666666667,4,2,1,50,0,0
107419,-76.9230769230769,4,2,1,50,0,0
108733,-66.6666666666667,4,2,1,50,0,0
109171,-76.9230769230769,4,2,1,50,0,0
109609,-66.6666666666667,4,2,1,50,0,0
110047,-76.9230769230769,4,2,1,50,0,0
112236,-66.6666666666667,4,2,1,50,0,0
112674,-76.9230769230769,4,2,1,50,0,0
113112,-100,4,2,1,50,0,0
120119,-83.3333333333333,4,2,1,60,0,0
123623,-71.4285714285714,4,2,1,70,0,0
125375,-66.6666666666667,4,2,1,50,0,0
126689,-100,4,2,1,50,0,0

[HitObjects]
260,92,120,5,0,0:0:0:0:
224,160,265,1,0,0:0:0:0:
260,224,411,1,0,0:0:0:0:
224,288,557,6,0,B|260:224|260:224|224:160|224:160|264:88,1,209.999993591309
300,44,995,6,0,P|324:52|348:68,1,50,4|0,0:0|0:0,0:0:0:0:
472,248,1214,2,0,P|448:240|424:224,1,50
344,65,1433,2,0,L|344:117,1,50,8|0,0:0|0:0,0:0:0:0:
427,226,1652,1,2,0:0:0:0:
199,251,1871,6,0,P|199:223|191:199,1,50
15,322,2090,2,0,P|15:294|23:270,1,50
192,152,2309,2,0,L|192:212,1,50,8|0,0:0|0:0,0:0:0:0:
21,273,2528,1,2,0:0:0:0:
352,184,2747,6,0,P|372:164|400:152,1,50
206,199,2966,2,0,P|226:179|254:167,1,50
85,164,3185,2,0,L|41:188,1,50,8|0,0:0|0:0,0:0:0:0:
206,199,3404,1,2,0:0:0:0:
235,43,3623,6,0,L|279:71,1,50
377,290,3842,2,0,L|334:263,1,50
277,69,4061,2,0,L|321:97,1,50,8|0,0:0|0:0,0:0:0:0:
377,290,4280,1,2,0:0:0:0:
318,171,4499,6,0,P|314:143|318:115,1,50
194,67,4718,2,0,P|198:39|194:11,1,50
319,220,4937,2,0,P|315:192|319:164,1,50,8|0,0:0|0:0,0:0:0:0:
199,71,5156,1,2,0:0:0:0:
352,236,5375,6,0,P|364:256|368:284,1,50
157,273,5594,2,0,P|156:296|144:321,1,50
398,221,5813,2,0,P|377:232|349:236,1,50,8|0,0:0|0:0,0:0:0:0:
157,273,6032,1,2,0:0:0:0:
216,125,6251,6,0,L|235:171,1,50
370,282,6470,2,0,L|351:236,1,50
344,108,6689,2,0,L|298:127,1,50,8|0,0:0|0:0,0:0:0:0:
236,172,6908,1,8,0:0:0:0:
200,236,7017,1,8,0:0:0:0:
184,308,7127,6,0,B|136:292|136:292|136:236,1,100
128,28,7455,1,2,0:0:0:0:
128,28,7565,2,0,B|176:44|176:44|176:100,1,100,8|0,0:0|0:0,0:0:0:0:
252,224,8003,5,8,0:0:0:0:
292,288,8112,1,0,0:0:0:0:
368,296,8222,1,0,0:0:0:0:
432,260,8331,1,0,0:0:0:0:
448,188,8441,2,0,L|424:132,1,50,10|0,0:0|0:0,0:0:0:0:
248,52,8660,2,0,L|272:108,1,50,2|0,0:0|0:0,0:0:0:0:
252,256,8879,5,8,0:0:0:0:
184,288,8988,1,0,0:0:0:0:
112,268,9098,1,0,0:0:0:0:
80,200,9207,1,0,0:0:0:0:
88,124,9317,2,0,L|136:92,1,50,10|0,0:0|0:0,0:0:0:0:
332,96,9536,2,0,L|284:128,1,50,2|0,0:0|0:0,0:0:0:0:
208,260,9755,5,8,0:0:0:0:
172,324,9864,1,0,0:0:0:0:
248,312,9974,1,0,0:0:0:0:
320,300,10083,1,0,0:0:0:0:
392,284,10192,2,0,L|452:272,1,50,10|0,0:0|0:0,0:0:0:0:
424,68,10411,2,0,L|397:123,1,50,2|0,0:0|0:0,0:0:0:0:
240,192,10630,5,8,0:0:0:0:
168,208,10740,1,0,0:0:0:0:
100,236,10849,1,0,0:0:0:0:
108,160,10959,1,0,0:0:0:0:
84,100,11068,5,10,0:0:0:0:
28,64,11178,1,0,0:0:0:0:
84,32,11287,1,2,0:0:0:0:
148,32,11397,1,0,0:0:0:0:
196,56,11506,5,8,0:0:0:0:
228,100,11616,1,0,0:0:0:0:
248,152,11725,1,0,0:0:0:0:
240,208,11835,1,0,0:0:0:0:
212,256,11944,5,10,0:0:0:0:
212,256,13915,2,0,L|212:192,1,50,0|2,0:0|0:0,0:0:0:0:
220,140,14134,6,0,B|256:112|256:112|288:168|260:224|236:244,1,179.999994506836,0|2,0:0|0:0,0:0:0:0:
176,248,14572,2,0,B|136:248|136:248|168:272|168:272|224:260|224:260|264:272,1,179.999994506836
336,296,15010,5,4,0:0:0:0:
464,240,15229,2,0,B|480:192|480:192|464:144,1,100,2|0,0:0|0:0,0:0:0:0:
48,144,15667,2,0,B|32:192|32:192|48:240,1,100,2|0,0:0|0:0,0:0:0:0:
464,144,16105,2,0,B|480:192|480:192|464:238,1,100,2|0,0:0|0:0,0:0:0:0:
48,240,16543,2,0,B|32:192|32:192|47:145,1,100,2|0,0:0|0:0,0:0:0:0:
432,264,16981,6,0,B|488:248|488:248|512:192,1,119.999996337891,2|0,0:0|0:0,0:0:0:0:
80,120,17419,2,0,B|24:136|24:136|0:192,1,119.999996337891,2|0,0:0|0:0,0:0:0:0:
512,190,17857,2,0,B|488:134|488:134|432:118,1,119.999996337891,2|0,0:0|0:0,0:0:0:0:
0,193,18295,2,0,B|24:249|24:249|80:265,1,119.999996337891,2|0,0:0|0:0,0:0:0:0:
512,306,18733,6,0,B|512:232|512:232|448:192,1,150.000005722046,2|0,0:0|0:0,0:0:0:0:
0,77,19171,2,0,B|0:152|0:152|64:192,1,150.000005722046,2|0,0:0|0:0,0:0:0:0:
512,77,19609,2,0,B|512:152|512:152|448:192,1,150.000005722046,2|0,0:0|0:0,0:0:0:0:
0,306,20047,2,0,B|0:232|0:232|64:192,1,150.000005722046,2|0,0:0|0:0,0:0:0:0:
510,142,20484,6,0,L|480:320,1,179.999994506836,2|0,0:0|0:0,0:0:0:0:
1,241,20922,2,0,L|32:64,1,179.999994506836,2|0,0:0|0:0,0:0:0:0:
480,64,21360,2,0,L|510:241,1,179.999994506836,2|0,0:0|0:0,0:0:0:0:
32,320,21798,2,0,L|1:142,1,179.999994506836,2|4,0:0|1:0,0:0:0:0:
352,56,22455,5,0,1:0:0:0:
235,84,22893,1,0,1:0:0:0:
122,110,23331,1,0,1:0:0:0:
88,364,23769,5,4,1:0:0:0:
196,16,24207,5,0,1:0:0:0:
160,132,24645,1,0,1:0:0:0:
124,248,25083,1,0,1:0:0:0:
480,240,25521,5,4,1:0:0:0:
132,336,25959,5,0,1:0:0:0:
248,304,26397,1,0,1:0:0:0:
364,272,26835,1,0,1:0:0:0:
208,48,27273,5,0,1:0:0:0:
320,328,27711,1,0,1:0:0:0:
40,216,28149,1,0,1:0:0:0:
460,148,28587,1,0,1:0:0:0:
90,161,29025,5,4,1:0:0:0:
423,185,29244,1,0,1:0:0:0:
388,107,29463,1,0,1:0:0:0:
140,87,29682,1,0,1:0:0:0:
423,185,29901,5,0,1:0:0:0:
140,87,30119,1,0,1:0:0:0:
90,161,30338,1,0,1:0:0:0:
388,107,30557,1,0,1:0:0:0:
81,277,30776,5,0,1:0:0:0:
388,107,30995,1,0,1:0:0:0:
140,87,31214,1,0,1:0:0:0:
411,303,31433,1,0,1:0:0:0:
388,107,31652,5,0,1:0:0:0:
81,277,31871,1,0,1:0:0:0:
140,87,32090,1,0,1:0:0:0:
411,303,32309,1,0,1:0:0:0:
176,332,32528,5,0,1:0:0:0:
164,283,32637,1,0,1:0:0:0:
152,234,32746,1,0,1:0:0:0:
141,186,32856,1,0,1:0:0:0:
140,112,32966,5,0,1:0:0:0:
157,64,33075,1,0,1:0:0:0:
213,81,33184,1,0,1:0:0:0:
266,56,33294,1,0,1:0:0:0:
344,52,33404,5,0,1:0:0:0:
406,69,33513,1,0,1:0:0:0:
433,110,33622,1,0,1:0:0:0:
376,143,33732,1,0,1:0:0:0:
312,196,33842,5,0,1:0:0:0:
284,260,33951,1,0,1:0:0:0:
335,307,34060,1,0,1:0:0:0:
401,313,34170,1,0,1:0:0:0:
420,224,34280,5,0,1:0:0:0:
416,192,34390,1,0,1:0:0:0:
348,128,34499,1,0,1:0:0:0:
344,96,34609,1,0,1:0:0:0:
254,67,34718,1,0,1:0:0:0:
225,51,34828,1,0,1:0:0:0:
133,61,34937,1,0,1:0:0:0:
102,73,35047,1,0,1:0:0:0:
88,180,35156,5,0,1:0:0:0:
155,182,35265,1,0,1:0:0:0:
224,264,35375,1,0,1:0:0:0:
246,326,35484,1,0,1:0:0:0:
355,317,35594,1,0,1:0:0:0:
382,256,35703,1,0,1:0:0:0:
345,155,35813,1,0,1:0:0:0:
365,91,35922,1,0,1:0:0:0:
444,48,36032,6,0,B|471:11|471:11|501:68|482:131|445:182|445:182|412:222|375:297|452:377|452:377|497:349|516:297|497:211|446:182|446:182|392:127|335:154|297:242|309:305|309:305|243:282|243:282|214:319|214:319|169:298,1,1084.99996688843,4|0,0:0|0:0,0:0:0:0:
52,232,39536,6,0,L|0:212,1,50
52,148,39755,2,0,L|8:112,1,50
88,76,39974,6,0,L|44:28,1,50
172,60,40192,2,0,L|144:12,1,50
208,128,40411,6,0,L|196:192,1,50
308,124,40630,2,0,L|294:178,1,50
400,160,40849,6,0,L|377:211,1,50
476,216,41068,2,0,L|444:262,1,50
364,344,41287,5,0,0:0:0:0:
304,346,41397,1,0,0:0:0:0:
245,339,41506,1,0,0:0:0:0:
206,293,41616,1,0,0:0:0:0:
192,236,41725,6,0,B|220:120|220:120|228:80|228:80|264:60|264:60|288:72|288:72|300:100|300:100|296:128|296:128|272:140|272:140|224:132|224:132|146:149|146:149|104:204,1,500
36,288,43039,6,0,B|8:340|8:340|92:288|120:228|248:240|280:292|280:292|156:348|156:348|192:252|192:252|124:184,1,699.999978637696
113,87,45448,6,0,B|82:48|97:0|162:-1|183:37|140:85|140:85|136:88|111:115|125:127|125:127|141:140|126:155|126:155|105:171|134:228,1,314.999990386963
200,236,46543,6,0,L|192:296,1,50
276,280,46762,2,0,L|268:340,1,50
368,256,46981,2,0,L|360:316,1,50
460,208,47200,2,0,L|452:268,1,50
420,108,47419,5,0,0:0:0:0:
380,76,47528,1,0,0:0:0:0:
328,72,47638,1,0,0:0:0:0:
280,84,47747,1,0,0:0:0:0:
220,148,47857,5,0,0:0:0:0:
172,160,47966,1,0,0:0:0:0:
124,152,48076,1,0,0:0:0:0:
88,116,48185,1,0,0:0:0:0:
144,52,48295,5,0,0:0:0:0:
164,96,48404,1,0,0:0:0:0:
156,144,48514,1,0,0:0:0:0:
128,188,48623,1,0,0:0:0:0:
64,240,48733,5,0,0:0:0:0:
76,288,48842,1,0,0:0:0:0:
116,320,48952,1,0,0:0:0:0:
164,328,49061,1,0,0:0:0:0:
256,288,49171,6,0,L|252:236,1,50
328,96,49390,2,0,L|332:156,1,50
291,336,49609,6,0,L|289:234,1,89.9999972534181
296,40,50047,6,0,B|236:24|184:56|184:56|204:84,1,129.999994049073,8|0,3:0|0:0,0:0:0:0:
244,132,50375,1,2,0:0:0:0:
268,212,50484,2,0,B|288:272|288:280|288:280|288:288|276:308|268:312|268:312|264:312|236:288,1,129.999994049073,8|0,3:0|0:0,0:0:0:0:
48,224,50922,5,8,3:0:0:0:
48,224,51032,2,0,P|112:236|184:224,1,129.999994049073,0|2,0:0|0:0,0:0:0:0:
160,124,51360,2,0,P|202:160|176:232,1,129.999994049073,8|0,3:0|0:0,0:0:0:0:
320,346,51798,6,0,P|303:294|324:221,1,129.999994049073,8|0,3:0|0:0,0:0:0:0:
391,172,52127,1,2,0:0:0:0:
310,193,52236,2,0,L|181:226,1,129.999994049073,8|0,3:0|0:0,0:0:0:0:
473,81,52674,5,8,3:0:0:0:
473,81,52784,2,0,L|451:221,1,129.999994049073,0|2,0:0|0:0,0:0:0:0:
395,272,53112,2,0,B|373:298|373:298|343:246|343:246|241:240,1,194.999991073609,8|0,3:0|0:0,0:0:0:0:
177,204,53550,6,0,L|113:171,1,64.9999970245363,8|0,3:0|0:0,0:0:0:0:
223,25,53769,2,0,L|287:58,1,64.9999970245363,0|2,0:0|0:0,0:0:0:0:
341,116,53988,1,8,3:0:0:0:
362,198,54098,1,0,0:0:0:0:
331,276,54207,1,0,0:0:0:0:
252,307,54317,1,0,0:0:0:0:
199,241,54426,5,8,3:0:0:0:
192,198,54535,1,0,0:0:0:0:
186,155,54644,1,0,0:0:0:0:
179,112,54754,1,2,0:0:0:0:
72,112,54864,6,0,L|62:184,1,64.9999970245363,8|0,3:0|0:0,0:0:0:0:
61,186,55083,2,0,L|51:258,1,64.9999970245363
145,323,55302,5,8,3:0:0:0:
206,305,55411,1,0,0:0:0:0:
239,251,55520,1,0,0:0:0:0:
228,189,55630,1,2,0:0:0:0:
157,142,55740,5,8,3:0:0:0:
162,78,55849,1,0,0:0:0:0:
202,29,55958,1,0,0:0:0:0:
264,12,56068,1,0,0:0:0:0:
341,55,56178,5,8,3:0:0:0:
357,91,56287,2,0,L|336:226,1,129.999994049073,0|2,0:0|0:0,0:0:0:0:
299,299,56616,2,0,B|358:210|358:210|308:232,1,129.999994049073,8|0,3:0|0:0,0:0:0:0:
132,25,57054,6,0,P|187:71|192:135,1,129.999994049073,8|0,3:0|0:0,0:0:0:0:
152,199,57382,1,2,0:0:0:0:
104,269,57492,2,0,P|144:315|223:313,1,129.999994049073,8|0,3:0|0:0,0:0:0:0:
426,235,57930,5,8,3:0:0:0:
426,235,58039,2,0,P|339:264|285:259,1,129.999994049073,0|2,0:0|0:0,0:0:0:0:
177,235,58368,2,0,P|264:264|318:259,1,129.999994049073,8|0,3:0|0:0,0:0:0:0:
499,78,58806,6,0,P|433:40|377:31,1,129.999994049073,8|0,3:0|0:0,0:0:0:0:
300,59,59134,1,2,0:0:0:0:
326,139,59244,2,0,P|324:215|289:276,1,129.999994049073,8|0,3:0|0:0,0:0:0:0:
203,89,59682,5,8,3:0:0:0:
203,89,59791,2,0,P|236:157|286:170,1,129.999994049073,0|2,0:0|0:0,0:0:0:0:
279,274,60119,2,0,B|365:251|384:226|351:184|267:166,1,194.999991073609,8|0,3:0|0:0,0:0:0:0:
208,178,60557,6,0,L|141:200,1,64.9999970245363,8|0,3:0|0:0,0:0:0:0:
10,77,60776,2,0,L|77:55,1,64.9999970245363,0|2,0:0|0:0,0:0:0:0:
174,44,60995,1,8,3:0:0:0:
246,88,61105,1,0,0:0:0:0:
261,170,61214,1,0,0:0:0:0:
223,245,61324,1,0,0:0:0:0:
163,304,61433,5,8,3:0:0:0:
205,296,61542,1,0,0:0:0:0:
248,288,61651,1,0,0:0:0:0:
290,280,61761,1,2,0:0:0:0:
372,257,61871,5,8,3:0:0:0:
380,214,61980,1,0,0:0:0:0:
388,171,62089,1,0,0:0:0:0:
397,129,62199,1,0,0:0:0:0:
351,57,62309,6,0,L|283:33,1,64.9999970245363,8|0,3:0|0:0,0:0:0:0:
228,101,62528,2,0,L|156:111,1,64.9999970245363,0|2,0:0|0:0,0:0:0:0:
94,160,62747,5,8,3:0:0:0:
76,199,62856,1,0,0:0:0:0:
77,242,62965,1,0,0:0:0:0:
97,280,63075,1,0,0:0:0:0:
174,314,63185,5,8,3:0:0:0:
230,251,63295,1,0,0:0:0:0:
216,168,63404,1,0,0:0:0:0:
168,97,63514,1,2,0:0:0:0:
92,65,63623,5,8,3:0:0:0:
180,41,63733,1,0,0:0:0:0:
265,72,63842,1,0,0:0:0:0:
305,153,63952,1,0,0:0:0:0:
302,243,64061,6,0,L|344:304,1,64.9999970245363,8|0,3:0|0:0,0:0:0:0:
407,152,64280,2,0,L|365:91,1,64.9999970245363,0|2,0:0|0:0,0:0:0:0:
183,75,64499,2,0,P|154:94|141:131,1,64.9999970245363,8|0,3:0|0:0,0:0:0:0:
147,282,64718,2,0,P|127:310|91:324,1,64.9999970245363
74,164,64937,5,8,3:0:0:0:
115,114,65046,1,0,0:0:0:0:
171,82,65155,1,0,0:0:0:0:
235,74,65265,1,2,0:0:0:0:
229,159,65375,5,8,3:0:0:0:
296,209,65484,1,0,0:0:0:0:
380,209,65594,1,0,0:0:0:0:
456,173,65703,1,0,0:0:0:0:
390,89,65813,5,8,3:0:0:0:
344,160,65922,1,0,0:0:0:0:
347,244,66032,1,0,0:0:0:0:
379,321,66141,1,2,0:0:0:0:
291,336,66251,5,8,3:0:0:0:
226,343,66360,1,0,0:0:0:0:
161,350,66469,1,0,0:0:0:0:
97,357,66579,1,0,0:0:0:0:
47,288,66689,5,8,3:0:0:0:
105,282,66798,1,0,0:0:0:0:
163,276,66907,1,0,0:0:0:0:
221,270,67017,1,2,0:0:0:0:
179,197,67127,5,8,3:0:0:0:
127,201,67236,1,0,0:0:0:0:
75,205,67345,1,0,0:0:0:0:
23,211,67455,1,0,0:0:0:0:
29,100,67565,6,0,P|63:154|75:229,1,129.999994049073,8|0,3:0|0:0,0:0:0:0:
42,296,67893,1,2,0:0:0:0:
119,262,68003,2,0,P|221:267|270:287,1,129.999994049073,8|0,3:0|0:0,0:0:0:0:
368,42,68441,6,0,P|389:113|365:182,1,129.999994049073,8|0,3:0|0:0,0:0:0:0:
320,230,68769,1,2,0:0:0:0:
263,167,68879,2,0,P|249:104|270:43,1,129.999994049073,8|0,3:0|0:0,0:0:0:0:
320,230,69317,6,0,B|281:231|281:231|232:267|232:267|191:268,1,129.999994049073,8|0,3:0|0:0,0:0:0:0:
117,271,69645,1,2,0:0:0:0:
135,153,69755,2,0,B|134:192|134:192|98:241|98:241|97:282,1,129.999994049073,8|0,3:0|0:0,0:0:0:0:
256,192,70192,12,0,70849,0:0:0:0:
203,151,71068,6,0,B|189:153|181:165|181:165|169:161|157:165|157:165|149:153|137:145|137:145|140:129|137:113|137:113|149:105|157:93|157:93|169:97|181:93|181:93|189:105|201:109,1,179.999994506836,4|0,0:0|0:0,0:0:0:0:
208,180,71506,2,0,B|220:188|220:188|236:180|236:180|252:188|252:188|268:180|268:180|284:188|284:188|300:180|300:180|316:188|316:188|332:180|332:180|352:188|352:188|368:180|368:180|384:188,1,179.999994506836,8|0,0:0|0:0,0:0:0:0:
460,148,71944,6,0,B|404:168|404:168|404:212|404:212|364:236|364:236|364:280|364:280|332:292,1,225.000008583069,8|0,0:0|0:0,0:0:0:0:
200,344,72382,6,0,B|192:308|192:308|200:276,1,64.9999970245363,2|0,0:0|0:0,0:0:0:0:
232,144,72601,2,0,B|240:108|240:108|232:76,1,64.9999970245363,2|2,0:0|0:0,0:0:0:0:
232,28,72820,6,0,L|232:172,1,129.999994049073,8|0,0:0|0:0,0:0:0:0:
232,244,73149,1,2,0:0:0:0:
140,296,73258,2,0,L|80:336,1,64.9999970245363,2|0,0:0|0:0,0:0:0:0:
320,296,73477,2,0,L|380:336,1,64.9999970245363,2|0,0:0|0:0,0:0:0:0:
352,104,73696,6,0,B|396:92|424:112|444:132|460:168|440:212|416:244|352:232,1,225.000008583069,8|0,0:0|0:0,0:0:0:0:
372,168,74134,6,0,B|336:172|336:172|272:188|272:188|211:187|211:187|240:164,1,194.999991073609,4|0,0:0|0:0,0:0:0:0:
88,36,74572,6,0,B|84:52|84:52|92:68|92:68|84:84|84:84|92:100|92:100|84:120|84:120|92:132|92:132|84:148|84:148|92:164|92:164|84:180|84:180|112:120,1,194.999991073609,2|0,0:0|0:0,0:0:0:0:
200,0,75010,6,0,B|196:16|196:16|204:32|204:32|196:48|196:48|204:64|204:64|196:84|196:84|204:96|204:96|196:112|196:112|204:128|204:128|196:144|196:144|224:84,1,194.999991073609,2|0,0:0|0:0,0:0:0:0:
324,48,75448,5,8,0:0:0:0:
356,124,75557,1,8,0:0:0:0:
324,204,75667,1,8,0:0:0:0:
356,284,75776,1,8,0:0:0:0:
320,360,75886,6,0,B|360:284|360:284|324:204|324:204|336:184,1,179.999994506836,8|0,0:0|0:0,0:0:0:0:
356,124,76324,6,0,B|376:96|376:96|252:96|252:96|276:124,1,194.999991073609,8|0,0:0|0:0,0:0:0:0:
248,308,76762,2,0,P|232:337|208:356,1,64.9999970245363,2|0,0:0|0:0,0:0:0:0:
8,188,76981,2,0,P|23:217|48:236,1,64.9999970245363,2|2,0:0|0:0,0:0:0:0:
204,96,77200,6,0,B|184:88|184:88|180:72|180:72|184:56|184:56|200:44|200:44|216:44|216:44|232:56|232:56|236:72|236:72|232:88|232:88|228:100|228:100|232:112|232:112|228:128|228:128|232:144|232:144|228:160|228:160|232:176,1,225.000008583069,8|0,0:0|0:0,0:0:0:0:
204,96,77638,2,0,B|216:104|216:104|232:96|232:96|248:104|248:104|264:96|264:96|280:104|280:104|296:96|296:96|312:104|312:104|328:96|328:96|348:104|348:104|364:96|364:96|380:104|380:104|396:96|396:96|408:104,1,225.000008583069,8|0,0:0|0:0,0:0:0:0:
408,188,78076,6,0,B|422:189|432:179|432:179|443:186|456:185|456:185|460:199|470:209|470:209|463:224|462:240|462:240|449:245|438:255|438:255|427:248|415:249|415:249|410:236|399:229,1,179.999994506836,4|0,0:0|0:0,0:0:0:0:
268,268,78514,2,0,B|282:268|282:268|292:254|292:254|310:252|310:252|319:238|319:238|337:236|337:236|347:222|347:222|365:220|365:220|375:206|375:206|396:202|396:202|406:188|406:188|424:186,1,179.999994506836,8|0,0:0|0:0,0:0:0:0:
364,148,78952,6,0,B|318:109|318:109|280:131|280:131|239:108|239:108|201:130|201:130|175:109,1,225.000008583069,8|0,0:0|0:0,0:0:0:0:
432,108,79390,6,0,L|368:148,1,64.9999970245363,2|0,0:0|0:0,0:0:0:0:
164,96,79609,2,0,L|109:43,1,64.9999970245363,2|2,0:0|0:0,0:0:0:0:
320,156,79828,6,0,B|364:216|320:276,1,129.999994049073,8|0,0:0|0:0,0:0:0:0:
264,216,80156,1,2,0:0:0:0:
368,108,80265,2,0,L|413:62,1,64.9999970245363,2|0,0:0|0:0,0:0:0:0:
368,324,80484,2,0,L|413:369,1,64.9999970245363,2|0,0:0|0:0,0:0:0:0:
216,280,80703,6,0,B|170:281|147:256|132:232|125:193|154:154|185:129|244:155,1,225.000008583069,8|0,0:0|0:0,0:0:0:0:
210,213,81141,6,0,B|206:181|206:181|206:113|206:113|192:76|192:76|180:132,1,194.999991073609,4|0,0:0|0:0,0:0:0:0:
108,252,81579,6,0,B|32:224|32:224|56:264|56:264|124:288|124:288|148:280,1,225.000008583069,8|0,0:0|0:0,0:0:0:0:
244,244,82017,5,2,0:0:0:0:
448,120,82163,1,2,0:0:0:0:
240,40,82309,1,2,0:0:0:0:
324,296,82455,6,0,B|320:264|320:264|324:232|324:232|320:196|320:196|324:160|324:160|320:132|320:132|324:92,1,194.999991073609,8|0,0:0|0:0,0:0:0:0:
112,132,82893,2,0,L|180:160,1,64.9999970245363,2|0,0:0|0:0,0:0:0:0:
504,240,83112,2,0,L|436:268,1,64.9999970245363,2|2,0:0|0:0,0:0:0:0:
243,295,83331,6,0,B|223:323|223:323|347:323|347:323|323:295,1,194.999991073609,8|0,0:0|0:0,0:0:0:0:
220,216,83769,2,0,P|212:180|220:148,1,64.9999970245363,2|0,0:0|0:0,0:0:0:0:
328,80,83988,2,0,P|336:44|328:12,1,64.9999970245363,2|2,0:0|0:0,0:0:0:0:
264,80,84207,6,0,B|248:114|277:143|317:168|355:158|378:141|402:116|396:70,1,225.000008583069,8|0,0:0|0:0,0:0:0:0:
328,80,84645,6,0,B|313:80|313:80|305:96|305:96|288:100|288:100|280:116|280:116|262:119|262:119|254:135|254:135|236:138|236:138|228:154|228:154|208:160|208:160|200:176|200:176|182:179,1,194.999991073609,4|0,0:0|0:0,0:0:0:0:
73,284,85083,6,0,B|54:306|54:306|102:305|102:305|117:282|117:282|160:280|160:280|140:309,1,179.999994506836,4|0,0:0|0:0,0:0:0:0:
73,283,85521,2,0,B|73:201|73:201|88:220|88:220|88:145,1,179.999994506836,8|0,0:0|0:0,0:0:0:0:
120,17,85959,6,0,B|132:93|132:93|121:171|121:171|152:100,1,225.000008583069,8|0,0:0|0:0,0:0:0:0:
272,12,86397,6,0,B|308:14|308:14|345:32,1,64.9999970245363,2|0,0:0|0:0,0:0:0:0:
496,168,86616,2,0,B|467:189|467:189|427:199,1,64.9999970245363,2|2,0:0|0:0,0:0:0:0:
275,303,86835,6,0,L|275:169,1,129.999994049073,8|0,0:0|0:0,0:0:0:0:
275,94,87163,1,2,0:0:0:0:
188,155,87273,2,0,L|137:196,1,64.9999970245363,2|0,0:0|0:0,0:0:0:0:
362,155,87492,2,0,L|408:200,1,64.9999970245363,2|0,0:0|0:0,0:0:0:0:
210,298,87711,6,0,B|201:330|217:363|251:385|292:387|328:365|348:331|340:294,1,225.000008583069,8|0,0:0|0:0,0:0:0:0:
332,208,88149,6,0,B|279:240|274:302|274:302|271:240|225:207,1,225.000008583069,4|0,0:0|0:0,0:0:0:0:
126,104,88587,6,0,B|92:180|92:180|84:168|84:168|92:156|92:156|84:144|84:144|92:132|92:132|84:120|84:120|92:108|92:108|84:96|84:96|92:84|92:84|84:68|84:68|84:56,1,194.999991073609,2|0,0:0|0:0,0:0:0:0:
240,100,89025,6,0,B|274:176|274:176|282:164|282:164|274:152|274:152|282:140|282:140|274:128|274:128|282:116|282:116|274:104|274:104|282:92|282:92|274:80|274:80|282:64|282:64|282:52,1,194.999991073609,2|0,0:0|0:0,0:0:0:0:
144,104,89463,5,8,0:0:0:0:
216,148,89572,1,8,0:0:0:0:
144,192,89682,1,8,0:0:0:0:
216,236,89791,1,8,0:0:0:0:
144,280,89901,6,0,B|216:236|216:236|216:148|216:148|188:132,1,179.999994506836,8|0,0:0|0:0,0:0:0:0:
344,56,90338,6,0,B|364:28|364:28|240:28|240:28|264:56,1,194.999991073609,8|0,0:0|0:0,0:0:0:0:
180,272,90776,2,0,P|180:312|200:340,1,64.9999970245363,2|0,0:0|0:0,0:0:0:0:
464,148,90995,2,0,P|464:188|444:216,1,64.9999970245363,2|2,0:0|0:0,0:0:0:0:
264,104,91214,6,0,B|256:84|256:84|240:80|240:80|224:84|224:84|212:100|212:100|212:116|212:116|224:132|224:132|240:136|240:136|256:132|256:132|268:128|268:128|280:132|280:132|296:128|296:128|312:132|312:132|328:128|328:128|344:132,1,225.000008583069,8|0,0:0|0:0,0:0:0:0:
264,104,91652,2,0,B|255:98|255:98|239:106|239:106|223:98|223:98|207:106|207:106|187:98|187:98|171:106|171:106|155:98|155:98|139:106|139:106|123:98|123:98|107:106|107:106|91:98|91:98|75:106|75:106|63:98,1,225.000008583069,8|0,0:0|0:0,0:0:0:0:
63,98,92090,6,0,B|77:99|87:89|87:89|98:96|111:95|111:95|115:109|125:119|125:119|118:134|117:150|117:150|104:155|93:165|93:165|82:158|70:159|70:159|65:146|54:139,1,179.999994506836,4|0,0:0|0:0,0:0:0:0:
64,68,92528,2,0,B|88:56|88:56|108:68|108:68|132:68|132:68|140:88|140:88|156:104|156:104|148:124|148:124|152:144|152:144|144:164,1,179.999994506836,8|0,0:0|0:0,0:0:0:0:
112,268,92966,6,0,B|80:292|80:292|140:279|140:279|156:287|156:287|172:278|172:278|224:290|224:290|199:262,1,225.000008583069,8|0,0:0|0:0,0:0:0:0:
232,76,93404,6,0,B|224:44|224:44|224:8,1,64.9999970245363,2|0,0:0|0:0,0:0:0:0:
448,224,93623,2,0,B|456:256|456:256|456:292,1,64.9999970245363,2|2,0:0|0:0,0:0:0:0:
256,208,93842,6,0,L|156:296,1,129.999994049073,8|0,0:0|0:0,0:0:0:0:
92,348,94171,1,2,0:0:0:0:
158,293,94280,2,0,L|97:317,1,64.9999970245363,2|0,0:0|0:0,0:0:0:0:
256,208,94499,2,0,L|317:182,1,64.9999970245363,2|0,0:0|0:0,0:0:0:0:
447,184,94718,6,0,B|455:151|439:118|405:96|364:94|328:116|308:150|316:187,1,225.000008583069,8|0,0:0|0:0,0:0:0:0:
294,52,95156,6,0,B|298:88|298:88|314:152|314:152|315:182|315:182|327:114,1,194.999991073609,4|0,0:0|0:0,0:0:0:0:
184,144,95594,6,0,B|156:188|156:188|200:188|200:188|200:276|200:276|160:276,1,225.000008583069,8|0,0:0|0:0,0:0:0:0:
84,316,96032,5,2,0:0:0:0:
8,88,96178,1,2,0:0:0:0:
244,16,96324,1,2,0:0:0:0:
368,224,96470,6,0,B|404:244|404:244|352:240|352:240|296:252|248:240,1,194.999991073609,8|0,0:0|0:0,0:0:0:0:
120,68,96908,2,0,P|104:100|100:136,1,64.9999970245363,2|0,0:0|0:0,0:0:0:0:
392,68,97127,2,0,P|408:100|412:136,1,64.9999970245363,2|2,0:0|0:0,0:0:0:0:
232,312,97346,6,0,B|220:289|220:289|232:266|232:266|254:255|254:255|277:266|277:266|288:289|288:289|277:312|277:312,1,150,4|0,0:0|0:0,0:0:0:0:
334,312,97784,6,0,B|334:258|334:258|174:258|174:258|174:314,1,269.999991760254
147,312,98222,6,0,B|208:288|256:288|256:288|304:288|366:312,1,225.000008583069
256,344,98660,6,0,B|248:312|248:312|256:280|256:280|264:248|264:248|256:216|256:216|248:184|248:184|256:152|256:152|264:120,1,194.999991073609
270,66,99098,6,0,B|326:71|367:57|367:57|399:70|399:70|377:82|344:69,1,179.999994506836,4|0,0:0|0:0,0:0:0:0:
372,174,99536,2,0,B|372:212|372:212|342:135|352:72,1,179.999994506836,8|0,0:0|0:0,0:0:0:0:
270,66,99974,6,0,B|270:90|270:90|246:98|246:98|222:106|246:130|246:130|262:162|262:162|286:234|254:266,1,225.000008583069,8|0,0:0|0:0,0:0:0:0:
112,336,100411,6,0,P|88:312|80:280,1,64.9999970245363,2|0,0:0|0:0,0:0:0:0:
270,66,100630,2,0,P|300:74|323:97,1,64.9999970245363,2|2,0:0|0:0,0:0:0:0:
376,304,100849,6,0,L|232:304,1,129.999994049073,8|0,0:0|0:0,0:0:0:0:
162,286,101178,1,2,0:0:0:0:
108,220,101287,2,0,B|104:184|104:184|109:153,1,64.9999970245363,2|0,0:0|0:0,0:0:0:0:
328,40,101506,2,0,B|332:76|332:76|327:107,1,64.9999970245363,2|0,0:0|0:0,0:0:0:0:
240,280,101725,6,0,B|184:328|184:328|256:360|256:360|320:304,1,225.000008583069,8|0,0:0|0:0,0:0:0:0:
388,329,102163,6,0,B|359:239|359:239|303:281|303:281|309:312,1,194.999991073609,4|0,0:0|0:0,0:0:0:0:
208,144,102601,6,0,B|200:136|200:136|184:152|184:152|168:136|168:136|152:152|152:152|136:136|136:136|120:152|120:152|104:144|104:144|80:152|80:152|104:168,1,194.999991073609,2|0,0:0|0:0,0:0:0:0:
256,240,103039,6,0,B|264:248|264:248|280:232|280:232|296:248|296:248|312:232|312:232|328:248|328:248|344:232|344:232|360:240|360:240|384:232|384:232|360:216,1,194.999991073609,2|0,0:0|0:0,0:0:0:0:
264,104,103477,5,8,0:0:0:0:
256,72,103587,1,8,0:0:0:0:
168,72,103696,1,8,0:0:0:0:
151,43,103806,1,8,0:0:0:0:
72,8,103915,6,0,B|48:56|48:56|64:104|64:104|48:152|48:152|64:192,1,194.999991073609,8|0,0:0|0:0,0:0:0:0:
153,297,104353,6,0,P|228:280|188:346,1,194.999991073609,8|0,0:0|0:0,0:0:0:0:
156,73,104791,2,0,P|192:63|228:73,1,64.9999970245363,2|0,0:0|0:0,0:0:0:0:
398,274,105010,2,0,P|407:310|397:346,1,64.9999970245363,2|2,0:0|0:0,0:0:0:0:
153,297,105229,6,0,B|145:317|145:317|129:321|129:321|113:317|113:317|101:301|101:301|101:285|101:285|113:269|113:269|129:265|129:265|145:269|145:269|157:273|157:273|169:269|169:269|185:273|185:273|201:269|201:269|217:273|217:273|233:269,1,225.000008583069,8|0,0:0|0:0,0:0:0:0:
158,96,105667,2,0,B|152:105|152:105|160:121|160:121|152:137|152:137|160:153|160:153|152:173|152:173|160:189|160:189|152:205|152:205|160:221|160:221|152:237|152:237|160:253|160:253|152:269|152:269|160:285|160:285|152:297,1,225.000008583069,8|0,0:0|0:0,0:0:0:0:
359,279,106105,6,0,B|357:281|343:279|343:279|338:290|327:296|327:296|330:310|328:324|328:324|341:333|350:346|350:346|364:343|378:346|378:346|384:334|395:328|395:328|392:315|400:303,1,179.999994506836,4|0,0:0|0:0,0:0:0:0:
371,70,106543,2,0,B|358:62|356:48|356:48|343:48|333:40|333:40|322:49|308:51|308:51|305:67|296:81|296:81|304:93|307:107|307:107|321:108|330:115|330:115|341:108|344:109,1,179.999994506836,8|0,0:0|0:0,0:0:0:0:
359,279,106981,6,0,B|358:277|358:277|374:237|374:237|358:197|358:197|374:157|374:157|358:117|358:117|375:78|375:78|369:67,1,225.000008583069,8|0,0:0|0:0,0:0:0:0:
201,320,107419,6,0,B|177:307|177:307|153:279,1,64.9999970245363,2|0,0:0|0:0,0:0:0:0:
189,28,107638,2,0,B|165:41|165:41|141:70,1,64.9999970245363,2|2,0:0|0:0,0:0:0:0:
67,178,107857,6,0,L|200:178,1,129.999994049073,8|0,0:0|0:0,0:0:0:0:
281,176,108185,1,2,0:0:0:0:
355,49,108295,2,0,L|320:104,1,64.9999970245363,2|0,0:0|0:0,0:0:0:0:
355,302,108514,2,0,L|320:248,1,64.9999970245363,2|0,0:0|0:0,0:0:0:0:
289,112,108733,6,0,B|256:104|223:120|201:154|199:195|221:231|255:251|292:243,1,225.000008583069,8|0,0:0|0:0,0:0:0:0:
185,205,109171,6,0,B|150:205|150:205|150:176|150:176|181:176|181:176|281:175,1,194.999991073609,4|0,0:0|0:0,0:0:0:0:
410,93,109609,6,0,B|397:54|397:54|415:19|415:19|434:58|434:58|416:157,1,225.000008583069,8|0,0:0|0:0,0:0:0:0:
376,249,110047,5,2,0:0:0:0:
166,330,110192,1,2,0:0:0:0:
332,157,110338,1,2,0:0:0:0:
145,15,110484,6,0,B|160:32|160:80|136:104|136:104|136:160|190:209,1,194.999991073609,8|0,0:0|0:0,0:0:0:0:
371,325,110922,2,0,P|407:343|433:344,1,64.9999970245363,2|0,0:0|0:0,0:0:0:0:
371,59,111141,2,0,P|407:41|433:40,1,64.9999970245363,2|2,0:0|0:0,0:0:0:0:
320,192,111360,6,0,B|288:136|288:136|272:192|272:192|288:248|288:248|304:224,1,194.999991073609,8|0,0:0|0:0,0:0:0:0:
174,150,111798,2,0,L|155:213,1,64.9999970245363,2|0,0:0|0:0,0:0:0:0:
59,25,112017,2,0,L|40:88,1,64.9999970245363,2|2,0:0|0:0,0:0:0:0:
100,249,112236,6,0,B|100:286|139:299|186:304|215:279|229:253|239:220|214:182,1,225.000008583069,8|0,0:0|0:0,0:0:0:0:
155,212,112674,6,0,B|139:134|181:91|181:91|207:158,1,194.999991073609,4|0,0:0|0:0,0:0:0:0:
295,268,113112,5,8,3:0:0:0:
344,257,113222,1,0,0:0:0:0:
379,222,113331,1,0,0:0:0:0:
386,172,113441,1,0,0:0:0:0:
377,123,113550,1,8,3:0:0:0:
345,84,113660,1,0,0:0:0:0:
297,68,113769,1,0,0:0:0:0:
248,82,113879,1,0,0:0:0:0:
202,101,113988,6,0,L|172:58,1,50,8|0,3:0|0:0,0:0:0:0:
116,168,114207,2,0,L|146:211,1,50
211,295,114426,2,0,L|254:265,1,50,8|0,3:0|0:0,0:0:0:0:
144,209,114645,2,0,L|101:239,1,50
30,111,114864,5,8,3:0:0:0:
65,75,114974,1,0,0:0:0:0:
113,65,115083,1,0,0:0:0:0:
162,70,115192,1,0,0:0:0:0:
202,99,115302,1,8,3:0:0:0:
212,147,115411,1,0,0:0:0:0:
195,194,115521,1,0,0:0:0:0:
201,243,115630,1,0,0:0:0:0:
238,276,115740,6,0,L|291:253,1,50,8|0,3:0|0:0,0:0:0:0:
401,282,115959,2,0,L|454:259,1,50
464,125,116178,2,0,L|411:148,1,50,8|0,3:0|0:0,0:0:0:0:
301,119,116397,2,0,L|248:142,1,50
174,282,116616,5,8,3:0:0:0:
127,264,116725,1,0,0:0:0:0:
97,223,116835,1,0,0:0:0:0:
86,174,116944,1,0,0:0:0:0:
103,126,117054,1,8,3:0:0:0:
133,86,117163,1,0,0:0:0:0:
178,65,117273,1,0,0:0:0:0:
227,67,117382,1,0,0:0:0:0:
270,91,117492,6,0,L|270:31,1,50,8|0,3:0|0:0,0:0:0:0:
387,163,117711,2,0,L|387:103,1,50
268,257,117930,2,0,L|268:197,1,50,8|0,3:0|0:0,0:0:0:0:
385,329,118149,2,0,L|385:269,1,50
383,94,118368,5,8,3:0:0:0:
336,77,118477,1,0,0:0:0:0:
288,92,118587,1,0,0:0:0:0:
244,116,118696,1,0,0:0:0:0:
210,153,118806,1,8,3:0:0:0:
190,198,118915,1,0,0:0:0:0:
162,240,119025,1,0,0:0:0:0:
115,256,119134,1,0,0:0:0:0:
66,241,119244,6,0,L|21:219,1,50,8|0,3:0|0:0,0:0:0:0:
160,166,119463,2,0,L|115:144,1,50
261,95,119682,2,0,L|283:50,1,50,8|0,3:0|0:0,0:0:0:0:
336,189,119901,2,0,L|358:144,1,50
387,317,120119,5,8,3:0:0:0:
324,354,120229,1,0,0:0:0:0:
252,347,120338,1,2,0:0:0:0:
190,308,120448,1,0,0:0:0:0:
155,244,120557,1,8,3:0:0:0:
175,174,120667,1,0,0:0:0:0:
147,107,120776,1,2,0:0:0:0:
92,59,120886,1,0,0:0:0:0:
27,90,120995,6,0,L|7:155,1,59.9999981689454,8|0,3:0|0:0,0:0:0:0:
100,245,121214,2,0,L|80:310,1,59.9999981689454,2|0,0:0|0:0,0:0:0:0:
219,175,121433,2,0,L|277:158,1,59.9999981689454,8|0,3:0|0:0,0:0:0:0:
406,46,121652,2,0,L|348:28,1,59.9999981689454,2|0,0:0|0:0,0:0:0:0:
194,26,121871,5,8,3:0:0:0:
149,82,121981,1,0,0:0:0:0:
162,152,122090,1,2,0:0:0:0:
201,212,122200,1,0,0:0:0:0:
269,231,122309,1,8,3:0:0:0:
341,224,122419,1,0,0:0:0:0:
410,239,122528,1,2,0:0:0:0:
454,296,122638,1,0,0:0:0:0:
465,366,122747,6,0,L|398:354,1,59.9999981689454,8|0,3:0|0:0,0:0:0:0:
228,259,122966,2,0,L|287:248,1,59.9999981689454,2|0,0:0|0:0,0:0:0:0:
346,97,123185,2,0,L|279:85,1,59.9999981689454,8|0,3:0|0:0,0:0:0:0:
72,33,123404,2,0,L|139:21,1,59.9999981689454,2|0,0:0|0:0,0:0:0:0:
334,32,123623,5,8,3:0:0:0:
422,75,123733,1,2,0:0:0:0:
465,162,123842,1,2,0:0:0:0:
413,246,123952,1,2,0:0:0:0:
324,286,124061,1,8,3:0:0:0:
226,274,124171,1,2,0:0:0:0:
143,219,124280,1,2,0:0:0:0:
81,142,124390,1,2,0:0:0:0:
85,44,124499,6,0,L|159:11,1,69.9999978637696,8|2,3:0|0:0,0:0:0:0:
373,72,124718,2,0,L|299:105,1,69.9999978637696,2|2,0:0|0:0,0:0:0:0:
138,222,124937,2,0,L|127:294,1,69.9999978637696,8|2,3:0|0:0,0:0:0:0:
367,273,125156,2,0,L|378:345,1,69.9999978637696,2|2,0:0|0:0,0:0:0:0:
256,207,125375,6,0,B|256:47|256:47|214:122,1,225.000008583069,4|0,0:0|0:0,0:0:0:0:
167,196,125813,2,0,P|187:271|252:301,1,150.000005722046,8|2,0:0|0:0,0:0:0:0:
353,292,126141,1,2,0:0:0:0:
447,245,126251,2,0,B|491:222|491:222|403:177|311:220,1,225.000008583069,8|0,0:0|0:0,0:0:0:0:
237,222,126689,6,0,B|214:234|214:234|191:222|191:222|180:200|180:200|191:177|191:177|214:166|214:166|237:177|237:177,1,150,8|0,0:0|0:0,0:0:0:0:
256,192,127127,12,0,128879,0:0:0:0:
