osu file format v14

[General]
AudioFilename: audio.mp3
AudioLeadIn: 0
PreviewTime: 17175
Countdown: 0
SampleSet: Soft
StackLeniency: 0.7
Mode: 3
LetterboxInBreaks: 0
SpecialStyle: 0
WidescreenStoryboard: 1

[Editor]
Bookmarks: 29175
DistanceSpacing: 1
BeatDivisor: 4
GridSize: 4
TimelineZoom: 1.7

[Metadata]
Title:Opening
TitleUnicode:Opening
Artist:Shogo Sakai
ArtistUnicode:酒井 省吾
Creator:tatatat
Version:3K Shield Drop
Source:Super Smash Bros. Melee
Tags:20XX melee smash bros orchestral intro op video game original sound track soundtrack ost nintendo gamecube 2001 Vulkin
BeatmapID:1351076
BeatmapSetID:626146

[Difficulty]
HPDrainRate:8.2
CircleSize:3
OverallDifficulty:8
ApproachRate:5
SliderMultiplier:1.4
SliderTickRate:1

[Events]
//Background and Video events
0,0,"background.jpg",0,0
//Break Periods
//Storyboard Layer 0 (Background)
//Storyboard Layer 1 (Fail)
//Storyboard Layer 2 (Pass)
//Storyboard Layer 3 (Foreground)
//Storyboard Sound Samples

[TimingPoints]
1107,714.285714285714,4,2,0,15,1,0
1107,-52.5000525000525,4,2,0,15,0,0
4760,731.707317073171,4,2,0,15,1,0
4760,-51.2820512820513,4,2,0,15,0,0
5491,769.230769230769,4,2,0,15,1,0
5491,-48.780487804878,4,2,0,15,0,0
6260,652.173913043478,4,2,0,15,1,0
6260,-57.4712643678161,4,2,0,15,0,0
6912,1111.11111111111,4,2,0,15,1,0
6912,-33.7837837837838,4,2,0,15,0,0
8023,750,4,2,0,15,1,0
8023,-50,4,2,0,15,0,0
11773,810.810810810811,4,2,0,15,1,0
11773,-46.2962962962963,4,2,0,15,0,0
12583,909.090909090909,4,2,0,15,1,0
12583,-41.3223140495868,4,2,0,15,0,0
13858,750,4,2,0,15,1,0
13858,-50,4,2,0,15,0,0
17233,375,4,2,0,15,1,0
41233,406.779661016949,4,2,0,15,1,0
41233,-92.5925925925926,4,2,0,15,0,0
47741,428.571428571429,4,2,0,15,1,0
47741,-87.719298245614,4,2,0,15,0,0
49455,810.810810810811,4,2,0,12,1,0
49455,-46.2962962962963,4,2,0,12,0,0
59184,750,4,2,0,15,1,0
59184,-50,4,2,0,15,0,0
62184,377.358490566038,4,2,0,15,1,0
62184,-99.009900990099,4,2,0,15,0,0
74259,372.670807453416,4,2,0,15,1,0
77259,-101.010101010101,4,2,0,18,0,0
81827,272.727272727273,6,2,0,18,1,0
81827,-136.986301369863,6,2,0,18,0,0
83395,400,4,2,0,18,1,0
83395,-94.3396226415094,4,2,0,18,0,0

[HitObjects]
85,192,392,128,0,1107:0:0:0:0:
256,192,1107,1,0,0:0:0:0:
426,192,1107,1,0,0:0:0:0:
85,192,1821,1,0,0:0:0:0:
256,192,1821,1,0,0:0:0:0:
85,192,2178,1,0,0:0:0:0:
426,192,2178,1,0,0:0:0:0:
426,192,2535,1,0,0:0:0:0:
256,192,2535,1,0,0:0:0:0:
85,192,2892,1,0,0:0:0:0:
256,192,2981,1,0,0:0:0:0:
426,192,3071,1,0,0:0:0:0:
256,192,3160,1,0,0:0:0:0:
85,192,3249,1,0,0:0:0:0:
256,192,3339,1,0,0:0:0:0:
426,192,3428,1,0,0:0:0:0:
256,192,3517,1,0,0:0:0:0:
85,192,3606,1,0,0:0:0:0:
426,192,3606,1,0,0:0:0:0:
85,192,3785,1,0,0:0:0:0:
426,192,3785,1,0,0:0:0:0:
256,192,4053,1,0,0:0:0:0:
85,192,4053,1,0,0:0:0:0:
85,192,4723,1,0,0:0:0:0:
426,192,4723,1,0,0:0:0:0:
426,192,5125,1,0,0:0:0:0:
256,192,5125,1,0,0:0:0:0:
256,192,5539,128,0,6300:0:0:0:0:
85,192,6300,128,0,6981:0:0:0:0:
426,192,6981,1,0,0:0:0:0:
256,192,6981,1,0,0:0:0:0:
256,192,8023,128,0,10648:0:0:0:0:
426,192,8773,128,0,12923:0:0:0:0:
85,192,10554,128,0,11023:0:0:0:0:
256,192,11023,128,0,11398:0:0:0:0:
85,192,11398,128,0,11773:0:0:0:0:
256,192,11773,128,0,12229:0:0:0:0:
85,192,12229,128,0,12639:0:0:0:0:
256,192,12639,128,0,13037:0:0:0:0:
85,192,13037,128,0,13833:0:0:0:0:
256,192,13833,1,0,0:0:0:0:
426,192,13833,1,0,0:0:0:0:
85,192,14279,1,0,0:0:0:0:
256,192,14279,1,0,0:0:0:0:
85,192,14561,1,0,0:0:0:0:
426,192,14561,1,0,0:0:0:0:
85,192,14748,1,0,0:0:0:0:
256,192,14748,1,0,0:0:0:0:
256,192,14983,1,0,0:0:0:0:
426,192,14983,1,0,0:0:0:0:
85,192,15170,1,0,0:0:0:0:
426,192,15170,1,0,0:0:0:0:
85,192,15358,1,0,0:0:0:0:
256,192,15358,1,0,0:0:0:0:
426,192,15451,1,0,0:0:0:0:
256,192,15545,1,0,0:0:0:0:
85,192,15639,1,0,0:0:0:0:
256,192,15733,1,0,0:0:0:0:
426,192,15826,1,0,0:0:0:0:
256,192,15920,1,0,0:0:0:0:
85,192,16014,1,0,0:0:0:0:
256,192,16108,1,0,0:0:0:0:
426,192,16201,1,0,0:0:0:0:
256,192,16576,128,0,17233:0:0:0:0:
85,192,17233,1,0,0:0:0:0:
426,192,17233,1,0,0:0:0:0:
85,192,17420,1,0,0:0:0:0:
256,192,17608,1,0,0:0:0:0:
85,192,17795,1,0,0:0:0:0:
256,192,17983,1,0,0:0:0:0:
85,192,18170,1,0,0:0:0:0:
256,192,18358,1,0,0:0:0:0:
85,192,18545,1,0,0:0:0:0:
256,192,18733,1,0,0:0:0:0:
85,192,18920,1,0,0:0:0:0:
426,192,18920,1,0,0:0:0:0:
256,192,19108,1,0,0:0:0:0:
85,192,19295,1,0,0:0:0:0:
256,192,19483,1,0,0:0:0:0:
426,192,19483,1,0,0:0:0:0:
85,192,19670,1,0,0:0:0:0:
256,192,19858,1,0,0:0:0:0:
85,192,20045,1,0,0:0:0:0:
256,192,20233,1,0,0:0:0:0:
85,192,20233,1,0,0:0:0:0:
426,192,20420,1,0,0:0:0:0:
256,192,20608,1,0,0:0:0:0:
426,192,20795,1,0,0:0:0:0:
256,192,20983,1,0,0:0:0:0:
426,192,21170,1,0,0:0:0:0:
256,192,21358,1,0,0:0:0:0:
426,192,21545,1,0,0:0:0:0:
256,192,21733,1,0,0:0:0:0:
85,192,21920,1,0,0:0:0:0:
426,192,21920,1,0,0:0:0:0:
256,192,22108,1,0,0:0:0:0:
426,192,22295,1,0,0:0:0:0:
85,192,22483,1,0,0:0:0:0:
256,192,22483,1,0,0:0:0:0:
426,192,22670,1,0,0:0:0:0:
256,192,22858,1,0,0:0:0:0:
426,192,23045,1,0,0:0:0:0:
85,192,23233,1,0,0:0:0:0:
256,192,23233,1,0,0:0:0:0:
426,192,23326,1,0,0:0:0:0:
256,192,23420,1,0,0:0:0:0:
85,192,23514,1,0,0:0:0:0:
256,192,23608,1,0,0:0:0:0:
426,192,23795,1,0,0:0:0:0:
85,192,23983,1,0,0:0:0:0:
426,192,24170,1,0,0:0:0:0:
256,192,24358,1,0,0:0:0:0:
85,192,24545,1,0,0:0:0:0:
256,192,24733,1,0,0:0:0:0:
426,192,24826,1,0,0:0:0:0:
85,192,24920,1,0,0:0:0:0:
256,192,24920,1,0,0:0:0:0:
426,192,25014,1,0,0:0:0:0:
85,192,25108,1,0,0:0:0:0:
256,192,25295,1,0,0:0:0:0:
85,192,25483,1,0,0:0:0:0:
426,192,25483,1,0,0:0:0:0:
256,192,25670,1,0,0:0:0:0:
426,192,25858,1,0,0:0:0:0:
85,192,26045,1,0,0:0:0:0:
426,192,26233,1,0,0:0:0:0:
256,192,26233,1,0,0:0:0:0:
85,192,26326,1,0,0:0:0:0:
256,192,26420,1,0,0:0:0:0:
426,192,26514,1,0,0:0:0:0:
85,192,26608,1,0,0:0:0:0:
426,192,26795,1,0,0:0:0:0:
85,192,26983,1,0,0:0:0:0:
256,192,27170,1,0,0:0:0:0:
85,192,27358,1,0,0:0:0:0:
256,192,27545,1,0,0:0:0:0:
85,192,27733,1,0,0:0:0:0:
256,192,27826,1,0,0:0:0:0:
426,192,27920,1,0,0:0:0:0:
85,192,27920,1,0,0:0:0:0:
256,192,28014,1,0,0:0:0:0:
426,192,28108,1,0,0:0:0:0:
85,192,28201,1,0,0:0:0:0:
256,192,28295,1,0,0:0:0:0:
426,192,28389,1,0,0:0:0:0:
85,192,28483,1,0,0:0:0:0:
256,192,28483,1,0,0:0:0:0:
426,192,28576,1,0,0:0:0:0:
85,192,28670,1,0,0:0:0:0:
256,192,28764,1,0,0:0:0:0:
426,192,28858,1,0,0:0:0:0:
85,192,28951,1,0,0:0:0:0:
256,192,29045,1,0,0:0:0:0:
426,192,29139,1,0,0:0:0:0:
85,192,29233,1,0,0:0:0:0:
256,192,29233,128,0,30358:0:0:0:0:
85,192,29842,1,0,0:0:0:0:
85,192,30358,1,0,0:0:0:0:
426,192,30358,128,0,30733:0:0:0:0:
85,192,30733,1,0,0:0:0:0:
256,192,30733,128,0,31811:0:0:0:0:
85,192,31342,1,0,0:0:0:0:
85,192,31811,1,0,0:0:0:0:
426,192,31811,128,0,32233:0:0:0:0:
256,192,32233,128,0,33311:0:0:0:0:
85,192,32233,1,0,0:0:0:0:
426,192,32795,1,0,0:0:0:0:
426,192,33311,128,0,33733:0:0:0:0:
85,192,33311,1,0,0:0:0:0:
85,192,33733,1,0,0:0:0:0:
256,192,33733,128,0,34858:0:0:0:0:
85,192,34342,1,0,0:0:0:0:
426,192,34858,1,0,0:0:0:0:
85,192,34858,128,0,35233:0:0:0:0:
256,192,35233,128,0,36358:0:0:0:0:
426,192,35233,1,0,0:0:0:0:
85,192,35842,1,0,0:0:0:0:
85,192,36358,128,0,36733:0:0:0:0:
426,192,36358,1,0,0:0:0:0:
256,192,36733,128,0,37858:0:0:0:0:
426,192,36733,1,0,0:0:0:0:
426,192,37295,1,0,0:0:0:0:
426,192,37858,1,0,0:0:0:0:
85,192,37858,128,0,38233:0:0:0:0:
256,192,38233,1,0,0:0:0:0:
426,192,38233,1,0,0:0:0:0:
426,192,38326,1,0,0:0:0:0:
256,192,38420,1,0,0:0:0:0:
85,192,38514,1,0,0:0:0:0:
426,192,38608,1,0,0:0:0:0:
256,192,38795,1,0,0:0:0:0:
426,192,38795,1,0,0:0:0:0:
85,192,38983,1,0,0:0:0:0:
426,192,39170,1,0,0:0:0:0:
426,192,39358,1,0,0:0:0:0:
256,192,39358,1,0,0:0:0:0:
256,192,39545,1,0,0:0:0:0:
426,192,39733,1,0,0:0:0:0:
85,192,39733,1,0,0:0:0:0:
256,192,39826,1,0,0:0:0:0:
426,192,39920,1,0,0:0:0:0:
85,192,40014,1,0,0:0:0:0:
256,192,40108,1,0,0:0:0:0:
85,192,40342,1,0,0:0:0:0:
85,192,40576,1,0,0:0:0:0:
256,192,40623,1,0,0:0:0:0:
426,192,40670,1,0,0:0:0:0:
85,192,40717,1,0,0:0:0:0:
256,192,40764,1,0,0:0:0:0:
426,192,40811,1,0,0:0:0:0:
85,192,40858,1,0,0:0:0:0:
256,192,40904,1,0,0:0:0:0:
426,192,40951,1,0,0:0:0:0:
85,192,40998,1,0,0:0:0:0:
256,192,41045,1,0,0:0:0:0:
85,192,41233,1,4,0:0:0:0:
256,192,41233,1,0,0:0:0:0:
85,192,41639,1,0,0:0:0:0:
426,192,41639,1,0,0:0:0:0:
85,192,41843,1,0,0:0:0:0:
256,192,41843,1,0,0:0:0:0:
426,192,42148,1,0,0:0:0:0:
85,192,42148,1,0,0:0:0:0:
256,192,42453,1,0,0:0:0:0:
85,192,42453,1,0,0:0:0:0:
426,192,42605,1,0,0:0:0:0:
85,192,42605,1,0,0:0:0:0:
256,192,42707,1,0,0:0:0:0:
426,192,42707,1,0,0:0:0:0:
85,192,42860,128,0,43190:0:0:0:0:
256,192,42860,128,0,43190:0:0:0:0:
85,192,43266,128,0,43597:0:0:0:0:
256,192,43266,128,0,43597:0:0:0:0:
85,192,43673,128,0,44004:0:0:0:0:
426,192,43673,128,0,44004:0:0:0:0:
85,192,44080,128,0,44410:0:0:0:0:
426,192,44080,128,0,44410:0:0:0:0:
85,192,44487,1,0,0:0:0:0:
426,192,44487,1,0,0:0:0:0:
256,192,44487,1,0,0:0:0:0:
85,192,44817,1,0,0:0:0:0:
256,192,44817,1,0,0:0:0:0:
85,192,45097,1,0,0:0:0:0:
426,192,45097,1,0,0:0:0:0:
426,192,45351,1,0,0:0:0:0:
256,192,45351,1,0,0:0:0:0:
256,192,45758,1,0,0:0:0:0:
85,192,45758,1,0,0:0:0:0:
426,192,45910,1,0,0:0:0:0:
85,192,45910,1,0,0:0:0:0:
426,192,46012,1,0,0:0:0:0:
256,192,46012,1,0,0:0:0:0:
85,192,46114,128,0,46444:0:0:0:0:
426,192,46114,128,0,46444:0:0:0:0:
85,192,46521,128,0,46851:0:0:0:0:
426,192,46521,128,0,46851:0:0:0:0:
256,192,46927,128,0,47258:0:0:0:0:
426,192,46927,128,0,47258:0:0:0:0:
256,192,47334,128,0,47716:0:0:0:0:
426,192,47334,128,0,47716:0:0:0:0:
256,192,47794,1,4,0:0:0:0:
426,192,47794,1,0,0:0:0:0:
85,192,47901,128,0,49241:0:0:0:0:
426,192,48919,128,0,50468:0:0:0:0:
256,192,49455,1,0,0:0:0:0:
85,192,49657,1,0,0:0:0:0:
256,192,49860,1,0,0:0:0:0:
85,192,50468,128,0,50671:0:0:0:0:
256,192,50671,128,0,50873:0:0:0:0:
426,192,50873,128,0,51076:0:0:0:0:
256,192,51076,128,0,51583:0:0:0:0:
85,192,51076,1,0,0:0:0:0:
85,192,51279,1,0,0:0:0:0:
426,192,51482,1,0,0:0:0:0:
85,192,51583,128,0,51887:0:0:0:0:
256,192,51684,1,0,0:0:0:0:
256,192,51887,128,0,52394:0:0:0:0:
426,192,51887,1,0,0:0:0:0:
85,192,52090,1,0,0:0:0:0:
426,192,52394,128,0,52698:0:0:0:0:
256,192,52698,128,0,53711:0:0:0:0:
85,192,52698,1,0,0:0:0:0:
426,192,52900,1,0,0:0:0:0:
426,192,53306,1,0,0:0:0:0:
85,192,53509,1,0,0:0:0:0:
85,192,53711,128,0,53914:0:0:0:0:
426,192,53711,1,0,0:0:0:0:
256,192,53914,128,0,54218:0:0:0:0:
426,192,54218,128,0,54725:0:0:0:0:
85,192,54522,1,0,0:0:0:0:
256,192,54725,128,0,55130:0:0:0:0:
85,192,54725,1,0,0:0:0:0:
426,192,54927,1,0,0:0:0:0:
426,192,55130,128,0,55738:0:0:0:0:
85,192,55130,1,0,0:0:0:0:
256,192,55333,1,0,0:0:0:0:
85,192,55738,128,0,56042:0:0:0:0:
426,192,56042,128,0,56955:0:0:0:0:
256,192,56144,1,0,0:0:0:0:
85,192,56346,1,0,0:0:0:0:
256,192,56549,1,0,0:0:0:0:
85,192,56752,1,0,0:0:0:0:
256,192,56955,128,0,57208:0:0:0:0:
85,192,56955,1,0,0:0:0:0:
426,192,57208,128,0,57411:0:0:0:0:
256,192,57411,128,0,57968:0:0:0:0:
426,192,57765,1,0,0:0:0:0:
85,192,57968,128,0,58373:0:0:0:0:
426,192,57968,1,0,0:0:0:0:
256,192,58171,1,0,0:0:0:0:
426,192,58373,128,0,58779:0:0:0:0:
256,192,58373,1,0,0:0:0:0:
256,192,58576,1,0,0:0:0:0:
256,192,58779,128,0,59184:0:0:0:0:
85,192,58779,128,0,60684:0:0:0:0:
426,192,59184,128,0,59934:0:0:0:0:
256,192,59934,1,0,0:0:0:0:
426,192,60309,1,0,0:0:0:0:
256,192,60684,1,0,0:0:0:0:
256,192,61059,1,0,0:0:0:0:
85,192,61434,1,0,0:0:0:0:
256,192,61809,1,0,0:0:0:0:
426,192,62184,1,0,0:0:0:0:
256,192,62184,1,0,0:0:0:0:
85,192,62184,1,0,0:0:0:0:
426,192,62443,128,0,62561:0:0:0:0:
256,192,62561,128,0,62797:0:0:0:0:
85,192,62561,1,0,0:0:0:0:
85,192,62938,1,0,0:0:0:0:
256,192,62938,1,0,0:0:0:0:
256,192,63127,1,0,0:0:0:0:
85,192,63316,1,0,0:0:0:0:
85,192,63504,1,0,0:0:0:0:
256,192,63575,1,0,0:0:0:0:
426,192,63646,1,0,0:0:0:0:
85,192,63882,1,0,0:0:0:0:
256,192,63952,1,0,0:0:0:0:
426,192,64023,1,0,0:0:0:0:
85,192,64259,1,0,0:0:0:0:
256,192,64330,1,0,0:0:0:0:
426,192,64400,1,0,0:0:0:0:
85,192,64636,1,0,0:0:0:0:
256,192,64707,1,0,0:0:0:0:
426,192,64778,1,0,0:0:0:0:
256,192,65202,1,0,0:0:0:0:
426,192,65462,128,0,65580:0:0:0:0:
85,192,65580,1,0,0:0:0:0:
256,192,65580,128,0,65816:0:0:0:0:
426,192,65957,1,0,0:0:0:0:
85,192,65957,1,0,0:0:0:0:
256,192,66146,1,0,0:0:0:0:
256,192,66334,1,0,0:0:0:0:
85,192,66334,1,0,0:0:0:0:
426,192,66523,1,0,0:0:0:0:
256,192,66594,1,0,0:0:0:0:
85,192,66665,1,0,0:0:0:0:
426,192,66900,1,0,0:0:0:0:
256,192,66971,1,0,0:0:0:0:
85,192,67042,1,0,0:0:0:0:
426,192,67278,1,0,0:0:0:0:
256,192,67349,1,0,0:0:0:0:
85,192,67419,1,0,0:0:0:0:
426,192,67655,1,0,0:0:0:0:
256,192,67726,1,0,0:0:0:0:
85,192,67797,1,0,0:0:0:0:
426,192,68033,1,0,0:0:0:0:
256,192,68103,1,0,0:0:0:0:
426,192,68174,1,0,0:0:0:0:
85,192,68174,1,0,0:0:0:0:
426,192,68481,128,0,68599:0:0:0:0:
256,192,68599,128,0,68834:0:0:0:0:
85,192,68599,1,0,0:0:0:0:
426,192,68976,1,0,0:0:0:0:
85,192,68976,1,0,0:0:0:0:
256,192,69165,1,0,0:0:0:0:
85,192,69353,128,0,69448:0:0:0:0:
256,192,69448,128,0,69542:0:0:0:0:
426,192,69542,128,0,69636:0:0:0:0:
85,192,69636,128,0,69825:0:0:0:0:
426,192,69825,128,0,71146:0:0:0:0:
256,192,70438,128,0,71146:0:0:0:0:
85,192,70768,128,0,71146:0:0:0:0:
426,192,71240,1,0,0:0:0:0:
256,192,71240,1,0,0:0:0:0:
426,192,71500,128,0,71617:0:0:0:0:
256,192,71617,128,0,71853:0:0:0:0:
85,192,71617,1,0,0:0:0:0:
426,192,71995,1,0,0:0:0:0:
85,192,71995,1,0,0:0:0:0:
256,192,72184,1,0,0:0:0:0:
85,192,72372,128,0,72467:0:0:0:0:
256,192,72467,128,0,72561:0:0:0:0:
426,192,72561,128,0,72655:0:0:0:0:
85,192,72655,128,0,72844:0:0:0:0:
426,192,72938,128,0,74165:0:0:0:0:
256,192,73457,128,0,74165:0:0:0:0:
85,192,73787,128,0,74165:0:0:0:0:
256,192,74259,5,0,0:0:0:0:
85,192,74259,1,0,0:0:0:0:
85,192,74491,1,0,0:0:0:0:
426,192,74585,1,0,0:0:0:0:
256,192,74957,1,0,0:0:0:0:
426,192,75144,1,0,0:0:0:0:
256,192,75749,1,0,0:0:0:0:
85,192,75982,1,0,0:0:0:0:
426,192,76075,1,0,0:0:0:0:
256,192,76448,1,0,0:0:0:0:
426,192,76634,1,0,0:0:0:0:
85,192,77240,128,0,77613:0:0:0:0:
256,192,77613,128,0,77985:0:0:0:0:
85,192,77985,128,0,78358:0:0:0:0:
426,192,78358,128,0,78777:0:0:0:0:
85,192,78777,128,0,79150:0:0:0:0:
256,192,79150,128,0,79616:0:0:0:0:
426,192,79616,128,0,79802:0:0:0:0:
85,192,79895,1,0,0:0:0:0:
426,192,79895,1,0,0:0:0:0:
426,192,80081,1,0,0:0:0:0:
256,192,80081,1,0,0:0:0:0:
85,192,80081,1,0,0:0:0:0:
426,192,81013,128,0,81827:0:0:0:0:
256,192,81013,128,0,81827:0:0:0:0:
85,192,81827,1,0,0:0:0:0:
426,192,82099,1,0,0:0:0:0:
256,192,82099,1,0,0:0:0:0:
85,192,82372,1,0,0:0:0:0:
256,192,82372,1,0,0:0:0:0:
85,192,82645,1,0,0:0:0:0:
426,192,82645,1,0,0:0:0:0:
426,192,82917,1,0,0:0:0:0:
256,192,82917,1,0,0:0:0:0:
85,192,83190,1,0,0:0:0:0:
426,192,83190,1,0,0:0:0:0:
426,192,83395,1,0,0:0:0:0:
85,192,83395,128,0,85495:0:0:0:0:
256,192,83795,1,0,0:0:0:0:
426,192,84195,128,0,84895:0:0:0:0:
256,192,84995,1,0,0:0:0:0:
256,192,85695,128,0,89395:0:0:0:0:
85,192,85895,128,0,89695:0:0:0:0:
