osu file format v14

[General]
AudioFilename: audio.mp3
AudioLeadIn: 0
PreviewTime: 87437
Countdown: 0
SampleSet: Normal
StackLeniency: 0.7
Mode: 1
LetterboxInBreaks: 0
WidescreenStoryboard: 1

[Editor]
Bookmarks: 198,22016,32925,43834,54743,65652,76561,87470,98379,114743,125652,136561,147470,158379,163834,174743,191107,202016
DistanceSpacing: 6
BeatDivisor: 16
GridSize: 32
TimelineZoom: 2.899999

[Metadata]
Title:egoist
TitleUnicode:egoist
Artist:Shogo Nomura
ArtistUnicode:Shogo Nomura
Creator:ZTH
Version:Muzukashii
Source:
Tags:Jazz Instrumental Electronic Tokyo Drops しょご overdahedge2014 B0tch3d 野村渉悟
BeatmapID:3953881
BeatmapSetID:1915102

[Difficulty]
HPDrainRate:6
CircleSize:5
OverallDifficulty:5
ApproachRate:5
SliderMultiplier:1.4
SliderTickRate:1

[Events]
//Background and Video events
0,0,"jazz.jpg",0,0
//Break Periods
2,125840,133986
//Storyboard Layer 0 (Background)
//Storyboard Layer 1 (Fail)
//Storyboard Layer 2 (Pass)
//Storyboard Layer 3 (Foreground)
//Storyboard Layer 4 (Overlay)
//Storyboard Sound Samples

[TimingPoints]
186,340.909090909091,4,1,0,70,1,0
186,-142.857142857143,4,1,0,70,0,0
32907,-117.647058823529,4,1,0,80,0,0
43801,-90.9090909090909,4,1,0,90,0,0
43843,-100,4,1,0,90,0,0
49426,-90.9090909090909,4,1,0,90,0,0
49468,-100,4,1,0,90,0,0
51982,-90.9090909090909,4,1,0,90,0,0
52025,-100,4,1,0,90,0,0
54710,-90.9090909090909,4,1,0,90,0,0
54752,-100,4,1,0,90,0,0
60335,-90.9090909090909,4,1,0,90,0,0
60377,-100,4,1,0,90,0,0
62891,-90.9090909090909,4,1,0,90,0,0
62934,-100,4,1,0,90,0,0
65619,-90.9090909090909,4,1,0,90,0,0
65661,-100,4,1,0,90,0,0
71244,-90.9090909090909,4,1,0,90,0,0
71286,-100,4,1,0,90,0,0
73800,-90.9090909090909,4,1,0,90,0,0
73843,-100,4,1,0,90,0,0
76528,-90.9090909090909,4,1,0,90,0,0
76570,-100,4,1,0,90,0,0
82153,-90.9090909090909,4,1,0,90,0,0
82195,-100,4,1,0,90,0,0
84709,-90.9090909090909,4,1,0,90,0,0
84752,-100,4,1,0,90,0,0
87437,-90.9090909090909,4,1,0,90,0,0
87458,-90.9090909090909,4,1,0,90,0,1
87480,-100,4,1,0,90,0,1
90164,-90.9090909090909,4,1,0,90,0,1
90207,-100,4,1,0,90,0,1
92891,-90.9090909090909,4,1,0,90,0,1
92934,-100,4,1,0,90,0,1
93403,-90.9090909090909,4,1,0,90,0,1
93445,-100,4,1,0,90,0,1
95619,-90.9090909090909,4,1,0,90,0,1
95661,-100,4,1,0,90,0,1
96130,-90.9090909090909,4,1,0,90,0,1
96897,-100,4,1,0,90,0,1
98346,-90.9090909090909,4,1,0,90,0,1
98367,-90.9090909090909,4,1,0,90,0,0
98876,-100,4,1,0,90,0,0
103801,-90.9090909090909,4,1,0,90,0,0
103843,-100,4,1,0,90,0,0
104312,-90.9090909090909,4,1,0,90,0,0
104355,-100,4,1,0,90,0,0
104823,-90.9090909090909,4,1,0,90,0,0
104866,-100,4,1,0,90,0,0
106528,-90.9090909090909,4,1,0,90,0,0
106570,-100,4,1,0,90,0,0
107039,-90.9090909090909,4,1,0,90,0,0
107082,-100,4,1,0,90,0,0
107550,-90.9090909090909,4,1,0,90,0,0
107593,-100,4,1,0,90,0,0
109255,-90.9090909090909,4,1,0,90,0,0
109297,-100,4,1,0,90,0,0
109766,-90.9090909090909,4,1,0,90,0,0
109809,-100,4,1,0,90,0,0
110277,-90.9090909090909,4,1,0,90,0,0
110320,-100,4,1,0,90,0,0
111982,-90.9090909090909,4,1,0,90,0,0
112024,-100,4,1,0,90,0,0
112493,-90.9090909090909,4,1,0,90,0,0
112536,-100,4,1,0,90,0,0
113004,-90.9090909090909,4,1,0,90,0,0
113047,-100,4,1,0,90,0,0
114710,-90.9090909090909,4,1,0,90,0,0
114753,-100,4,1,0,90,0,0
117437,-90.9090909090909,4,1,0,90,0,0
117480,-100,4,1,0,90,0,0
120164,-90.9090909090909,4,1,0,90,0,0
120207,-100,4,1,0,90,0,0
120676,-90.9090909090909,4,1,0,90,0,0
120718,-100,4,1,0,90,0,0
122892,-90.9090909090909,4,1,0,90,0,0
122934,-100,4,1,0,90,0,0
123403,-90.9090909090909,4,1,0,90,0,0
124170,-100,4,1,0,90,0,0
125661,-100,4,1,0,70,0,0
136545,-126.582278481013,4,1,0,80,0,0
142002,-116.279069767442,4,1,0,80,0,0
146094,-107.52688172043,4,1,0,80,0,0
147457,-100,4,1,0,90,0,0
158346,-90.9090909090909,4,1,0,90,0,0
158389,-100,4,1,0,90,0,0
163801,-90.9090909090909,4,1,0,90,0,0
163822,-90.9090909090909,4,1,0,90,0,1
163844,-100,4,1,0,90,0,1
166528,-90.9090909090909,4,1,0,90,0,1
166571,-100,4,1,0,90,0,1
169255,-90.9090909090909,4,1,0,90,0,1
169298,-100,4,1,0,90,0,1
169767,-90.9090909090909,4,1,0,90,0,1
169809,-100,4,1,0,90,0,1
171983,-90.9090909090909,4,1,0,90,0,1
172025,-100,4,1,0,90,0,1
172494,-90.9090909090909,4,1,0,90,0,1
173261,-100,4,1,0,90,0,1
174710,-90.9090909090909,4,1,0,90,0,1
174731,-90.9090909090909,4,1,0,90,0,0
175240,-100,4,1,0,90,0,0
180165,-90.9090909090909,4,1,0,90,0,0
180207,-100,4,1,0,90,0,0
180676,-90.9090909090909,4,1,0,90,0,0
180719,-100,4,1,0,90,0,0
181187,-90.9090909090909,4,1,0,90,0,0
181230,-100,4,1,0,90,0,0
182892,-90.9090909090909,4,1,0,90,0,0
182934,-100,4,1,0,90,0,0
183403,-90.9090909090909,4,1,0,90,0,0
183446,-100,4,1,0,90,0,0
183914,-90.9090909090909,4,1,0,90,0,0
183957,-100,4,1,0,90,0,0
185619,-90.9090909090909,4,1,0,90,0,0
185661,-100,4,1,0,90,0,0
186130,-90.9090909090909,4,1,0,90,0,0
186173,-100,4,1,0,90,0,0
186641,-90.9090909090909,4,1,0,90,0,0
186684,-100,4,1,0,90,0,0
188346,-90.9090909090909,4,1,0,90,0,0
188388,-100,4,1,0,90,0,0
188857,-90.9090909090909,4,1,0,90,0,0
188900,-100,4,1,0,90,0,0
189368,-90.9090909090909,4,1,0,90,0,0
189411,-100,4,1,0,90,0,0
191074,-90.9090909090909,4,1,0,90,0,0
191117,-100,4,1,0,90,0,0
193801,-90.9090909090909,4,1,0,90,0,0
193844,-100,4,1,0,90,0,0
196528,-90.9090909090909,4,1,0,90,0,0
196571,-100,4,1,0,90,0,0
197040,-90.9090909090909,4,1,0,90,0,0
197082,-100,4,1,0,90,0,0
199256,-90.9090909090909,4,1,0,90,0,0
199298,-100,4,1,0,90,0,0
199767,-90.9090909090909,4,1,0,90,0,0
200534,-100,4,1,0,90,0,0
201982,-83.3333333333333,4,1,0,90,0,0

[HitObjects]
241,200,22004,5,0,0:0:0:0:
225,198,23367,1,8,0:0:0:0:
225,198,24049,1,0,0:0:0:0:
219,205,24731,1,8,0:0:0:0:
219,205,25242,1,0,0:0:0:0:
219,205,25754,1,8,0:0:0:0:
234,205,26436,1,8,0:0:0:0:
234,205,26606,1,0,0:0:0:0:
230,177,27458,1,0,0:0:0:0:
223,201,28822,1,8,0:0:0:0:
223,201,29504,1,0,0:0:0:0:
223,201,30186,1,8,0:0:0:0:
223,201,30697,1,0,0:0:0:0:
223,201,31208,1,0,0:0:0:0:
236,206,31720,1,8,0:0:0:0:
236,206,32231,1,0,0:0:0:0:
236,206,32572,1,8,0:0:0:0:
236,206,32913,1,0,0:0:0:0:
236,206,33424,1,0,0:0:0:0:
236,206,33595,1,8,0:0:0:0:
236,206,33936,1,0,0:0:0:0:
235,200,34276,1,8,0:0:0:0:
236,206,34617,1,0,0:0:0:0:
236,206,34958,1,8,0:0:0:0:
236,206,35640,1,0,0:0:0:0:
236,206,36151,1,0,0:0:0:0:
236,206,36322,1,8,0:0:0:0:
236,206,36663,1,0,0:0:0:0:
245,201,37004,1,8,0:0:0:0:
230,204,37345,1,0,0:0:0:0:
241,202,37515,1,0,0:0:0:0:
247,215,37686,5,8,0:0:0:0:
230,204,37856,1,0,0:0:0:0:
230,223,38367,1,0,0:0:0:0:
230,223,38879,1,0,0:0:0:0:
230,223,39049,1,8,0:0:0:0:
230,223,39390,1,0,0:0:0:0:
228,257,39731,1,8,0:0:0:0:
222,247,40072,1,0,0:0:0:0:
222,247,40413,1,8,0:0:0:0:
222,247,40754,1,8,0:0:0:0:
256,192,41095,12,0,43481,0:0:0:0:
245,218,43822,5,12,0:0:0:0:
234,209,44078,1,8,0:0:0:0:
231,215,44333,1,0,0:0:0:0:
231,215,44504,1,8,0:0:0:0:
231,215,44759,1,8,0:0:0:0:
223,206,45015,1,0,0:0:0:0:
224,206,45186,1,8,0:0:0:0:
224,206,45441,1,8,0:0:0:0:
224,206,45697,1,0,0:0:0:0:
221,208,45867,1,8,0:0:0:0:
223,206,45953,1,8,0:0:0:0:
223,206,46038,1,8,0:0:0:0:
224,206,46208,1,0,0:0:0:0:
218,218,46379,1,8,0:0:0:0:
227,214,46720,1,8,0:0:0:0:
242,218,46890,5,8,0:0:0:0:
215,203,47061,1,0,0:0:0:0:
225,216,47231,1,8,0:0:0:0:
228,218,47572,1,0,0:0:0:0:
228,218,47742,1,8,0:0:0:0:
228,218,47828,1,8,0:0:0:0:
233,217,48083,1,0,0:0:0:0:
233,217,48254,1,8,0:0:0:0:
234,206,48424,1,0,0:0:0:0:
234,206,48509,1,0,0:0:0:0:
234,206,48595,1,0,0:0:0:0:
251,198,48765,1,0,0:0:0:0:
228,218,48936,1,8,0:0:0:0:
237,222,49447,1,12,0:0:0:0:
228,221,49788,1,0,0:0:0:0:
228,218,49958,1,8,0:0:0:0:
235,222,50129,1,8,0:0:0:0:
185,208,50214,1,8,0:0:0:0:
228,204,50470,1,0,0:0:0:0:
247,220,50640,1,8,0:0:0:0:
228,218,50981,1,8,0:0:0:0:
233,217,51322,1,8,0:0:0:0:
233,217,51407,1,8,0:0:0:0:
233,217,51578,1,8,0:0:0:0:
260,222,51748,1,0,0:0:0:0:
260,222,52004,1,12,0:0:0:0:
269,222,52345,1,0,0:0:0:0:
243,211,52686,1,8,0:0:0:0:
257,212,52856,1,0,0:0:0:0:
257,212,52941,1,0,0:0:0:0:
257,212,53026,1,0,0:0:0:0:
255,218,53367,1,8,0:0:0:0:
261,214,53708,1,0,0:0:0:0:
266,222,54049,1,8,0:0:0:0:
266,222,54220,1,0,0:0:0:0:
266,222,54305,1,0,0:0:0:0:
266,222,54390,1,0,0:0:0:0:
266,222,54731,1,12,0:0:0:0:
259,208,54987,1,0,0:0:0:0:
259,208,55242,1,0,0:0:0:0:
259,208,55413,1,8,0:0:0:0:
265,196,55668,1,8,0:0:0:0:
265,196,55924,1,0,0:0:0:0:
265,196,56095,1,8,0:0:0:0:
265,193,56350,1,0,0:0:0:0:
265,197,56606,1,0,0:0:0:0:
265,196,56776,1,8,0:0:0:0:
259,184,56862,1,8,0:0:0:0:
265,196,56947,1,8,0:0:0:0:
265,196,57117,1,0,0:0:0:0:
265,193,57288,1,8,0:0:0:0:
265,197,57629,1,8,0:0:0:0:
271,209,57799,1,0,0:0:0:0:
271,209,57970,1,0,0:0:0:0:
271,209,58140,1,8,0:0:0:0:
239,198,58481,1,0,0:0:0:0:
272,209,58651,1,8,0:0:0:0:
271,209,58737,1,8,0:0:0:0:
271,209,58992,1,8,0:0:0:0:
271,209,59163,1,0,0:0:0:0:
275,213,59333,1,8,0:0:0:0:
266,203,59418,1,8,0:0:0:0:
266,203,59504,1,8,0:0:0:0:
272,209,59674,1,0,0:0:0:0:
271,209,59845,1,8,0:0:0:0:
279,208,60356,1,12,0:0:0:0:
289,209,60697,1,0,0:0:0:0:
292,198,60867,1,8,0:0:0:0:
292,198,61038,1,8,0:0:0:0:
292,198,61123,1,8,0:0:0:0:
292,195,61379,1,0,0:0:0:0:
292,195,61549,1,8,0:0:0:0:
317,189,61890,1,8,0:0:0:0:
300,195,62231,1,8,0:0:0:0:
307,217,62316,1,8,0:0:0:0:
310,214,62487,1,8,0:0:0:0:
319,210,62657,1,0,0:0:0:0:
319,210,62913,1,12,0:0:0:0:
306,231,63254,1,0,0:0:0:0:
312,209,63595,1,8,0:0:0:0:
306,231,63680,1,8,0:0:0:0:
306,231,63765,1,8,0:0:0:0:
309,213,63936,1,0,0:0:0:0:
316,222,64276,1,8,0:0:0:0:
312,225,64617,1,0,0:0:0:0:
312,235,64958,1,8,0:0:0:0:
295,219,65043,1,8,0:0:0:0:
295,219,65129,1,8,0:0:0:0:
312,235,65299,1,0,0:0:0:0:
245,218,65640,5,12,0:0:0:0:
234,209,65896,1,8,0:0:0:0:
231,215,66151,1,0,0:0:0:0:
231,215,66322,1,8,0:0:0:0:
231,215,66578,1,8,0:0:0:0:
223,206,66833,1,0,0:0:0:0:
224,206,67004,1,8,0:0:0:0:
224,206,67259,1,8,0:0:0:0:
224,206,67515,1,0,0:0:0:0:
221,208,67686,1,8,0:0:0:0:
223,206,67771,1,8,0:0:0:0:
223,206,67856,1,8,0:0:0:0:
224,206,68026,1,0,0:0:0:0:
218,218,68197,1,8,0:0:0:0:
170,204,68282,1,8,0:0:0:0:
227,214,68538,1,8,0:0:0:0:
242,218,68708,5,8,0:0:0:0:
215,203,68879,1,0,0:0:0:0:
225,216,69049,1,8,0:0:0:0:
243,206,69134,1,8,0:0:0:0:
228,218,69390,1,0,0:0:0:0:
228,218,69561,1,8,0:0:0:0:
228,218,69646,1,8,0:0:0:0:
233,217,69901,1,0,0:0:0:0:
233,217,70072,1,8,0:0:0:0:
234,206,70242,1,0,0:0:0:0:
234,206,70328,1,0,0:0:0:0:
234,206,70413,1,0,0:0:0:0:
251,198,70583,1,0,0:0:0:0:
228,218,70754,1,8,0:0:0:0:
237,222,71265,1,12,0:0:0:0:
228,221,71606,1,0,0:0:0:0:
228,218,71776,1,8,0:0:0:0:
235,222,71947,1,8,0:0:0:0:
185,208,72032,1,8,0:0:0:0:
228,204,72288,1,0,0:0:0:0:
247,220,72458,1,8,0:0:0:0:
228,218,72799,1,8,0:0:0:0:
233,217,73140,1,8,0:0:0:0:
233,217,73225,1,8,0:0:0:0:
233,217,73396,1,8,0:0:0:0:
260,222,73566,1,0,0:0:0:0:
260,222,73651,1,0,0:0:0:0:
260,222,73822,1,12,0:0:0:0:
269,222,74163,1,0,0:0:0:0:
243,211,74504,1,8,0:0:0:0:
257,212,74674,1,0,0:0:0:0:
257,212,74759,1,0,0:0:0:0:
257,212,74845,1,0,0:0:0:0:
255,218,75186,1,8,0:0:0:0:
261,214,75526,1,0,0:0:0:0:
266,222,75867,1,8,0:0:0:0:
266,222,76038,1,0,0:0:0:0:
266,222,76123,1,0,0:0:0:0:
266,222,76208,1,0,0:0:0:0:
266,222,76549,1,12,0:0:0:0:
259,208,76805,1,0,0:0:0:0:
259,208,77061,1,0,0:0:0:0:
259,208,77231,1,8,0:0:0:0:
265,196,77487,1,8,0:0:0:0:
265,196,77742,1,0,0:0:0:0:
265,196,77913,1,8,0:0:0:0:
265,193,78168,1,0,0:0:0:0:
265,197,78424,1,0,0:0:0:0:
265,196,78595,1,8,0:0:0:0:
259,184,78680,1,8,0:0:0:0:
265,196,78765,1,8,0:0:0:0:
265,196,78936,1,0,0:0:0:0:
265,193,79106,1,8,0:0:0:0:
245,210,79191,1,8,0:0:0:0:
265,197,79447,1,8,0:0:0:0:
271,209,79617,1,0,0:0:0:0:
271,209,79788,1,0,0:0:0:0:
271,209,79958,1,8,0:0:0:0:
261,210,80043,1,8,0:0:0:0:
239,198,80299,1,0,0:0:0:0:
272,209,80470,1,8,0:0:0:0:
271,209,80555,1,8,0:0:0:0:
271,209,80811,1,8,0:0:0:0:
271,209,80981,1,0,0:0:0:0:
275,213,81151,1,8,0:0:0:0:
266,203,81237,1,8,0:0:0:0:
266,203,81322,1,8,0:0:0:0:
272,209,81492,1,0,0:0:0:0:
271,209,81663,1,8,0:0:0:0:
279,208,82174,1,12,0:0:0:0:
289,209,82515,1,0,0:0:0:0:
292,198,82686,1,8,0:0:0:0:
292,198,82856,1,8,0:0:0:0:
292,198,82941,1,8,0:0:0:0:
292,195,83197,1,0,0:0:0:0:
292,195,83367,1,8,0:0:0:0:
317,189,83708,1,8,0:0:0:0:
300,195,84049,1,8,0:0:0:0:
307,217,84134,1,8,0:0:0:0:
310,214,84305,1,8,0:0:0:0:
319,210,84475,1,0,0:0:0:0:
311,217,84561,1,0,0:0:0:0:
319,210,84731,1,12,0:0:0:0:
306,231,85072,1,0,0:0:0:0:
312,209,85413,1,8,0:0:0:0:
306,231,85498,1,8,0:0:0:0:
306,231,85583,1,8,0:0:0:0:
309,213,85754,1,0,0:0:0:0:
316,222,86095,1,8,0:0:0:0:
312,225,86436,5,0,0:0:0:0:
312,235,86776,1,8,0:0:0:0:
295,219,86862,1,8,0:0:0:0:
295,219,86947,1,8,0:0:0:0:
312,235,87117,1,0,0:0:0:0:
247,186,87458,5,12,0:0:0:0:
247,186,87799,1,8,0:0:0:0:
247,186,87970,1,0,0:0:0:0:
247,186,88140,1,0,0:0:0:0:
247,186,88225,1,0,0:0:0:0:
247,186,88311,1,0,0:0:0:0:
247,186,88481,1,8,0:0:0:0:
247,186,88651,1,0,0:0:0:0:
247,186,88992,1,0,0:0:0:0:
247,186,89163,1,8,0:0:0:0:
226,195,89333,1,0,0:0:0:0:
238,192,89418,1,0,0:0:0:0:
247,171,89504,1,0,0:0:0:0:
215,177,89674,1,8,0:0:0:0:
247,186,89845,1,0,0:0:0:0:
248,193,89930,1,0,0:0:0:0:
233,191,90015,1,0,0:0:0:0:
247,186,90186,1,12,0:0:0:0:
256,192,90526,1,8,0:0:0:0:
256,192,90697,1,0,0:0:0:0:
256,192,90867,1,8,0:0:0:0:
256,192,90953,1,8,0:0:0:0:
256,192,91038,1,8,0:0:0:0:
256,192,91208,1,8,0:0:0:0:
256,192,91379,1,0,0:0:0:0:
256,192,91720,1,8,0:0:0:0:
256,192,91890,1,8,0:0:0:0:
256,192,92061,1,0,0:0:0:0:
211,198,92146,1,0,0:0:0:0:
256,192,92231,1,0,0:0:0:0:
224,192,92401,1,8,0:0:0:0:
224,192,92572,1,0,0:0:0:0:
224,192,92657,1,0,0:0:0:0:
224,192,92742,1,0,0:0:0:0:
224,192,92913,1,12,0:0:0:0:
218,196,93254,1,0,0:0:0:0:
256,192,93424,1,12,0:0:0:0:
256,192,93936,1,8,0:0:0:0:
256,192,94106,1,0,0:0:0:0:
256,192,94276,1,0,0:0:0:0:
261,194,94362,1,0,0:0:0:0:
256,192,94447,1,0,0:0:0:0:
256,192,94617,1,8,0:0:0:0:
256,192,94788,1,0,0:0:0:0:
256,192,94958,1,8,0:0:0:0:
256,192,95129,1,8,0:0:0:0:
256,192,95214,1,8,0:0:0:0:
256,192,95299,1,8,0:0:0:0:
246,190,95470,1,0,0:0:0:0:
249,176,95640,1,12,0:0:0:0:
256,192,95981,1,0,0:0:0:0:
256,192,96151,1,12,0:0:0:0:
256,192,96407,1,12,0:0:0:0:
256,192,96663,1,12,0:0:0:0:
256,192,97004,1,8,0:0:0:0:
256,192,97174,1,0,0:0:0:0:
256,192,97259,1,0,0:0:0:0:
256,192,97345,1,8,0:0:0:0:
256,192,97856,1,8,0:0:0:0:
256,192,98026,1,0,0:0:0:0:
265,200,98112,1,0,0:0:0:0:
256,192,98197,1,0,0:0:0:0:
256,192,98367,1,12,0:0:0:0:
192,192,98708,1,12,0:0:0:0:
224,192,99049,1,0,0:0:0:0:
244,186,99134,1,0,0:0:0:0:
224,192,99220,1,0,0:0:0:0:
224,192,99390,1,8,0:0:0:0:
224,192,99561,1,0,0:0:0:0:
224,192,99731,1,8,0:0:0:0:
248,195,99816,1,8,0:0:0:0:
224,192,99901,1,8,0:0:0:0:
224,192,100072,1,8,0:0:0:0:
224,192,100242,1,0,0:0:0:0:
224,192,100583,1,8,0:0:0:0:
224,192,100754,1,0,0:0:0:0:
224,192,100924,1,8,0:0:0:0:
224,192,101095,1,0,0:0:0:0:
224,192,101180,1,0,0:0:0:0:
224,192,101265,1,0,0:0:0:0:
224,192,101436,1,8,0:0:0:0:
224,192,101606,1,0,0:0:0:0:
224,192,101947,1,8,0:0:0:0:
238,187,102117,1,0,0:0:0:0:
224,192,102288,1,8,0:0:0:0:
256,192,102458,12,0,103481,0:0:0:0:
224,192,103822,5,4,0:0:0:0:
224,224,104163,1,8,0:0:0:0:
224,224,104333,1,4,0:0:0:0:
224,192,104674,1,8,0:0:0:0:
224,192,104845,1,4,0:0:0:0:
224,192,105186,1,0,0:0:0:0:
224,192,105271,1,0,0:0:0:0:
224,192,105356,1,0,0:0:0:0:
224,192,105526,1,8,0:0:0:0:
224,192,105697,1,0,0:0:0:0:
224,192,105782,1,0,0:0:0:0:
224,192,105867,1,0,0:0:0:0:
224,192,106038,1,0,0:0:0:0:
224,192,106208,1,8,0:0:0:0:
224,192,106549,1,4,0:0:0:0:
224,224,106890,1,8,0:0:0:0:
224,224,107061,1,4,0:0:0:0:
224,192,107401,1,8,0:0:0:0:
224,192,107572,1,4,0:0:0:0:
224,192,107913,1,8,0:0:0:0:
224,192,107998,1,8,0:0:0:0:
185,203,108083,1,8,0:0:0:0:
208,202,108254,1,8,0:0:0:0:
224,192,108424,1,0,0:0:0:0:
224,192,108595,1,8,0:0:0:0:
228,205,108680,1,8,0:0:0:0:
224,192,108765,1,8,0:0:0:0:
224,192,108936,1,8,0:0:0:0:
224,192,109276,1,4,0:0:0:0:
224,224,109617,1,8,0:0:0:0:
224,224,109788,1,4,0:0:0:0:
224,192,110129,1,8,0:0:0:0:
224,192,110299,1,4,0:0:0:0:
224,192,110640,1,0,0:0:0:0:
224,192,110725,1,0,0:0:0:0:
224,192,110811,1,0,0:0:0:0:
224,192,110981,1,8,0:0:0:0:
224,192,111151,1,0,0:0:0:0:
224,192,111322,1,8,0:0:0:0:
224,192,111407,1,8,0:0:0:0:
224,192,111492,1,8,0:0:0:0:
224,192,111663,1,8,0:0:0:0:
224,192,112004,1,4,0:0:0:0:
224,224,112345,1,8,0:0:0:0:
224,224,112515,1,4,0:0:0:0:
224,192,112856,1,8,0:0:0:0:
224,192,113026,1,4,0:0:0:0:
256,192,113367,12,0,114390,0:0:0:0:
224,192,114731,5,4,0:0:0:0:
225,202,115072,1,0,0:0:0:0:
225,202,115242,1,8,0:0:0:0:
226,206,115413,1,0,0:0:0:0:
226,206,115498,1,0,0:0:0:0:
226,206,115583,1,0,0:0:0:0:
226,206,115754,1,8,0:0:0:0:
225,202,115924,1,0,0:0:0:0:
225,202,116095,1,0,0:0:0:0:
246,202,116180,1,0,0:0:0:0:
226,206,116265,1,0,0:0:0:0:
226,206,116436,1,8,0:0:0:0:
226,206,116606,1,0,0:0:0:0:
231,192,116947,1,8,0:0:0:0:
225,202,117117,1,0,0:0:0:0:
231,192,117288,1,8,0:0:0:0:
226,206,117458,1,4,0:0:0:0:
238,198,117799,1,8,0:0:0:0:
246,207,117970,1,0,0:0:0:0:
246,207,118140,1,8,0:0:0:0:
246,207,118311,1,8,0:0:0:0:
246,207,118396,1,8,0:0:0:0:
246,207,118481,1,8,0:0:0:0:
246,207,118651,1,0,0:0:0:0:
246,207,118822,1,8,0:0:0:0:
246,207,118992,1,8,0:0:0:0:
246,207,119078,1,8,0:0:0:0:
246,207,119163,1,8,0:0:0:0:
246,207,119333,1,0,0:0:0:0:
236,200,119674,1,0,0:0:0:0:
246,207,119845,1,8,0:0:0:0:
246,207,120015,1,8,0:0:0:0:
224,192,120186,1,4,0:0:0:0:
225,202,120526,1,8,0:0:0:0:
225,202,120697,1,4,0:0:0:0:
226,206,121208,1,8,0:0:0:0:
225,202,121379,1,0,0:0:0:0:
226,206,121464,1,0,0:0:0:0:
225,202,121549,1,0,0:0:0:0:
225,202,121720,1,8,0:0:0:0:
226,206,121805,1,8,0:0:0:0:
226,206,121890,1,8,0:0:0:0:
226,206,122061,1,0,0:0:0:0:
225,202,122401,1,0,0:0:0:0:
225,202,122572,1,0,0:0:0:0:
225,202,122742,1,8,0:0:0:0:
226,206,122913,1,4,0:0:0:0:
216,204,123254,1,8,0:0:0:0:
228,208,123424,1,4,0:0:0:0:
228,208,123680,1,4,0:0:0:0:
215,211,123936,1,4,0:0:0:0:
210,197,124276,1,8,0:0:0:0:
210,197,124362,1,8,0:0:0:0:
210,197,124447,1,8,0:0:0:0:
210,197,124617,1,0,0:0:0:0:
210,197,124788,1,8,0:0:0:0:
210,197,124958,1,8,0:0:0:0:
210,197,125043,1,8,0:0:0:0:
210,197,125129,1,8,0:0:0:0:
210,197,125299,1,0,0:0:0:0:
210,197,125470,1,8,0:0:0:0:
246,207,125640,1,0,0:0:0:0:
256,192,135186,12,0,136208,0:0:0:0:
263,182,136549,5,4,0:0:0:0:
257,189,137004,1,8,0:0:0:0:
257,189,137231,1,0,0:0:0:0:
257,189,137345,1,0,0:0:0:0:
257,189,137572,1,8,0:0:0:0:
257,189,137799,1,0,0:0:0:0:
271,185,137913,1,8,0:0:0:0:
257,189,138367,1,0,0:0:0:0:
257,189,138595,1,0,0:0:0:0:
256,184,138822,1,8,0:0:0:0:
256,184,138936,1,8,0:0:0:0:
264,197,139163,1,0,0:0:0:0:
264,197,139276,1,8,0:0:0:0:
270,202,139617,1,8,0:0:0:0:
270,202,139731,1,8,0:0:0:0:
264,187,139958,1,8,0:0:0:0:
238,200,140186,1,0,0:0:0:0:
261,200,140413,1,8,0:0:0:0:
234,216,140526,1,8,0:0:0:0:
256,202,140754,1,8,0:0:0:0:
281,197,140981,1,0,0:0:0:0:
254,200,141095,1,8,0:0:0:0:
254,200,141322,1,0,0:0:0:0:
250,206,141492,1,8,0:0:0:0:
248,192,141663,1,0,0:0:0:0:
277,209,141833,1,0,0:0:0:0:
277,209,142004,1,12,0:0:0:0:
252,214,142345,1,8,0:0:0:0:
246,224,142572,1,0,0:0:0:0:
246,224,142686,1,0,0:0:0:0:
254,209,142913,1,0,0:0:0:0:
254,209,143026,1,8,0:0:0:0:
254,209,143367,1,0,0:0:0:0:
254,209,143595,1,0,0:0:0:0:
254,209,143708,1,8,0:0:0:0:
254,209,143936,1,8,0:0:0:0:
254,209,144049,1,0,0:0:0:0:
187,205,144163,1,8,0:0:0:0:
197,190,144390,1,0,0:0:0:0:
274,213,144561,1,8,0:0:0:0:
270,208,144731,1,0,0:0:0:0:
270,208,144901,1,8,0:0:0:0:
248,197,145072,1,8,0:0:0:0:
255,186,145328,1,8,0:0:0:0:
235,203,145498,1,0,0:0:0:0:
248,197,145583,1,0,0:0:0:0:
248,197,145754,1,8,0:0:0:0:
248,197,146095,1,4,0:0:0:0:
244,202,146265,1,4,0:0:0:0:
253,209,146606,1,0,0:0:0:0:
253,209,146776,1,8,0:0:0:0:
246,208,146862,1,8,0:0:0:0:
246,208,146947,1,8,0:0:0:0:
246,208,147117,1,0,0:0:0:0:
246,208,147203,1,0,0:0:0:0:
246,208,147288,1,0,0:0:0:0:
246,207,147458,1,12,0:0:0:0:
250,190,147799,1,0,0:0:0:0:
250,190,147970,1,8,0:0:0:0:
259,211,148311,1,0,0:0:0:0:
259,211,148481,1,8,0:0:0:0:
259,211,148651,1,0,0:0:0:0:
273,211,148822,1,8,0:0:0:0:
263,215,149163,1,0,0:0:0:0:
263,215,149333,1,8,0:0:0:0:
263,215,149845,1,0,0:0:0:0:
236,210,150015,1,0,0:0:0:0:
263,215,150186,1,8,0:0:0:0:
261,209,150526,1,0,0:0:0:0:
260,211,150697,1,8,0:0:0:0:
255,197,151038,1,0,0:0:0:0:
255,197,151208,1,8,0:0:0:0:
255,197,151379,1,0,0:0:0:0:
255,197,151549,1,8,0:0:0:0:
249,189,151890,1,0,0:0:0:0:
249,189,152061,1,8,0:0:0:0:
248,200,152231,1,0,0:0:0:0:
249,189,152401,1,8,0:0:0:0:
249,189,152572,1,0,0:0:0:0:
249,189,152657,1,0,0:0:0:0:
249,189,152742,1,0,0:0:0:0:
246,207,152913,1,8,0:0:0:0:
250,190,153254,1,0,0:0:0:0:
250,190,153424,1,8,0:0:0:0:
259,211,153765,1,0,0:0:0:0:
259,211,153936,1,8,0:0:0:0:
259,211,154106,1,0,0:0:0:0:
273,211,154276,1,8,0:0:0:0:
263,215,154617,1,0,0:0:0:0:
263,215,154788,1,8,0:0:0:0:
263,215,155299,1,0,0:0:0:0:
263,215,155470,1,0,0:0:0:0:
263,215,155640,1,8,0:0:0:0:
261,209,155981,1,0,0:0:0:0:
260,211,156151,1,8,0:0:0:0:
255,197,156492,1,0,0:0:0:0:
255,197,156663,1,8,0:0:0:0:
255,197,156833,1,0,0:0:0:0:
255,197,157004,1,8,0:0:0:0:
249,190,157174,1,0,0:0:0:0:
251,177,157259,5,0,0:0:0:0:
249,189,157345,1,0,0:0:0:0:
249,189,157515,1,8,0:0:0:0:
249,189,157686,1,0,0:0:0:0:
249,189,157856,1,8,0:0:0:0:
249,189,157941,1,8,0:0:0:0:
249,189,158026,1,8,0:0:0:0:
239,187,158367,5,4,0:0:0:0:
234,184,158708,1,8,0:0:0:0:
239,187,158879,1,0,0:0:0:0:
239,187,159049,1,8,0:0:0:0:
237,195,159134,1,8,0:0:0:0:
239,187,159220,1,8,0:0:0:0:
237,195,159390,1,8,0:0:0:0:
237,195,159731,1,0,0:0:0:0:
237,195,159816,1,0,0:0:0:0:
237,195,159901,1,0,0:0:0:0:
237,195,160072,1,8,0:0:0:0:
238,195,160242,1,0,0:0:0:0:
237,195,160413,1,0,0:0:0:0:
202,185,160498,1,0,0:0:0:0:
237,195,160583,1,0,0:0:0:0:
237,195,160754,1,8,0:0:0:0:
245,198,161095,1,0,0:0:0:0:
245,198,161265,1,8,0:0:0:0:
245,198,161436,1,0,0:0:0:0:
245,198,161521,1,0,0:0:0:0:
245,198,161606,1,0,0:0:0:0:
245,198,161776,1,8,0:0:0:0:
265,197,162117,1,0,0:0:0:0:
245,198,162288,1,8,0:0:0:0:
256,192,162458,12,0,163481,0:0:0:0:
247,186,163822,5,12,0:0:0:0:
247,186,164163,1,8,0:0:0:0:
247,186,164333,1,0,0:0:0:0:
247,186,164504,1,0,0:0:0:0:
247,186,164589,1,0,0:0:0:0:
247,186,164674,1,0,0:0:0:0:
247,186,164845,1,8,0:0:0:0:
247,186,165015,1,0,0:0:0:0:
247,186,165356,1,0,0:0:0:0:
247,186,165526,1,8,0:0:0:0:
226,195,165697,1,0,0:0:0:0:
238,192,165782,1,0,0:0:0:0:
247,171,165867,1,0,0:0:0:0:
215,177,166038,1,8,0:0:0:0:
247,186,166208,1,0,0:0:0:0:
248,193,166293,1,0,0:0:0:0:
233,191,166379,1,0,0:0:0:0:
247,186,166549,1,12,0:0:0:0:
256,192,166890,1,8,0:0:0:0:
256,192,167061,1,0,0:0:0:0:
256,192,167231,1,8,0:0:0:0:
256,192,167316,1,8,0:0:0:0:
256,192,167401,1,8,0:0:0:0:
256,192,167572,1,8,0:0:0:0:
256,192,167742,1,0,0:0:0:0:
256,192,168083,1,8,0:0:0:0:
256,192,168254,1,8,0:0:0:0:
256,192,168424,1,0,0:0:0:0:
211,198,168509,1,0,0:0:0:0:
256,192,168595,1,0,0:0:0:0:
224,192,168765,1,8,0:0:0:0:
224,192,168936,1,0,0:0:0:0:
224,192,169021,1,0,0:0:0:0:
224,192,169106,1,0,0:0:0:0:
224,192,169276,1,12,0:0:0:0:
218,196,169617,1,0,0:0:0:0:
256,192,169788,1,12,0:0:0:0:
256,192,170299,1,8,0:0:0:0:
256,192,170470,1,0,0:0:0:0:
256,192,170640,1,0,0:0:0:0:
261,194,170725,1,0,0:0:0:0:
256,192,170811,1,0,0:0:0:0:
256,192,170981,1,8,0:0:0:0:
256,192,171151,1,0,0:0:0:0:
256,192,171322,1,8,0:0:0:0:
256,192,171492,1,8,0:0:0:0:
256,192,171578,1,8,0:0:0:0:
256,192,171663,1,8,0:0:0:0:
246,190,171833,1,0,0:0:0:0:
249,176,172004,1,12,0:0:0:0:
256,192,172345,1,0,0:0:0:0:
256,192,172515,1,12,0:0:0:0:
256,192,172771,1,12,0:0:0:0:
256,192,173026,1,12,0:0:0:0:
256,192,173367,1,8,0:0:0:0:
256,192,173538,1,0,0:0:0:0:
256,192,173623,1,0,0:0:0:0:
256,192,173708,1,8,0:0:0:0:
256,192,174220,1,8,0:0:0:0:
256,192,174390,1,0,0:0:0:0:
265,200,174475,1,0,0:0:0:0:
256,192,174561,1,0,0:0:0:0:
256,192,174731,1,12,0:0:0:0:
192,192,175072,1,12,0:0:0:0:
224,192,175413,1,0,0:0:0:0:
244,186,175498,1,0,0:0:0:0:
224,192,175583,1,0,0:0:0:0:
224,192,175754,1,8,0:0:0:0:
224,192,175924,1,0,0:0:0:0:
224,192,176095,1,8,0:0:0:0:
248,195,176180,1,8,0:0:0:0:
224,192,176265,1,8,0:0:0:0:
224,192,176436,1,8,0:0:0:0:
224,192,176606,1,0,0:0:0:0:
224,192,176947,1,8,0:0:0:0:
224,192,177117,1,0,0:0:0:0:
224,192,177288,1,8,0:0:0:0:
224,192,177458,1,0,0:0:0:0:
224,192,177543,1,0,0:0:0:0:
224,192,177629,1,0,0:0:0:0:
224,192,177799,1,8,0:0:0:0:
224,192,177970,1,0,0:0:0:0:
255,206,178311,1,8,0:0:0:0:
238,187,178481,1,0,0:0:0:0:
224,192,178651,1,8,0:0:0:0:
256,192,178822,12,0,179845,0:0:0:0:
224,192,180186,5,4,0:0:0:0:
224,224,180526,1,8,0:0:0:0:
224,224,180697,1,4,0:0:0:0:
224,192,181038,1,8,0:0:0:0:
224,192,181208,1,4,0:0:0:0:
224,192,181549,1,0,0:0:0:0:
224,192,181634,1,0,0:0:0:0:
224,192,181720,1,0,0:0:0:0:
224,192,181890,1,8,0:0:0:0:
224,192,182061,1,0,0:0:0:0:
224,192,182146,1,0,0:0:0:0:
224,192,182231,1,0,0:0:0:0:
224,192,182401,1,0,0:0:0:0:
224,192,182572,1,8,0:0:0:0:
224,192,182913,1,4,0:0:0:0:
224,224,183254,1,8,0:0:0:0:
224,224,183424,1,4,0:0:0:0:
224,192,183765,1,8,0:0:0:0:
224,192,183936,1,4,0:0:0:0:
224,192,184276,1,8,0:0:0:0:
224,192,184362,1,8,0:0:0:0:
185,203,184447,1,8,0:0:0:0:
208,202,184617,1,8,0:0:0:0:
224,192,184788,1,0,0:0:0:0:
224,192,184958,1,8,0:0:0:0:
228,205,185043,1,8,0:0:0:0:
224,192,185129,1,8,0:0:0:0:
224,192,185299,1,8,0:0:0:0:
224,192,185640,1,4,0:0:0:0:
224,224,185981,1,8,0:0:0:0:
224,224,186151,1,4,0:0:0:0:
224,192,186492,1,8,0:0:0:0:
224,192,186663,1,4,0:0:0:0:
224,192,187004,1,0,0:0:0:0:
224,192,187089,1,0,0:0:0:0:
224,192,187174,1,0,0:0:0:0:
224,192,187345,1,8,0:0:0:0:
224,192,187515,1,0,0:0:0:0:
224,192,187686,1,8,0:0:0:0:
224,192,187771,1,8,0:0:0:0:
224,192,187856,1,8,0:0:0:0:
224,192,188026,1,8,0:0:0:0:
224,192,188367,1,4,0:0:0:0:
224,224,188708,1,8,0:0:0:0:
224,224,188879,1,4,0:0:0:0:
224,192,189220,1,8,0:0:0:0:
224,192,189390,1,4,0:0:0:0:
256,192,189731,12,0,190754,0:0:0:0:
224,192,191095,5,4,0:0:0:0:
225,202,191436,1,0,0:0:0:0:
225,202,191606,1,8,0:0:0:0:
226,206,191776,1,0,0:0:0:0:
226,206,191862,1,0,0:0:0:0:
226,206,191947,1,0,0:0:0:0:
226,206,192117,1,8,0:0:0:0:
225,202,192288,1,0,0:0:0:0:
225,202,192458,1,0,0:0:0:0:
246,202,192543,1,0,0:0:0:0:
226,206,192629,1,0,0:0:0:0:
226,206,192799,1,8,0:0:0:0:
226,206,192970,1,0,0:0:0:0:
231,192,193311,1,8,0:0:0:0:
225,202,193481,1,0,0:0:0:0:
231,192,193651,1,8,0:0:0:0:
226,206,193822,1,4,0:0:0:0:
238,198,194163,1,8,0:0:0:0:
246,207,194333,1,0,0:0:0:0:
246,207,194504,1,8,0:0:0:0:
246,207,194674,1,8,0:0:0:0:
246,207,194759,1,8,0:0:0:0:
246,207,194845,1,8,0:0:0:0:
246,207,195015,1,0,0:0:0:0:
246,207,195186,1,8,0:0:0:0:
246,207,195356,1,8,0:0:0:0:
246,207,195441,1,8,0:0:0:0:
246,207,195526,1,8,0:0:0:0:
246,207,195697,1,0,0:0:0:0:
236,200,196038,1,0,0:0:0:0:
246,207,196208,1,8,0:0:0:0:
246,207,196379,1,8,0:0:0:0:
224,192,196549,1,4,0:0:0:0:
225,202,196890,1,8,0:0:0:0:
225,202,197061,1,4,0:0:0:0:
226,206,197572,1,8,0:0:0:0:
225,202,197742,1,0,0:0:0:0:
226,206,197828,1,0,0:0:0:0:
225,202,197913,1,0,0:0:0:0:
225,202,198083,1,8,0:0:0:0:
226,206,198168,1,8,0:0:0:0:
226,206,198254,1,8,0:0:0:0:
226,206,198424,1,0,0:0:0:0:
225,202,198765,1,0,0:0:0:0:
225,202,198936,1,0,0:0:0:0:
225,202,199106,1,8,0:0:0:0:
226,206,199276,1,4,0:0:0:0:
216,204,199617,1,8,0:0:0:0:
228,208,199788,1,4,0:0:0:0:
228,208,200043,1,4,0:0:0:0:
215,211,200299,1,4,0:0:0:0:
210,197,200640,1,8,0:0:0:0:
210,197,200725,1,8,0:0:0:0:
210,197,200811,1,8,0:0:0:0:
210,197,200981,1,0,0:0:0:0:
210,197,201151,1,8,0:0:0:0:
210,197,201322,1,8,0:0:0:0:
210,197,201407,1,8,0:0:0:0:
210,197,201492,1,8,0:0:0:0:
210,197,201663,1,0,0:0:0:0:
210,197,201833,1,8,0:0:0:0:
246,207,202004,1,4,0:0:0:0:
