osu file format v14

[General]
AudioFilename: audio.mp3
AudioLeadIn: 0
PreviewTime: 87437
Countdown: 0
SampleSet: Normal
StackLeniency: 0.7
Mode: 1
LetterboxInBreaks: 0
WidescreenStoryboard: 1

[Editor]
Bookmarks: 198,22016,32925,43834,54743,65652,76561,87470,98379,114743,125652,136561,147470,158379,163834,174743,191107,202016
DistanceSpacing: 6
BeatDivisor: 16
GridSize: 32
TimelineZoom: 2.899999

[Metadata]
Title:egoist
TitleUnicode:egoist
Artist:Shogo Nomura
ArtistUnicode:Shogo Nomura
Creator:ZTH
Version:Kantan
Source:
Tags:Jazz Instrumental Electronic Tokyo Drops しょご overdahedge2014 B0tch3d 野村渉悟
BeatmapID:3954838
BeatmapSetID:1915102

[Difficulty]
HPDrainRate:7
CircleSize:5
OverallDifficulty:3
ApproachRate:5
SliderMultiplier:1.4
SliderTickRate:1

[Events]
//Background and Video events
0,0,"jazz.jpg",0,0
//Break Periods
2,125840,133986
//Storyboard Layer 0 (Background)
//Storyboard Layer 1 (Fail)
//Storyboard Layer 2 (Pass)
//Storyboard Layer 3 (Foreground)
//Storyboard Layer 4 (Overlay)
//Storyboard Sound Samples

[TimingPoints]
186,340.909090909091,4,1,0,70,1,0
186,-100,4,1,0,70,0,0
32907,-100,4,1,0,80,0,0
43801,-100,4,1,0,90,0,0
87458,-100,4,1,0,90,0,1
98367,-100,4,1,0,90,0,0
125661,-100,4,1,0,70,0,0
136545,-100,4,1,0,80,0,0
147457,-100,4,1,0,90,0,0
163822,-100,4,1,0,90,0,1
174731,-100,4,1,0,90,0,0

[HitObjects]
241,200,22004,5,0,0:0:0:0:
225,198,23367,1,8,0:0:0:0:
225,198,24049,1,0,0:0:0:0:
219,205,24731,1,8,0:0:0:0:
219,205,25754,1,8,0:0:0:0:
234,205,26436,1,8,0:0:0:0:
230,177,27458,1,0,0:0:0:0:
223,201,28822,1,8,0:0:0:0:
223,201,29504,1,0,0:0:0:0:
223,201,30186,1,8,0:0:0:0:
223,201,31208,1,0,0:0:0:0:
236,206,32231,1,0,0:0:0:0:
236,206,32572,1,8,0:0:0:0:
236,206,32913,1,0,0:0:0:0:
236,206,33595,1,8,0:0:0:0:
236,206,34617,1,0,0:0:0:0:
236,206,34958,1,8,0:0:0:0:
236,206,35640,1,0,0:0:0:0:
236,206,36322,1,8,0:0:0:0:
236,206,36663,1,8,0:0:0:0:
230,204,37345,1,0,0:0:0:0:
247,215,37686,5,8,0:0:0:0:
230,223,38367,1,0,0:0:0:0:
230,223,39049,1,8,0:0:0:0:
222,247,40072,1,0,0:0:0:0:
222,247,40413,1,8,0:0:0:0:
256,192,41095,12,0,43140,0:0:0:0:
245,218,43822,5,12,0:0:0:0:
231,215,44504,1,8,0:0:0:0:
224,206,45186,1,8,0:0:0:0:
224,206,46208,1,8,0:0:0:0:
213,189,46549,1,0,0:0:0:0:
242,218,46890,5,8,0:0:0:0:
225,216,47231,1,8,0:0:0:0:
226,197,47572,1,0,0:0:0:0:
233,217,48254,1,8,0:0:0:0:
213,221,48595,1,0,0:0:0:0:
237,222,49447,1,12,0:0:0:0:
228,218,49958,1,0,0:0:0:0:
247,220,50640,1,0,0:0:0:0:
228,218,50981,1,0,0:0:0:0:
233,217,51322,1,8,0:0:0:0:
260,222,52004,1,12,0:0:0:0:
243,211,52686,1,8,0:0:0:0:
255,218,53367,1,8,0:0:0:0:
261,220,53708,1,0,0:0:0:0:
266,222,54049,1,8,0:0:0:0:
245,218,54731,5,12,0:0:0:0:
231,215,55413,1,8,0:0:0:0:
224,206,56095,1,8,0:0:0:0:
224,206,57117,1,8,0:0:0:0:
217,208,57458,1,0,0:0:0:0:
242,218,57799,5,8,0:0:0:0:
225,216,58140,1,0,0:0:0:0:
228,218,58481,1,0,0:0:0:0:
233,217,59163,1,8,0:0:0:0:
213,221,59504,1,8,0:0:0:0:
237,222,60356,1,12,0:0:0:0:
228,218,60867,1,0,0:0:0:0:
247,220,61549,1,0,0:0:0:0:
228,218,61890,1,0,0:0:0:0:
233,217,62231,1,8,0:0:0:0:
260,222,62913,1,12,0:0:0:0:
243,211,63595,1,8,0:0:0:0:
255,218,64276,1,8,0:0:0:0:
261,220,64617,1,0,0:0:0:0:
266,222,64958,1,8,0:0:0:0:
245,218,65640,5,12,0:0:0:0:
231,215,66322,1,8,0:0:0:0:
224,206,67004,1,8,0:0:0:0:
224,206,68026,1,8,0:0:0:0:
210,216,68367,1,0,0:0:0:0:
242,218,68708,5,8,0:0:0:0:
225,216,69049,1,8,0:0:0:0:
228,218,69390,1,0,0:0:0:0:
233,217,70072,1,8,0:0:0:0:
213,221,70413,1,0,0:0:0:0:
233,217,70754,1,8,0:0:0:0:
237,222,71265,1,12,0:0:0:0:
228,218,71776,1,0,0:0:0:0:
247,220,72458,1,0,0:0:0:0:
228,218,72799,1,0,0:0:0:0:
233,217,73140,1,8,0:0:0:0:
260,222,73822,1,12,0:0:0:0:
261,234,74163,1,0,0:0:0:0:
243,211,74504,1,8,0:0:0:0:
255,218,75186,1,8,0:0:0:0:
261,220,75526,1,0,0:0:0:0:
266,222,75867,1,8,0:0:0:0:
245,218,76549,5,12,0:0:0:0:
231,215,77231,1,8,0:0:0:0:
224,206,77913,1,8,0:0:0:0:
224,206,78936,1,8,0:0:0:0:
221,214,79276,1,0,0:0:0:0:
242,218,79617,5,8,0:0:0:0:
225,216,79958,1,0,0:0:0:0:
228,218,80299,1,0,0:0:0:0:
233,217,80981,1,8,0:0:0:0:
213,221,81322,1,8,0:0:0:0:
254,218,81663,1,0,0:0:0:0:
237,222,82174,1,12,0:0:0:0:
228,218,82686,1,0,0:0:0:0:
247,220,83367,1,0,0:0:0:0:
228,218,83708,1,0,0:0:0:0:
233,217,84049,1,8,0:0:0:0:
260,222,84731,1,12,0:0:0:0:
268,218,85072,1,0,0:0:0:0:
243,211,85413,1,8,0:0:0:0:
255,218,86095,1,8,0:0:0:0:
261,220,86436,5,0,0:0:0:0:
266,222,86776,1,8,0:0:0:0:
266,222,87458,5,12,0:0:0:0:
247,186,88481,1,8,0:0:0:0:
239,189,88822,1,0,0:0:0:0:
247,186,89163,1,8,0:0:0:0:
247,186,89845,1,0,0:0:0:0:
247,186,90186,1,12,0:0:0:0:
256,192,90867,1,8,0:0:0:0:
256,192,91208,1,8,0:0:0:0:
256,192,91549,1,0,0:0:0:0:
256,192,91890,1,8,0:0:0:0:
224,192,92572,1,0,0:0:0:0:
224,192,92913,1,12,0:0:0:0:
256,192,93424,1,12,0:0:0:0:
230,180,93936,1,0,0:0:0:0:
256,192,94276,1,8,0:0:0:0:
256,192,94617,1,8,0:0:0:0:
226,193,95299,1,0,0:0:0:0:
249,176,95640,1,12,0:0:0:0:
256,192,96151,1,12,0:0:0:0:
256,192,96663,1,12,0:0:0:0:
256,192,97004,1,8,0:0:0:0:
245,180,97345,1,0,0:0:0:0:
256,192,98026,1,0,0:0:0:0:
256,192,98367,1,12,0:0:0:0:
192,192,98708,1,12,0:0:0:0:
224,192,99731,1,0,0:0:0:0:
224,192,100072,1,8,0:0:0:0:
224,192,100413,1,8,0:0:0:0:
224,192,101095,1,8,0:0:0:0:
224,192,101436,1,8,0:0:0:0:
218,193,101776,1,0,0:0:0:0:
238,187,102117,1,8,0:0:0:0:
256,192,102458,12,0,103140,0:0:0:0:
224,192,103822,5,4,0:0:0:0:
224,224,104333,1,4,0:0:0:0:
224,192,104845,1,4,0:0:0:0:
224,192,105526,1,0,0:0:0:0:
224,192,105867,1,0,0:0:0:0:
224,192,106208,1,8,0:0:0:0:
224,192,106549,1,4,0:0:0:0:
224,224,107061,1,4,0:0:0:0:
224,192,107572,1,4,0:0:0:0:
224,192,108595,1,0,0:0:0:0:
224,192,108936,1,8,0:0:0:0:
224,192,109276,1,4,0:0:0:0:
224,224,109788,1,4,0:0:0:0:
224,192,110299,1,4,0:0:0:0:
224,192,110981,1,8,0:0:0:0:
224,192,111322,1,0,0:0:0:0:
224,192,111663,1,8,0:0:0:0:
224,192,112004,1,4,0:0:0:0:
224,224,112515,1,4,0:0:0:0:
224,192,113026,1,4,0:0:0:0:
256,192,113367,12,0,114049,0:0:0:0:
224,192,114731,5,4,0:0:0:0:
226,206,115754,1,8,0:0:0:0:
225,202,116095,1,0,0:0:0:0:
226,206,116436,1,8,0:0:0:0:
231,192,117117,1,8,0:0:0:0:
226,206,117458,1,4,0:0:0:0:
246,207,118140,1,8,0:0:0:0:
246,207,118481,1,8,0:0:0:0:
246,207,118822,1,0,0:0:0:0:
246,207,119163,1,8,0:0:0:0:
246,207,119845,1,8,0:0:0:0:
224,192,120186,1,4,0:0:0:0:
225,202,120697,1,4,0:0:0:0:
226,206,121208,1,8,0:0:0:0:
225,202,121549,1,8,0:0:0:0:
226,206,121890,1,8,0:0:0:0:
225,202,122572,1,8,0:0:0:0:
226,206,122913,1,4,0:0:0:0:
228,208,123424,1,4,0:0:0:0:
215,211,123936,1,4,0:0:0:0:
210,197,124276,1,8,0:0:0:0:
210,197,124617,1,0,0:0:0:0:
210,197,124958,1,8,0:0:0:0:
210,197,125299,1,8,0:0:0:0:
246,207,125640,1,0,0:0:0:0:
256,192,135186,12,0,135867,0:0:0:0:
263,182,136549,5,4,0:0:0:0:
257,189,137004,1,8,0:0:0:0:
257,189,137458,1,0,0:0:0:0:
257,189,137913,1,8,0:0:0:0:
256,184,138822,1,8,0:0:0:0:
264,197,139276,1,0,0:0:0:0:
270,202,139731,1,8,0:0:0:0:
239,211,140186,1,0,0:0:0:0:
236,205,140640,1,8,0:0:0:0:
255,212,141322,1,0,0:0:0:0:
265,215,141663,1,0,0:0:0:0:
277,209,142004,1,12,0:0:0:0:
246,224,142686,1,0,0:0:0:0:
254,209,143026,1,8,0:0:0:0:
254,209,143708,1,8,0:0:0:0:
187,205,144049,1,8,0:0:0:0:
197,190,144390,1,0,0:0:0:0:
246,210,144731,1,0,0:0:0:0:
248,197,145072,1,8,0:0:0:0:
248,197,145754,1,8,0:0:0:0:
248,197,146095,1,0,0:0:0:0:
238,215,146436,1,0,0:0:0:0:
253,209,146776,1,8,0:0:0:0:
246,208,147117,1,0,0:0:0:0:
246,207,147458,1,12,0:0:0:0:
250,190,147970,1,0,0:0:0:0:
259,211,148481,1,8,0:0:0:0:
273,211,148822,1,8,0:0:0:0:
263,215,149333,1,0,0:0:0:0:
263,215,150186,1,8,0:0:0:0:
260,211,150697,1,0,0:0:0:0:
255,197,151208,1,8,0:0:0:0:
255,197,151549,1,8,0:0:0:0:
249,189,152061,1,0,0:0:0:0:
246,207,152913,1,8,0:0:0:0:
250,190,153424,1,0,0:0:0:0:
259,211,153936,1,8,0:0:0:0:
273,211,154276,1,8,0:0:0:0:
263,215,154788,1,8,0:0:0:0:
263,215,155640,1,8,0:0:0:0:
260,211,156151,1,0,0:0:0:0:
255,197,156663,1,8,0:0:0:0:
255,197,157004,1,8,0:0:0:0:
249,189,157345,1,0,0:0:0:0:
249,189,157686,1,8,0:0:0:0:
249,189,158026,1,8,0:0:0:0:
239,187,158367,5,4,0:0:0:0:
237,195,159390,1,8,0:0:0:0:
237,195,159731,1,0,0:0:0:0:
237,195,160072,1,8,0:0:0:0:
237,195,160754,1,8,0:0:0:0:
245,198,161095,1,0,0:0:0:0:
245,198,161436,1,8,0:0:0:0:
245,198,161776,1,8,0:0:0:0:
228,189,162117,1,8,0:0:0:0:
256,192,162458,12,0,163140,0:0:0:0:
266,222,163822,5,12,0:0:0:0:
247,186,164845,1,8,0:0:0:0:
239,189,165186,1,0,0:0:0:0:
247,186,165526,1,8,0:0:0:0:
247,186,166208,1,0,0:0:0:0:
247,186,166549,1,12,0:0:0:0:
256,192,167231,1,8,0:0:0:0:
256,192,167572,1,8,0:0:0:0:
256,192,167913,1,0,0:0:0:0:
256,192,168254,1,8,0:0:0:0:
224,192,168936,1,0,0:0:0:0:
224,192,169276,1,12,0:0:0:0:
256,192,169788,1,12,0:0:0:0:
230,180,170299,1,0,0:0:0:0:
256,192,170640,1,8,0:0:0:0:
256,192,170981,1,8,0:0:0:0:
226,193,171663,1,0,0:0:0:0:
249,176,172004,1,12,0:0:0:0:
256,192,172515,1,12,0:0:0:0:
256,192,173026,1,12,0:0:0:0:
256,192,173367,1,8,0:0:0:0:
245,180,173708,1,0,0:0:0:0:
256,192,174390,1,0,0:0:0:0:
256,192,174731,1,12,0:0:0:0:
192,192,175072,1,12,0:0:0:0:
224,192,176095,1,0,0:0:0:0:
224,192,176436,1,8,0:0:0:0:
224,192,176776,1,8,0:0:0:0:
224,192,177458,1,8,0:0:0:0:
224,192,177799,1,8,0:0:0:0:
218,193,178140,1,0,0:0:0:0:
238,187,178481,1,8,0:0:0:0:
256,192,178822,12,0,179504,0:0:0:0:
224,192,180186,5,4,0:0:0:0:
224,224,180697,1,4,0:0:0:0:
224,192,181208,1,4,0:0:0:0:
224,192,181890,1,0,0:0:0:0:
224,192,182231,1,0,0:0:0:0:
224,192,182572,1,8,0:0:0:0:
224,192,182913,1,4,0:0:0:0:
224,224,183424,1,4,0:0:0:0:
224,192,183936,1,4,0:0:0:0:
224,192,184958,1,0,0:0:0:0:
224,192,185299,1,8,0:0:0:0:
224,192,185640,1,4,0:0:0:0:
224,224,186151,1,4,0:0:0:0:
224,192,186663,1,4,0:0:0:0:
224,192,187345,1,8,0:0:0:0:
224,192,187686,1,0,0:0:0:0:
224,192,188026,1,8,0:0:0:0:
224,192,188367,1,4,0:0:0:0:
224,224,188879,1,4,0:0:0:0:
224,192,189390,1,4,0:0:0:0:
256,192,189731,12,0,190413,0:0:0:0:
224,192,191095,5,4,0:0:0:0:
226,206,192117,1,8,0:0:0:0:
225,202,192458,1,0,0:0:0:0:
226,206,192799,1,8,0:0:0:0:
231,192,193481,1,8,0:0:0:0:
226,206,193822,1,4,0:0:0:0:
246,207,194504,1,8,0:0:0:0:
246,207,194845,1,8,0:0:0:0:
246,207,195186,1,0,0:0:0:0:
246,207,195526,1,8,0:0:0:0:
246,207,196208,1,8,0:0:0:0:
224,192,196549,1,4,0:0:0:0:
225,202,197061,1,4,0:0:0:0:
226,206,197572,1,8,0:0:0:0:
225,202,197913,1,8,0:0:0:0:
226,206,198254,1,8,0:0:0:0:
225,202,198936,1,8,0:0:0:0:
226,206,199276,1,4,0:0:0:0:
228,208,199788,1,4,0:0:0:0:
215,211,200299,1,4,0:0:0:0:
210,197,200640,1,8,0:0:0:0:
210,197,200981,1,0,0:0:0:0:
210,197,201322,1,8,0:0:0:0:
210,197,201663,1,8,0:0:0:0:
246,207,202004,1,4,0:0:0:0:
