osu file format v14

[General]
AudioFilename: audio.mp3
AudioLeadIn: 0
PreviewTime: 87437
Countdown: 0
SampleSet: Normal
StackLeniency: 0.7
Mode: 1
LetterboxInBreaks: 0
WidescreenStoryboard: 1

[Editor]
Bookmarks: 198,22016,32925,43834,54743,65652,76561,87470,98379,114743,125652,136561,147470,158379,163834,174743,191107,202016
DistanceSpacing: 6
BeatDivisor: 16
GridSize: 32
TimelineZoom: 2.899999

[Metadata]
Title:egoist
TitleUnicode:egoist
Artist:Shogo Nomura
ArtistUnicode:Shogo Nomura
Creator:ZTH
Version:Inner Oni
Source:
Tags:Jazz Instrumental Electronic Tokyo Drops しょご overdahedge2014 B0tch3d 野村渉悟
BeatmapID:3952193
BeatmapSetID:1915102

[Difficulty]
HPDrainRate:5.5
CircleSize:5
OverallDifficulty:6.5
ApproachRate:5
SliderMultiplier:1.4
SliderTickRate:1

[Events]
//Background and Video events
0,0,"jazz.jpg",0,0
//Break Periods
//Storyboard Layer 0 (Background)
//Storyboard Layer 1 (Fail)
//Storyboard Layer 2 (Pass)
//Storyboard Layer 3 (Foreground)
//Storyboard Layer 4 (Overlay)
//Storyboard Sound Samples

[TimingPoints]
186,340.909090909091,4,1,0,70,1,0
186,-142.857142857143,4,1,0,70,0,0
32907,-111.111111111111,4,1,0,80,0,0
43822,-82.6446280991736,4,1,0,90,0,0
43823,-68.9655172413793,4,1,0,90,0,0
43824,-82.6446280991736,4,1,0,90,0,0
49446,-66.6666666666667,4,1,0,90,0,0
49616,-82.6446280991736,4,1,0,90,0,0
52005,-64.5161290322581,4,1,0,90,0,0
52006,-82.6446280991736,4,1,0,90,0,0
54732,-62.5,4,1,0,90,0,0
54733,-82.6446280991736,4,1,0,90,0,0
60355,-60.6060606060606,4,1,0,90,0,0
60358,-82.6446280991736,4,1,0,90,0,0
62914,-58.8235294117647,4,1,0,90,0,0
62916,-82.6446280991736,4,1,0,90,0,0
65641,-57.1428571428571,4,1,0,90,0,0
65642,-82.6446280991736,4,1,0,90,0,0
71264,-55.5555555555556,4,1,0,90,0,0
71267,-82.6446280991736,4,1,0,90,0,0
73823,-54.054054054054,4,1,0,90,0,0
73824,-82.6446280991736,4,1,0,90,0,0
76550,-52.6315789473684,4,1,0,90,0,0
76551,-82.6446280991736,4,1,0,90,0,0
82173,-51.2820512820513,4,1,0,90,0,0
82176,-82.6446280991736,4,1,0,90,0,0
84732,-50,4,1,0,90,0,0
84733,-82.6446280991736,4,1,0,90,0,0
87458,-82.6446280991736,4,1,0,90,0,1
87459,-68.9655172413793,4,1,0,90,0,1
87460,-82.6446280991736,4,1,0,90,0,1
90187,-64.5161290322581,4,1,0,90,0,1
90188,-82.6446280991736,4,1,0,90,0,1
92914,-60.6060606060606,4,1,0,90,0,1
92915,-82.6446280991736,4,1,0,90,0,1
93424,-58.8235294117647,4,1,0,90,0,1
93426,-82.6446280991736,4,1,0,90,0,1
95641,-55.5555555555556,4,1,0,90,0,1
95642,-82.6446280991736,4,1,0,90,0,1
96150,-54.054054054054,4,1,0,90,0,1
96406,-52.6315789473684,4,1,0,90,0,1
96662,-51.2820512820513,4,1,0,90,0,1
96917,-82.6446280991736,4,1,0,90,0,1
98367,-82.6446280991736,4,1,0,90,0,0
98368,-48.780487804878,4,1,0,90,0,0
98369,-82.6446280991736,4,1,0,90,0,0
98707,-47.6190476190476,4,1,0,90,0,0
98878,-82.6446280991736,4,1,0,90,0,0
103823,-68.9655172413793,4,1,0,90,0,0
103824,-82.6446280991736,4,1,0,90,0,0
104332,-64.5161290322581,4,1,0,90,0,0
104334,-82.6446280991736,4,1,0,90,0,0
104844,-60.6060606060606,4,1,0,90,0,0
104846,-82.6446280991736,4,1,0,90,0,0
106550,-64.5161290322581,4,1,0,90,0,0
106551,-82.6446280991736,4,1,0,90,0,0
107060,-60.6060606060606,4,1,0,90,0,0
107062,-82.6446280991736,4,1,0,90,0,0
107571,-57.1428571428571,4,1,0,90,0,0
107573,-82.6446280991736,4,1,0,90,0,0
109277,-60.6060606060606,4,1,0,90,0,0
109278,-82.6446280991736,4,1,0,90,0,0
109787,-57.1428571428571,4,1,0,90,0,0
109789,-82.6446280991736,4,1,0,90,0,0
110298,-54.054054054054,4,1,0,90,0,0
110300,-82.6446280991736,4,1,0,90,0,0
112005,-57.1428571428571,4,1,0,90,0,0
112006,-82.6446280991736,4,1,0,90,0,0
112514,-54.054054054054,4,1,0,90,0,0
112516,-82.6446280991736,4,1,0,90,0,0
113025,-51.2820512820513,4,1,0,90,0,0
113027,-82.6446280991736,4,1,0,90,0,0
114732,-68.9655172413793,4,1,0,90,0,0
114733,-82.6446280991736,4,1,0,90,0,0
117459,-64.5161290322581,4,1,0,90,0,0
117460,-82.6446280991736,4,1,0,90,0,0
120187,-60.6060606060606,4,1,0,90,0,0
120188,-82.6446280991736,4,1,0,90,0,0
120696,-58.8235294117647,4,1,0,90,0,0
120698,-82.6446280991736,4,1,0,90,0,0
122914,-55.5555555555556,4,1,0,90,0,0
122916,-82.6446280991736,4,1,0,90,0,0
123423,-54.054054054054,4,1,0,90,0,0
123678,-52.6315789473684,4,1,0,90,0,0
123935,-51.2820512820513,4,1,0,90,0,0
123937,-82.6446280991736,4,1,0,90,0,0
124188,-90.9090909090909,4,1,0,90,0,0
124273,-92.7894467213115,4,1,0,90,0,0
124359,-94.7727807864375,4,1,0,90,0,0
124444,-96.8181635953014,4,1,0,90,0,0
124529,-98.9537805944056,4,1,0,90,0,0
124614,-101.185737629363,4,1,0,90,0,0
124700,-103.548815870339,4,1,0,90,0,0
124785,-105.995435393258,4,1,0,90,0,0
124870,-108.560468705516,4,1,0,90,0,0
124955,-111.252725653389,4,1,0,90,0,0
125040,-114.081912230148,4,1,0,90,0,0
125126,-117.094693969906,4,1,0,90,0,0
125211,-120.232998108135,4,1,0,90,0,0
125296,-123.544157017888,4,1,0,90,0,0
125381,-127.042856140843,4,1,0,90,0,0
125467,-130.790338303787,4,1,0,90,0,0
125552,-134.718012607152,4,1,0,90,0,0
125637,-138.888888888889,4,1,0,70,0,0
136546,-126.582278481013,4,1,0,80,0,0
142003,-107.52688172043,4,1,0,80,0,0
146095,-93.4579439252336,4,1,0,80,0,0
147458,-82.6446280991736,4,1,0,90,0,0
158368,-68.9655172413793,4,1,0,90,0,0
158369,-82.6446280991736,4,1,0,90,0,0
163822,-82.6446280991736,4,1,0,90,0,1
163823,-68.9655172413793,4,1,0,90,0,1
163824,-82.6446280991736,4,1,0,90,0,1
166550,-64.5161290322581,4,1,0,90,0,1
166551,-82.6446280991736,4,1,0,90,0,1
169277,-60.6060606060606,4,1,0,90,0,1
169278,-82.6446280991736,4,1,0,90,0,1
169788,-58.8235294117647,4,1,0,90,0,1
169790,-82.6446280991736,4,1,0,90,0,1
172005,-55.5555555555556,4,1,0,90,0,1
172006,-82.6446280991736,4,1,0,90,0,1
172514,-54.054054054054,4,1,0,90,0,1
172770,-52.6315789473684,4,1,0,90,0,1
173025,-51.2820512820513,4,1,0,90,0,1
173028,-82.6446280991736,4,1,0,90,0,1
174731,-82.6446280991736,4,1,0,90,0,0
174732,-48.780487804878,4,1,0,90,0,0
174733,-82.6446280991736,4,1,0,90,0,0
175071,-47.6190476190476,4,1,0,90,0,0
175073,-82.6446280991736,4,1,0,90,0,0
180187,-68.9655172413793,4,1,0,90,0,0
180188,-82.6446280991736,4,1,0,90,0,0
180696,-64.5161290322581,4,1,0,90,0,0
180698,-82.6446280991736,4,1,0,90,0,0
181208,-60.6060606060606,4,1,0,90,0,0
181210,-82.6446280991736,4,1,0,90,0,0
182914,-64.5161290322581,4,1,0,90,0,0
182915,-82.6446280991736,4,1,0,90,0,0
183424,-60.6060606060606,4,1,0,90,0,0
183426,-82.6446280991736,4,1,0,90,0,0
183935,-57.1428571428571,4,1,0,90,0,0
183937,-82.6446280991736,4,1,0,90,0,0
185641,-60.6060606060606,4,1,0,90,0,0
185642,-82.6446280991736,4,1,0,90,0,0
186151,-57.1428571428571,4,1,0,90,0,0
186153,-82.6446280991736,4,1,0,90,0,0
186662,-54.054054054054,4,1,0,90,0,0
186664,-82.6446280991736,4,1,0,90,0,0
188368,-57.1428571428571,4,1,0,90,0,0
188369,-82.6446280991736,4,1,0,90,0,0
188878,-54.054054054054,4,1,0,90,0,0
188880,-82.6446280991736,4,1,0,90,0,0
189389,-51.2820512820513,4,1,0,90,0,0
189391,-82.6446280991736,4,1,0,90,0,0
191096,-68.9655172413793,4,1,0,90,0,0
191097,-82.6446280991736,4,1,0,90,0,0
193823,-64.5161290322581,4,1,0,90,0,0
193824,-82.6446280991736,4,1,0,90,0,0
196550,-60.6060606060606,4,1,0,90,0,0
196551,-82.6446280991736,4,1,0,90,0,0
197060,-58.8235294117647,4,1,0,90,0,0
197062,-82.6446280991736,4,1,0,90,0,0
199277,-55.5555555555556,4,1,0,90,0,0
199278,-82.6446280991736,4,1,0,90,0,0
199785,-54.054054054054,4,1,0,90,0,0
200040,-52.6315789473684,4,1,0,90,0,0
200298,-51.2820512820513,4,1,0,90,0,0
200300,-82.6446280991736,4,1,0,90,0,0
200554,-90.9090909090909,4,1,0,90,0,0
200639,-92.7894467213115,4,1,0,90,0,0
200725,-94.7727807864375,4,1,0,90,0,0
200810,-96.8181635953014,4,1,0,90,0,0
200895,-98.9537805944056,4,1,0,90,0,0
200980,-101.185737629363,4,1,0,90,0,0
201066,-103.548815870339,4,1,0,90,0,0
201151,-105.995435393258,4,1,0,90,0,0
201236,-108.560468705516,4,1,0,90,0,0
201321,-111.252725653389,4,1,0,90,0,0
201406,-114.081912230148,4,1,0,90,0,0
201492,-117.094693969906,4,1,0,90,0,0
201577,-120.232998108135,4,1,0,90,0,0
201662,-123.544157017888,4,1,0,90,0,0
201747,-127.042856140843,4,1,0,90,0,0
201833,-130.790338303787,4,1,0,90,0,0
201918,-134.718012607152,4,1,0,90,0,0
202003,-138.888888888889,4,1,0,90,0,0
202005,-40,4,1,0,90,0,0

[HitObjects]
241,200,22004,5,0,0:0:0:0:
225,198,23367,1,8,0:0:0:0:
225,198,24049,1,0,0:0:0:0:
219,205,24731,1,8,0:0:0:0:
219,205,25242,1,0,0:0:0:0:
219,205,25754,1,8,0:0:0:0:
234,205,26436,1,8,0:0:0:0:
234,205,26606,1,0,0:0:0:0:
220,200,27458,1,0,0:0:0:0:
223,201,28822,1,8,0:0:0:0:
223,201,29504,1,0,0:0:0:0:
223,201,30186,1,8,0:0:0:0:
223,201,30697,1,0,0:0:0:0:
223,201,31208,1,0,0:0:0:0:
236,206,31720,1,8,0:0:0:0:
236,206,32231,1,0,0:0:0:0:
236,206,32572,1,8,0:0:0:0:
236,206,32913,1,0,0:0:0:0:
236,206,33424,1,0,0:0:0:0:
236,206,33595,1,8,0:0:0:0:
236,206,33936,1,0,0:0:0:0:
235,200,34276,1,8,0:0:0:0:
236,206,34617,1,0,0:0:0:0:
236,206,34958,1,8,0:0:0:0:
236,206,35640,1,0,0:0:0:0:
236,206,36151,1,0,0:0:0:0:
236,206,36322,1,8,0:0:0:0:
236,206,36663,1,0,0:0:0:0:
245,201,37004,1,8,0:0:0:0:
230,204,37345,1,0,0:0:0:0:
241,202,37515,1,0,0:0:0:0:
247,215,37686,5,8,0:0:0:0:
230,204,37856,1,0,0:0:0:0:
230,223,38367,1,0,0:0:0:0:
230,223,38879,1,0,0:0:0:0:
230,223,39049,1,8,0:0:0:0:
230,223,39390,1,0,0:0:0:0:
228,257,39731,1,8,0:0:0:0:
222,247,40072,1,0,0:0:0:0:
222,247,40413,1,8,0:0:0:0:
222,247,40754,1,8,0:0:0:0:
256,192,41095,12,0,43481,0:0:0:0:
245,218,43823,5,12,0:0:0:0:
234,209,43992,1,0,0:0:0:0:
234,209,44078,1,8,0:0:0:0:
234,209,44248,1,0,0:0:0:0:
231,215,44333,1,8,0:0:0:0:
231,215,44504,1,8,0:0:0:0:
231,215,44674,1,0,0:0:0:0:
231,215,44759,1,8,0:0:0:0:
246,206,44930,1,0,0:0:0:0:
223,206,45015,1,8,0:0:0:0:
224,206,45186,1,8,0:0:0:0:
224,206,45356,1,0,0:0:0:0:
224,206,45441,1,8,0:0:0:0:
224,206,45612,1,0,0:0:0:0:
224,206,45697,1,8,0:0:0:0:
221,208,45867,1,8,0:0:0:0:
223,206,45953,1,8,0:0:0:0:
223,206,46038,1,0,0:0:0:0:
223,206,46123,1,0,0:0:0:0:
224,206,46208,1,8,0:0:0:0:
224,206,46379,1,8,0:0:0:0:
224,206,46464,1,8,0:0:0:0:
224,206,46549,1,0,0:0:0:0:
222,210,46720,1,8,0:0:0:0:
228,218,46805,1,0,0:0:0:0:
228,218,46890,1,8,0:0:0:0:
228,218,46975,1,8,0:0:0:0:
228,218,47061,1,0,0:0:0:0:
228,218,47231,1,8,0:0:0:0:
228,218,47401,1,0,0:0:0:0:
228,218,47487,1,0,0:0:0:0:
228,218,47572,1,8,0:0:0:0:
228,218,47742,1,0,0:0:0:0:
228,218,47828,1,8,0:0:0:0:
233,217,47998,1,8,0:0:0:0:
241,204,48083,1,0,0:0:0:0:
233,217,48168,1,0,0:0:0:0:
233,217,48254,1,8,0:0:0:0:
234,206,48424,1,0,0:0:0:0:
234,206,48509,1,8,0:0:0:0:
234,206,48595,1,0,0:0:0:0:
223,222,48680,1,8,0:0:0:0:
223,222,48765,1,0,0:0:0:0:
228,218,48850,1,0,0:0:0:0:
228,218,48936,1,8,0:0:0:0:
225,220,49106,1,0,0:0:0:0:
225,220,49191,1,8,0:0:0:0:
225,220,49276,1,0,0:0:0:0:
237,222,49448,1,12,0:0:0:0:
242,226,49617,1,0,0:0:0:0:
228,221,49703,1,8,0:0:0:0:
228,221,49788,1,0,0:0:0:0:
228,218,49873,1,0,0:0:0:0:
228,218,49958,1,8,0:0:0:0:
235,222,50129,1,0,0:0:0:0:
185,208,50214,1,8,0:0:0:0:
238,210,50299,1,0,0:0:0:0:
228,204,50470,1,0,0:0:0:0:
245,245,50555,1,0,0:0:0:0:
247,220,50640,1,8,0:0:0:0:
228,215,50811,1,0,0:0:0:0:
234,224,50896,1,0,0:0:0:0:
228,218,50981,1,8,0:0:0:0:
235,222,51151,1,0,0:0:0:0:
227,235,51237,1,0,0:0:0:0:
233,217,51322,1,8,0:0:0:0:
233,217,51407,1,8,0:0:0:0:
236,223,51492,1,0,0:0:0:0:
233,217,51578,1,8,0:0:0:0:
260,222,51748,1,8,0:0:0:0:
260,222,51833,1,0,0:0:0:0:
260,222,52005,1,12,0:0:0:0:
243,211,52174,1,8,0:0:0:0:
243,211,52259,1,0,0:0:0:0:
243,211,52345,1,8,0:0:0:0:
243,211,52430,1,8,0:0:0:0:
243,211,52515,1,0,0:0:0:0:
243,211,52686,1,8,0:0:0:0:
261,213,52856,1,0,0:0:0:0:
261,213,52941,1,0,0:0:0:0:
261,213,53026,1,8,0:0:0:0:
255,218,53197,1,0,0:0:0:0:
255,218,53367,1,8,0:0:0:0:
261,214,53538,1,8,0:0:0:0:
266,222,53623,1,0,0:0:0:0:
261,214,53708,1,8,0:0:0:0:
266,222,53793,1,8,0:0:0:0:
266,222,53879,1,0,0:0:0:0:
266,222,54049,1,8,0:0:0:0:
266,222,54220,1,0,0:0:0:0:
266,222,54305,1,0,0:0:0:0:
266,222,54390,1,8,0:0:0:0:
266,222,54561,1,0,0:0:0:0:
266,222,54732,1,12,0:0:0:0:
259,208,54901,1,0,0:0:0:0:
259,208,54987,1,8,0:0:0:0:
259,208,55157,1,0,0:0:0:0:
259,208,55242,1,8,0:0:0:0:
259,208,55413,1,8,0:0:0:0:
265,197,55583,1,0,0:0:0:0:
265,196,55668,1,8,0:0:0:0:
265,196,55839,1,0,0:0:0:0:
265,196,55924,1,8,0:0:0:0:
265,196,56095,1,8,0:0:0:0:
265,193,56265,1,0,0:0:0:0:
265,193,56350,1,8,0:0:0:0:
265,193,56436,1,0,0:0:0:0:
265,197,56521,1,0,0:0:0:0:
265,197,56606,1,8,0:0:0:0:
265,196,56776,1,8,0:0:0:0:
265,196,56947,1,8,0:0:0:0:
259,184,57032,1,8,0:0:0:0:
265,196,57117,1,0,0:0:0:0:
265,193,57203,1,0,0:0:0:0:
265,193,57288,1,8,0:0:0:0:
265,193,57373,1,8,0:0:0:0:
265,193,57458,1,0,0:0:0:0:
265,197,57629,1,8,0:0:0:0:
271,209,57714,1,0,0:0:0:0:
271,209,57799,1,8,0:0:0:0:
271,209,57884,1,8,0:0:0:0:
271,209,57970,1,0,0:0:0:0:
271,209,58140,1,8,0:0:0:0:
271,209,58311,1,0,0:0:0:0:
271,209,58396,1,0,0:0:0:0:
271,209,58481,1,8,0:0:0:0:
272,209,58651,1,0,0:0:0:0:
271,209,58737,1,8,0:0:0:0:
271,209,58907,1,8,0:0:0:0:
271,209,58992,1,0,0:0:0:0:
257,222,59078,1,0,0:0:0:0:
271,209,59163,1,8,0:0:0:0:
275,213,59333,1,0,0:0:0:0:
266,203,59418,1,8,0:0:0:0:
266,203,59504,1,0,0:0:0:0:
266,215,59589,1,8,0:0:0:0:
272,209,59674,1,0,0:0:0:0:
271,209,59759,1,0,0:0:0:0:
271,209,59845,1,8,0:0:0:0:
271,209,60015,1,8,0:0:0:0:
271,209,60100,1,8,0:0:0:0:
271,209,60186,1,0,0:0:0:0:
279,208,60357,1,12,0:0:0:0:
281,211,60526,1,0,0:0:0:0:
289,209,60612,1,8,0:0:0:0:
289,209,60697,1,0,0:0:0:0:
292,198,60782,1,0,0:0:0:0:
292,198,60867,1,8,0:0:0:0:
292,198,61038,1,0,0:0:0:0:
292,198,61123,1,8,0:0:0:0:
288,183,61208,1,0,0:0:0:0:
292,195,61379,1,0,0:0:0:0:
292,195,61464,1,0,0:0:0:0:
292,195,61549,1,8,0:0:0:0:
326,188,61720,1,0,0:0:0:0:
317,189,61805,1,0,0:0:0:0:
317,189,61890,1,8,0:0:0:0:
300,195,62061,1,0,0:0:0:0:
307,211,62146,1,0,0:0:0:0:
300,195,62231,1,8,0:0:0:0:
307,217,62316,1,0,0:0:0:0:
304,213,62401,1,0,0:0:0:0:
310,214,62487,1,8,0:0:0:0:
319,210,62657,1,8,0:0:0:0:
311,217,62742,1,0,0:0:0:0:
319,210,62914,1,12,0:0:0:0:
317,213,63083,1,8,0:0:0:0:
317,213,63168,1,0,0:0:0:0:
317,213,63254,1,8,0:0:0:0:
317,213,63339,1,8,0:0:0:0:
312,209,63424,1,0,0:0:0:0:
312,209,63595,1,8,0:0:0:0:
314,214,63680,1,8,0:0:0:0:
286,225,63765,1,0,0:0:0:0:
312,209,63850,1,0,0:0:0:0:
314,214,63936,1,8,0:0:0:0:
316,222,64106,1,0,0:0:0:0:
316,222,64276,1,8,0:0:0:0:
318,229,64447,1,8,0:0:0:0:
311,225,64532,1,0,0:0:0:0:
312,225,64617,1,8,0:0:0:0:
312,235,64703,1,8,0:0:0:0:
312,235,64788,1,0,0:0:0:0:
312,235,64958,1,8,0:0:0:0:
312,235,65043,1,8,0:0:0:0:
286,225,65129,1,0,0:0:0:0:
312,235,65214,1,0,0:0:0:0:
312,235,65299,1,8,0:0:0:0:
312,235,65470,1,0,0:0:0:0:
245,218,65641,5,12,0:0:0:0:
234,209,65811,1,0,0:0:0:0:
234,209,65896,1,8,0:0:0:0:
227,206,65981,1,0,0:0:0:0:
234,209,66066,1,0,0:0:0:0:
231,215,66151,1,8,0:0:0:0:
231,215,66322,1,8,0:0:0:0:
231,215,66492,1,0,0:0:0:0:
231,215,66578,1,8,0:0:0:0:
227,206,66663,1,0,0:0:0:0:
246,206,66748,1,0,0:0:0:0:
223,206,66833,1,8,0:0:0:0:
224,206,67004,1,8,0:0:0:0:
224,206,67174,1,0,0:0:0:0:
224,206,67259,1,8,0:0:0:0:
227,206,67345,1,0,0:0:0:0:
224,206,67430,1,0,0:0:0:0:
224,206,67515,1,8,0:0:0:0:
221,208,67686,1,8,0:0:0:0:
223,206,67856,1,0,0:0:0:0:
232,208,67941,1,0,0:0:0:0:
224,206,68026,1,8,0:0:0:0:
224,206,68112,1,8,0:0:0:0:
224,206,68197,1,8,0:0:0:0:
224,206,68282,1,8,0:0:0:0:
224,206,68367,1,0,0:0:0:0:
222,210,68538,1,8,0:0:0:0:
228,218,68623,1,0,0:0:0:0:
228,218,68708,1,8,0:0:0:0:
228,218,68793,1,8,0:0:0:0:
228,218,68879,1,0,0:0:0:0:
247,211,68964,1,0,0:0:0:0:
228,218,69049,1,8,0:0:0:0:
228,218,69220,1,0,0:0:0:0:
228,218,69305,1,0,0:0:0:0:
228,218,69390,1,8,0:0:0:0:
228,218,69561,1,0,0:0:0:0:
228,218,69646,1,8,0:0:0:0:
233,217,69816,1,8,0:0:0:0:
241,204,69901,1,0,0:0:0:0:
233,217,69987,1,0,0:0:0:0:
233,217,70072,1,8,0:0:0:0:
234,206,70242,1,0,0:0:0:0:
234,206,70328,1,8,0:0:0:0:
234,206,70413,1,0,0:0:0:0:
223,222,70498,1,8,0:0:0:0:
223,222,70583,1,0,0:0:0:0:
228,218,70668,1,0,0:0:0:0:
228,218,70754,1,8,0:0:0:0:
225,220,70924,1,0,0:0:0:0:
225,220,71009,1,8,0:0:0:0:
225,220,71095,1,0,0:0:0:0:
237,222,71266,1,12,0:0:0:0:
242,226,71436,1,0,0:0:0:0:
228,221,71521,1,8,0:0:0:0:
228,221,71606,1,0,0:0:0:0:
228,218,71691,1,0,0:0:0:0:
228,218,71776,1,8,0:0:0:0:
235,222,71947,1,0,0:0:0:0:
185,208,72032,1,8,0:0:0:0:
235,209,72117,1,0,0:0:0:0:
228,204,72288,1,0,0:0:0:0:
245,245,72373,1,0,0:0:0:0:
247,220,72458,1,8,0:0:0:0:
228,215,72629,1,0,0:0:0:0:
234,224,72714,1,0,0:0:0:0:
228,218,72799,1,8,0:0:0:0:
235,222,72970,1,0,0:0:0:0:
233,217,73055,1,0,0:0:0:0:
233,217,73140,1,8,0:0:0:0:
233,217,73225,1,8,0:0:0:0:
227,235,73311,1,0,0:0:0:0:
233,217,73396,1,8,0:0:0:0:
260,222,73566,1,8,0:0:0:0:
260,222,73651,1,0,0:0:0:0:
260,222,73823,1,12,0:0:0:0:
243,211,73992,1,8,0:0:0:0:
243,211,74078,1,0,0:0:0:0:
243,211,74163,1,8,0:0:0:0:
243,211,74248,1,8,0:0:0:0:
243,211,74333,1,0,0:0:0:0:
243,211,74504,1,8,0:0:0:0:
261,213,74589,1,0,0:0:0:0:
261,213,74674,1,0,0:0:0:0:
261,213,74759,1,0,0:0:0:0:
261,213,74845,1,8,0:0:0:0:
255,218,75015,1,0,0:0:0:0:
260,217,75186,1,8,0:0:0:0:
261,214,75356,1,8,0:0:0:0:
266,222,75441,1,0,0:0:0:0:
261,214,75526,1,8,0:0:0:0:
266,222,75612,1,8,0:0:0:0:
266,222,75697,1,0,0:0:0:0:
266,222,75867,1,8,0:0:0:0:
266,222,75953,1,0,0:0:0:0:
266,222,76038,1,0,0:0:0:0:
266,222,76123,1,0,0:0:0:0:
266,222,76208,1,8,0:0:0:0:
266,222,76379,1,0,0:0:0:0:
266,222,76550,1,12,0:0:0:0:
259,208,76720,1,0,0:0:0:0:
259,208,76805,1,8,0:0:0:0:
259,208,76890,1,0,0:0:0:0:
259,208,76975,1,0,0:0:0:0:
259,208,77061,1,8,0:0:0:0:
259,208,77231,1,8,0:0:0:0:
265,197,77401,1,0,0:0:0:0:
265,196,77487,1,8,0:0:0:0:
265,196,77572,1,0,0:0:0:0:
265,196,77657,1,0,0:0:0:0:
265,196,77742,1,8,0:0:0:0:
265,196,77913,1,8,0:0:0:0:
265,193,78083,1,0,0:0:0:0:
265,193,78168,1,8,0:0:0:0:
265,193,78254,1,0,0:0:0:0:
265,197,78339,1,0,0:0:0:0:
265,197,78424,1,8,0:0:0:0:
265,196,78509,1,0,0:0:0:0:
265,196,78595,1,8,0:0:0:0:
265,196,78765,1,8,0:0:0:0:
265,196,78850,1,8,0:0:0:0:
265,196,78936,1,0,0:0:0:0:
265,193,79021,1,0,0:0:0:0:
265,193,79106,1,8,0:0:0:0:
265,193,79276,1,0,0:0:0:0:
265,197,79447,1,8,0:0:0:0:
271,209,79532,1,0,0:0:0:0:
271,209,79617,1,8,0:0:0:0:
271,209,79703,1,8,0:0:0:0:
271,209,79788,1,0,0:0:0:0:
271,212,79873,1,0,0:0:0:0:
271,209,79958,1,8,0:0:0:0:
271,209,80129,1,0,0:0:0:0:
271,209,80214,1,0,0:0:0:0:
271,209,80299,1,8,0:0:0:0:
272,209,80470,1,0,0:0:0:0:
271,209,80555,1,8,0:0:0:0:
271,209,80725,1,8,0:0:0:0:
271,209,80811,1,0,0:0:0:0:
257,222,80896,1,0,0:0:0:0:
271,209,80981,1,8,0:0:0:0:
275,213,81151,1,0,0:0:0:0:
266,203,81237,1,8,0:0:0:0:
266,203,81322,1,0,0:0:0:0:
266,215,81407,1,8,0:0:0:0:
272,209,81492,1,0,0:0:0:0:
271,209,81578,1,0,0:0:0:0:
271,209,81663,1,8,0:0:0:0:
271,209,81833,1,8,0:0:0:0:
271,209,81918,1,8,0:0:0:0:
271,209,82004,1,0,0:0:0:0:
279,208,82175,1,12,0:0:0:0:
281,211,82345,1,0,0:0:0:0:
289,209,82430,1,8,0:0:0:0:
289,209,82515,1,0,0:0:0:0:
292,198,82600,1,0,0:0:0:0:
292,198,82686,1,8,0:0:0:0:
292,198,82856,1,0,0:0:0:0:
292,198,82941,1,8,0:0:0:0:
288,183,83026,1,0,0:0:0:0:
292,195,83197,1,0,0:0:0:0:
292,195,83282,1,0,0:0:0:0:
292,195,83367,1,8,0:0:0:0:
326,188,83538,1,0,0:0:0:0:
317,189,83623,1,0,0:0:0:0:
317,189,83708,1,8,0:0:0:0:
300,195,83879,1,0,0:0:0:0:
308,206,83964,1,0,0:0:0:0:
300,195,84049,1,8,0:0:0:0:
300,195,84134,1,0,0:0:0:0:
304,213,84220,1,0,0:0:0:0:
310,214,84305,1,8,0:0:0:0:
319,210,84475,1,8,0:0:0:0:
311,217,84561,1,0,0:0:0:0:
319,210,84732,1,12,0:0:0:0:
317,213,84901,1,8,0:0:0:0:
317,213,84987,1,0,0:0:0:0:
317,213,85072,1,8,0:0:0:0:
317,213,85157,1,8,0:0:0:0:
312,209,85242,1,0,0:0:0:0:
312,209,85413,1,8,0:0:0:0:
306,231,85498,1,8,0:0:0:0:
312,209,85583,1,0,0:0:0:0:
312,209,85668,1,0,0:0:0:0:
312,209,85754,1,8,0:0:0:0:
316,222,85839,1,8,0:0:0:0:
316,222,85924,1,0,0:0:0:0:
316,222,86095,1,8,0:0:0:0:
318,229,86265,5,8,0:0:0:0:
311,225,86350,1,0,0:0:0:0:
312,225,86436,1,8,0:0:0:0:
289,224,86521,1,8,0:0:0:0:
312,235,86606,1,0,0:0:0:0:
312,235,86776,1,8,0:0:0:0:
312,235,86862,1,8,0:0:0:0:
312,235,86947,1,0,0:0:0:0:
312,235,87032,1,0,0:0:0:0:
312,235,87117,1,8,0:0:0:0:
293,237,87203,1,8,0:0:0:0:
243,197,87288,1,0,0:0:0:0:
247,186,87459,5,12,0:0:0:0:
247,186,87629,1,0,0:0:0:0:
247,186,87714,1,0,0:0:0:0:
247,186,87799,1,8,0:0:0:0:
247,186,87884,1,0,0:0:0:0:
247,186,87970,1,8,0:0:0:0:
247,186,88140,1,0,0:0:0:0:
247,186,88225,1,8,0:0:0:0:
247,186,88311,1,0,0:0:0:0:
247,186,88396,1,0,0:0:0:0:
247,186,88481,1,8,0:0:0:0:
247,186,88566,1,0,0:0:0:0:
247,186,88651,1,8,0:0:0:0:
247,186,88822,1,0,0:0:0:0:
247,186,88992,1,0,0:0:0:0:
247,186,89078,1,0,0:0:0:0:
247,186,89163,1,8,0:0:0:0:
247,186,89248,1,0,0:0:0:0:
247,186,89333,1,8,0:0:0:0:
247,186,89418,1,8,0:0:0:0:
247,186,89504,1,0,0:0:0:0:
247,186,89674,1,8,0:0:0:0:
247,186,89759,1,0,0:0:0:0:
247,186,89845,1,8,0:0:0:0:
247,186,89930,1,8,0:0:0:0:
247,186,90015,1,0,0:0:0:0:
247,186,90187,1,12,0:0:0:0:
224,192,90356,1,0,0:0:0:0:
256,192,90441,1,0,0:0:0:0:
256,192,90526,1,8,0:0:0:0:
256,192,90697,1,0,0:0:0:0:
256,192,90867,1,8,0:0:0:0:
256,192,90953,1,8,0:0:0:0:
256,192,91038,1,0,0:0:0:0:
256,192,91123,1,0,0:0:0:0:
256,192,91208,1,8,0:0:0:0:
256,192,91293,1,0,0:0:0:0:
256,192,91379,1,8,0:0:0:0:
256,192,91549,1,0,0:0:0:0:
256,192,91720,1,8,0:0:0:0:
256,192,91805,1,0,0:0:0:0:
256,192,91890,1,8,0:0:0:0:
256,192,92061,1,0,0:0:0:0:
211,198,92146,1,8,0:0:0:0:
256,192,92231,1,0,0:0:0:0:
224,192,92316,1,0,0:0:0:0:
224,192,92401,1,8,0:0:0:0:
224,192,92487,1,0,0:0:0:0:
224,192,92572,1,8,0:0:0:0:
224,192,92657,1,8,0:0:0:0:
224,192,92742,1,0,0:0:0:0:
224,192,92914,1,12,0:0:0:0:
256,192,93083,1,0,0:0:0:0:
256,192,93168,1,8,0:0:0:0:
256,192,93254,1,0,0:0:0:0:
256,192,93424,1,12,0:0:0:0:
256,192,93680,1,0,0:0:0:0:
256,192,93765,1,8,0:0:0:0:
256,192,93850,1,0,0:0:0:0:
256,192,93936,1,8,0:0:0:0:
256,192,94106,1,0,0:0:0:0:
256,192,94276,1,0,0:0:0:0:
261,194,94362,1,8,0:0:0:0:
256,192,94447,1,0,0:0:0:0:
256,192,94532,1,0,0:0:0:0:
256,192,94617,1,8,0:0:0:0:
256,192,94788,1,0,0:0:0:0:
256,192,94958,1,8,0:0:0:0:
256,192,95043,1,8,0:0:0:0:
256,192,95129,1,0,0:0:0:0:
256,192,95214,1,0,0:0:0:0:
256,192,95299,1,8,0:0:0:0:
246,190,95470,1,0,0:0:0:0:
249,176,95641,1,12,0:0:0:0:
239,182,95811,1,0,0:0:0:0:
256,192,95896,1,8,0:0:0:0:
256,192,95981,1,0,0:0:0:0:
256,192,96151,1,12,0:0:0:0:
256,192,96407,1,12,0:0:0:0:
256,192,96663,1,12,0:0:0:0:
256,192,96918,1,0,0:0:0:0:
256,192,97004,1,8,0:0:0:0:
256,192,97089,1,8,0:0:0:0:
256,192,97174,1,0,0:0:0:0:
256,192,97259,1,0,0:0:0:0:
256,192,97345,1,8,0:0:0:0:
256,192,97515,1,0,0:0:0:0:
256,192,97600,1,8,0:0:0:0:
256,192,97686,1,0,0:0:0:0:
256,192,97771,1,8,0:0:0:0:
256,192,97856,1,0,0:0:0:0:
256,192,97941,1,0,0:0:0:0:
256,192,98026,1,8,0:0:0:0:
256,192,98197,1,0,0:0:0:0:
256,192,98368,1,12,0:0:0:0:
192,192,98708,1,12,0:0:0:0:
224,192,98879,1,0,0:0:0:0:
224,192,98964,1,8,0:0:0:0:
224,192,99049,1,0,0:0:0:0:
224,192,99134,1,8,0:0:0:0:
224,192,99220,1,0,0:0:0:0:
224,192,99305,1,0,0:0:0:0:
224,192,99390,1,8,0:0:0:0:
224,192,99561,1,8,0:0:0:0:
224,192,99646,1,8,0:0:0:0:
224,192,99731,1,0,0:0:0:0:
224,192,99816,1,8,0:0:0:0:
224,192,99901,1,0,0:0:0:0:
224,192,99987,1,0,0:0:0:0:
224,192,100072,1,8,0:0:0:0:
224,192,100242,1,8,0:0:0:0:
224,192,100328,1,8,0:0:0:0:
224,192,100413,1,0,0:0:0:0:
224,192,100498,1,0,0:0:0:0:
224,192,100583,1,8,0:0:0:0:
224,192,100668,1,0,0:0:0:0:
224,192,100754,1,8,0:0:0:0:
224,192,100924,1,8,0:0:0:0:
224,192,101095,1,0,0:0:0:0:
224,192,101180,1,8,0:0:0:0:
224,192,101265,1,0,0:0:0:0:
224,192,101350,1,0,0:0:0:0:
224,192,101436,1,8,0:0:0:0:
224,192,101606,1,0,0:0:0:0:
224,192,101691,1,8,0:0:0:0:
224,192,101776,1,0,0:0:0:0:
224,192,101862,1,8,0:0:0:0:
224,192,101947,1,0,0:0:0:0:
224,192,102032,1,0,0:0:0:0:
224,192,102117,1,8,0:0:0:0:
224,192,102288,1,8,0:0:0:0:
224,192,102458,1,0,0:0:0:0:
221,210,102543,1,8,0:0:0:0:
224,192,102629,1,0,0:0:0:0:
224,192,102714,1,8,0:0:0:0:
224,192,102799,1,0,0:0:0:0:
224,192,102884,1,8,0:0:0:0:
224,192,102970,1,0,0:0:0:0:
224,192,103055,1,8,0:0:0:0:
224,192,103140,1,0,0:0:0:0:
224,192,103225,1,8,0:0:0:0:
224,192,103311,1,0,0:0:0:0:
224,192,103396,1,8,0:0:0:0:
224,192,103481,1,0,0:0:0:0:
233,210,103651,1,8,0:0:0:0:
224,192,103823,1,4,0:0:0:0:
224,192,104078,1,0,0:0:0:0:
224,224,104163,1,8,0:0:0:0:
224,224,104333,1,4,0:0:0:0:
224,192,104589,1,0,0:0:0:0:
224,192,104674,1,8,0:0:0:0:
224,192,104845,1,4,0:0:0:0:
224,192,105100,1,0,0:0:0:0:
224,192,105186,1,8,0:0:0:0:
224,192,105271,1,8,0:0:0:0:
224,192,105356,1,0,0:0:0:0:
224,192,105441,1,0,0:0:0:0:
224,192,105526,1,8,0:0:0:0:
224,192,105697,1,8,0:0:0:0:
224,192,105782,1,0,0:0:0:0:
224,192,105867,1,8,0:0:0:0:
224,192,106038,1,0,0:0:0:0:
224,192,106123,1,0,0:0:0:0:
224,192,106208,1,8,0:0:0:0:
224,192,106293,1,0,0:0:0:0:
224,192,106379,1,8,0:0:0:0:
224,192,106550,1,4,0:0:0:0:
224,192,106805,1,0,0:0:0:0:
224,224,106890,1,8,0:0:0:0:
224,224,107061,1,4,0:0:0:0:
224,192,107316,1,8,0:0:0:0:
224,192,107401,1,8,0:0:0:0:
224,192,107572,1,4,0:0:0:0:
224,192,107828,1,0,0:0:0:0:
224,192,107913,1,8,0:0:0:0:
224,192,107998,1,8,0:0:0:0:
224,192,108083,1,0,0:0:0:0:
224,192,108168,1,0,0:0:0:0:
224,192,108254,1,8,0:0:0:0:
224,192,108424,1,8,0:0:0:0:
224,192,108509,1,0,0:0:0:0:
224,192,108595,1,8,0:0:0:0:
228,205,108680,1,8,0:0:0:0:
224,192,108765,1,0,0:0:0:0:
224,192,108936,1,8,0:0:0:0:
224,192,109021,1,0,0:0:0:0:
224,192,109106,1,8,0:0:0:0:
224,192,109277,1,4,0:0:0:0:
224,192,109532,1,0,0:0:0:0:
224,224,109617,1,8,0:0:0:0:
224,224,109788,1,4,0:0:0:0:
224,192,110043,1,0,0:0:0:0:
224,192,110129,1,8,0:0:0:0:
224,192,110299,1,4,0:0:0:0:
224,192,110555,1,0,0:0:0:0:
224,192,110640,1,8,0:0:0:0:
224,192,110725,1,8,0:0:0:0:
224,192,110811,1,0,0:0:0:0:
224,192,110896,1,0,0:0:0:0:
224,192,110981,1,8,0:0:0:0:
224,192,111151,1,8,0:0:0:0:
231,195,111237,1,0,0:0:0:0:
224,192,111322,1,8,0:0:0:0:
224,192,111492,1,0,0:0:0:0:
224,192,111578,1,0,0:0:0:0:
224,192,111663,1,8,0:0:0:0:
224,192,111748,1,0,0:0:0:0:
224,192,111833,1,8,0:0:0:0:
224,192,112005,1,4,0:0:0:0:
224,192,112259,1,0,0:0:0:0:
224,224,112345,1,8,0:0:0:0:
224,224,112515,1,4,0:0:0:0:
224,192,112771,1,8,0:0:0:0:
224,192,112856,1,8,0:0:0:0:
224,192,113026,1,4,0:0:0:0:
238,203,113282,1,0,0:0:0:0:
224,192,113367,1,8,0:0:0:0:
224,192,113453,1,0,0:0:0:0:
224,192,113538,1,8,0:0:0:0:
224,192,113623,1,8,0:0:0:0:
224,192,113708,1,0,0:0:0:0:
224,192,113793,1,0,0:0:0:0:
224,192,113879,1,8,0:0:0:0:
224,192,114049,1,8,0:0:0:0:
195,202,114134,1,0,0:0:0:0:
195,202,114220,1,8,0:0:0:0:
210,197,114305,1,8,0:0:0:0:
224,192,114390,1,0,0:0:0:0:
224,192,114475,1,0,0:0:0:0:
224,192,114561,1,8,0:0:0:0:
224,192,114732,1,4,0:0:0:0:
229,190,114901,1,8,0:0:0:0:
225,202,114987,1,0,0:0:0:0:
225,202,115072,1,8,0:0:0:0:
225,202,115157,1,0,0:0:0:0:
225,202,115242,1,8,0:0:0:0:
226,206,115413,1,0,0:0:0:0:
226,206,115498,1,0,0:0:0:0:
226,206,115583,1,8,0:0:0:0:
226,206,115668,1,0,0:0:0:0:
226,206,115754,1,8,0:0:0:0:
226,206,115839,1,8,0:0:0:0:
225,202,115924,1,0,0:0:0:0:
225,202,116095,1,8,0:0:0:0:
225,202,116180,1,0,0:0:0:0:
225,202,116265,1,0,0:0:0:0:
226,206,116350,1,0,0:0:0:0:
226,206,116436,1,8,0:0:0:0:
226,206,116606,1,0,0:0:0:0:
226,206,116691,1,8,0:0:0:0:
226,206,116776,1,0,0:0:0:0:
226,206,116862,1,0,0:0:0:0:
225,202,116947,1,8,0:0:0:0:
225,202,117117,1,8,0:0:0:0:
225,202,117203,1,0,0:0:0:0:
225,202,117288,1,8,0:0:0:0:
226,206,117459,1,4,0:0:0:0:
246,207,117629,1,8,0:0:0:0:
246,207,117714,1,0,0:0:0:0:
246,207,117799,1,8,0:0:0:0:
246,207,117884,1,8,0:0:0:0:
246,207,117970,1,0,0:0:0:0:
248,192,118055,1,0,0:0:0:0:
246,207,118140,1,8,0:0:0:0:
246,207,118311,1,0,0:0:0:0:
246,207,118481,1,8,0:0:0:0:
246,207,118566,1,8,0:0:0:0:
246,207,118651,1,0,0:0:0:0:
246,207,118737,1,8,0:0:0:0:
246,207,118822,1,0,0:0:0:0:
246,207,118992,1,0,0:0:0:0:
246,207,119078,1,0,0:0:0:0:
246,207,119163,1,8,0:0:0:0:
246,207,119248,1,8,0:0:0:0:
246,207,119333,1,0,0:0:0:0:
203,210,119418,1,8,0:0:0:0:
246,207,119504,1,0,0:0:0:0:
248,190,119674,1,0,0:0:0:0:
246,207,119759,1,0,0:0:0:0:
246,207,119845,1,8,0:0:0:0:
246,207,119930,1,0,0:0:0:0:
246,207,120015,1,8,0:0:0:0:
224,192,120187,1,4,0:0:0:0:
229,190,120356,1,8,0:0:0:0:
225,202,120441,1,0,0:0:0:0:
225,202,120526,1,8,0:0:0:0:
225,202,120697,1,4,0:0:0:0:
226,206,120953,1,0,0:0:0:0:
226,206,121038,1,8,0:0:0:0:
226,206,121123,1,0,0:0:0:0:
226,206,121208,1,8,0:0:0:0:
226,206,121293,1,8,0:0:0:0:
225,202,121379,1,0,0:0:0:0:
225,202,121549,1,8,0:0:0:0:
225,202,121720,1,0,0:0:0:0:
226,206,121805,1,0,0:0:0:0:
226,206,121890,1,8,0:0:0:0:
225,202,121975,1,8,0:0:0:0:
226,206,122061,1,0,0:0:0:0:
226,206,122146,1,8,0:0:0:0:
226,206,122231,1,0,0:0:0:0:
225,202,122401,1,0,0:0:0:0:
225,202,122487,1,0,0:0:0:0:
225,202,122572,1,8,0:0:0:0:
225,202,122657,1,0,0:0:0:0:
225,202,122742,1,8,0:0:0:0:
226,206,122914,1,4,0:0:0:0:
237,208,123083,1,8,0:0:0:0:
216,204,123168,1,0,0:0:0:0:
216,204,123254,1,8,0:0:0:0:
228,208,123424,1,4,0:0:0:0:
228,208,123680,1,4,0:0:0:0:
215,211,123936,1,4,0:0:0:0:
210,197,124191,1,0,0:0:0:0:
210,197,124276,1,8,0:0:0:0:
210,197,124362,1,8,0:0:0:0:
210,197,124447,1,0,0:0:0:0:
210,197,124532,1,8,0:0:0:0:
210,197,124617,1,0,0:0:0:0:
210,197,124703,1,0,0:0:0:0:
210,197,124788,1,8,0:0:0:0:
210,197,124958,1,8,0:0:0:0:
210,197,125043,1,8,0:0:0:0:
210,197,125129,1,0,0:0:0:0:
210,197,125214,1,8,0:0:0:0:
210,197,125299,1,0,0:0:0:0:
210,197,125384,1,0,0:0:0:0:
210,197,125470,1,8,0:0:0:0:
246,207,125640,1,0,0:0:0:0:
217,207,125811,1,0,0:0:0:0:
217,207,125981,1,0,0:0:0:0:
217,207,126151,1,8,0:0:0:0:
217,207,126322,1,0,0:0:0:0:
217,207,126492,1,0,0:0:0:0:
217,207,126663,1,8,0:0:0:0:
217,207,127004,1,8,0:0:0:0:
217,207,127174,1,0,0:0:0:0:
217,207,127345,1,0,0:0:0:0:
217,207,127515,1,8,0:0:0:0:
217,207,127686,1,0,0:0:0:0:
217,207,127856,1,0,0:0:0:0:
217,207,128026,1,8,0:0:0:0:
210,208,128367,1,0,0:0:0:0:
210,208,128538,1,0,0:0:0:0:
210,208,128708,1,0,0:0:0:0:
210,208,128879,1,8,0:0:0:0:
210,208,129049,1,0,0:0:0:0:
210,208,129220,1,0,0:0:0:0:
199,197,129390,1,8,0:0:0:0:
203,197,129731,1,8,0:0:0:0:
214,196,129901,1,8,0:0:0:0:
214,196,130072,1,0,0:0:0:0:
214,196,130242,1,8,0:0:0:0:
214,196,130413,1,0,0:0:0:0:
214,196,130583,1,0,0:0:0:0:
214,196,130754,1,8,0:0:0:0:
214,196,131095,1,0,0:0:0:0:
214,196,131265,1,0,0:0:0:0:
214,196,131436,1,0,0:0:0:0:
214,196,131606,1,8,0:0:0:0:
214,196,131776,1,0,0:0:0:0:
214,196,131947,1,0,0:0:0:0:
214,196,132117,1,8,0:0:0:0:
214,196,132458,1,8,0:0:0:0:
214,196,132629,1,0,0:0:0:0:
214,196,132799,1,0,0:0:0:0:
214,196,132970,1,8,0:0:0:0:
214,196,133140,1,0,0:0:0:0:
214,196,133311,1,0,0:0:0:0:
214,196,133481,1,8,0:0:0:0:
214,196,133822,1,0,0:0:0:0:
214,196,133992,1,0,0:0:0:0:
214,196,134163,1,0,0:0:0:0:
214,196,134333,1,8,0:0:0:0:
214,196,134504,1,0,0:0:0:0:
214,196,134674,1,0,0:0:0:0:
214,196,134845,1,8,0:0:0:0:
214,196,135186,1,0,0:0:0:0:
214,196,135356,1,0,0:0:0:0:
269,190,135526,1,8,0:0:0:0:
269,190,135697,1,0,0:0:0:0:
263,182,135867,1,8,0:0:0:0:
263,182,136038,1,0,0:0:0:0:
263,182,136208,1,8,0:0:0:0:
263,182,136293,1,8,0:0:0:0:
263,182,136379,1,8,0:0:0:0:
263,182,136549,1,4,0:0:0:0:
257,189,136776,1,0,0:0:0:0:
257,189,137004,1,8,0:0:0:0:
257,189,137231,1,0,0:0:0:0:
257,189,137345,1,8,0:0:0:0:
257,189,137572,1,8,0:0:0:0:
257,189,137799,1,0,0:0:0:0:
271,185,137913,1,8,0:0:0:0:
257,189,137970,1,8,0:0:0:0:
257,189,138026,1,8,0:0:0:0:
221,197,138140,1,0,0:0:0:0:
257,189,138367,1,0,0:0:0:0:
257,189,138595,1,0,0:0:0:0:
256,184,138708,1,0,0:0:0:0:
256,184,138822,1,8,0:0:0:0:
256,184,138936,1,8,0:0:0:0:
264,197,139163,1,0,0:0:0:0:
264,197,139276,1,8,0:0:0:0:
264,197,139390,1,8,0:0:0:0:
270,202,139617,1,8,0:0:0:0:
270,202,139731,1,0,0:0:0:0:
264,187,139788,1,0,0:0:0:0:
270,202,139845,1,0,0:0:0:0:
264,187,139958,1,8,0:0:0:0:
235,194,140072,1,0,0:0:0:0:
264,197,140185,1,8,0:0:0:0:
272,210,140242,1,8,0:0:0:0:
261,200,140299,1,8,0:0:0:0:
254,194,140413,1,0,0:0:0:0:
261,200,140526,1,8,0:0:0:0:
261,200,140640,1,0,0:0:0:0:
281,197,140754,1,8,0:0:0:0:
281,197,140981,1,8,0:0:0:0:
254,200,141095,1,8,0:0:0:0:
254,200,141208,1,0,0:0:0:0:
254,200,141322,1,8,0:0:0:0:
249,232,141407,1,8,0:0:0:0:
248,192,141492,1,0,0:0:0:0:
254,201,141578,1,0,0:0:0:0:
277,209,141663,1,8,0:0:0:0:
277,209,141833,1,0,0:0:0:0:
277,209,142004,1,12,0:0:0:0:
252,214,142231,1,0,0:0:0:0:
252,214,142345,1,8,0:0:0:0:
246,224,142572,1,0,0:0:0:0:
246,224,142686,1,0,0:0:0:0:
254,209,142913,1,0,0:0:0:0:
254,209,143026,1,8,0:0:0:0:
216,208,143254,1,0,0:0:0:0:
254,209,143367,1,0,0:0:0:0:
254,209,143481,1,8,0:0:0:0:
254,209,143595,1,0,0:0:0:0:
254,209,143708,1,8,0:0:0:0:
254,209,143936,1,8,0:0:0:0:
254,209,144049,1,0,0:0:0:0:
254,209,144163,1,8,0:0:0:0:
254,209,144390,1,8,0:0:0:0:
254,209,144475,1,8,0:0:0:0:
274,213,144561,1,0,0:0:0:0:
270,208,144646,1,8,0:0:0:0:
270,208,144731,1,0,0:0:0:0:
270,208,144901,1,8,0:0:0:0:
248,197,145072,1,8,0:0:0:0:
254,209,145157,1,0,0:0:0:0:
255,186,145328,1,8,0:0:0:0:
246,193,145498,1,0,0:0:0:0:
248,197,145583,1,0,0:0:0:0:
248,197,145754,1,8,0:0:0:0:
248,197,145839,1,0,0:0:0:0:
248,197,145924,1,8,0:0:0:0:
248,197,146095,1,4,0:0:0:0:
244,202,146265,1,4,0:0:0:0:
244,202,146436,1,8,0:0:0:0:
253,209,146521,1,8,0:0:0:0:
253,209,146606,1,0,0:0:0:0:
253,209,146776,1,8,0:0:0:0:
246,208,146862,1,8,0:0:0:0:
246,208,146947,1,0,0:0:0:0:
246,208,147032,1,0,0:0:0:0:
246,208,147117,1,8,0:0:0:0:
246,208,147203,1,0,0:0:0:0:
246,208,147288,1,0,0:0:0:0:
246,207,147458,1,12,0:0:0:0:
248,211,147714,1,0,0:0:0:0:
250,190,147799,1,0,0:0:0:0:
250,190,147970,1,8,0:0:0:0:
259,211,148311,1,0,0:0:0:0:
260,213,148396,1,0,0:0:0:0:
259,211,148481,1,8,0:0:0:0:
259,211,148651,1,0,0:0:0:0:
273,211,148822,1,8,0:0:0:0:
263,215,149078,1,0,0:0:0:0:
263,215,149163,1,0,0:0:0:0:
263,215,149333,1,8,0:0:0:0:
265,218,149674,1,8,0:0:0:0:
266,218,149845,1,0,0:0:0:0:
263,215,149930,1,0,0:0:0:0:
263,215,150015,1,8,0:0:0:0:
263,215,150186,1,8,0:0:0:0:
261,209,150441,1,0,0:0:0:0:
261,209,150526,1,0,0:0:0:0:
260,211,150697,1,8,0:0:0:0:
255,197,151038,1,0,0:0:0:0:
278,190,151123,1,0,0:0:0:0:
255,197,151208,1,8,0:0:0:0:
255,197,151379,1,0,0:0:0:0:
255,197,151549,1,8,0:0:0:0:
238,192,151720,1,0,0:0:0:0:
251,177,151805,5,8,0:0:0:0:
249,189,151890,1,0,0:0:0:0:
249,189,152061,1,8,0:0:0:0:
248,200,152231,1,0,0:0:0:0:
249,189,152401,1,8,0:0:0:0:
249,189,152487,1,8,0:0:0:0:
249,189,152572,1,0,0:0:0:0:
249,189,152657,1,0,0:0:0:0:
249,189,152742,1,8,0:0:0:0:
246,207,152913,1,8,0:0:0:0:
248,211,153168,1,8,0:0:0:0:
250,190,153254,1,0,0:0:0:0:
279,184,153339,1,0,0:0:0:0:
250,190,153424,1,8,0:0:0:0:
259,211,153765,1,0,0:0:0:0:
260,213,153850,1,0,0:0:0:0:
259,211,153936,1,8,0:0:0:0:
259,211,154106,1,0,0:0:0:0:
273,211,154276,1,8,0:0:0:0:
263,215,154532,1,8,0:0:0:0:
263,215,154617,1,0,0:0:0:0:
257,231,154703,1,0,0:0:0:0:
263,215,154788,1,8,0:0:0:0:
265,218,155129,1,8,0:0:0:0:
266,218,155299,1,0,0:0:0:0:
263,215,155384,1,0,0:0:0:0:
263,215,155470,1,8,0:0:0:0:
263,215,155640,1,8,0:0:0:0:
261,209,155896,1,8,0:0:0:0:
261,209,155981,1,0,0:0:0:0:
259,211,156066,1,0,0:0:0:0:
260,211,156151,1,8,0:0:0:0:
255,197,156492,1,0,0:0:0:0:
278,190,156578,1,0,0:0:0:0:
255,197,156663,1,8,0:0:0:0:
255,197,156833,1,0,0:0:0:0:
255,197,157004,1,8,0:0:0:0:
249,190,157174,1,0,0:0:0:0:
251,177,157259,5,8,0:0:0:0:
249,189,157345,1,0,0:0:0:0:
249,190,157430,1,0,0:0:0:0:
249,189,157515,1,8,0:0:0:0:
249,189,157686,1,0,0:0:0:0:
249,189,157856,1,8,0:0:0:0:
249,189,157941,1,8,0:0:0:0:
249,189,158026,1,0,0:0:0:0:
249,189,158112,1,0,0:0:0:0:
249,189,158197,1,8,0:0:0:0:
239,187,158368,5,4,0:0:0:0:
234,184,158538,1,8,0:0:0:0:
234,184,158623,1,0,0:0:0:0:
234,184,158708,1,8,0:0:0:0:
239,187,158879,1,0,0:0:0:0:
239,187,159049,1,8,0:0:0:0:
237,195,159134,1,8,0:0:0:0:
239,187,159220,1,0,0:0:0:0:
237,195,159305,1,0,0:0:0:0:
237,195,159390,1,8,0:0:0:0:
237,195,159475,1,0,0:0:0:0:
237,195,159561,1,8,0:0:0:0:
237,195,159731,1,0,0:0:0:0:
237,195,159816,1,8,0:0:0:0:
237,195,159901,1,0,0:0:0:0:
237,195,160072,1,8,0:0:0:0:
233,180,160157,1,8,0:0:0:0:
238,195,160242,1,0,0:0:0:0:
244,204,160328,1,8,0:0:0:0:
237,195,160413,1,0,0:0:0:0:
246,185,160498,1,0,0:0:0:0:
237,195,160583,1,8,0:0:0:0:
237,195,160754,1,8,0:0:0:0:
204,192,160839,1,0,0:0:0:0:
245,198,160924,1,0,0:0:0:0:
243,198,161009,1,8,0:0:0:0:
245,198,161095,1,0,0:0:0:0:
245,198,161265,1,8,0:0:0:0:
245,198,161436,1,8,0:0:0:0:
245,198,161521,1,0,0:0:0:0:
245,198,161606,1,8,0:0:0:0:
245,198,161776,1,0,0:0:0:0:
245,198,161862,1,8,0:0:0:0:
245,198,161947,1,0,0:0:0:0:
245,198,162032,1,0,0:0:0:0:
245,198,162117,1,8,0:0:0:0:
233,210,162203,1,8,0:0:0:0:
245,198,162288,1,0,0:0:0:0:
245,198,162458,1,8,0:0:0:0:
245,198,162543,1,0,0:0:0:0:
220,215,162629,1,0,0:0:0:0:
232,187,162714,1,8,0:0:0:0:
245,198,162799,1,0,0:0:0:0:
245,198,162884,1,0,0:0:0:0:
245,198,162970,1,8,0:0:0:0:
245,198,163140,1,0,0:0:0:0:
245,198,163225,1,8,0:0:0:0:
245,198,163311,1,8,0:0:0:0:
245,198,163396,1,0,0:0:0:0:
245,198,163481,1,8,0:0:0:0:
245,198,163566,1,8,0:0:0:0:
243,197,163651,1,0,0:0:0:0:
247,186,163823,5,12,0:0:0:0:
247,186,163992,1,0,0:0:0:0:
247,186,164078,1,0,0:0:0:0:
247,186,164163,1,8,0:0:0:0:
247,186,164248,1,0,0:0:0:0:
247,186,164333,1,8,0:0:0:0:
247,186,164504,1,0,0:0:0:0:
247,186,164589,1,8,0:0:0:0:
247,186,164674,1,0,0:0:0:0:
247,186,164759,1,0,0:0:0:0:
247,186,164845,1,8,0:0:0:0:
247,186,164930,1,0,0:0:0:0:
247,186,165015,1,8,0:0:0:0:
247,186,165186,1,0,0:0:0:0:
247,186,165356,1,0,0:0:0:0:
247,186,165441,1,0,0:0:0:0:
247,186,165526,1,8,0:0:0:0:
247,186,165612,1,0,0:0:0:0:
247,186,165697,1,8,0:0:0:0:
247,186,165782,1,8,0:0:0:0:
247,186,165867,1,0,0:0:0:0:
247,186,166038,1,8,0:0:0:0:
247,186,166123,1,0,0:0:0:0:
247,186,166208,1,8,0:0:0:0:
247,186,166293,1,8,0:0:0:0:
247,186,166379,1,0,0:0:0:0:
247,186,166550,1,12,0:0:0:0:
224,192,166720,1,0,0:0:0:0:
256,192,166805,1,0,0:0:0:0:
256,192,166890,1,8,0:0:0:0:
256,192,167061,1,0,0:0:0:0:
256,192,167231,1,8,0:0:0:0:
256,192,167316,1,8,0:0:0:0:
256,192,167401,1,0,0:0:0:0:
256,192,167487,1,0,0:0:0:0:
256,192,167572,1,8,0:0:0:0:
256,192,167657,1,0,0:0:0:0:
256,192,167742,1,8,0:0:0:0:
256,192,167913,1,0,0:0:0:0:
256,192,168083,1,8,0:0:0:0:
256,192,168168,1,0,0:0:0:0:
256,192,168254,1,8,0:0:0:0:
256,192,168424,1,0,0:0:0:0:
211,198,168509,1,8,0:0:0:0:
256,192,168595,1,0,0:0:0:0:
224,192,168680,1,0,0:0:0:0:
224,192,168765,1,8,0:0:0:0:
224,192,168850,1,0,0:0:0:0:
224,192,168936,1,8,0:0:0:0:
224,192,169021,1,8,0:0:0:0:
224,192,169106,1,0,0:0:0:0:
224,192,169277,1,12,0:0:0:0:
256,192,169447,1,0,0:0:0:0:
256,192,169532,1,8,0:0:0:0:
256,192,169617,1,0,0:0:0:0:
256,192,169788,1,12,0:0:0:0:
256,192,170043,1,0,0:0:0:0:
256,192,170129,1,8,0:0:0:0:
256,192,170214,1,0,0:0:0:0:
256,192,170299,1,8,0:0:0:0:
256,192,170470,1,0,0:0:0:0:
256,192,170640,1,0,0:0:0:0:
261,194,170725,1,8,0:0:0:0:
256,192,170811,1,0,0:0:0:0:
256,192,170896,1,0,0:0:0:0:
256,192,170981,1,8,0:0:0:0:
256,192,171151,1,0,0:0:0:0:
256,192,171322,1,8,0:0:0:0:
256,192,171407,1,8,0:0:0:0:
256,192,171492,1,0,0:0:0:0:
256,192,171578,1,0,0:0:0:0:
256,192,171663,1,8,0:0:0:0:
246,190,171833,1,0,0:0:0:0:
249,176,172005,1,12,0:0:0:0:
239,182,172174,1,0,0:0:0:0:
256,192,172259,1,8,0:0:0:0:
256,192,172345,1,0,0:0:0:0:
256,192,172515,1,12,0:0:0:0:
256,192,172771,1,12,0:0:0:0:
256,192,173026,1,12,0:0:0:0:
256,192,173282,1,0,0:0:0:0:
256,192,173367,1,8,0:0:0:0:
256,192,173453,1,8,0:0:0:0:
256,192,173538,1,0,0:0:0:0:
256,192,173623,1,0,0:0:0:0:
256,192,173708,1,8,0:0:0:0:
256,192,173879,1,0,0:0:0:0:
256,192,173964,1,8,0:0:0:0:
256,192,174049,1,0,0:0:0:0:
256,192,174134,1,8,0:0:0:0:
256,192,174220,1,0,0:0:0:0:
256,192,174305,1,0,0:0:0:0:
256,192,174390,1,8,0:0:0:0:
256,192,174561,1,0,0:0:0:0:
256,192,174732,1,12,0:0:0:0:
192,192,175072,1,12,0:0:0:0:
224,192,175242,1,0,0:0:0:0:
224,192,175328,1,8,0:0:0:0:
224,192,175413,1,0,0:0:0:0:
224,192,175498,1,8,0:0:0:0:
224,192,175583,1,0,0:0:0:0:
224,192,175668,1,0,0:0:0:0:
224,192,175754,1,8,0:0:0:0:
224,192,175924,1,8,0:0:0:0:
224,192,176009,1,8,0:0:0:0:
224,192,176095,1,0,0:0:0:0:
224,192,176180,1,8,0:0:0:0:
224,192,176265,1,0,0:0:0:0:
224,192,176350,1,0,0:0:0:0:
224,192,176436,1,8,0:0:0:0:
224,192,176606,1,8,0:0:0:0:
224,192,176691,1,8,0:0:0:0:
224,192,176776,1,0,0:0:0:0:
224,192,176862,1,0,0:0:0:0:
224,192,176947,1,8,0:0:0:0:
224,192,177032,1,0,0:0:0:0:
224,192,177117,1,8,0:0:0:0:
224,192,177288,1,8,0:0:0:0:
224,192,177458,1,0,0:0:0:0:
224,192,177543,1,8,0:0:0:0:
224,192,177629,1,0,0:0:0:0:
224,192,177714,1,0,0:0:0:0:
224,192,177799,1,8,0:0:0:0:
224,192,177970,1,0,0:0:0:0:
224,192,178055,1,8,0:0:0:0:
224,192,178140,1,0,0:0:0:0:
224,192,178225,1,8,0:0:0:0:
224,192,178311,1,0,0:0:0:0:
224,192,178396,1,0,0:0:0:0:
224,192,178481,1,8,0:0:0:0:
224,192,178651,1,8,0:0:0:0:
224,192,178822,1,0,0:0:0:0:
221,210,178907,1,8,0:0:0:0:
224,192,178992,1,0,0:0:0:0:
224,192,179078,1,8,0:0:0:0:
224,192,179163,1,0,0:0:0:0:
224,192,179248,1,8,0:0:0:0:
224,192,179333,1,0,0:0:0:0:
224,192,179418,1,8,0:0:0:0:
224,192,179504,1,0,0:0:0:0:
224,192,179589,1,8,0:0:0:0:
224,192,179674,1,0,0:0:0:0:
224,192,179759,1,8,0:0:0:0:
224,192,179845,1,0,0:0:0:0:
231,218,180015,1,8,0:0:0:0:
224,192,180187,1,4,0:0:0:0:
224,192,180441,1,0,0:0:0:0:
224,224,180526,1,8,0:0:0:0:
224,224,180697,1,4,0:0:0:0:
224,192,180953,1,0,0:0:0:0:
224,192,181038,1,8,0:0:0:0:
224,192,181208,1,4,0:0:0:0:
224,192,181464,1,0,0:0:0:0:
224,192,181549,1,8,0:0:0:0:
224,192,181634,1,8,0:0:0:0:
224,192,181720,1,0,0:0:0:0:
224,192,181805,1,0,0:0:0:0:
224,192,181890,1,8,0:0:0:0:
224,192,182061,1,8,0:0:0:0:
224,192,182146,1,0,0:0:0:0:
224,192,182231,1,8,0:0:0:0:
224,192,182401,1,0,0:0:0:0:
224,192,182487,1,0,0:0:0:0:
224,192,182572,1,8,0:0:0:0:
224,192,182657,1,0,0:0:0:0:
224,192,182742,1,8,0:0:0:0:
224,192,182914,1,4,0:0:0:0:
224,192,183168,1,0,0:0:0:0:
224,224,183254,1,8,0:0:0:0:
224,224,183424,1,4,0:0:0:0:
224,192,183680,1,8,0:0:0:0:
224,192,183765,1,8,0:0:0:0:
224,192,183936,1,4,0:0:0:0:
224,192,184191,1,0,0:0:0:0:
224,192,184276,1,8,0:0:0:0:
224,192,184362,1,8,0:0:0:0:
224,192,184447,1,0,0:0:0:0:
224,192,184532,1,0,0:0:0:0:
224,192,184617,1,8,0:0:0:0:
224,192,184788,1,8,0:0:0:0:
224,192,184873,1,0,0:0:0:0:
224,192,184958,1,8,0:0:0:0:
228,205,185043,1,8,0:0:0:0:
224,192,185129,1,0,0:0:0:0:
224,192,185299,1,8,0:0:0:0:
224,192,185384,1,0,0:0:0:0:
224,192,185470,1,8,0:0:0:0:
224,192,185641,1,4,0:0:0:0:
224,192,185896,1,0,0:0:0:0:
224,224,185981,1,8,0:0:0:0:
224,224,186151,1,4,0:0:0:0:
224,192,186407,1,0,0:0:0:0:
224,192,186492,1,8,0:0:0:0:
224,192,186663,1,4,0:0:0:0:
224,192,186918,1,0,0:0:0:0:
224,192,187004,1,8,0:0:0:0:
224,192,187089,1,8,0:0:0:0:
224,192,187174,1,0,0:0:0:0:
224,192,187259,1,0,0:0:0:0:
224,192,187345,1,8,0:0:0:0:
224,192,187515,1,8,0:0:0:0:
231,195,187600,1,0,0:0:0:0:
224,192,187686,1,8,0:0:0:0:
224,192,187856,1,0,0:0:0:0:
224,192,187941,1,0,0:0:0:0:
224,192,188026,1,8,0:0:0:0:
224,192,188112,1,0,0:0:0:0:
224,192,188197,1,8,0:0:0:0:
224,192,188368,1,4,0:0:0:0:
224,192,188623,1,0,0:0:0:0:
224,224,188708,1,8,0:0:0:0:
224,224,188879,1,4,0:0:0:0:
224,192,189134,1,8,0:0:0:0:
224,192,189220,1,8,0:0:0:0:
224,192,189390,1,4,0:0:0:0:
238,203,189646,1,0,0:0:0:0:
224,192,189731,1,8,0:0:0:0:
224,192,189816,1,0,0:0:0:0:
224,192,189901,1,8,0:0:0:0:
224,192,189987,1,8,0:0:0:0:
224,192,190072,1,0,0:0:0:0:
224,192,190157,1,0,0:0:0:0:
224,192,190242,1,8,0:0:0:0:
224,192,190413,1,8,0:0:0:0:
195,202,190498,1,0,0:0:0:0:
195,202,190583,1,8,0:0:0:0:
210,197,190668,1,8,0:0:0:0:
224,192,190754,1,0,0:0:0:0:
224,192,190839,1,0,0:0:0:0:
224,192,190924,1,8,0:0:0:0:
224,192,191096,1,4,0:0:0:0:
229,190,191265,1,8,0:0:0:0:
225,202,191350,1,0,0:0:0:0:
225,202,191436,1,8,0:0:0:0:
225,202,191521,1,0,0:0:0:0:
225,202,191606,1,8,0:0:0:0:
226,206,191776,1,0,0:0:0:0:
226,206,191862,1,0,0:0:0:0:
226,206,191947,1,8,0:0:0:0:
226,206,192032,1,0,0:0:0:0:
226,206,192117,1,8,0:0:0:0:
226,206,192203,1,8,0:0:0:0:
225,202,192288,1,0,0:0:0:0:
225,202,192458,1,8,0:0:0:0:
225,202,192543,1,0,0:0:0:0:
225,202,192629,1,0,0:0:0:0:
226,206,192714,1,0,0:0:0:0:
226,206,192799,1,8,0:0:0:0:
226,206,192970,1,0,0:0:0:0:
226,206,193055,1,8,0:0:0:0:
226,206,193140,1,0,0:0:0:0:
226,206,193225,1,0,0:0:0:0:
225,202,193311,1,8,0:0:0:0:
225,202,193481,1,8,0:0:0:0:
225,202,193566,1,0,0:0:0:0:
225,202,193651,1,8,0:0:0:0:
226,206,193823,1,4,0:0:0:0:
246,207,193992,1,8,0:0:0:0:
246,207,194078,1,0,0:0:0:0:
246,207,194163,1,8,0:0:0:0:
246,207,194248,1,8,0:0:0:0:
246,207,194333,1,0,0:0:0:0:
248,192,194418,1,0,0:0:0:0:
246,207,194504,1,8,0:0:0:0:
246,207,194674,1,0,0:0:0:0:
246,207,194845,1,8,0:0:0:0:
246,207,194930,1,8,0:0:0:0:
246,207,195015,1,0,0:0:0:0:
246,207,195100,1,8,0:0:0:0:
246,207,195186,1,0,0:0:0:0:
246,207,195356,1,0,0:0:0:0:
246,207,195441,1,0,0:0:0:0:
246,207,195526,1,8,0:0:0:0:
246,207,195612,1,8,0:0:0:0:
246,207,195697,1,0,0:0:0:0:
203,210,195782,1,8,0:0:0:0:
246,207,195867,1,0,0:0:0:0:
248,190,196038,1,0,0:0:0:0:
246,207,196123,1,0,0:0:0:0:
246,207,196208,1,8,0:0:0:0:
246,207,196293,1,0,0:0:0:0:
246,207,196379,1,8,0:0:0:0:
224,192,196550,1,4,0:0:0:0:
229,190,196720,1,8,0:0:0:0:
225,202,196805,1,0,0:0:0:0:
225,202,196890,1,8,0:0:0:0:
225,202,197061,1,4,0:0:0:0:
226,206,197316,1,0,0:0:0:0:
226,206,197401,1,8,0:0:0:0:
226,206,197487,1,0,0:0:0:0:
226,206,197572,1,8,0:0:0:0:
226,206,197657,1,8,0:0:0:0:
225,202,197742,1,0,0:0:0:0:
225,202,197913,1,8,0:0:0:0:
225,202,198083,1,0,0:0:0:0:
226,206,198168,1,0,0:0:0:0:
226,206,198254,1,8,0:0:0:0:
225,202,198339,1,8,0:0:0:0:
226,206,198424,1,0,0:0:0:0:
226,206,198509,1,8,0:0:0:0:
226,206,198595,1,0,0:0:0:0:
225,202,198765,1,0,0:0:0:0:
225,202,198850,1,0,0:0:0:0:
225,202,198936,1,8,0:0:0:0:
225,202,199021,1,0,0:0:0:0:
225,202,199106,1,8,0:0:0:0:
226,206,199277,1,4,0:0:0:0:
237,208,199447,1,8,0:0:0:0:
216,204,199532,1,0,0:0:0:0:
216,204,199617,1,8,0:0:0:0:
228,208,199788,1,4,0:0:0:0:
228,208,200043,1,4,0:0:0:0:
215,211,200299,1,4,0:0:0:0:
210,197,200555,1,0,0:0:0:0:
210,197,200640,1,8,0:0:0:0:
210,197,200725,1,8,0:0:0:0:
210,197,200811,1,0,0:0:0:0:
210,197,200896,1,8,0:0:0:0:
210,197,200981,1,0,0:0:0:0:
210,197,201066,1,0,0:0:0:0:
210,197,201151,1,8,0:0:0:0:
210,197,201322,1,8,0:0:0:0:
210,197,201407,1,8,0:0:0:0:
210,197,201492,1,0,0:0:0:0:
210,197,201578,1,8,0:0:0:0:
210,197,201663,1,0,0:0:0:0:
210,197,201748,1,0,0:0:0:0:
210,197,201833,1,8,0:0:0:0:
246,207,202005,1,4,0:0:0:0:
