osu file format v14

[General]
AudioFilename: audio.mp3
AudioLeadIn: 0
PreviewTime: 120540
Countdown: 0
SampleSet: Normal
StackLeniency: 0.7
Mode: 1
LetterboxInBreaks: 0
WidescreenStoryboard: 0

[Editor]
Bookmarks: 22409,40353,44419,58297,67269,76241,85213,103157,139045,143531
DistanceSpacing: 1.3
BeatDivisor: 4
GridSize: 4
TimelineZoom: 3.2

[Metadata]
Title:shitcorebabes
TitleUnicode:shitcorebabes
Artist:Shoebill
ArtistUnicode:Shoebill
Creator:Raphalge
Version:Inner Oni
Source:
Tags:mashcore breakcore dancecore electronic english
BeatmapID:3570987
BeatmapSetID:1745746

[Difficulty]
HPDrainRate:5.5
CircleSize:2
OverallDifficulty:6.5
ApproachRate:10
SliderMultiplier:1.4
SliderTickRate:1

[Events]
//Background and Video events
0,0,"bg.png",0,175
//Break Periods
2,112329,120090
//Storyboard Layer 0 (Background)
//Storyboard Layer 1 (Fail)
//Storyboard Layer 2 (Pass)
//Storyboard Layer 3 (Foreground)
//Storyboard Layer 4 (Overlay)
//Storyboard Sound Samples

[TimingPoints]
4466,280.373831775701,4,1,0,70,1,0
4466,-105.263157894737,4,1,0,70,0,0
21849,-104.166666666667,4,1,0,70,0,0
21989,-103.092783505155,4,1,0,70,0,0
22129,-102.040816326531,4,1,0,70,0,0
22269,-101.010101010101,4,1,0,70,0,0
22409,-100,4,1,0,70,0,0
38951,-100,4,1,0,70,0,0
39022,-100.282093050975,4,1,0,70,0,0
39092,-100.561775369537,4,1,0,70,0,0
39162,-100.84302209437,4,1,0,70,0,0
39232,-101.125846388076,4,1,0,70,0,0
39372,-101.696281074983,4,1,0,70,0,0
39442,-101.983918542163,4,1,0,70,0,0
39512,-102.273187730459,4,1,0,70,0,0
39582,-102.564102564103,4,1,0,70,0,0
39652,-102.856677126207,4,1,0,70,0,0
39793,-103.451102549389,4,1,0,70,0,0
39933,-104.048149064226,4,1,0,70,0,0
40213,-105.263157894737,4,1,0,70,0,0
40353,-91.1161731207289,4,1,0,70,0,1
58297,-91.1161731207289,4,1,0,70,0,0
58508,-100,4,1,0,70,0,0
74138,-100,4,1,0,70,0,0
74208,-100.250029765448,4,1,0,70,0,0
74279,-100.504911849314,4,1,0,70,0,0
74419,-101.011312787168,4,1,0,70,0,0
74489,-101.266431741374,4,1,0,70,0,0
74559,-101.522842639594,4,1,0,70,0,0
74699,-102.039579722966,4,1,0,70,0,0
74769,-102.299925887227,4,1,0,70,0,0
74839,-102.561603956296,4,1,0,70,0,0
74980,-103.092783505155,4,1,0,70,0,0
75120,-103.092783505155,4,1,0,70,0,0
75260,-102.041745177822,4,1,0,70,0,0
75330,-101.52422181367,4,1,0,70,0,0
75400,-101.011921389117,4,1,0,70,0,0
75470,-100.504765234855,4,1,0,70,0,0
75540,-100.002676253602,4,1,0,70,0,0
75680,-99.0133990478462,4,1,0,70,0,0
75751,-98.5191369688447,4,1,0,70,0,0
75821,-98.0366434911889,4,1,0,70,0,0
75891,-97.5588529654932,4,1,0,70,0,0
75961,-97.0856969644481,4,1,0,70,0,0
76031,-96.6171083818143,4,1,0,70,0,0
76101,-96.1530214006948,4,1,0,70,0,0
76171,-95.6933714627171,4,1,0,70,0,0
76241,-95.2380952380952,4,1,0,70,0,0
83110,-95.2380952380952,4,1,0,70,0,0
83180,-95.5626414818781,4,1,0,70,0,0
83251,-95.8940914975208,4,1,0,70,0,0
83391,-96.5544379134797,4,1,0,70,0,0
83461,-96.8880333654155,4,1,0,70,0,0
83531,-97.2239419528986,4,1,0,70,0,0
83671,-97.9027954415102,4,1,0,70,0,0
83741,-98.2457896449038,4,1,0,70,0,0
83811,-98.5911956003114,4,1,0,70,0,0
83951,-99.2893452365899,4,1,0,70,0,0
84092,-100.002547186632,4,1,0,70,0,0
84652,-102.939248538242,4,1,0,70,0,0
84793,-103.70605172095,4,1,0,70,0,0
85073,-105.263157894737,4,1,0,70,0,0
85213,-91.1161731207289,4,1,0,70,0,1
101054,-91.1161731207289,4,1,0,70,0,1
101124,-91.6652409808573,4,1,0,70,0,1
101194,-92.2209663468021,4,1,0,70,0,1
101265,-92.7915565419592,4,1,0,70,0,1
101335,-93.3610649287806,4,1,0,70,0,1
101405,-93.9376072041166,4,1,0,70,0,1
101475,-94.5213144889984,4,1,0,70,0,1
101545,-95.1123211838612,4,1,0,70,0,1
101615,-95.7107650717148,4,1,0,70,0,1
101685,-96.316787425232,4,1,0,70,0,1
101755,-96.9305331179321,4,1,0,70,0,1
101895,-98.181792716433,4,1,0,70,0,1
102036,-99.4750715139675,4,1,0,70,0,1
102176,-100.793334124151,4,1,0,70,0,1
102246,-101.465655226651,4,1,0,70,0,1
102316,-102.147005715715,4,1,0,70,0,1
102456,-103.537532355479,4,1,0,70,0,1
102526,-104.247089892667,4,1,0,70,0,1
102596,-104.966439938158,4,1,0,70,0,1
102666,-105.695786618149,4,1,0,70,0,1
102737,-106.445979804115,4,1,0,70,0,1
102807,-107.196105666917,4,1,0,70,0,1
102877,-107.956878850103,4,1,0,70,0,1
103017,-109.511287004973,4,1,0,70,0,1
103157,-111.111111111111,4,1,0,70,0,0
120540,-111.111111111111,4,1,0,70,0,0
120727,-113.922337978623,4,1,0,70,0,0
120961,-117.647058823529,4,1,0,70,0,0
121101,-88.495575221239,4,1,0,70,0,1
136802,-88.495575221239,4,1,0,70,0,0
138344,-88.495575221239,4,1,0,70,0,0
138414,-88.3394452635691,4,1,0,70,0,0
138484,-88.1838652459965,4,1,0,70,0,0
138554,-88.0288322680296,4,1,0,70,0,0
138624,-87.8743434495381,4,1,0,70,0,0
138694,-87.7203959305745,4,1,0,70,0,0
138765,-87.5647992005496,4,1,0,70,0,0
138905,-87.2596004232277,4,1,0,70,0,0
139045,-86.9565217391304,4,1,0,70,0,0
142830,-86.9565217391304,4,1,0,70,0,0
142900,-86.8057705405238,4,1,0,70,0,0
142970,-86.6555411335682,4,1,0,70,0,0
143040,-86.5058308138459,4,1,0,70,0,0
143110,-86.3566368955959,4,1,0,70,0,0
143180,-86.2079567115538,4,1,0,70,0,0
143251,-86.0576746013234,4,1,0,70,0,0
143391,-85.7628736068121,4,1,0,70,0,0
143531,-85.4700854700855,4,1,0,70,0,0
145774,-85.4700854700855,4,1,0,70,0,0
145914,-85.1972609194616,4,1,0,70,0,0
146054,-84.926172564528,4,1,0,70,0,0
146194,-84.6568038846976,4,1,0,70,0,0
146335,-84.3872327612165,4,1,0,70,0,0
146475,-84.1212666966832,4,1,0,70,0,0
146615,-83.8569718731299,4,1,0,70,0,0
146755,-83.5943325876212,4,1,0,70,0,0
146895,-83.3333333333333,4,1,0,70,0,0

[HitObjects]
246,266,4466,5,4,0:0:0:0:
336,223,4606,1,0,0:0:0:0:
336,223,4746,1,8,0:0:0:0:
336,223,4886,1,0,0:0:0:0:
336,223,4956,1,0,0:0:0:0:
336,223,5026,1,8,0:0:0:0:
336,223,5166,1,8,0:0:0:0:
336,223,5237,1,8,0:0:0:0:
336,223,5307,1,0,0:0:0:0:
336,223,5377,1,0,0:0:0:0:
336,223,5447,1,8,0:0:0:0:
336,223,5587,1,0,0:0:0:0:
339,252,5727,1,8,0:0:0:0:
339,252,5797,1,0,0:0:0:0:
340,251,5867,1,8,0:0:0:0:
343,249,6008,1,0,0:0:0:0:
343,249,6078,1,8,0:0:0:0:
342,248,6218,1,8,0:0:0:0:
342,248,6288,1,0,0:0:0:0:
342,248,6358,1,0,0:0:0:0:
342,248,6428,1,8,0:0:0:0:
338,250,6568,1,8,0:0:0:0:
339,252,6708,5,0,0:0:0:0:
277,301,6849,1,8,0:0:0:0:
277,301,6919,1,8,0:0:0:0:
277,301,6989,1,0,0:0:0:0:
277,301,7129,1,8,0:0:0:0:
277,301,7199,1,0,0:0:0:0:
277,301,7269,1,8,0:0:0:0:
321,271,7339,1,8,0:0:0:0:
277,301,7409,1,0,0:0:0:0:
324,285,7480,1,8,0:0:0:0:
277,301,7550,1,0,0:0:0:0:
306,256,7620,1,0,0:0:0:0:
277,301,7690,1,8,0:0:0:0:
277,301,7830,1,0,0:0:0:0:
328,306,7970,1,8,0:0:0:0:
328,306,8040,1,8,0:0:0:0:
328,306,8110,1,0,0:0:0:0:
328,306,8251,1,0,0:0:0:0:
256,192,8391,8,0,8671,0:0:0:0:
276,272,8951,5,8,0:0:0:0:
257,234,9022,1,0,0:0:0:0:
257,234,9092,1,8,0:0:0:0:
257,234,9232,1,0,0:0:0:0:
257,234,9372,1,8,0:0:0:0:
467,314,9442,1,8,0:0:0:0:
236,226,9512,1,0,0:0:0:0:
289,244,9582,1,8,0:0:0:0:
289,244,9652,1,0,0:0:0:0:
289,244,9723,1,0,0:0:0:0:
287,244,9793,1,8,0:0:0:0:
189,229,9933,1,8,0:0:0:0:
189,229,10073,1,0,0:0:0:0:
189,229,10213,1,8,0:0:0:0:
467,314,10283,1,8,0:0:0:0:
467,314,10353,1,8,0:0:0:0:
467,314,10494,1,0,0:0:0:0:
467,314,10634,1,8,0:0:0:0:
467,314,10704,1,0,0:0:0:0:
467,314,10774,1,8,0:0:0:0:
467,314,10844,1,8,0:0:0:0:
467,314,10914,1,0,0:0:0:0:
467,314,11054,1,0,0:0:0:0:
467,314,11194,5,8,0:0:0:0:
352,316,11335,1,0,0:0:0:0:
352,316,11405,1,0,0:0:0:0:
352,316,11475,1,8,0:0:0:0:
355,306,11615,1,0,0:0:0:0:
355,306,11685,1,0,0:0:0:0:
355,306,11755,1,8,0:0:0:0:
355,305,11895,1,8,0:0:0:0:
355,305,12036,1,0,0:0:0:0:
355,305,12176,1,8,0:0:0:0:
355,305,12246,1,0,0:0:0:0:
355,305,12316,1,8,0:0:0:0:
355,305,12386,1,8,0:0:0:0:
355,305,12456,1,0,0:0:0:0:
355,306,12526,1,8,0:0:0:0:
355,306,12596,1,0,0:0:0:0:
355,306,12737,1,8,0:0:0:0:
355,305,12877,1,0,0:0:0:0:
355,305,12947,1,0,0:0:0:0:
355,305,13017,1,8,0:0:0:0:
355,305,13064,1,8,0:0:0:0:
253,161,13110,1,8,0:0:0:0:
355,305,13157,1,0,0:0:0:0:
355,305,13297,1,8,0:0:0:0:
342,333,13437,5,4,0:0:0:0:
334,206,13718,1,8,0:0:0:0:
334,206,13858,1,0,0:0:0:0:
334,206,13928,1,0,0:0:0:0:
334,206,13998,1,8,0:0:0:0:
330,199,14138,1,8,0:0:0:0:
321,253,14279,1,0,0:0:0:0:
312,237,14419,1,0,0:0:0:0:
312,237,14489,1,8,0:0:0:0:
312,235,14559,1,0,0:0:0:0:
309,227,14699,1,8,0:0:0:0:
306,259,14839,1,0,0:0:0:0:
296,256,14980,1,8,0:0:0:0:
296,256,15050,1,0,0:0:0:0:
296,256,15120,1,8,0:0:0:0:
296,256,15190,1,8,0:0:0:0:
296,256,15260,1,0,0:0:0:0:
253,252,15330,1,0,0:0:0:0:
297,251,15400,1,8,0:0:0:0:
291,281,15540,5,0,0:0:0:0:
291,278,15610,1,8,0:0:0:0:
291,277,15680,1,0,0:0:0:0:
286,270,15821,1,8,0:0:0:0:
286,270,15961,1,0,0:0:0:0:
259,296,16031,1,0,0:0:0:0:
176,227,16101,1,8,0:0:0:0:
176,227,16171,1,8,0:0:0:0:
176,227,16241,1,0,0:0:0:0:
176,227,16381,1,8,0:0:0:0:
419,321,16522,1,0,0:0:0:0:
249,288,16662,1,8,0:0:0:0:
249,289,16732,1,8,0:0:0:0:
242,290,16802,1,8,0:0:0:0:
276,228,16872,1,0,0:0:0:0:
230,297,16942,1,8,0:0:0:0:
290,299,17012,1,8,0:0:0:0:
276,296,17082,1,0,0:0:0:0:
230,297,17223,1,0,0:0:0:0:
269,219,17363,5,8,0:0:0:0:
269,219,17433,1,8,0:0:0:0:
201,244,17503,1,0,0:0:0:0:
269,217,17573,1,0,0:0:0:0:
212,247,17643,1,8,0:0:0:0:
251,208,17783,1,8,0:0:0:0:
251,209,17923,1,0,0:0:0:0:
250,212,18064,1,8,0:0:0:0:
323,274,18134,1,0,0:0:0:0:
243,212,18204,1,8,0:0:0:0:
241,210,18344,1,0,0:0:0:0:
241,210,18414,1,8,0:0:0:0:
239,212,18484,1,8,0:0:0:0:
233,211,18554,1,0,0:0:0:0:
233,211,18624,1,0,0:0:0:0:
306,268,18694,1,8,0:0:0:0:
275,201,18765,1,0,0:0:0:0:
273,206,18905,1,8,0:0:0:0:
306,268,19045,1,0,0:0:0:0:
265,247,19185,1,8,0:0:0:0:
306,268,19255,1,8,0:0:0:0:
306,268,19325,1,0,0:0:0:0:
306,268,19466,1,8,0:0:0:0:
306,268,19606,5,0,0:0:0:0:
301,191,19676,1,0,0:0:0:0:
306,268,19746,1,8,0:0:0:0:
299,192,19816,1,8,0:0:0:0:
306,268,19886,1,0,0:0:0:0:
306,268,20026,1,8,0:0:0:0:
285,284,20166,1,0,0:0:0:0:
287,279,20307,1,8,0:0:0:0:
287,279,20377,1,0,0:0:0:0:
287,279,20447,1,8,0:0:0:0:
287,279,20587,1,0,0:0:0:0:
287,279,20657,1,0,0:0:0:0:
287,279,20727,1,8,0:0:0:0:
287,279,20867,1,0,0:0:0:0:
287,279,21008,1,8,0:0:0:0:
288,254,21078,1,8,0:0:0:0:
278,196,21148,1,0,0:0:0:0:
278,196,21218,1,0,0:0:0:0:
278,196,21288,1,8,0:0:0:0:
271,193,21428,1,0,0:0:0:0:
256,192,21568,8,0,21708,0:0:0:0:
316,242,21849,5,8,0:0:0:0:
266,257,21989,1,8,0:0:0:0:
314,242,22129,1,0,0:0:0:0:
266,257,22269,1,0,0:0:0:0:
216,261,22409,1,12,0:0:0:0:
225,245,22550,1,0,0:0:0:0:
225,245,22620,1,8,0:0:0:0:
225,245,22690,1,0,0:0:0:0:
221,245,22830,1,12,0:0:0:0:
221,245,22970,1,0,0:0:0:0:
221,245,23040,1,8,0:0:0:0:
221,245,23110,1,0,0:0:0:0:
221,245,23251,1,8,0:0:0:0:
221,245,23321,1,0,0:0:0:0:
221,245,23391,1,8,0:0:0:0:
225,245,23461,1,8,0:0:0:0:
225,245,23531,1,0,0:0:0:0:
232,240,23671,1,8,0:0:0:0:
232,240,23811,1,0,0:0:0:0:
232,240,23951,1,8,0:0:0:0:
221,245,24022,1,0,0:0:0:0:
232,240,24092,1,8,0:0:0:0:
281,234,24162,1,8,0:0:0:0:
221,254,24232,1,0,0:0:0:0:
221,254,24302,1,8,0:0:0:0:
221,254,24372,1,0,0:0:0:0:
221,254,24512,5,0,0:0:0:0:
221,254,24652,1,12,0:0:0:0:
221,254,24793,1,0,0:0:0:0:
221,186,24863,1,0,0:0:0:0:
221,254,24933,1,8,0:0:0:0:
221,186,25073,1,12,0:0:0:0:
221,254,25213,1,0,0:0:0:0:
221,186,25283,1,0,0:0:0:0:
221,186,25353,1,8,0:0:0:0:
221,254,25494,1,8,0:0:0:0:
221,254,25564,1,0,0:0:0:0:
221,254,25634,1,8,0:0:0:0:
261,109,25680,1,8,0:0:0:0:
261,109,25727,1,8,0:0:0:0:
221,254,25774,1,0,0:0:0:0:
225,264,25914,1,0,0:0:0:0:
243,153,25984,1,0,0:0:0:0:
266,136,26054,1,8,0:0:0:0:
266,138,26194,1,8,0:0:0:0:
239,138,26335,1,0,0:0:0:0:
239,138,26475,1,8,0:0:0:0:
317,161,26545,1,0,0:0:0:0:
239,138,26615,1,8,0:0:0:0:
317,161,26755,5,8,0:0:0:0:
317,161,26895,1,4,0:0:0:0:
317,161,27036,1,8,0:0:0:0:
317,161,27106,1,8,0:0:0:0:
317,161,27176,1,0,0:0:0:0:
317,161,27316,1,4,0:0:0:0:
266,276,27456,1,8,0:0:0:0:
266,276,27526,1,8,0:0:0:0:
266,276,27596,1,0,0:0:0:0:
317,152,27737,1,8,0:0:0:0:
326,225,27807,1,8,0:0:0:0:
326,225,27877,1,0,0:0:0:0:
326,225,27947,1,0,0:0:0:0:
317,152,28017,1,8,0:0:0:0:
317,152,28157,1,8,0:0:0:0:
266,276,28227,1,8,0:0:0:0:
317,152,28297,1,0,0:0:0:0:
317,152,28437,1,0,0:0:0:0:
317,152,28578,1,8,0:0:0:0:
317,152,28718,1,0,0:0:0:0:
317,152,28788,1,0,0:0:0:0:
317,152,28858,1,8,0:0:0:0:
317,152,28905,1,8,0:0:0:0:
151,115,28951,1,8,0:0:0:0:
151,115,28998,1,0,0:0:0:0:
271,172,29138,5,4,0:0:0:0:
266,197,29279,1,8,0:0:0:0:
266,197,29349,1,0,0:0:0:0:
266,197,29419,1,8,0:0:0:0:
265,196,29559,1,0,0:0:0:0:
265,196,29629,1,8,0:0:0:0:
265,196,29699,1,8,0:0:0:0:
265,196,29769,1,0,0:0:0:0:
271,196,29839,1,0,0:0:0:0:
265,196,29980,1,8,0:0:0:0:
254,223,30050,1,0,0:0:0:0:
254,223,30120,1,8,0:0:0:0:
254,223,30190,1,8,0:0:0:0:
254,223,30260,1,0,0:0:0:0:
256,192,30400,8,0,30961,0:0:0:0:
236,240,31101,5,8,0:0:0:0:
236,240,31171,1,8,0:0:0:0:
236,240,31241,1,8,0:0:0:0:
236,240,31311,1,8,0:0:0:0:
242,240,31381,1,4,0:0:0:0:
261,266,31522,1,8,0:0:0:0:
261,266,31592,1,8,0:0:0:0:
261,266,31662,1,8,0:0:0:0:
249,281,31802,1,4,0:0:0:0:
261,266,31942,1,8,0:0:0:0:
261,266,32012,1,8,0:0:0:0:
261,266,32082,1,0,0:0:0:0:
236,240,32223,1,8,0:0:0:0:
236,240,32293,1,0,0:0:0:0:
234,240,32363,1,8,0:0:0:0:
236,240,32433,1,8,0:0:0:0:
236,240,32503,1,0,0:0:0:0:
236,240,32643,1,8,0:0:0:0:
261,266,32713,1,0,0:0:0:0:
261,266,32783,1,8,0:0:0:0:
261,266,32923,1,0,0:0:0:0:
228,244,33064,5,8,0:0:0:0:
254,265,33134,1,8,0:0:0:0:
236,240,33204,1,0,0:0:0:0:
251,265,33274,1,0,0:0:0:0:
236,240,33344,1,8,0:0:0:0:
236,240,33484,1,0,0:0:0:0:
236,240,33554,1,0,0:0:0:0:
236,240,33624,1,12,0:0:0:0:
228,244,33765,1,0,0:0:0:0:
251,266,33835,1,0,0:0:0:0:
228,244,33905,1,0,0:0:0:0:
228,244,34045,1,12,0:0:0:0:
230,244,34185,1,0,0:0:0:0:
250,242,34255,1,0,0:0:0:0:
302,278,34325,1,8,0:0:0:0:
230,244,34466,1,0,0:0:0:0:
302,278,34536,1,8,0:0:0:0:
302,278,34606,1,0,0:0:0:0:
302,278,34676,1,0,0:0:0:0:
228,244,34746,1,8,0:0:0:0:
228,244,34886,1,0,0:0:0:0:
228,244,34956,1,8,0:0:0:0:
228,244,35026,1,0,0:0:0:0:
230,244,35166,1,8,0:0:0:0:
230,244,35307,5,0,0:0:0:0:
230,244,35377,1,0,0:0:0:0:
230,244,35447,1,8,0:0:0:0:
225,230,35517,1,8,0:0:0:0:
230,244,35587,1,0,0:0:0:0:
286,230,35727,1,8,0:0:0:0:
286,230,35797,1,8,0:0:0:0:
286,230,35867,1,4,0:0:0:0:
286,230,36008,1,8,0:0:0:0:
246,240,36078,1,8,0:0:0:0:
286,230,36148,1,8,0:0:0:0:
286,230,36288,1,4,0:0:0:0:
286,230,36428,1,8,0:0:0:0:
252,245,36498,1,0,0:0:0:0:
286,230,36568,1,8,0:0:0:0:
286,230,36708,5,0,0:0:0:0:
263,231,36779,1,0,0:0:0:0:
286,230,36849,1,8,0:0:0:0:
286,230,36919,1,8,0:0:0:0:
286,230,36989,1,0,0:0:0:0:
249,230,37129,1,8,0:0:0:0:
286,230,37199,1,8,0:0:0:0:
286,230,37269,1,8,0:0:0:0:
266,262,37409,1,0,0:0:0:0:
286,230,37480,1,0,0:0:0:0:
286,230,37550,1,8,0:0:0:0:
286,230,37620,1,0,0:0:0:0:
262,245,37690,1,8,0:0:0:0:
309,277,37760,1,8,0:0:0:0:
286,230,37830,1,0,0:0:0:0:
270,251,37970,5,8,0:0:0:0:
270,251,38040,1,8,0:0:0:0:
270,251,38110,1,4,0:0:0:0:
266,257,38251,1,8,0:0:0:0:
438,116,38321,1,8,0:0:0:0:
438,116,38391,1,8,0:0:0:0:
261,251,38531,1,4,0:0:0:0:
270,251,38671,1,8,0:0:0:0:
270,251,38741,1,0,0:0:0:0:
270,251,38811,1,8,0:0:0:0:
270,251,38951,1,0,0:0:0:0:
270,251,39022,1,0,0:0:0:0:
270,251,39092,1,8,0:0:0:0:
270,251,39162,1,8,0:0:0:0:
270,251,39232,1,0,0:0:0:0:
291,286,39372,1,8,0:0:0:0:
270,251,39442,1,8,0:0:0:0:
266,276,39512,1,0,0:0:0:0:
271,283,39582,1,0,0:0:0:0:
268,291,39652,1,8,0:0:0:0:
276,271,39793,1,0,0:0:0:0:
276,271,39933,1,8,0:0:0:0:
246,287,40213,5,8,0:0:0:0:
208,243,40353,1,4,0:0:0:0:
283,233,40494,1,8,0:0:0:0:
200,245,40634,1,8,0:0:0:0:
198,245,40774,1,4,0:0:0:0:
288,281,40914,1,8,0:0:0:0:
288,281,41054,1,8,0:0:0:0:
288,281,41124,1,8,0:0:0:0:
288,281,41194,1,0,0:0:0:0:
288,281,41265,1,8,0:0:0:0:
288,281,41335,1,0,0:0:0:0:
288,281,41405,1,0,0:0:0:0:
279,280,41475,1,12,0:0:0:0:
264,279,41615,1,0,0:0:0:0:
264,279,41685,1,8,0:0:0:0:
264,279,41755,1,0,0:0:0:0:
268,279,41895,1,8,0:0:0:0:
250,289,41966,1,0,0:0:0:0:
251,251,42036,1,8,0:0:0:0:
271,286,42106,1,8,0:0:0:0:
258,278,42176,1,0,0:0:0:0:
250,289,42246,1,0,0:0:0:0:
258,278,42316,1,8,0:0:0:0:
302,276,42363,1,8,0:0:0:0:
247,136,42409,1,8,0:0:0:0:
337,284,42456,1,0,0:0:0:0:
305,163,42503,1,0,0:0:0:0:
247,198,42550,1,0,0:0:0:0:
340,311,42596,1,12,0:0:0:0:
302,292,42737,1,8,0:0:0:0:
320,279,42877,1,0,0:0:0:0:
295,283,43017,1,8,0:0:0:0:
338,193,43087,1,8,0:0:0:0:
318,283,43157,1,0,0:0:0:0:
318,280,43297,1,8,0:0:0:0:
317,279,43437,1,0,0:0:0:0:
291,236,43508,1,8,0:0:0:0:
317,279,43578,1,0,0:0:0:0:
327,279,43648,1,0,0:0:0:0:
317,279,43718,1,8,0:0:0:0:
320,279,43858,1,0,0:0:0:0:
320,279,43928,1,8,0:0:0:0:
317,279,43998,1,8,0:0:0:0:
318,283,44068,1,0,0:0:0:0:
318,283,44138,1,8,0:0:0:0:
318,283,44208,1,0,0:0:0:0:
318,280,44279,1,0,0:0:0:0:
317,279,44419,5,0,0:0:0:0:
317,279,44489,1,0,0:0:0:0:
360,255,44559,1,8,0:0:0:0:
330,288,44699,1,8,0:0:0:0:
330,288,44839,1,4,0:0:0:0:
317,279,44980,1,8,0:0:0:0:
297,272,45050,1,0,0:0:0:0:
313,273,45120,1,8,0:0:0:0:
306,274,45260,1,0,0:0:0:0:
306,274,45330,1,0,0:0:0:0:
306,274,45400,1,8,0:0:0:0:
317,279,45540,1,8,0:0:0:0:
313,273,45680,1,0,0:0:0:0:
313,273,45751,1,8,0:0:0:0:
313,273,45821,1,0,0:0:0:0:
313,272,45891,1,0,0:0:0:0:
313,270,45961,1,12,0:0:0:0:
278,263,46101,1,8,0:0:0:0:
278,263,46171,1,0,0:0:0:0:
278,263,46241,1,8,0:0:0:0:
278,263,46381,1,0,0:0:0:0:
346,312,46451,1,0,0:0:0:0:
311,270,46522,1,8,0:0:0:0:
313,273,46592,1,0,0:0:0:0:
313,273,46662,1,8,0:0:0:0:
313,273,46732,1,8,0:0:0:0:
309,266,46802,1,0,0:0:0:0:
477,179,46872,1,8,0:0:0:0:
311,294,46942,1,0,0:0:0:0:
311,294,47012,1,0,0:0:0:0:
308,266,47082,1,12,0:0:0:0:
310,299,47223,1,0,0:0:0:0:
291,295,47293,1,8,0:0:0:0:
298,285,47363,1,0,0:0:0:0:
283,284,47503,1,0,0:0:0:0:
281,258,47573,1,8,0:0:0:0:
289,286,47643,1,0,0:0:0:0:
281,286,47713,1,0,0:0:0:0:
288,286,47783,1,8,0:0:0:0:
288,286,47853,1,0,0:0:0:0:
290,243,47923,1,8,0:0:0:0:
290,243,47994,1,8,0:0:0:0:
290,243,48064,1,8,0:0:0:0:
290,243,48134,1,8,0:0:0:0:
290,243,48204,1,0,0:0:0:0:
290,243,48344,1,8,0:0:0:0:
290,243,48414,1,0,0:0:0:0:
290,243,48484,1,8,0:0:0:0:
290,243,48624,5,0,0:0:0:0:
290,243,48694,1,8,0:0:0:0:
290,243,48765,1,0,0:0:0:0:
290,243,48835,1,0,0:0:0:0:
326,248,48905,1,8,0:0:0:0:
318,251,48951,1,8,0:0:0:0:
191,143,48998,1,8,0:0:0:0:
222,194,49045,1,0,0:0:0:0:
160,201,49115,1,0,0:0:0:0:
242,188,49186,1,8,0:0:0:0:
207,230,49232,1,8,0:0:0:0:
239,190,49279,1,8,0:0:0:0:
241,189,49326,1,4,0:0:0:0:
273,201,49466,1,8,0:0:0:0:
373,269,49606,1,8,0:0:0:0:
373,269,49746,1,4,0:0:0:0:
274,249,49886,1,8,0:0:0:0:
275,237,49956,1,8,0:0:0:0:
275,237,50026,1,8,0:0:0:0:
278,239,50166,1,0,0:0:0:0:
279,242,50237,1,8,0:0:0:0:
280,243,50307,1,8,0:0:0:0:
281,240,50377,1,8,0:0:0:0:
281,241,50447,1,4,0:0:0:0:
355,277,50587,1,8,0:0:0:0:
353,277,50727,1,0,0:0:0:0:
355,277,50867,1,8,0:0:0:0:
355,277,50937,1,0,0:0:0:0:
355,277,51008,1,8,0:0:0:0:
355,277,51078,1,8,0:0:0:0:
355,277,51148,1,0,0:0:0:0:
355,277,51218,1,8,0:0:0:0:
358,200,51288,1,0,0:0:0:0:
358,200,51335,1,0,0:0:0:0:
358,200,51381,1,0,0:0:0:0:
358,200,51428,1,8,0:0:0:0:
358,200,51475,1,8,0:0:0:0:
358,200,51522,1,8,0:0:0:0:
358,200,51568,1,4,0:0:0:0:
313,249,51708,1,8,0:0:0:0:
313,249,51849,1,4,0:0:0:0:
313,249,51989,1,8,0:0:0:0:
313,249,52059,1,8,0:0:0:0:
313,249,52129,1,4,0:0:0:0:
313,249,52269,1,4,0:0:0:0:
313,249,52409,1,8,0:0:0:0:
313,249,52480,1,8,0:0:0:0:
313,249,52550,1,0,0:0:0:0:
313,249,52620,1,0,0:0:0:0:
313,249,52690,1,8,0:0:0:0:
291,269,52830,1,0,0:0:0:0:
291,269,52900,1,8,0:0:0:0:
291,269,52970,1,8,0:0:0:0:
291,269,53040,1,0,0:0:0:0:
291,269,53110,1,0,0:0:0:0:
291,269,53251,5,8,0:0:0:0:
291,269,53321,1,0,0:0:0:0:
291,269,53391,1,8,0:0:0:0:
291,269,53461,1,8,0:0:0:0:
291,269,53531,1,0,0:0:0:0:
400,220,53578,1,0,0:0:0:0:
218,167,53624,1,0,0:0:0:0:
408,191,53671,1,8,0:0:0:0:
218,167,53718,1,8,0:0:0:0:
218,167,53765,1,8,0:0:0:0:
218,167,53811,1,4,0:0:0:0:
316,181,53951,1,8,0:0:0:0:
316,181,54022,1,8,0:0:0:0:
316,181,54092,1,0,0:0:0:0:
316,181,54162,1,0,0:0:0:0:
316,181,54232,1,8,0:0:0:0:
316,181,54372,1,0,0:0:0:0:
316,181,54442,1,8,0:0:0:0:
316,181,54512,1,0,0:0:0:0:
316,181,54582,1,0,0:0:0:0:
271,252,54652,1,8,0:0:0:0:
271,252,54699,1,0,0:0:0:0:
271,252,54746,1,0,0:0:0:0:
271,252,54793,1,8,0:0:0:0:
271,252,54839,1,8,0:0:0:0:
271,252,54886,1,8,0:0:0:0:
271,252,54933,1,4,0:0:0:0:
316,181,55073,1,8,0:0:0:0:
316,181,55143,1,8,0:0:0:0:
316,181,55213,1,0,0:0:0:0:
316,181,55353,1,8,0:0:0:0:
307,226,55423,1,0,0:0:0:0:
316,181,55494,1,8,0:0:0:0:
316,181,55564,1,8,0:0:0:0:
316,181,55634,1,0,0:0:0:0:
316,181,55704,1,8,0:0:0:0:
316,181,55774,1,0,0:0:0:0:
316,181,55914,5,8,0:0:0:0:
316,181,56054,1,4,0:0:0:0:
290,223,56194,1,8,0:0:0:0:
290,223,56265,1,0,0:0:0:0:
290,223,56335,1,8,0:0:0:0:
290,223,56475,1,0,0:0:0:0:
290,223,56545,1,8,0:0:0:0:
290,223,56615,1,8,0:0:0:0:
232,245,56685,1,0,0:0:0:0:
287,230,56755,1,0,0:0:0:0:
287,230,56895,1,8,0:0:0:0:
287,230,56966,1,0,0:0:0:0:
287,230,57036,1,8,0:0:0:0:
287,230,57106,1,8,0:0:0:0:
287,230,57176,1,0,0:0:0:0:
284,262,57316,1,8,0:0:0:0:
284,262,57386,1,0,0:0:0:0:
284,262,57456,1,8,0:0:0:0:
283,261,57596,1,0,0:0:0:0:
283,261,57666,1,8,0:0:0:0:
283,261,57737,1,0,0:0:0:0:
283,261,57807,1,0,0:0:0:0:
286,253,57877,1,8,0:0:0:0:
283,261,57947,1,0,0:0:0:0:
317,253,58017,1,8,0:0:0:0:
310,251,58064,1,8,0:0:0:0:
307,250,58110,1,8,0:0:0:0:
306,247,58157,1,8,0:0:0:0:
307,247,58204,1,8,0:0:0:0:
223,173,58251,1,8,0:0:0:0:
218,219,58298,1,4,0:0:0:0:
343,116,58508,5,0,0:0:0:0:
343,116,58578,1,8,0:0:0:0:
215,281,58718,1,8,0:0:0:0:
215,281,58788,1,8,0:0:0:0:
215,281,58858,1,8,0:0:0:0:
187,289,58928,1,0,0:0:0:0:
215,281,58998,1,0,0:0:0:0:
226,135,59138,1,8,0:0:0:0:
304,266,59279,1,0,0:0:0:0:
304,266,59349,1,0,0:0:0:0:
304,266,59419,1,8,0:0:0:0:
304,266,59489,1,8,0:0:0:0:
304,266,59559,1,0,0:0:0:0:
235,187,59699,1,8,0:0:0:0:
233,215,59839,1,0,0:0:0:0:
233,215,59909,1,0,0:0:0:0:
230,204,59980,1,8,0:0:0:0:
233,215,60120,1,8,0:0:0:0:
233,215,60190,1,8,0:0:0:0:
230,204,60260,1,0,0:0:0:0:
233,215,60330,1,0,0:0:0:0:
232,215,60400,1,8,0:0:0:0:
223,210,60540,5,0,0:0:0:0:
223,210,60680,1,8,0:0:0:0:
223,210,60751,1,8,0:0:0:0:
246,223,60821,1,0,0:0:0:0:
222,246,60961,1,0,0:0:0:0:
219,245,61101,1,8,0:0:0:0:
219,248,61171,1,0,0:0:0:0:
219,248,61241,1,8,0:0:0:0:
394,288,61381,1,0,0:0:0:0:
293,250,61451,1,0,0:0:0:0:
394,288,61522,1,8,0:0:0:0:
394,288,61592,1,8,0:0:0:0:
236,214,61662,1,0,0:0:0:0:
184,203,61697,1,0,0:0:0:0:
210,192,61802,1,8,0:0:0:0:
210,192,61837,1,8,0:0:0:0:
208,186,61942,1,8,0:0:0:0:
208,187,61977,1,8,0:0:0:0:
211,188,62082,1,0,0:0:0:0:
211,191,62117,1,0,0:0:0:0:
236,214,62223,1,8,0:0:0:0:
275,204,62293,1,8,0:0:0:0:
275,204,62363,1,0,0:0:0:0:
275,204,62503,1,8,0:0:0:0:
271,209,62643,5,0,0:0:0:0:
406,240,62713,1,0,0:0:0:0:
406,240,62783,1,8,0:0:0:0:
354,244,62853,1,8,0:0:0:0:
354,244,62923,1,0,0:0:0:0:
253,151,63064,1,8,0:0:0:0:
253,151,63204,1,8,0:0:0:0:
253,151,63274,1,0,0:0:0:0:
253,151,63344,1,8,0:0:0:0:
244,152,63484,1,0,0:0:0:0:
237,148,63624,1,0,0:0:0:0:
233,154,63694,1,8,0:0:0:0:
237,151,63765,1,8,0:0:0:0:
237,151,63835,1,0,0:0:0:0:
235,154,63905,1,8,0:0:0:0:
229,152,63975,1,8,0:0:0:0:
226,154,64045,1,0,0:0:0:0:
237,264,64185,1,8,0:0:0:0:
217,149,64325,1,0,0:0:0:0:
219,146,64395,1,8,0:0:0:0:
219,146,64465,1,0,0:0:0:0:
208,235,64606,1,0,0:0:0:0:
342,217,64746,1,8,0:0:0:0:
377,159,64793,1,8,0:0:0:0:
377,159,64839,1,8,0:0:0:0:
377,159,64886,1,0,0:0:0:0:
329,154,65026,5,8,0:0:0:0:
228,201,65096,1,8,0:0:0:0:
228,201,65166,1,0,0:0:0:0:
327,204,65307,1,0,0:0:0:0:
277,237,65447,1,8,0:0:0:0:
277,237,65517,1,8,0:0:0:0:
277,237,65587,1,0,0:0:0:0:
258,212,65727,1,0,0:0:0:0:
327,204,65867,1,8,0:0:0:0:
247,266,66008,1,0,0:0:0:0:
253,254,66078,1,0,0:0:0:0:
247,266,66148,1,8,0:0:0:0:
247,266,66218,1,8,0:0:0:0:
247,266,66288,1,8,0:0:0:0:
247,266,66358,1,8,0:0:0:0:
247,266,66428,1,0,0:0:0:0:
249,279,66708,1,0,0:0:0:0:
310,266,66849,1,8,0:0:0:0:
298,197,66989,1,8,0:0:0:0:
355,174,67269,5,4,0:0:0:0:
288,204,67409,1,8,0:0:0:0:
279,197,67480,1,8,0:0:0:0:
279,201,67550,1,0,0:0:0:0:
269,187,67690,1,8,0:0:0:0:
239,247,67760,1,8,0:0:0:0:
249,239,67830,1,0,0:0:0:0:
249,239,67900,1,0,0:0:0:0:
249,239,67970,1,8,0:0:0:0:
249,239,68110,1,0,0:0:0:0:
237,247,68251,1,8,0:0:0:0:
242,192,68391,1,0,0:0:0:0:
240,183,68531,1,8,0:0:0:0:
327,188,68601,1,0,0:0:0:0:
240,181,68671,1,8,0:0:0:0:
239,181,68741,1,8,0:0:0:0:
262,183,68811,1,0,0:0:0:0:
239,184,68881,1,8,0:0:0:0:
240,184,68951,1,0,0:0:0:0:
244,256,69092,1,8,0:0:0:0:
244,256,69162,1,8,0:0:0:0:
244,256,69232,1,8,0:0:0:0:
244,256,69372,1,8,0:0:0:0:
244,256,69512,5,0,0:0:0:0:
261,274,69652,1,8,0:0:0:0:
251,265,69723,1,8,0:0:0:0:
251,265,69793,1,0,0:0:0:0:
252,258,69933,1,8,0:0:0:0:
252,258,70003,1,8,0:0:0:0:
251,260,70073,1,0,0:0:0:0:
249,261,70143,1,8,0:0:0:0:
249,261,70213,1,0,0:0:0:0:
244,256,70283,1,0,0:0:0:0:
245,263,70353,1,8,0:0:0:0:
237,263,70494,1,0,0:0:0:0:
202,237,70634,1,8,0:0:0:0:
252,189,70669,1,8,0:0:0:0:
259,242,70774,1,8,0:0:0:0:
273,103,70809,1,8,0:0:0:0:
271,117,70914,1,0,0:0:0:0:
271,117,70949,1,0,0:0:0:0:
202,237,71054,1,8,0:0:0:0:
268,121,71089,1,8,0:0:0:0:
237,208,71194,1,0,0:0:0:0:
237,208,71335,1,8,0:0:0:0:
237,208,71405,1,8,0:0:0:0:
237,208,71475,1,8,0:0:0:0:
237,208,71615,1,0,0:0:0:0:
237,208,71755,5,8,0:0:0:0:
233,218,71895,1,0,0:0:0:0:
232,218,71966,1,0,0:0:0:0:
232,218,72036,1,8,0:0:0:0:
232,219,72176,1,8,0:0:0:0:
236,223,72316,1,0,0:0:0:0:
246,257,72456,1,8,0:0:0:0:
246,257,72526,1,0,0:0:0:0:
246,257,72596,1,8,0:0:0:0:
246,257,72666,1,8,0:0:0:0:
246,257,72737,1,0,0:0:0:0:
246,257,72807,1,0,0:0:0:0:
247,257,72877,1,8,0:0:0:0:
242,250,73017,1,0,0:0:0:0:
241,246,73087,1,0,0:0:0:0:
242,250,73157,1,0,0:0:0:0:
215,215,73297,1,8,0:0:0:0:
215,215,73437,1,0,0:0:0:0:
397,279,73578,1,8,0:0:0:0:
397,279,73648,1,8,0:0:0:0:
397,279,73718,1,0,0:0:0:0:
397,279,73788,1,0,0:0:0:0:
397,279,73858,1,8,0:0:0:0:
381,274,73998,5,0,0:0:0:0:
380,274,74138,1,8,0:0:0:0:
379,270,74208,1,8,0:0:0:0:
379,270,74279,1,0,0:0:0:0:
379,270,74419,1,8,0:0:0:0:
379,270,74489,1,8,0:0:0:0:
379,270,74559,1,0,0:0:0:0:
375,268,74699,1,8,0:0:0:0:
375,268,74769,1,8,0:0:0:0:
376,268,74839,1,0,0:0:0:0:
381,274,74980,1,0,0:0:0:0:
280,240,75120,1,12,0:0:0:0:
239,219,75260,1,8,0:0:0:0:
239,219,75330,1,8,0:0:0:0:
239,219,75400,1,0,0:0:0:0:
239,219,75470,1,0,0:0:0:0:
239,219,75540,1,8,0:0:0:0:
258,230,75680,5,0,0:0:0:0:
258,230,75751,1,8,0:0:0:0:
258,230,75821,1,0,0:0:0:0:
267,236,75891,1,0,0:0:0:0:
247,203,75961,1,8,0:0:0:0:
239,214,76031,1,8,0:0:0:0:
240,211,76101,1,8,0:0:0:0:
247,203,76171,1,8,0:0:0:0:
220,181,76241,1,4,0:0:0:0:
282,250,76381,1,0,0:0:0:0:
220,181,76522,1,12,0:0:0:0:
280,249,76662,1,0,0:0:0:0:
220,181,76802,1,12,0:0:0:0:
273,243,76942,1,8,0:0:0:0:
220,181,77082,1,4,0:0:0:0:
240,267,77223,1,8,0:0:0:0:
217,245,77293,1,8,0:0:0:0:
234,263,77363,1,0,0:0:0:0:
224,239,77503,1,8,0:0:0:0:
224,239,77573,1,8,0:0:0:0:
224,239,77643,1,0,0:0:0:0:
253,253,77783,1,8,0:0:0:0:
253,253,77853,1,8,0:0:0:0:
253,253,77923,1,0,0:0:0:0:
249,251,78064,5,8,0:0:0:0:
255,246,78134,1,0,0:0:0:0:
248,248,78204,1,8,0:0:0:0:
228,241,78274,1,8,0:0:0:0:
250,249,78344,1,0,0:0:0:0:
250,249,78414,1,0,0:0:0:0:
215,234,78484,1,12,0:0:0:0:
259,289,78624,1,0,0:0:0:0:
215,234,78765,1,8,0:0:0:0:
273,201,78835,1,8,0:0:0:0:
259,289,78905,1,8,0:0:0:0:
306,240,78975,1,8,0:0:0:0:
215,234,79045,1,4,0:0:0:0:
259,289,79185,1,0,0:0:0:0:
215,234,79325,1,8,0:0:0:0:
171,193,79372,1,8,0:0:0:0:
171,193,79419,1,8,0:0:0:0:
171,193,79466,1,8,0:0:0:0:
179,190,79512,1,8,0:0:0:0:
179,190,79559,1,8,0:0:0:0:
179,190,79606,1,4,0:0:0:0:
266,279,79746,1,8,0:0:0:0:
276,305,79816,1,8,0:0:0:0:
266,279,79886,1,8,0:0:0:0:
275,325,80026,1,0,0:0:0:0:
268,276,80166,5,8,0:0:0:0:
371,148,80237,1,0,0:0:0:0:
371,148,80307,1,8,0:0:0:0:
371,148,80377,1,8,0:0:0:0:
364,145,80447,1,0,0:0:0:0:
370,211,80587,1,8,0:0:0:0:
237,234,80727,1,4,0:0:0:0:
237,234,80867,1,4,0:0:0:0:
251,289,81008,1,8,0:0:0:0:
301,280,81148,1,0,0:0:0:0:
301,280,81288,5,8,0:0:0:0:
302,252,81358,1,8,0:0:0:0:
261,288,81428,1,0,0:0:0:0:
261,288,81498,1,8,0:0:0:0:
261,288,81568,1,0,0:0:0:0:
268,260,81638,1,0,0:0:0:0:
335,217,81708,1,8,0:0:0:0:
335,217,81849,1,4,0:0:0:0:
331,272,81989,1,8,0:0:0:0:
227,236,82129,1,4,0:0:0:0:
215,265,82269,5,8,0:0:0:0:
202,262,82339,1,0,0:0:0:0:
288,205,82409,1,8,0:0:0:0:
278,196,82480,1,8,0:0:0:0:
281,181,82550,1,0,0:0:0:0:
202,262,82620,1,8,0:0:0:0:
281,188,82690,1,0,0:0:0:0:
201,262,82760,1,0,0:0:0:0:
254,201,82830,1,8,0:0:0:0:
199,262,82900,1,8,0:0:0:0:
241,171,82970,1,0,0:0:0:0:
244,238,83110,1,8,0:0:0:0:
244,238,83180,1,8,0:0:0:0:
244,238,83251,1,0,0:0:0:0:
244,238,83391,1,0,0:0:0:0:
244,238,83461,1,8,0:0:0:0:
244,238,83531,1,0,0:0:0:0:
313,189,83671,1,8,0:0:0:0:
313,189,83741,1,8,0:0:0:0:
313,189,83811,1,0,0:0:0:0:
244,238,83951,1,0,0:0:0:0:
256,192,84092,8,0,84512,0:0:0:0:
290,225,84652,5,0,0:0:0:0:
414,168,84793,1,8,0:0:0:0:
253,242,85073,5,8,0:0:0:0:
208,202,85213,1,4,0:0:0:0:
211,221,85353,1,8,0:0:0:0:
211,221,85494,1,8,0:0:0:0:
208,202,85634,1,0,0:0:0:0:
258,228,85774,1,8,0:0:0:0:
258,228,85821,1,8,0:0:0:0:
258,228,85867,1,8,0:0:0:0:
258,228,85914,1,0,0:0:0:0:
265,140,85961,1,0,0:0:0:0:
265,140,86008,1,0,0:0:0:0:
346,239,86054,1,8,0:0:0:0:
346,239,86124,1,8,0:0:0:0:
346,239,86194,1,0,0:0:0:0:
346,239,86265,1,0,0:0:0:0:
346,239,86335,1,12,0:0:0:0:
281,283,86475,1,8,0:0:0:0:
291,286,86545,1,0,0:0:0:0:
291,286,86615,1,8,0:0:0:0:
347,251,86755,1,0,0:0:0:0:
358,245,86895,1,8,0:0:0:0:
358,245,86966,1,8,0:0:0:0:
358,241,87036,1,0,0:0:0:0:
358,241,87106,1,0,0:0:0:0:
299,194,87176,1,8,0:0:0:0:
299,194,87223,1,8,0:0:0:0:
299,194,87269,1,8,0:0:0:0:
299,194,87316,1,0,0:0:0:0:
299,194,87363,1,0,0:0:0:0:
299,194,87409,1,0,0:0:0:0:
299,194,87456,1,12,0:0:0:0:
340,296,87596,1,0,0:0:0:0:
322,282,87666,1,8,0:0:0:0:
340,296,87737,1,0,0:0:0:0:
347,289,87877,1,12,0:0:0:0:
323,282,88017,1,0,0:0:0:0:
321,282,88157,1,0,0:0:0:0:
316,138,88227,1,8,0:0:0:0:
316,138,88297,1,0,0:0:0:0:
306,138,88367,1,0,0:0:0:0:
306,139,88437,1,8,0:0:0:0:
346,194,88578,1,0,0:0:0:0:
346,194,88718,1,8,0:0:0:0:
346,194,88788,1,0,0:0:0:0:
346,194,88858,1,8,0:0:0:0:
334,206,88998,1,0,0:0:0:0:
334,206,89068,1,0,0:0:0:0:
334,206,89138,1,8,0:0:0:0:
334,206,89208,1,0,0:0:0:0:
334,206,89279,1,8,0:0:0:0:
334,206,89349,1,8,0:0:0:0:
334,206,89419,1,0,0:0:0:0:
387,223,89559,5,8,0:0:0:0:
334,206,89699,1,4,0:0:0:0:
331,308,89839,1,8,0:0:0:0:
331,308,89909,1,0,0:0:0:0:
331,308,89980,1,8,0:0:0:0:
331,308,90120,1,0,0:0:0:0:
331,308,90260,1,8,0:0:0:0:
331,308,90330,1,8,0:0:0:0:
331,308,90400,1,0,0:0:0:0:
331,308,90540,1,8,0:0:0:0:
331,308,90610,1,0,0:0:0:0:
331,308,90680,1,8,0:0:0:0:
331,308,90751,1,8,0:0:0:0:
331,308,90821,1,4,0:0:0:0:
331,308,90961,1,0,0:0:0:0:
331,308,91031,1,8,0:0:0:0:
331,308,91101,1,0,0:0:0:0:
331,308,91241,1,0,0:0:0:0:
331,308,91381,1,8,0:0:0:0:
331,308,91451,1,0,0:0:0:0:
331,308,91522,1,8,0:0:0:0:
331,308,91592,1,8,0:0:0:0:
331,308,91662,1,0,0:0:0:0:
331,308,91732,1,8,0:0:0:0:
331,308,91802,1,0,0:0:0:0:
331,308,91872,1,0,0:0:0:0:
331,308,91942,1,12,0:0:0:0:
331,308,92082,1,0,0:0:0:0:
331,308,92152,1,8,0:0:0:0:
266,247,92223,1,0,0:0:0:0:
331,308,92363,1,12,0:0:0:0:
279,271,92503,1,0,0:0:0:0:
279,271,92643,1,8,0:0:0:0:
287,313,92713,1,0,0:0:0:0:
279,271,92783,1,8,0:0:0:0:
279,271,92853,1,8,0:0:0:0:
279,271,92923,1,0,0:0:0:0:
286,268,92994,1,8,0:0:0:0:
286,268,93064,1,4,0:0:0:0:
291,264,93204,1,8,0:0:0:0:
271,247,93274,1,0,0:0:0:0:
276,264,93344,1,8,0:0:0:0:
276,264,93484,5,0,0:0:0:0:
276,264,93554,1,8,0:0:0:0:
276,264,93624,1,0,0:0:0:0:
276,264,93765,1,0,0:0:0:0:
276,264,93905,1,8,0:0:0:0:
332,293,93951,1,8,0:0:0:0:
332,293,93998,1,8,0:0:0:0:
320,292,94045,1,8,0:0:0:0:
317,288,94092,1,8,0:0:0:0:
309,285,94138,1,8,0:0:0:0:
326,250,94185,1,4,0:0:0:0:
326,250,94325,1,4,0:0:0:0:
326,250,94466,1,8,0:0:0:0:
218,276,94606,1,0,0:0:0:0:
218,276,94676,1,0,0:0:0:0:
218,276,94746,1,8,0:0:0:0:
218,276,94816,1,8,0:0:0:0:
218,276,94886,1,0,0:0:0:0:
218,276,95026,1,8,0:0:0:0:
218,276,95096,1,0,0:0:0:0:
218,276,95166,1,8,0:0:0:0:
218,276,95237,1,8,0:0:0:0:
226,275,95307,1,4,0:0:0:0:
236,263,95447,1,0,0:0:0:0:
235,263,95517,1,8,0:0:0:0:
235,263,95587,1,0,0:0:0:0:
205,265,95727,1,0,0:0:0:0:
205,265,95797,1,0,0:0:0:0:
205,265,95867,1,8,0:0:0:0:
212,263,95914,1,0,0:0:0:0:
205,265,95961,1,0,0:0:0:0:
236,159,96008,1,8,0:0:0:0:
212,263,96078,1,8,0:0:0:0:
212,263,96148,1,0,0:0:0:0:
212,263,96288,5,8,0:0:0:0:
212,263,96428,1,4,0:0:0:0:
199,269,96568,1,8,0:0:0:0:
199,269,96638,1,0,0:0:0:0:
199,269,96708,1,8,0:0:0:0:
193,268,96849,1,0,0:0:0:0:
291,267,96919,1,8,0:0:0:0:
256,257,96989,1,0,0:0:0:0:
320,245,97129,1,0,0:0:0:0:
320,245,97269,1,8,0:0:0:0:
314,189,97316,1,8,0:0:0:0:
314,189,97363,1,8,0:0:0:0:
314,189,97409,1,0,0:0:0:0:
307,177,97456,1,8,0:0:0:0:
307,177,97503,1,8,0:0:0:0:
307,177,97550,1,0,0:0:0:0:
263,290,97690,1,8,0:0:0:0:
263,290,97760,1,0,0:0:0:0:
263,290,97830,1,8,0:0:0:0:
263,290,97970,5,0,0:0:0:0:
263,290,98040,1,0,0:0:0:0:
263,290,98110,1,8,0:0:0:0:
263,290,98180,1,8,0:0:0:0:
263,290,98251,1,0,0:0:0:0:
263,290,98391,1,12,0:0:0:0:
263,290,98531,1,12,0:0:0:0:
263,290,98671,1,4,0:0:0:0:
263,290,98811,1,8,0:0:0:0:
263,290,98881,1,8,0:0:0:0:
263,290,98951,1,0,0:0:0:0:
263,290,99092,1,0,0:0:0:0:
263,290,99232,5,8,0:0:0:0:
263,290,99302,1,8,0:0:0:0:
263,290,99372,1,0,0:0:0:0:
263,290,99442,1,0,0:0:0:0:
263,290,99512,1,8,0:0:0:0:
344,218,99652,1,0,0:0:0:0:
344,218,99699,1,8,0:0:0:0:
344,218,99746,1,8,0:0:0:0:
344,218,99793,1,0,0:0:0:0:
343,230,99933,1,8,0:0:0:0:
343,230,100003,1,0,0:0:0:0:
343,230,100073,1,8,0:0:0:0:
336,227,100213,1,0,0:0:0:0:
336,227,100353,1,8,0:0:0:0:
336,227,100423,1,0,0:0:0:0:
336,227,100494,1,8,0:0:0:0:
336,227,100564,1,8,0:0:0:0:
336,225,100634,1,0,0:0:0:0:
361,196,100704,1,0,0:0:0:0:
372,158,100774,1,8,0:0:0:0:
165,179,100821,1,8,0:0:0:0:
181,181,100867,1,8,0:0:0:0:
220,195,100914,1,0,0:0:0:0:
220,195,101054,5,8,0:0:0:0:
220,195,101124,1,8,0:0:0:0:
246,217,101194,1,0,0:0:0:0:
246,217,101265,1,8,0:0:0:0:
246,217,101335,1,8,0:0:0:0:
246,217,101405,1,0,0:0:0:0:
246,217,101475,1,0,0:0:0:0:
246,217,101545,1,8,0:0:0:0:
246,217,101615,1,0,0:0:0:0:
246,217,101685,1,0,0:0:0:0:
246,217,101755,1,8,0:0:0:0:
246,217,101895,1,8,0:0:0:0:
246,217,102036,1,0,0:0:0:0:
317,248,102176,1,8,0:0:0:0:
317,248,102246,1,8,0:0:0:0:
317,248,102316,1,8,0:0:0:0:
317,248,102456,1,0,0:0:0:0:
317,248,102526,1,8,0:0:0:0:
317,248,102596,1,8,0:0:0:0:
317,248,102666,1,0,0:0:0:0:
317,248,102737,1,8,0:0:0:0:
317,248,102807,1,8,0:0:0:0:
317,248,102877,1,0,0:0:0:0:
317,248,103017,1,0,0:0:0:0:
221,241,103157,5,12,0:0:0:0:
221,241,103437,1,8,0:0:0:0:
221,241,103718,1,0,0:0:0:0:
235,248,103998,1,8,0:0:0:0:
234,248,104138,1,0,0:0:0:0:
233,248,104279,1,8,0:0:0:0:
233,248,104419,1,8,0:0:0:0:
241,260,104559,1,0,0:0:0:0:
239,260,104839,1,0,0:0:0:0:
240,279,104980,1,8,0:0:0:0:
234,248,105120,1,8,0:0:0:0:
230,258,105260,1,8,0:0:0:0:
228,256,105400,1,0,0:0:0:0:
250,295,105680,1,0,0:0:0:0:
250,295,105821,1,8,0:0:0:0:
250,295,105961,1,0,0:0:0:0:
286,256,106241,1,8,0:0:0:0:
286,256,106381,1,0,0:0:0:0:
244,272,106522,1,8,0:0:0:0:
242,271,106662,1,8,0:0:0:0:
233,293,106802,1,0,0:0:0:0:
275,288,107082,5,8,0:0:0:0:
280,228,107223,1,0,0:0:0:0:
280,228,107293,1,0,0:0:0:0:
251,265,107363,1,8,0:0:0:0:
249,267,107503,1,8,0:0:0:0:
271,254,107643,1,0,0:0:0:0:
250,254,107923,1,8,0:0:0:0:
253,251,108064,1,0,0:0:0:0:
253,252,108204,1,8,0:0:0:0:
262,287,108484,1,8,0:0:0:0:
262,287,108624,1,0,0:0:0:0:
262,287,108765,1,8,0:0:0:0:
268,266,108905,1,8,0:0:0:0:
257,254,109045,1,0,0:0:0:0:
268,266,109325,1,0,0:0:0:0:
259,252,109466,1,8,0:0:0:0:
259,252,109606,1,8,0:0:0:0:
259,252,109746,1,8,0:0:0:0:
239,274,109886,1,0,0:0:0:0:
255,268,110026,1,8,0:0:0:0:
249,298,110166,1,0,0:0:0:0:
239,274,110447,1,8,0:0:0:0:
254,268,110727,1,0,0:0:0:0:
243,266,110867,1,8,0:0:0:0:
239,270,110937,1,8,0:0:0:0:
239,270,111008,1,0,0:0:0:0:
259,270,111148,1,0,0:0:0:0:
219,262,111288,1,8,0:0:0:0:
210,262,111428,1,8,0:0:0:0:
254,268,111568,1,0,0:0:0:0:
231,282,111708,1,8,0:0:0:0:
231,282,111849,1,8,0:0:0:0:
227,279,111989,1,8,0:0:0:0:
233,248,112129,1,4,0:0:0:0:
223,222,120540,5,0,0:0:0:0:
223,222,120727,1,8,0:0:0:0:
227,206,120961,1,8,0:0:0:0:
231,198,121101,1,4,0:0:0:0:
296,240,121241,1,8,0:0:0:0:
296,240,121311,1,8,0:0:0:0:
296,240,121381,1,8,0:0:0:0:
303,241,121522,1,4,0:0:0:0:
248,249,121662,1,8,0:0:0:0:
248,249,121708,1,8,0:0:0:0:
227,206,121755,1,8,0:0:0:0:
248,249,121802,1,0,0:0:0:0:
248,249,121872,1,0,0:0:0:0:
248,249,121942,1,8,0:0:0:0:
248,249,122012,1,0,0:0:0:0:
248,249,122082,1,8,0:0:0:0:
248,249,122152,1,8,0:0:0:0:
248,249,122223,1,4,0:0:0:0:
248,249,122363,1,8,0:0:0:0:
241,245,122433,1,0,0:0:0:0:
241,245,122503,1,8,0:0:0:0:
241,245,122643,1,0,0:0:0:0:
240,245,122713,1,0,0:0:0:0:
240,245,122783,1,8,0:0:0:0:
243,307,122853,1,0,0:0:0:0:
268,225,122923,1,8,0:0:0:0:
228,241,122970,1,8,0:0:0:0:
228,241,123017,1,8,0:0:0:0:
228,240,123064,1,0,0:0:0:0:
243,307,123134,1,0,0:0:0:0:
243,307,123204,1,8,0:0:0:0:
243,307,123274,1,8,0:0:0:0:
243,307,123344,1,4,0:0:0:0:
226,243,123484,1,0,0:0:0:0:
226,243,123554,1,0,0:0:0:0:
228,241,123624,1,8,0:0:0:0:
228,241,123765,1,0,0:0:0:0:
228,240,123835,1,0,0:0:0:0:
226,243,123905,1,8,0:0:0:0:
226,243,123975,1,0,0:0:0:0:
226,243,124045,1,8,0:0:0:0:
226,243,124115,1,8,0:0:0:0:
226,243,124185,1,0,0:0:0:0:
226,243,124255,1,0,0:0:0:0:
226,243,124325,1,0,0:0:0:0:
228,241,124466,5,4,0:0:0:0:
237,239,124606,1,8,0:0:0:0:
236,238,124676,1,0,0:0:0:0:
236,238,124746,1,8,0:0:0:0:
231,224,124886,1,0,0:0:0:0:
207,243,124956,1,0,0:0:0:0:
231,224,125026,1,8,0:0:0:0:
238,215,125096,1,8,0:0:0:0:
207,243,125166,1,0,0:0:0:0:
207,240,125237,1,8,0:0:0:0:
207,243,125307,1,0,0:0:0:0:
207,240,125447,1,8,0:0:0:0:
207,237,125587,1,4,0:0:0:0:
255,220,125727,1,8,0:0:0:0:
255,220,125797,1,8,0:0:0:0:
255,220,125867,1,0,0:0:0:0:
255,220,126008,1,4,0:0:0:0:
255,220,126148,1,8,0:0:0:0:
255,220,126218,1,8,0:0:0:0:
255,220,126288,1,8,0:0:0:0:
255,220,126428,1,0,0:0:0:0:
255,220,126498,1,0,0:0:0:0:
255,220,126568,1,8,0:0:0:0:
255,220,126638,1,8,0:0:0:0:
255,220,126708,1,4,0:0:0:0:
255,220,126849,1,8,0:0:0:0:
255,220,126919,1,0,0:0:0:0:
255,220,126989,1,8,0:0:0:0:
255,220,127059,1,8,0:0:0:0:
255,220,127129,1,0,0:0:0:0:
255,220,127199,1,0,0:0:0:0:
255,220,127269,1,8,0:0:0:0:
251,226,127409,1,0,0:0:0:0:
251,226,127480,1,8,0:0:0:0:
251,226,127550,1,0,0:0:0:0:
251,226,127620,1,0,0:0:0:0:
251,226,127690,1,8,0:0:0:0:
249,226,127830,5,4,0:0:0:0:
249,226,127970,1,8,0:0:0:0:
249,226,128040,1,8,0:0:0:0:
251,226,128110,1,0,0:0:0:0:
251,226,128180,1,0,0:0:0:0:
251,226,128251,1,8,0:0:0:0:
251,226,128391,1,0,0:0:0:0:
251,226,128461,1,0,0:0:0:0:
209,243,128531,1,8,0:0:0:0:
215,250,128601,1,0,0:0:0:0:
209,243,128671,1,8,0:0:0:0:
267,179,128718,1,8,0:0:0:0:
267,179,128765,1,0,0:0:0:0:
267,179,128811,1,8,0:0:0:0:
266,230,128858,1,0,0:0:0:0:
204,199,128905,1,0,0:0:0:0:
197,194,128951,1,8,0:0:0:0:
241,246,129092,1,0,0:0:0:0:
253,229,129232,1,8,0:0:0:0:
250,267,129372,1,0,0:0:0:0:
250,267,129442,1,8,0:0:0:0:
250,267,129512,1,0,0:0:0:0:
250,267,129582,1,0,0:0:0:0:
391,158,129652,1,8,0:0:0:0:
391,158,129699,1,8,0:0:0:0:
391,158,129746,1,8,0:0:0:0:
403,186,129793,1,0,0:0:0:0:
403,186,129863,1,0,0:0:0:0:
403,186,129933,1,8,0:0:0:0:
403,186,129980,1,8,0:0:0:0:
403,186,130026,1,8,0:0:0:0:
243,214,130073,1,4,0:0:0:0:
236,283,130213,1,8,0:0:0:0:
222,262,130283,1,8,0:0:0:0:
236,283,130353,1,4,0:0:0:0:
236,283,130494,1,0,0:0:0:0:
236,283,130634,1,12,0:0:0:0:
236,283,130774,1,8,0:0:0:0:
222,262,130844,1,8,0:0:0:0:
236,283,130914,1,0,0:0:0:0:
221,262,130984,1,0,0:0:0:0:
222,262,131054,1,8,0:0:0:0:
221,262,131194,1,4,0:0:0:0:
221,262,131335,1,8,0:0:0:0:
221,262,131405,1,0,0:0:0:0:
221,262,131475,1,8,0:0:0:0:
323,206,131522,1,8,0:0:0:0:
323,206,131568,1,8,0:0:0:0:
222,262,131615,1,0,0:0:0:0:
221,262,131755,5,8,0:0:0:0:
222,262,131825,1,0,0:0:0:0:
221,262,131895,1,8,0:0:0:0:
221,262,131966,1,8,0:0:0:0:
221,262,132036,1,0,0:0:0:0:
221,262,132106,1,8,0:0:0:0:
221,262,132176,1,0,0:0:0:0:
221,262,132246,1,0,0:0:0:0:
222,262,132316,1,12,0:0:0:0:
221,262,132456,1,0,0:0:0:0:
221,262,132526,1,0,0:0:0:0:
222,262,132596,1,0,0:0:0:0:
221,262,132737,1,12,0:0:0:0:
221,262,132877,1,0,0:0:0:0:
221,262,133017,1,8,0:0:0:0:
230,243,133157,1,0,0:0:0:0:
230,243,133227,1,8,0:0:0:0:
230,243,133297,1,0,0:0:0:0:
230,243,133367,1,0,0:0:0:0:
230,243,133437,1,8,0:0:0:0:
267,201,133484,1,0,0:0:0:0:
267,201,133531,1,0,0:0:0:0:
229,243,133578,1,8,0:0:0:0:
367,139,133648,1,0,0:0:0:0:
221,262,133718,1,8,0:0:0:0:
221,262,133788,1,8,0:0:0:0:
216,266,133858,1,0,0:0:0:0:
216,266,133928,1,0,0:0:0:0:
344,272,133998,1,8,0:0:0:0:
344,272,134045,1,0,0:0:0:0:
344,272,134092,1,0,0:0:0:0:
344,272,134138,1,8,0:0:0:0:
349,247,134208,1,0,0:0:0:0:
349,247,134279,1,8,0:0:0:0:
349,247,134349,1,8,0:0:0:0:
353,282,134419,1,8,0:0:0:0:
353,282,134489,1,8,0:0:0:0:
353,282,134559,1,4,0:0:0:0:
316,286,134699,1,8,0:0:0:0:
316,286,134839,1,8,0:0:0:0:
316,286,134980,1,0,0:0:0:0:
316,286,135120,1,8,0:0:0:0:
255,270,135190,1,0,0:0:0:0:
316,286,135260,1,8,0:0:0:0:
304,291,135330,1,8,0:0:0:0:
304,291,135400,1,0,0:0:0:0:
296,273,135540,1,8,0:0:0:0:
296,273,135680,1,8,0:0:0:0:
296,273,135821,1,0,0:0:0:0:
296,273,135891,1,0,0:0:0:0:
296,273,135961,1,8,0:0:0:0:
296,273,136031,1,8,0:0:0:0:
294,274,136101,1,0,0:0:0:0:
296,273,136241,1,8,0:0:0:0:
296,273,136381,5,0,0:0:0:0:
296,273,136451,1,0,0:0:0:0:
296,273,136522,1,8,0:0:0:0:
302,233,136592,1,0,0:0:0:0:
302,233,136662,1,8,0:0:0:0:
237,271,136732,1,8,0:0:0:0:
302,233,136802,1,0,0:0:0:0:
215,218,136942,1,8,0:0:0:0:
207,206,137012,1,8,0:0:0:0:
207,206,137082,1,8,0:0:0:0:
211,202,137223,1,0,0:0:0:0:
283,278,137363,1,8,0:0:0:0:
275,278,137433,1,8,0:0:0:0:
275,274,137503,1,0,0:0:0:0:
275,274,137643,1,8,0:0:0:0:
271,250,137783,1,0,0:0:0:0:
271,250,137853,1,8,0:0:0:0:
259,250,137923,1,0,0:0:0:0:
259,254,137994,1,0,0:0:0:0:
259,254,138064,1,8,0:0:0:0:
259,258,138204,1,8,0:0:0:0:
259,262,138344,5,0,0:0:0:0:
187,198,138414,1,0,0:0:0:0:
187,198,138484,1,8,0:0:0:0:
187,198,138554,1,0,0:0:0:0:
187,198,138624,1,8,0:0:0:0:
187,198,138694,1,8,0:0:0:0:
187,198,138765,1,0,0:0:0:0:
299,238,138905,1,8,0:0:0:0:
176,247,139045,1,0,0:0:0:0:
187,246,139185,1,8,0:0:0:0:
187,246,139255,1,8,0:0:0:0:
187,246,139325,1,8,0:0:0:0:
187,246,139465,1,0,0:0:0:0:
176,247,139606,1,8,0:0:0:0:
176,247,139676,1,0,0:0:0:0:
176,247,139746,1,8,0:0:0:0:
176,247,139816,1,8,0:0:0:0:
176,247,139886,1,0,0:0:0:0:
171,246,140026,1,8,0:0:0:0:
171,246,140096,1,0,0:0:0:0:
167,250,140166,1,8,0:0:0:0:
167,254,140307,1,0,0:0:0:0:
151,290,140447,1,8,0:0:0:0:
203,162,140587,5,0,0:0:0:0:
203,162,140657,1,8,0:0:0:0:
231,226,140727,1,8,0:0:0:0:
203,162,140797,1,0,0:0:0:0:
239,230,140867,1,0,0:0:0:0:
275,222,140937,1,8,0:0:0:0:
271,222,141008,1,0,0:0:0:0:
203,250,141148,1,8,0:0:0:0:
203,250,141288,1,0,0:0:0:0:
231,238,141428,1,8,0:0:0:0:
231,238,141498,1,8,0:0:0:0:
231,238,141568,1,8,0:0:0:0:
231,238,141708,1,0,0:0:0:0:
259,238,141849,1,8,0:0:0:0:
259,238,141919,1,8,0:0:0:0:
259,238,141989,1,0,0:0:0:0:
251,234,142129,1,8,0:0:0:0:
255,234,142269,1,0,0:0:0:0:
227,254,142339,1,8,0:0:0:0:
227,254,142409,1,0,0:0:0:0:
227,262,142480,1,0,0:0:0:0:
227,262,142550,1,8,0:0:0:0:
203,246,142690,1,8,0:0:0:0:
219,254,142830,5,0,0:0:0:0:
219,254,142900,1,0,0:0:0:0:
211,250,142970,1,8,0:0:0:0:
211,250,143040,1,0,0:0:0:0:
211,250,143110,1,8,0:0:0:0:
231,190,143180,1,8,0:0:0:0:
211,250,143251,1,0,0:0:0:0:
231,190,143391,1,8,0:0:0:0:
176,247,143531,1,0,0:0:0:0:
187,246,143671,1,8,0:0:0:0:
187,246,143741,1,8,0:0:0:0:
187,246,143811,1,8,0:0:0:0:
187,246,143951,1,0,0:0:0:0:
176,247,144092,1,8,0:0:0:0:
176,247,144162,1,0,0:0:0:0:
176,247,144232,1,8,0:0:0:0:
176,247,144302,1,8,0:0:0:0:
176,247,144372,1,0,0:0:0:0:
171,246,144512,1,8,0:0:0:0:
171,246,144582,1,0,0:0:0:0:
167,250,144652,1,8,0:0:0:0:
167,254,144793,1,0,0:0:0:0:
151,290,144933,1,8,0:0:0:0:
203,162,145073,1,0,0:0:0:0:
203,162,145143,1,8,0:0:0:0:
231,226,145213,1,8,0:0:0:0:
203,162,145283,1,0,0:0:0:0:
239,230,145353,1,0,0:0:0:0:
275,222,145423,1,8,0:0:0:0:
271,222,145494,1,0,0:0:0:0:
187,280,145634,1,8,0:0:0:0:
283,246,145774,5,4,0:0:0:0:
286,272,145914,1,8,0:0:0:0:
283,246,146054,1,4,0:0:0:0:
289,269,146194,1,8,0:0:0:0:
283,246,146335,5,4,0:0:0:0:
296,278,146475,1,8,0:0:0:0:
283,246,146615,1,4,0:0:0:0:
309,255,146755,1,8,0:0:0:0:
256,192,146895,8,0,147129,0:0:0:0:
