osu file format v14

[General]
AudioFilename: audio.mp3
AudioLeadIn: 0
PreviewTime: 94653
Countdown: 0
SampleSet: Normal
StackLeniency: 0.7
Mode: 1
LetterboxInBreaks: 0
WidescreenStoryboard: 1

[Editor]
Bookmarks: 122115
DistanceSpacing: 1.2
BeatDivisor: 4
GridSize: 32
TimelineZoom: 3.499998

[Metadata]
Title:Amen-Kun
TitleUnicode:Amen-Kun
Artist:Shoebill
ArtistUnicode:Shoebill
Creator:Metzo
Version:Misogyny
Source:
Tags:british electronic instrumental english amen kun scousecore mashcore suck puck records breakcore five 5ive keep on movin movin' chucks nation zombeef jonny sniper enter enter: shikari sam hyde
BeatmapID:4035262
BeatmapSetID:1949230

[Difficulty]
HPDrainRate:6
CircleSize:5
OverallDifficulty:8.5
ApproachRate:5
SliderMultiplier:1.4
SliderTickRate:1

[Events]
//Background and Video events
0,0,"63457302_p0.jpg",0,115
//Break Periods
2,67161,72223
//Storyboard Layer 0 (Background)
//Storyboard Layer 1 (Fail)
//Storyboard Layer 2 (Pass)
//Storyboard Layer 3 (Foreground)
//Storyboard Layer 4 (Overlay)
//Storyboard Sound Samples

[TimingPoints]
500,230.769230769231,4,1,0,100,1,0
500,-133.333333333333,4,1,0,100,0,0
6961,-133.33333,4,1,0,100,0,0
7076,-128.01665,4,1,0,100,0,0
7192,-123.066666,4,1,0,100,0,0
7307,-118.52328,4,1,0,100,0,0
7423,-114.26803,4,1,0,100,0,0
7538,-110.340706,4,1,0,100,0,0
7653,-106.67437,4,1,0,100,0,0
7711,-104.91617,4,1,0,100,0,0
7769,-103.21499,4,1,0,100,0,0
7826,-101.59604,4,1,0,100,0,0
7884,-100,4,1,0,100,0,0
22653,-100,4,1,0,100,0,1
29115,-100,4,1,0,100,0,0
66961,-100,4,1,0,100,0,0
67019,-99.99936,4,1,0,99,0,0
67076,-99.994934,4,1,0,98,0,0
67134,-99.98274,4,1,0,97,0,0
67192,-99.9589,4,1,0,97,0,0
67249,-99.92039,4,1,0,96,0,0
67307,-99.86204,4,1,0,95,0,0
67365,-99.780556,4,1,0,94,0,0
67422,-99.674286,4,1,0,93,0,0
67480,-99.53589,4,1,0,92,0,0
67538,-99.363365,4,1,0,92,0,0
67596,-99.15321,4,1,0,91,0,0
67653,-98.90683,4,1,0,90,0,0
67711,-98.61241,4,1,0,89,0,0
67769,-98.27097,4,1,0,88,0,0
67826,-97.886925,4,1,0,87,0,0
67884,-97.444336,4,1,0,86,0,0
67942,-96.947296,4,1,0,86,0,0
67999,-96.40393,4,1,0,85,0,0
68057,-95.79361,4,1,0,84,0,0
68115,-95.12415,4,1,0,83,0,0
68172,-94.407814,4,1,0,82,0,0
68230,-93.61898,4,1,0,81,0,0
68288,-92.76964,4,1,0,80,0,0
68346,-91.86013,4,1,0,80,0,0
68403,-90.90838,4,1,0,79,0,0
68461,-89.88214,4,1,0,78,0,0
68519,-88.7991,4,1,0,77,0,0
68576,-87.68127,4,1,0,76,0,0
68634,-86.491615,4,1,0,75,0,0
68692,-85.25188,4,1,0,75,0,0
68749,-83.9875,4,1,0,74,0,0
68807,-82.65726,4,1,0,73,0,0
68865,-81.28629,4,1,0,72,0,0
68923,-79.8782,4,1,0,71,0,0
68980,-78.461815,4,1,0,70,0,0
69038,-76.99127,4,1,0,69,0,0
69096,-75.495056,4,1,0,69,0,0
69153,-74.00346,4,1,0,68,0,0
69211,-72.46811,4,1,0,67,0,0
69269,-70.918884,4,1,0,66,0,0
69326,-69.38664,4,1,0,65,0,0
69384,-67.82133,4,1,0,64,0,0
69442,-66.253395,4,1,0,64,0,0
69499,-64.71335,4,1,0,63,0,0
69557,-63.150448,4,1,0,62,0,0
69615,-61.594887,4,1,0,61,0,0
69673,-60.049618,4,1,0,60,0,0
69730,-58.543694,4,1,0,59,0,0
69788,-57.02678,4,1,0,58,0,0
69846,-55.52775,4,1,0,58,0,0
69903,-54.074028,4,1,0,57,0,0
69961,-52.61648,4,1,0,56,0,0
70019,-51.1825,4,1,0,55,0,0
70076,-49.79762,4,1,0,54,0,0
70134,-48.414513,4,1,0,53,0,0
70192,-47.058823,4,1,0,53,0,0
70249,-45.754097,4,1,0,52,0,0
70307,-44.45528,4,1,0,51,0,0
70365,-43.186115,4,1,0,50,0,0
70423,-41.947052,4,1,0,49,0,0
70480,-40.75897,4,1,0,48,0,0
70538,-39.580353,4,1,0,47,0,0
70596,-38.43239,4,1,0,47,0,0
70653,-37.33404,4,1,0,46,0,0
70711,-36.24663,4,1,0,45,0,0
70769,-35.18949,4,1,0,44,0,0
70826,-34.179775,4,1,0,43,0,0
70884,-33.181705,4,1,0,42,0,0
70942,-32.212852,4,1,0,41,0,0
71000,-31.272736,4,1,0,41,0,0
71057,-30.376333,4,1,0,40,0,0
71115,-29.491669,4,1,0,39,0,0
71173,-28.634123,4,1,0,38,0,0
71230,-27.817211,4,1,0,37,0,0
71288,-27.011654,4,1,0,36,0,0
71346,-26.231382,4,1,0,36,0,0
71403,-25.488577,4,1,0,35,0,0
71461,-24.756523,4,1,0,34,0,0
71519,-24.047817,4,1,0,33,0,0
71576,-23.373438,4,1,0,32,0,0
71634,-22.70908,4,1,0,31,0,0
71692,-22.066113,4,1,0,30,0,0
71750,-21.443901,4,1,0,30,0,0
71807,-20.852013,4,1,0,29,0,0
71865,-20.269068,4,1,0,28,0,0
71923,-19.705006,4,1,0,27,0,0
71980,-19.168472,4,1,0,26,0,0
72038,-18.640066,4,1,0,25,0,0
72096,-18.12877,4,1,0,25,0,0
72153,-17.64241,4,1,0,24,0,0
72211,-17.163382,4,1,0,23,0,0
72269,-16.699814,4,1,0,22,0,0
72327,-16.251184,4,1,0,21,0,0
72384,-15.824354,4,1,0,20,0,0
72442,-15.403857,4,1,0,19,0,0
72500,-14.996827,4,1,0,19,0,0
72557,-14.609484,4,1,0,18,0,0
72615,-14.227794,4,1,0,17,0,0
72673,-13.858223,4,1,0,16,0,0
72730,-13.506429,4,1,0,15,0,0
72788,-13.159662,4,1,0,14,0,0
72846,-12.823804,4,1,0,13,0,0
72903,-12.50399,4,1,0,13,0,0
72961,-12.18864,4,1,0,12,0,0
73019,-11.8831005,4,1,0,11,0,0
73077,-11.587026,4,1,0,10,0,0
73134,-11.3049555,4,1,0,9,0,0
73192,-11.026684,4,1,0,8,0,0
73250,-10.756924,4,1,0,8,0,0
73307,-10.499824,4,1,0,7,0,0
73365,-10.246081,4,1,0,6,0,0
73423,-10,4,1,0,5,0,0
74288,-100,4,1,0,100,0,0
74346,-100,4,1,0,100,0,1
80807,-100,4,1,0,100,0,0
81730,-100,4,1,0,100,0,1
82653,-100,4,1,0,100,0,0
83576,-100,4,1,0,100,0,1
84500,-100,4,1,0,100,0,0
85423,-100,4,1,0,100,0,1
86317,-100,4,1,0,5,0,1
86346,-100,4,1,0,5,0,0
87211,-100,4,1,0,100,0,0
87269,-100,4,1,0,100,0,1
88192,-100,4,1,0,100,0,0
89115,-100,4,1,0,100,0,1
90038,-100,4,1,0,100,0,0
90961,-100,4,1,0,100,0,1
91884,-100,4,1,0,100,0,0
92807,-100,4,1,0,100,0,1
93730,-100,4,1,0,100,0,0
94653,230.769230769231,8,1,0,100,1,0
94682,-100,4,1,0,5,0,0
96442,-100,4,1,0,100,0,0
96499,230.769230769231,4,1,0,100,1,8
96500,230.769230769231,4,1,0,100,1,0
111269,-100,4,1,0,100,0,1
117730,-100,4,1,0,100,0,0
118653,-100,4,1,0,100,0,1
126038,-100,4,1,0,100,0,0
126096,-100,4,1,0,70,0,0

[HitObjects]
256,192,500,5,0,0:0:0:0:
256,192,730,1,8,0:0:0:0:
256,192,846,1,0,0:0:0:0:
256,192,1076,1,8,0:0:0:0:
256,192,1192,1,0,0:0:0:0:
256,192,1307,1,8,0:0:0:0:
256,192,1423,1,0,0:0:0:0:
256,192,1653,1,8,0:0:0:0:
256,192,1769,1,0,0:0:0:0:
256,192,2000,1,8,0:0:0:0:
256,192,2115,1,0,0:0:0:0:
256,192,2230,1,0,0:0:0:0:
256,192,2346,1,0,0:0:0:0:
256,192,2576,1,8,0:0:0:0:
256,192,2692,1,0,0:0:0:0:
256,192,2923,1,8,0:0:0:0:
256,192,3038,1,0,0:0:0:0:
256,192,3153,1,0,0:0:0:0:
256,192,3269,1,0,0:0:0:0:
256,192,3384,1,0,0:0:0:0:
256,192,3500,1,8,0:0:0:0:
256,192,3615,1,0,0:0:0:0:
256,192,3730,1,0,0:0:0:0:
256,192,3846,1,8,0:0:0:0:
256,192,3903,1,8,0:0:0:0:
256,192,3961,1,0,0:0:0:0:
256,192,4019,1,0,0:0:0:0:
256,192,4076,1,0,0:0:0:0:
256,192,4134,1,0,0:0:0:0:
256,192,4192,1,0,0:0:0:0:
256,192,4423,1,8,0:0:0:0:
256,192,4538,1,0,0:0:0:0:
256,192,4769,1,8,0:0:0:0:
256,192,4884,1,0,0:0:0:0:
256,192,5000,1,0,0:0:0:0:
256,192,5115,1,0,0:0:0:0:
256,192,5346,1,8,0:0:0:0:
256,192,5461,1,0,0:0:0:0:
256,192,5692,1,8,0:0:0:0:
256,192,5807,1,0,0:0:0:0:
256,192,5923,1,8,0:0:0:0:
256,192,6038,1,0,0:0:0:0:
256,192,6269,1,8,0:0:0:0:
256,192,6384,1,0,0:0:0:0:
256,192,6615,1,8,0:0:0:0:
256,192,6730,1,0,0:0:0:0:
256,192,6961,1,8,0:0:0:0:
256,192,7076,1,8,0:0:0:0:
256,192,7192,1,0,0:0:0:0:
256,192,7307,1,0,0:0:0:0:
256,192,7423,1,8,0:0:0:0:
256,192,7538,1,8,0:0:0:0:
256,192,7653,1,0,0:0:0:0:
256,192,7711,1,0,0:0:0:0:
256,192,7769,1,0,0:0:0:0:
256,192,7826,1,0,0:0:0:0:
256,192,7884,1,8,0:0:0:0:
256,192,8000,1,0,0:0:0:0:
256,192,8057,1,0,0:0:0:0:
256,192,8115,1,0,0:0:0:0:
256,192,8230,1,8,0:0:0:0:
256,192,8346,1,0,0:0:0:0:
256,192,8403,1,0,0:0:0:0:
256,192,8461,1,0,0:0:0:0:
256,192,8576,1,8,0:0:0:0:
256,192,8634,1,8,0:0:0:0:
256,192,8692,1,8,0:0:0:0:
256,192,8750,1,8,0:0:0:0:
256,192,8807,1,0,0:0:0:0:
256,192,8923,1,8,0:0:0:0:
256,192,8980,1,8,0:0:0:0:
256,192,9038,1,8,0:0:0:0:
256,192,9153,1,0,0:0:0:0:
256,192,9269,1,8,0:0:0:0:
256,192,9326,1,8,0:0:0:0:
256,192,9384,1,8,0:0:0:0:
256,192,9500,1,0,0:0:0:0:
256,192,9557,1,0,0:0:0:0:
256,192,9615,1,0,0:0:0:0:
256,192,9673,1,0,0:0:0:0:
256,192,9730,1,8,0:0:0:0:
256,192,9846,1,0,0:0:0:0:
256,192,9903,1,0,0:0:0:0:
256,192,9961,1,8,0:0:0:0:
256,192,10076,1,0,0:0:0:0:
256,192,10192,1,8,0:0:0:0:
256,192,10250,1,8,0:0:0:0:
256,192,10307,1,0,0:0:0:0:
256,192,10423,1,8,0:0:0:0:
256,192,10538,1,8,0:0:0:0:
256,192,10653,1,0,0:0:0:0:
256,192,10711,1,0,0:0:0:0:
256,192,10769,1,0,0:0:0:0:
256,192,10826,1,0,0:0:0:0:
256,192,10884,1,8,0:0:0:0:
256,192,10942,1,8,0:0:0:0:
256,192,11000,1,0,0:0:0:0:
256,192,11057,1,0,0:0:0:0:
256,192,11115,1,8,0:0:0:0:
256,192,11173,1,8,0:0:0:0:
256,192,11230,1,8,0:0:0:0:
256,192,11288,1,8,0:0:0:0:
256,192,11346,1,0,0:0:0:0:
256,192,11461,1,0,0:0:0:0:
256,192,11576,1,8,0:0:0:0:
256,192,11692,1,0,0:0:0:0:
256,192,11750,1,0,0:0:0:0:
256,192,11807,1,8,0:0:0:0:
256,192,11923,1,0,0:0:0:0:
256,192,12038,1,8,0:0:0:0:
256,192,12096,1,8,0:0:0:0:
256,192,12153,1,0,0:0:0:0:
256,192,12211,1,0,0:0:0:0:
256,192,12269,1,8,0:0:0:0:
256,192,12384,1,8,0:0:0:0:
256,192,12500,1,0,0:0:0:0:
256,192,12615,1,8,0:0:0:0:
256,192,12673,1,8,0:0:0:0:
256,192,12730,1,0,0:0:0:0:
256,192,12846,1,8,0:0:0:0:
256,192,12961,1,0,0:0:0:0:
256,192,13019,1,0,0:0:0:0:
256,192,13076,1,8,0:0:0:0:
256,192,13134,1,8,0:0:0:0:
256,192,13192,1,0,0:0:0:0:
256,192,13307,1,0,0:0:0:0:
256,192,13423,1,8,0:0:0:0:
256,192,13480,1,0,0:0:0:0:
256,192,13538,1,8,0:0:0:0:
256,192,13596,1,8,0:0:0:0:
256,192,13653,1,0,0:0:0:0:
256,192,13769,1,0,0:0:0:0:
256,192,13884,1,8,0:0:0:0:
256,192,13942,1,8,0:0:0:0:
256,192,14000,1,0,0:0:0:0:
256,192,14057,1,0,0:0:0:0:
256,192,14115,1,8,0:0:0:0:
256,192,14153,1,8,0:0:0:0:
256,192,14192,1,8,0:0:0:0:
256,192,14230,1,0,0:0:0:0:
256,192,14288,1,0,0:0:0:0:
256,192,14346,1,8,0:0:0:0:
256,192,14576,1,8,0:0:0:0:
256,192,14692,1,8,0:0:0:0:
256,192,14807,1,0,0:0:0:0:
256,192,14865,1,8,0:0:0:0:
256,192,14923,1,0,0:0:0:0:
256,192,15038,1,8,0:0:0:0:
256,192,15096,1,8,0:0:0:0:
256,192,15153,1,8,0:0:0:0:
256,192,15211,1,8,0:0:0:0:
256,192,15269,1,0,0:0:0:0:
256,192,15384,1,8,0:0:0:0:
256,192,15442,1,8,0:0:0:0:
256,192,15500,1,0,0:0:0:0:
256,192,15615,1,8,0:0:0:0:
256,192,15653,1,8,0:0:0:0:
256,192,15692,1,8,0:0:0:0:
256,192,15730,1,0,0:0:0:0:
256,192,15788,1,0,0:0:0:0:
256,192,15846,1,8,0:0:0:0:
256,192,15961,1,0,0:0:0:0:
256,192,16076,1,8,0:0:0:0:
256,192,16115,1,8,0:0:0:0:
256,192,16153,1,8,0:0:0:0:
256,192,16192,1,8,0:0:0:0:
256,192,16307,1,0,0:0:0:0:
256,192,16365,1,0,0:0:0:0:
256,192,16423,1,8,0:0:0:0:
256,192,16538,1,0,0:0:0:0:
256,192,16596,1,8,0:0:0:0:
256,192,16653,1,8,0:0:0:0:
256,192,16711,1,8,0:0:0:0:
256,192,16769,1,0,0:0:0:0:
256,192,16884,1,8,0:0:0:0:
256,192,17000,1,0,0:0:0:0:
256,192,17038,1,0,0:0:0:0:
256,192,17076,1,0,0:0:0:0:
256,192,17115,1,8,0:0:0:0:
256,192,17173,1,8,0:0:0:0:
256,192,17230,1,0,0:0:0:0:
256,192,17346,1,8,0:0:0:0:
256,192,17461,1,8,0:0:0:0:
256,192,17576,1,0,0:0:0:0:
256,192,17634,1,0,0:0:0:0:
256,192,17692,1,0,0:0:0:0:
256,192,17750,1,0,0:0:0:0:
256,192,17807,1,8,0:0:0:0:
256,192,17923,1,0,0:0:0:0:
256,192,18038,1,8,0:0:0:0:
256,192,18096,1,8,0:0:0:0:
256,192,18153,1,0,0:0:0:0:
256,192,18269,1,8,0:0:0:0:
256,192,18384,1,8,0:0:0:0:
256,192,18500,1,0,0:0:0:0:
256,192,18557,1,8,0:0:0:0:
256,192,18615,1,0,0:0:0:0:
256,192,18730,1,8,0:0:0:0:
256,192,18769,1,8,0:0:0:0:
256,192,18807,1,8,0:0:0:0:
256,192,18846,1,8,0:0:0:0:
256,192,18903,1,8,0:0:0:0:
256,192,18961,1,0,0:0:0:0:
256,192,19076,1,0,0:0:0:0:
256,192,19192,1,8,0:0:0:0:
256,192,19250,1,0,0:0:0:0:
256,192,19307,1,0,0:0:0:0:
256,192,19365,1,0,0:0:0:0:
256,192,19423,1,8,0:0:0:0:
256,192,19538,1,0,0:0:0:0:
256,192,19653,1,8,0:0:0:0:
256,192,19692,1,8,0:0:0:0:
256,192,19730,1,8,0:0:0:0:
256,192,19769,1,0,0:0:0:0:
256,192,19826,1,0,0:0:0:0:
256,192,19884,1,8,0:0:0:0:
256,192,20000,1,0,0:0:0:0:
256,192,20115,1,8,0:0:0:0:
256,192,20173,1,8,0:0:0:0:
256,192,20230,1,0,0:0:0:0:
256,192,20288,1,0,0:0:0:0:
256,192,20346,1,8,0:0:0:0:
256,192,20461,1,0,0:0:0:0:
256,192,20576,1,8,0:0:0:0:
256,192,20692,1,0,0:0:0:0:
256,192,20730,1,0,0:0:0:0:
256,192,20769,1,0,0:0:0:0:
256,192,20807,1,8,0:0:0:0:
256,192,20865,1,8,0:0:0:0:
256,192,20923,1,0,0:0:0:0:
256,192,20980,1,0,0:0:0:0:
256,192,21038,1,8,0:0:0:0:
256,192,21153,1,0,0:0:0:0:
256,192,21269,1,8,0:0:0:0:
256,192,21326,1,8,0:0:0:0:
256,192,21384,1,8,0:0:0:0:
256,192,21442,1,8,0:0:0:0:
256,192,21500,1,0,0:0:0:0:
256,192,21557,1,0,0:0:0:0:
256,192,21615,1,0,0:0:0:0:
256,192,21673,1,0,0:0:0:0:
256,192,21730,1,8,0:0:0:0:
256,192,22653,1,8,0:0:0:0:
256,192,22711,1,8,0:0:0:0:
256,192,22769,1,0,0:0:0:0:
256,192,22826,1,0,0:0:0:0:
256,192,22884,1,8,0:0:0:0:
256,192,23000,1,0,0:0:0:0:
256,192,23057,1,0,0:0:0:0:
256,192,23115,1,8,0:0:0:0:
256,192,23173,1,0,0:0:0:0:
256,192,23230,1,8,0:0:0:0:
256,192,23288,1,8,0:0:0:0:
256,192,23346,1,0,0:0:0:0:
256,192,23384,1,0,0:0:0:0:
256,192,23423,1,0,0:0:0:0:
256,192,23461,1,8,0:0:0:0:
256,192,23519,1,8,0:0:0:0:
256,192,23576,1,0,0:0:0:0:
256,192,23692,1,8,0:0:0:0:
256,192,23750,1,0,0:0:0:0:
256,192,23807,1,8,0:0:0:0:
256,192,23923,1,8,0:0:0:0:
256,192,23980,1,8,0:0:0:0:
256,192,24038,1,0,0:0:0:0:
256,192,24096,1,0,0:0:0:0:
256,192,24153,1,8,0:0:0:0:
256,192,24269,1,0,0:0:0:0:
256,192,24326,1,0,0:0:0:0:
256,192,24384,1,8,0:0:0:0:
256,192,24423,1,8,0:0:0:0:
256,192,24461,1,8,0:0:0:0:
256,192,24500,1,0,0:0:0:0:
256,192,24615,1,0,0:0:0:0:
256,192,24673,1,0,0:0:0:0:
256,192,24730,1,8,0:0:0:0:
256,192,24788,1,0,0:0:0:0:
256,192,24846,1,8,0:0:0:0:
256,192,24961,1,0,0:0:0:0:
256,192,25000,1,0,0:0:0:0:
256,192,25038,1,0,0:0:0:0:
256,192,25076,1,8,0:0:0:0:
256,192,25134,1,8,0:0:0:0:
256,192,25192,1,0,0:0:0:0:
256,192,25221,1,0,0:0:0:0:
256,192,25307,1,0,0:0:0:0:
256,192,25336,1,0,0:0:0:0:
256,192,25423,1,8,0:0:0:0:
256,192,25461,1,8,0:0:0:0:
256,192,25500,1,8,0:0:0:0:
256,192,25538,1,0,0:0:0:0:
256,192,25596,1,0,0:0:0:0:
256,192,25653,1,8,0:0:0:0:
256,192,25692,1,8,0:0:0:0:
256,192,25730,1,8,0:0:0:0:
256,192,25769,1,0,0:0:0:0:
256,192,25826,1,0,0:0:0:0:
256,192,25884,1,8,0:0:0:0:
256,192,25942,1,8,0:0:0:0:
256,192,26000,1,8,0:0:0:0:
256,192,26057,1,8,0:0:0:0:
256,192,26115,1,0,0:0:0:0:
256,192,26153,1,0,0:0:0:0:
256,192,26192,1,0,0:0:0:0:
256,192,26230,1,8,0:0:0:0:
256,192,26288,1,8,0:0:0:0:
256,192,26346,1,0,0:0:0:0:
256,192,26461,1,8,0:0:0:0:
256,192,26519,1,0,0:0:0:0:
256,192,26576,1,8,0:0:0:0:
256,192,26634,1,8,0:0:0:0:
256,192,26692,1,0,0:0:0:0:
256,192,26807,1,8,0:0:0:0:
256,192,26865,1,8,0:0:0:0:
256,192,26923,1,0,0:0:0:0:
256,192,26980,1,0,0:0:0:0:
256,192,27038,1,8,0:0:0:0:
256,192,27076,1,8,0:0:0:0:
256,192,27115,1,8,0:0:0:0:
256,192,27153,1,0,0:0:0:0:
256,192,27269,1,8,0:0:0:0:
256,192,27326,1,8,0:0:0:0:
256,192,27384,1,0,0:0:0:0:
256,192,27442,1,0,0:0:0:0:
256,192,27500,1,8,0:0:0:0:
256,192,27557,1,8,0:0:0:0:
256,192,27615,1,0,0:0:0:0:
256,192,27673,1,0,0:0:0:0:
256,192,27730,1,8,0:0:0:0:
256,192,27846,1,0,0:0:0:0:
256,192,27903,1,0,0:0:0:0:
256,192,27961,1,8,0:0:0:0:
256,192,28000,1,8,0:0:0:0:
256,192,28038,1,8,0:0:0:0:
256,192,28076,1,0,0:0:0:0:
256,192,28134,1,0,0:0:0:0:
256,192,28192,1,8,0:0:0:0:
256,192,28250,1,0,0:0:0:0:
256,192,28307,1,8,0:0:0:0:
256,192,28365,1,0,0:0:0:0:
256,192,28423,1,8,0:0:0:0:
256,192,28480,1,8,0:0:0:0:
256,192,28538,1,0,0:0:0:0:
256,192,28596,1,0,0:0:0:0:
256,192,28653,1,8,0:0:0:0:
256,192,28711,1,8,0:0:0:0:
256,192,28769,1,8,0:0:0:0:
256,192,28826,1,8,0:0:0:0:
256,192,28884,1,0,0:0:0:0:
256,192,28942,1,0,0:0:0:0:
256,192,29000,1,8,0:0:0:0:
256,192,29115,1,4,0:0:0:0:
256,192,30038,1,8,0:0:0:0:
256,192,30153,1,0,0:0:0:0:
256,192,30211,1,0,0:0:0:0:
256,192,30269,1,0,0:0:0:0:
256,192,30384,1,8,0:0:0:0:
256,192,30442,1,8,0:0:0:0:
256,192,30500,1,0,0:0:0:0:
256,192,30557,1,8,0:0:0:0:
256,192,30615,1,0,0:0:0:0:
256,192,30730,1,8,0:0:0:0:
256,192,30759,1,8,0:0:0:0:
256,192,30846,1,0,0:0:0:0:
256,192,30875,1,0,0:0:0:0:
256,192,30961,1,8,0:0:0:0:
256,192,31076,1,0,0:0:0:0:
256,192,31134,1,0,0:0:0:0:
256,192,31192,1,8,0:0:0:0:
256,192,31307,1,0,0:0:0:0:
256,192,31365,1,8,0:0:0:0:
256,192,31423,1,0,0:0:0:0:
256,192,31480,1,0,0:0:0:0:
256,192,31538,1,8,0:0:0:0:
256,192,31653,1,8,0:0:0:0:
256,192,31711,1,8,0:0:0:0:
256,192,31769,1,8,0:0:0:0:
256,192,31826,1,8,0:0:0:0:
256,192,31884,1,0,0:0:0:0:
256,192,32000,1,8,0:0:0:0:
256,192,32057,1,8,0:0:0:0:
256,192,32115,1,0,0:0:0:0:
256,192,32230,1,8,0:0:0:0:
256,192,32288,1,0,0:0:0:0:
256,192,32346,1,8,0:0:0:0:
256,192,32403,1,8,0:0:0:0:
256,192,32461,1,0,0:0:0:0:
256,192,32576,1,8,0:0:0:0:
256,192,32615,1,8,0:0:0:0:
256,192,32653,1,8,0:0:0:0:
256,192,32692,1,0,0:0:0:0:
256,192,32750,1,0,0:0:0:0:
256,192,32807,1,8,0:0:0:0:
256,192,33038,1,8,0:0:0:0:
256,192,33153,1,8,0:0:0:0:
256,192,33269,1,8,0:0:0:0:
256,192,33384,1,8,0:0:0:0:
256,192,33500,1,8,0:0:0:0:
256,192,33730,1,0,0:0:0:0:
256,192,33788,1,0,0:0:0:0:
256,192,33846,1,8,0:0:0:0:
256,192,33903,1,0,0:0:0:0:
256,192,33961,1,8,0:0:0:0:
256,192,34076,1,0,0:0:0:0:
256,192,34134,1,8,0:0:0:0:
256,192,34192,1,0,0:0:0:0:
256,192,34307,1,8,0:0:0:0:
256,192,34365,1,8,0:0:0:0:
256,192,34423,1,0,0:0:0:0:
256,192,34538,1,8,0:0:0:0:
256,192,34653,1,0,0:0:0:0:
256,192,34711,1,8,0:0:0:0:
256,192,34769,1,8,0:0:0:0:
256,192,34826,1,0,0:0:0:0:
256,192,34884,1,8,0:0:0:0:
256,192,35000,1,0,0:0:0:0:
256,192,35057,1,8,0:0:0:0:
256,192,35115,1,0,0:0:0:0:
256,192,35230,1,8,0:0:0:0:
256,192,35288,1,8,0:0:0:0:
256,192,35346,1,0,0:0:0:0:
256,192,35403,1,0,0:0:0:0:
256,192,35461,1,8,0:0:0:0:
256,192,35576,1,0,0:0:0:0:
256,192,35692,1,8,0:0:0:0:
256,192,35750,1,8,0:0:0:0:
256,192,35807,1,0,0:0:0:0:
256,192,35923,1,8,0:0:0:0:
256,192,36038,1,0,0:0:0:0:
256,192,36096,1,0,0:0:0:0:
256,192,36153,1,8,0:0:0:0:
256,192,36269,1,0,0:0:0:0:
256,192,36307,1,0,0:0:0:0:
256,192,36346,1,0,0:0:0:0:
256,192,36384,1,8,0:0:0:0:
256,192,36442,1,8,0:0:0:0:
256,192,36500,1,0,0:0:0:0:
256,192,37423,1,0,0:0:0:0:
256,192,37538,1,8,0:0:0:0:
256,192,37596,1,0,0:0:0:0:
256,192,37653,1,8,0:0:0:0:
256,192,37769,1,0,0:0:0:0:
256,192,37884,1,8,0:0:0:0:
256,192,37942,1,8,0:0:0:0:
256,192,38000,1,0,0:0:0:0:
256,192,38057,1,0,0:0:0:0:
256,192,38115,1,8,0:0:0:0:
256,192,38144,1,8,0:0:0:0:
256,192,38230,1,0,0:0:0:0:
256,192,38259,1,0,0:0:0:0:
256,192,38346,1,8,0:0:0:0:
256,192,38403,1,8,0:0:0:0:
256,192,38461,1,0,0:0:0:0:
256,192,38519,1,0,0:0:0:0:
256,192,38576,1,8,0:0:0:0:
256,192,38634,1,8,0:0:0:0:
256,192,38692,1,0,0:0:0:0:
256,192,38750,1,0,0:0:0:0:
256,192,38807,1,8,0:0:0:0:
256,192,38865,1,8,0:0:0:0:
256,192,38923,1,8,0:0:0:0:
256,192,38980,1,8,0:0:0:0:
256,192,39038,1,0,0:0:0:0:
256,192,39076,1,0,0:0:0:0:
256,192,39115,1,0,0:0:0:0:
256,192,39153,1,8,0:0:0:0:
256,192,39211,1,8,0:0:0:0:
256,192,39269,1,0,0:0:0:0:
256,192,39384,1,0,0:0:0:0:
256,192,39500,1,8,0:0:0:0:
256,192,39557,1,8,0:0:0:0:
256,192,39615,1,0,0:0:0:0:
256,192,39673,1,0,0:0:0:0:
256,192,39730,1,8,0:0:0:0:
256,192,39846,1,0,0:0:0:0:
256,192,39961,1,8,0:0:0:0:
256,192,40019,1,8,0:0:0:0:
256,192,40076,1,8,0:0:0:0:
256,192,40134,1,8,0:0:0:0:
256,192,40192,1,0,0:0:0:0:
256,192,40307,1,8,0:0:0:0:
256,192,40423,1,0,0:0:0:0:
256,192,40480,1,0,0:0:0:0:
256,192,40538,1,0,0:0:0:0:
256,192,40653,1,8,0:0:0:0:
256,192,40769,1,0,0:0:0:0:
256,192,40884,1,8,0:0:0:0:
256,192,40923,1,8,0:0:0:0:
256,192,40961,1,8,0:0:0:0:
256,192,41000,1,0,0:0:0:0:
256,192,41057,1,0,0:0:0:0:
256,192,41115,1,8,0:0:0:0:
256,192,41230,1,8,0:0:0:0:
256,192,41346,1,0,0:0:0:0:
256,192,41403,1,0,0:0:0:0:
256,192,41461,1,8,0:0:0:0:
256,192,41576,1,0,0:0:0:0:
256,192,41692,1,8,0:0:0:0:
256,192,41750,1,8,0:0:0:0:
256,192,41807,1,0,0:0:0:0:
256,192,41865,1,0,0:0:0:0:
256,192,41923,1,8,0:0:0:0:
256,192,41961,1,8,0:0:0:0:
256,192,42000,1,8,0:0:0:0:
256,192,42038,1,0,0:0:0:0:
256,192,42153,1,0,0:0:0:0:
256,192,42269,1,8,0:0:0:0:
256,192,42326,1,8,0:0:0:0:
256,192,42384,1,0,0:0:0:0:
256,192,42500,1,8,0:0:0:0:
256,192,42615,1,8,0:0:0:0:
256,192,42730,1,0,0:0:0:0:
256,192,42788,1,0,0:0:0:0:
256,192,42846,1,0,0:0:0:0:
256,192,42903,1,0,0:0:0:0:
256,192,42961,1,8,0:0:0:0:
256,192,43076,1,0,0:0:0:0:
256,192,43192,1,8,0:0:0:0:
256,192,43250,1,0,0:0:0:0:
256,192,43307,1,0,0:0:0:0:
256,192,43365,1,0,0:0:0:0:
256,192,43423,1,8,0:0:0:0:
256,192,43480,1,8,0:0:0:0:
256,192,43538,1,0,0:0:0:0:
256,192,43653,1,8,0:0:0:0:
256,192,43692,1,8,0:0:0:0:
256,192,43730,1,8,0:0:0:0:
256,192,43769,1,8,0:0:0:0:
256,192,43826,1,8,0:0:0:0:
256,192,43884,1,0,0:0:0:0:
256,192,44807,1,4,0:0:0:0:
256,192,44923,1,8,0:0:0:0:
256,192,44980,1,8,0:0:0:0:
256,192,45038,1,8,0:0:0:0:
256,192,45153,1,4,0:0:0:0:
256,192,45269,1,8,0:0:0:0:
256,192,45326,1,8,0:0:0:0:
256,192,45384,1,8,0:0:0:0:
256,192,45500,1,0,0:0:0:0:
256,192,45557,1,0,0:0:0:0:
256,192,45615,1,0,0:0:0:0:
256,192,45673,1,0,0:0:0:0:
256,192,45730,1,8,0:0:0:0:
256,192,45759,1,8,0:0:0:0:
256,192,45846,1,0,0:0:0:0:
256,192,45875,1,0,0:0:0:0:
256,192,45961,1,8,0:0:0:0:
256,192,46000,1,8,0:0:0:0:
256,192,46038,1,8,0:0:0:0:
256,192,46076,1,0,0:0:0:0:
256,192,46134,1,0,0:0:0:0:
256,192,46192,1,8,0:0:0:0:
256,192,46307,1,8,0:0:0:0:
256,192,46365,1,8,0:0:0:0:
256,192,46423,1,0,0:0:0:0:
256,192,46538,1,8,0:0:0:0:
256,192,46653,1,4,0:0:0:0:
256,192,46769,1,8,0:0:0:0:
256,192,46826,1,8,0:0:0:0:
256,192,46884,1,8,0:0:0:0:
256,192,47000,1,4,0:0:0:0:
256,192,47115,1,8,0:0:0:0:
256,192,47173,1,8,0:0:0:0:
256,192,47230,1,8,0:0:0:0:
256,192,47288,1,8,0:0:0:0:
256,192,47346,1,0,0:0:0:0:
256,192,47461,1,0,0:0:0:0:
256,192,47576,1,8,0:0:0:0:
256,192,47634,1,8,0:0:0:0:
256,192,47692,1,0,0:0:0:0:
256,192,47730,1,0,0:0:0:0:
256,192,47769,1,0,0:0:0:0:
256,192,47807,1,8,0:0:0:0:
256,192,47865,1,8,0:0:0:0:
256,192,47923,1,8,0:0:0:0:
256,192,47980,1,8,0:0:0:0:
256,192,48038,1,0,0:0:0:0:
256,192,48096,1,0,0:0:0:0:
256,192,48153,1,0,0:0:0:0:
256,192,48211,1,0,0:0:0:0:
256,192,48269,1,8,0:0:0:0:
256,192,48307,1,8,0:0:0:0:
256,192,48346,1,8,0:0:0:0:
256,192,48384,1,0,0:0:0:0:
256,192,48500,1,12,0:0:0:0:
256,192,48615,1,0,0:0:0:0:
256,192,48673,1,0,0:0:0:0:
256,192,48730,1,0,0:0:0:0:
256,192,48846,1,12,0:0:0:0:
256,192,48961,1,0,0:0:0:0:
256,192,49019,1,0,0:0:0:0:
256,192,49076,1,0,0:0:0:0:
256,192,49192,1,8,0:0:0:0:
256,192,49230,1,8,0:0:0:0:
256,192,49269,1,8,0:0:0:0:
256,192,49307,1,0,0:0:0:0:
256,192,49365,1,0,0:0:0:0:
256,192,49423,1,8,0:0:0:0:
256,192,49653,1,0,0:0:0:0:
256,192,49711,1,0,0:0:0:0:
256,192,49769,1,0,0:0:0:0:
256,192,49826,1,0,0:0:0:0:
256,192,49884,1,0,0:0:0:0:
256,192,50115,1,8,0:0:0:0:
256,192,50230,1,0,0:0:0:0:
256,192,50346,1,12,0:0:0:0:
256,192,50461,1,0,0:0:0:0:
256,192,50519,1,0,0:0:0:0:
256,192,50576,1,0,0:0:0:0:
256,192,50692,1,12,0:0:0:0:
256,192,50807,1,0,0:0:0:0:
256,192,50865,1,0,0:0:0:0:
256,192,50923,1,0,0:0:0:0:
256,192,51038,1,8,0:0:0:0:
256,192,51076,1,8,0:0:0:0:
256,192,51115,1,8,0:0:0:0:
256,192,51153,1,8,0:0:0:0:
256,192,51211,1,8,0:0:0:0:
256,192,51269,1,0,0:0:0:0:
256,192,52192,1,0,0:0:0:0:
256,192,52307,1,8,0:0:0:0:
256,192,52365,1,8,0:0:0:0:
256,192,52423,1,0,0:0:0:0:
256,192,52538,1,8,0:0:0:0:
256,192,52653,1,0,0:0:0:0:
256,192,52711,1,0,0:0:0:0:
256,192,52769,1,0,0:0:0:0:
256,192,52826,1,0,0:0:0:0:
256,192,52884,1,8,0:0:0:0:
256,192,53000,1,0,0:0:0:0:
256,192,53115,1,8,0:0:0:0:
256,192,53173,1,8,0:0:0:0:
256,192,53230,1,0,0:0:0:0:
256,192,53288,1,0,0:0:0:0:
256,192,53346,1,8,0:0:0:0:
256,192,53461,1,8,0:0:0:0:
256,192,53576,1,0,0:0:0:0:
256,192,53634,1,8,0:0:0:0:
256,192,53692,1,0,0:0:0:0:
256,192,53807,1,8,0:0:0:0:
256,192,53865,1,8,0:0:0:0:
256,192,53923,1,8,0:0:0:0:
256,192,53980,1,8,0:0:0:0:
256,192,54038,1,0,0:0:0:0:
256,192,54153,1,0,0:0:0:0:
256,192,54269,1,8,0:0:0:0:
256,192,54326,1,8,0:0:0:0:
256,192,54384,1,0,0:0:0:0:
256,192,54500,1,8,0:0:0:0:
256,192,54615,1,8,0:0:0:0:
256,192,54730,1,0,0:0:0:0:
256,192,54788,1,0,0:0:0:0:
256,192,54846,1,8,0:0:0:0:
256,192,54961,1,0,0:0:0:0:
256,192,55076,1,0,0:0:0:0:
256,192,55192,1,8,0:0:0:0:
256,192,55250,1,8,0:0:0:0:
256,192,55307,1,0,0:0:0:0:
256,192,55423,1,8,0:0:0:0:
256,192,55538,1,8,0:0:0:0:
256,192,55653,1,0,0:0:0:0:
256,192,55711,1,0,0:0:0:0:
256,192,55769,1,8,0:0:0:0:
256,192,55884,1,0,0:0:0:0:
256,192,56000,1,8,0:0:0:0:
256,192,56057,1,8,0:0:0:0:
256,192,56115,1,0,0:0:0:0:
256,192,56173,1,8,0:0:0:0:
256,192,56230,1,0,0:0:0:0:
256,192,56288,1,0,0:0:0:0:
256,192,56346,1,8,0:0:0:0:
256,192,56461,1,0,0:0:0:0:
256,192,56576,1,8,0:0:0:0:
256,192,56634,1,8,0:0:0:0:
256,192,56692,1,0,0:0:0:0:
256,192,56807,1,8,0:0:0:0:
256,192,56923,1,8,0:0:0:0:
256,192,57038,1,0,0:0:0:0:
256,192,57096,1,0,0:0:0:0:
256,192,57153,1,0,0:0:0:0:
256,192,57269,1,8,0:0:0:0:
256,192,57307,1,8,0:0:0:0:
256,192,57346,1,8,0:0:0:0:
256,192,57384,1,0,0:0:0:0:
256,192,57442,1,0,0:0:0:0:
256,192,57500,1,8,0:0:0:0:
256,192,57557,1,0,0:0:0:0:
256,192,57615,1,8,0:0:0:0:
256,192,57730,1,8,0:0:0:0:
256,192,57846,1,0,0:0:0:0:
256,192,57961,1,8,0:0:0:0:
256,192,58019,1,8,0:0:0:0:
256,192,58076,1,0,0:0:0:0:
256,192,58192,1,0,0:0:0:0:
256,192,58307,1,8,0:0:0:0:
256,192,58423,1,0,0:0:0:0:
256,192,58480,1,0,0:0:0:0:
256,192,58538,1,8,0:0:0:0:
256,192,58653,1,8,0:0:0:0:
256,192,58769,1,0,0:0:0:0:
256,192,58884,1,8,0:0:0:0:
256,192,58942,1,8,0:0:0:0:
256,192,59000,1,0,0:0:0:0:
256,192,59115,1,0,0:0:0:0:
256,192,59230,1,8,0:0:0:0:
256,192,59346,1,0,0:0:0:0:
256,192,59403,1,0,0:0:0:0:
256,192,59461,1,8,0:0:0:0:
256,192,59576,1,0,0:0:0:0:
256,192,59692,1,8,0:0:0:0:
256,192,59750,1,0,0:0:0:0:
256,192,59807,1,8,0:0:0:0:
256,192,59865,1,8,0:0:0:0:
256,192,59923,1,0,0:0:0:0:
256,192,60038,1,8,0:0:0:0:
256,192,60153,1,0,0:0:0:0:
256,192,60211,1,0,0:0:0:0:
256,192,60269,1,8,0:0:0:0:
256,192,60326,1,8,0:0:0:0:
256,192,60384,1,0,0:0:0:0:
256,192,60500,1,8,0:0:0:0:
256,192,60557,1,0,0:0:0:0:
256,192,60615,1,8,0:0:0:0:
256,192,60730,1,0,0:0:0:0:
256,192,60846,1,8,0:0:0:0:
256,192,60961,1,0,0:0:0:0:
256,192,61019,1,0,0:0:0:0:
256,192,61076,1,8,0:0:0:0:
256,192,61115,1,0,0:0:0:0:
256,192,61153,1,0,0:0:0:0:
256,192,61192,1,8,0:0:0:0:
256,192,61250,1,0,0:0:0:0:
256,192,61307,1,8,0:0:0:0:
256,192,61365,1,8,0:0:0:0:
256,192,61423,1,0,0:0:0:0:
256,192,61538,1,8,0:0:0:0:
256,192,61653,1,0,0:0:0:0:
256,192,61711,1,8,0:0:0:0:
256,192,61769,1,0,0:0:0:0:
256,192,61884,1,8,0:0:0:0:
256,192,62000,1,0,0:0:0:0:
256,192,62115,1,8,0:0:0:0:
256,192,62173,1,0,0:0:0:0:
256,192,62230,1,8,0:0:0:0:
256,192,62346,1,0,0:0:0:0:
256,192,62461,1,8,0:0:0:0:
256,192,62576,1,0,0:0:0:0:
256,192,62634,1,8,0:0:0:0:
256,192,62692,1,0,0:0:0:0:
256,192,62807,1,8,0:0:0:0:
256,192,62923,1,0,0:0:0:0:
256,192,63038,1,8,0:0:0:0:
256,192,63096,1,0,0:0:0:0:
256,192,63153,1,8,0:0:0:0:
256,192,63269,1,0,0:0:0:0:
256,192,63384,1,0,0:0:0:0:
256,192,63500,1,8,0:0:0:0:
256,192,63557,1,8,0:0:0:0:
256,192,63615,1,0,0:0:0:0:
256,192,63673,1,8,0:0:0:0:
256,192,63730,1,0,0:0:0:0:
256,192,63846,1,8,0:0:0:0:
256,192,63961,1,0,0:0:0:0:
256,192,64019,1,0,0:0:0:0:
256,192,64076,1,8,0:0:0:0:
256,192,64192,1,0,0:0:0:0:
256,192,64250,1,8,0:0:0:0:
256,192,64307,1,8,0:0:0:0:
256,192,64365,1,8,0:0:0:0:
256,192,64423,1,0,0:0:0:0:
256,192,64538,1,8,0:0:0:0:
256,192,64653,1,0,0:0:0:0:
256,192,64711,1,0,0:0:0:0:
256,192,64769,1,8,0:0:0:0:
256,192,64826,1,0,0:0:0:0:
256,192,64884,1,8,0:0:0:0:
256,192,64923,1,8,0:0:0:0:
256,192,64961,1,8,0:0:0:0:
256,192,65000,1,8,0:0:0:0:
256,192,65057,1,8,0:0:0:0:
256,192,65115,1,0,0:0:0:0:
256,192,65230,1,0,0:0:0:0:
256,192,65346,1,8,0:0:0:0:
256,192,65403,1,8,0:0:0:0:
256,192,65461,1,0,0:0:0:0:
256,192,65576,1,8,0:0:0:0:
256,192,65692,1,0,0:0:0:0:
256,192,65750,1,0,0:0:0:0:
256,192,65807,1,8,0:0:0:0:
256,192,65865,1,8,0:0:0:0:
256,192,65923,1,0,0:0:0:0:
256,192,66038,1,8,0:0:0:0:
256,192,66096,1,0,0:0:0:0:
256,192,66153,1,8,0:0:0:0:
256,192,66211,1,0,0:0:0:0:
256,192,66269,1,8,0:0:0:0:
256,192,66326,1,8,0:0:0:0:
256,192,66384,1,0,0:0:0:0:
256,192,66442,1,0,0:0:0:0:
256,192,66500,1,8,0:0:0:0:
256,192,66557,1,8,0:0:0:0:
256,192,66615,1,8,0:0:0:0:
256,192,66673,1,8,0:0:0:0:
256,192,66730,1,0,0:0:0:0:
256,192,66788,1,0,0:0:0:0:
256,192,66846,1,0,0:0:0:0:
256,192,66903,1,0,0:0:0:0:
256,192,66961,1,8,0:0:0:0:
256,192,73423,12,0,74230,0:0:0:0:
256,192,74346,5,0,0:0:0:0:
256,192,74403,1,0,0:0:0:0:
256,192,74461,1,0,0:0:0:0:
256,192,74519,1,0,0:0:0:0:
256,192,74576,1,8,0:0:0:0:
256,192,74692,1,0,0:0:0:0:
256,192,74807,1,8,0:0:0:0:
256,192,74865,1,8,0:0:0:0:
256,192,74923,1,0,0:0:0:0:
256,192,75038,1,8,0:0:0:0:
256,192,75096,1,0,0:0:0:0:
256,192,75153,1,8,0:0:0:0:
256,192,75211,1,8,0:0:0:0:
256,192,75269,1,0,0:0:0:0:
256,192,75384,1,0,0:0:0:0:
256,192,75500,1,8,0:0:0:0:
256,192,75615,1,0,0:0:0:0:
256,192,75673,1,0,0:0:0:0:
256,192,75730,1,0,0:0:0:0:
256,192,75788,1,0,0:0:0:0:
256,192,75846,1,8,0:0:0:0:
256,192,75961,1,0,0:0:0:0:
256,192,76076,1,8,0:0:0:0:
256,192,76115,1,8,0:0:0:0:
256,192,76153,1,8,0:0:0:0:
256,192,76192,1,0,0:0:0:0:
256,192,76250,1,0,0:0:0:0:
256,192,76307,1,8,0:0:0:0:
256,192,76365,1,0,0:0:0:0:
256,192,76423,1,8,0:0:0:0:
256,192,76480,1,8,0:0:0:0:
256,192,76538,1,8,0:0:0:0:
256,192,76596,1,8,0:0:0:0:
256,192,76653,1,0,0:0:0:0:
256,192,76769,1,0,0:0:0:0:
256,192,76884,1,8,0:0:0:0:
256,192,76942,1,0,0:0:0:0:
256,192,77000,1,8,0:0:0:0:
256,192,77115,1,0,0:0:0:0:
256,192,77173,1,0,0:0:0:0:
256,192,77230,1,8,0:0:0:0:
256,192,77288,1,0,0:0:0:0:
256,192,77346,1,8,0:0:0:0:
256,192,77461,1,8,0:0:0:0:
256,192,77576,1,0,0:0:0:0:
256,192,77634,1,0,0:0:0:0:
256,192,77692,1,0,0:0:0:0:
256,192,77807,1,8,0:0:0:0:
256,192,77865,1,8,0:0:0:0:
256,192,77923,1,0,0:0:0:0:
256,192,77980,1,0,0:0:0:0:
256,192,78038,1,8,0:0:0:0:
256,192,78153,1,0,0:0:0:0:
256,192,78269,1,8,0:0:0:0:
256,192,78326,1,0,0:0:0:0:
256,192,78384,1,8,0:0:0:0:
256,192,78442,1,8,0:0:0:0:
256,192,78500,1,0,0:0:0:0:
256,192,78538,1,0,0:0:0:0:
256,192,78576,1,0,0:0:0:0:
256,192,78615,1,8,0:0:0:0:
256,192,78673,1,8,0:0:0:0:
256,192,78730,1,0,0:0:0:0:
256,192,78846,1,0,0:0:0:0:
256,192,78961,1,8,0:0:0:0:
256,192,79019,1,0,0:0:0:0:
256,192,79076,1,0,0:0:0:0:
256,192,79134,1,0,0:0:0:0:
256,192,79192,1,8,0:0:0:0:
256,192,79307,1,8,0:0:0:0:
256,192,79423,1,0,0:0:0:0:
256,192,79480,1,0,0:0:0:0:
256,192,79538,1,8,0:0:0:0:
256,192,79596,1,0,0:0:0:0:
256,192,79653,1,8,0:0:0:0:
256,192,79711,1,8,0:0:0:0:
256,192,79769,1,0,0:0:0:0:
256,192,79826,1,0,0:0:0:0:
256,192,79884,1,8,0:0:0:0:
256,192,80000,1,8,0:0:0:0:
256,192,80115,1,0,0:0:0:0:
256,192,80230,1,0,0:0:0:0:
256,192,80346,1,8,0:0:0:0:
256,192,80403,1,8,0:0:0:0:
256,192,80461,1,8,0:0:0:0:
256,192,80519,1,8,0:0:0:0:
256,192,80576,1,0,0:0:0:0:
256,192,80634,1,0,0:0:0:0:
256,192,80692,1,0,0:0:0:0:
256,192,80750,1,0,0:0:0:0:
256,192,80807,1,8,0:0:0:0:
256,192,80836,1,8,0:0:0:0:
256,192,80923,1,8,0:0:0:0:
256,192,80951,1,8,0:0:0:0:
256,192,81038,1,0,0:0:0:0:
256,192,81067,1,0,0:0:0:0:
256,192,81153,1,0,0:0:0:0:
256,192,81182,1,0,0:0:0:0:
256,192,81269,1,8,0:0:0:0:
256,192,81326,1,8,0:0:0:0:
256,192,81384,1,0,0:0:0:0:
256,192,81442,1,0,0:0:0:0:
256,192,81500,1,8,0:0:0:0:
256,192,81538,1,8,0:0:0:0:
256,192,81576,1,8,0:0:0:0:
256,192,81615,1,8,0:0:0:0:
256,192,81730,1,0,0:0:0:0:
256,192,81788,1,0,0:0:0:0:
256,192,81846,1,8,0:0:0:0:
256,192,81961,1,0,0:0:0:0:
256,192,82019,1,0,0:0:0:0:
256,192,82076,1,8,0:0:0:0:
256,192,82192,1,0,0:0:0:0:
256,192,82250,1,0,0:0:0:0:
256,192,82307,1,8,0:0:0:0:
256,192,82423,1,0,0:0:0:0:
256,192,82480,1,0,0:0:0:0:
256,192,82538,1,8,0:0:0:0:
256,192,82653,1,0,0:0:0:0:
256,192,82769,1,8,0:0:0:0:
256,192,82826,1,0,0:0:0:0:
256,192,82884,1,8,0:0:0:0:
256,192,82942,1,8,0:0:0:0:
256,192,83000,1,0,0:0:0:0:
256,192,83038,1,0,0:0:0:0:
256,192,83076,1,0,0:0:0:0:
256,192,83115,1,8,0:0:0:0:
256,192,83173,1,8,0:0:0:0:
256,192,83230,1,0,0:0:0:0:
256,192,83288,1,0,0:0:0:0:
256,192,83346,1,8,0:0:0:0:
256,192,83384,1,8,0:0:0:0:
256,192,83423,1,8,0:0:0:0:
256,192,83461,1,0,0:0:0:0:
256,192,83576,1,8,0:0:0:0:
256,192,83634,1,8,0:0:0:0:
256,192,83692,1,0,0:0:0:0:
256,192,83750,1,0,0:0:0:0:
256,192,83807,1,8,0:0:0:0:
256,192,83865,1,8,0:0:0:0:
256,192,83923,1,0,0:0:0:0:
256,192,83980,1,0,0:0:0:0:
256,192,84038,1,8,0:0:0:0:
256,192,84096,1,8,0:0:0:0:
256,192,84153,1,0,0:0:0:0:
256,192,84211,1,0,0:0:0:0:
256,192,84269,1,8,0:0:0:0:
256,192,84307,1,8,0:0:0:0:
256,192,84346,1,8,0:0:0:0:
256,192,84384,1,0,0:0:0:0:
256,192,84442,1,0,0:0:0:0:
256,192,84500,1,8,0:0:0:0:
256,192,84730,1,0,0:0:0:0:
256,192,84961,1,8,0:0:0:0:
256,192,85076,1,8,0:0:0:0:
256,192,85192,1,8,0:0:0:0:
256,192,85307,1,8,0:0:0:0:
256,192,85423,1,0,0:0:0:0:
256,192,85480,1,8,0:0:0:0:
256,192,85538,1,8,0:0:0:0:
256,192,85653,1,0,0:0:0:0:
256,192,85711,1,8,0:0:0:0:
256,192,85769,1,8,0:0:0:0:
256,192,85884,1,0,0:0:0:0:
256,192,85942,1,8,0:0:0:0:
256,192,86000,1,0,0:0:0:0:
256,192,86057,1,8,0:0:0:0:
256,192,86115,1,0,0:0:0:0:
256,192,86173,1,8,0:0:0:0:
256,192,86230,1,8,0:0:0:0:
256,192,86288,1,8,0:0:0:0:
256,192,87269,1,8,0:0:0:0:
256,192,87326,1,0,0:0:0:0:
256,192,87384,1,8,0:0:0:0:
256,192,87442,1,0,0:0:0:0:
256,192,87500,1,8,0:0:0:0:
256,192,87557,1,0,0:0:0:0:
256,192,87615,1,8,0:0:0:0:
256,192,87673,1,0,0:0:0:0:
256,192,87730,1,8,0:0:0:0:
256,192,87788,1,0,0:0:0:0:
256,192,87846,1,8,0:0:0:0:
256,192,87903,1,0,0:0:0:0:
256,192,87961,1,8,0:0:0:0:
256,192,88019,1,8,0:0:0:0:
256,192,88076,1,8,0:0:0:0:
256,192,88134,1,8,0:0:0:0:
256,192,88192,1,0,0:0:0:0:
256,192,88307,1,0,0:0:0:0:
256,192,88423,1,8,0:0:0:0:
256,192,88461,1,8,0:0:0:0:
256,192,88500,1,8,0:0:0:0:
256,192,88538,1,0,0:0:0:0:
256,192,88596,1,0,0:0:0:0:
256,192,88653,1,8,0:0:0:0:
256,192,88769,1,0,0:0:0:0:
256,192,88826,1,0,0:0:0:0:
256,192,88884,1,8,0:0:0:0:
256,192,88923,1,8,0:0:0:0:
256,192,88961,1,8,0:0:0:0:
256,192,89000,1,8,0:0:0:0:
256,192,89115,1,4,0:0:0:0:
256,192,89230,1,4,0:0:0:0:
256,192,89346,1,12,0:0:0:0:
256,192,89461,1,4,0:0:0:0:
256,192,89576,1,4,0:0:0:0:
256,192,89692,1,12,0:0:0:0:
256,192,89807,1,4,0:0:0:0:
256,192,89923,1,4,0:0:0:0:
256,192,90038,1,8,0:0:0:0:
256,192,90076,1,8,0:0:0:0:
256,192,90115,1,8,0:0:0:0:
256,192,90153,1,0,0:0:0:0:
256,192,90211,1,0,0:0:0:0:
256,192,90269,1,8,0:0:0:0:
256,192,90326,1,8,0:0:0:0:
256,192,90384,1,0,0:0:0:0:
256,192,90423,1,0,0:0:0:0:
256,192,90461,1,0,0:0:0:0:
256,192,90500,1,8,0:0:0:0:
256,192,90615,1,0,0:0:0:0:
256,192,90730,1,8,0:0:0:0:
256,192,90788,1,0,0:0:0:0:
256,192,90846,1,8,0:0:0:0:
256,192,90961,1,0,0:0:0:0:
256,192,91076,1,8,0:0:0:0:
256,192,91105,1,8,0:0:0:0:
256,192,91192,1,0,0:0:0:0:
256,192,91307,1,8,0:0:0:0:
256,192,91336,1,8,0:0:0:0:
256,192,91423,1,0,0:0:0:0:
256,192,91538,1,8,0:0:0:0:
256,192,91567,1,8,0:0:0:0:
256,192,91653,1,0,0:0:0:0:
256,192,91769,1,8,0:0:0:0:
256,192,91798,1,8,0:0:0:0:
256,192,91884,1,0,0:0:0:0:
256,192,92346,1,8,0:0:0:0:
256,192,92807,1,0,0:0:0:0:
256,192,92836,1,0,0:0:0:0:
256,192,92923,1,0,0:0:0:0:
256,192,92951,1,0,0:0:0:0:
256,192,93038,1,0,0:0:0:0:
256,192,93067,1,0,0:0:0:0:
256,192,93153,1,0,0:0:0:0:
256,192,93182,1,0,0:0:0:0:
256,192,93269,1,8,0:0:0:0:
256,192,93326,1,8,0:0:0:0:
256,192,93384,1,8,0:0:0:0:
256,192,93442,1,8,0:0:0:0:
256,192,93500,1,8,0:0:0:0:
256,192,93557,1,8,0:0:0:0:
256,192,93615,1,8,0:0:0:0:
256,192,93673,1,8,0:0:0:0:
256,192,93730,1,0,0:0:0:0:
256,192,93846,1,0,0:0:0:0:
256,192,93961,1,8,0:0:0:0:
256,192,94076,1,0,0:0:0:0:
256,192,94192,1,0,0:0:0:0:
256,192,94307,1,8,0:0:0:0:
256,192,94423,1,0,0:0:0:0:
256,192,94461,1,0,0:0:0:0:
256,192,94500,1,0,0:0:0:0:
256,192,94538,1,0,0:0:0:0:
256,192,94596,1,0,0:0:0:0:
256,192,94653,1,8,0:0:0:0:
256,192,96500,1,0,0:0:0:0:
256,192,96615,1,8,0:0:0:0:
256,192,96673,1,8,0:0:0:0:
256,192,96730,1,0,0:0:0:0:
256,192,96846,1,8,0:0:0:0:
256,192,96903,1,0,0:0:0:0:
256,192,96961,1,8,0:0:0:0:
256,192,97019,1,8,0:0:0:0:
256,192,97076,1,0,0:0:0:0:
256,192,97192,1,8,0:0:0:0:
256,192,97307,1,0,0:0:0:0:
256,192,97423,1,8,0:0:0:0:
256,192,97480,1,8,0:0:0:0:
256,192,97538,1,0,0:0:0:0:
256,192,97653,1,8,0:0:0:0:
256,192,97769,1,8,0:0:0:0:
256,192,97826,1,8,0:0:0:0:
256,192,97884,1,8,0:0:0:0:
256,192,98000,1,8,0:0:0:0:
256,192,98115,1,8,0:0:0:0:
256,192,98230,1,8,0:0:0:0:
256,192,98346,1,0,0:0:0:0:
256,192,98403,1,0,0:0:0:0:
256,192,98461,1,0,0:0:0:0:
256,192,98519,1,0,0:0:0:0:
256,192,98576,1,8,0:0:0:0:
256,192,98692,1,0,0:0:0:0:
256,192,98807,1,8,0:0:0:0:
256,192,98865,1,0,0:0:0:0:
256,192,98923,1,8,0:0:0:0:
256,192,99038,1,8,0:0:0:0:
256,192,99096,1,8,0:0:0:0:
256,192,99153,1,0,0:0:0:0:
256,192,99192,1,0,0:0:0:0:
256,192,99230,1,0,0:0:0:0:
256,192,99269,1,8,0:0:0:0:
256,192,99384,1,0,0:0:0:0:
256,192,99500,1,8,0:0:0:0:
256,192,99557,1,8,0:0:0:0:
256,192,99615,1,0,0:0:0:0:
256,192,99653,1,8,0:0:0:0:
256,192,99692,1,8,0:0:0:0:
256,192,99730,1,0,0:0:0:0:
256,192,99788,1,0,0:0:0:0:
256,192,99846,1,0,0:0:0:0:
256,192,99903,1,0,0:0:0:0:
256,192,99961,1,8,0:0:0:0:
256,192,100019,1,8,0:0:0:0:
256,192,100076,1,8,0:0:0:0:
256,192,100134,1,8,0:0:0:0:
256,192,100192,1,0,0:0:0:0:
256,192,100307,1,8,0:0:0:0:
256,192,100423,1,0,0:0:0:0:
256,192,100480,1,0,0:0:0:0:
256,192,100538,1,8,0:0:0:0:
256,192,100596,1,0,0:0:0:0:
256,192,100653,1,8,0:0:0:0:
256,192,100769,1,0,0:0:0:0:
256,192,100884,1,8,0:0:0:0:
256,192,100942,1,8,0:0:0:0:
256,192,101000,1,8,0:0:0:0:
256,192,101057,1,8,0:0:0:0:
256,192,101115,1,0,0:0:0:0:
256,192,101173,1,0,0:0:0:0:
256,192,101230,1,8,0:0:0:0:
256,192,101269,1,8,0:0:0:0:
256,192,101307,1,8,0:0:0:0:
256,192,101346,1,0,0:0:0:0:
256,192,101461,1,0,0:0:0:0:
256,192,101576,1,0,0:0:0:0:
256,192,101692,1,0,0:0:0:0:
256,192,101807,1,8,0:0:0:0:
256,192,101846,1,0,0:0:0:0:
256,192,101884,1,0,0:0:0:0:
256,192,101923,1,8,0:0:0:0:
256,192,101980,1,8,0:0:0:0:
256,192,102038,1,0,0:0:0:0:
256,192,102153,1,8,0:0:0:0:
256,192,102211,1,8,0:0:0:0:
256,192,102269,1,0,0:0:0:0:
256,192,102384,1,8,0:0:0:0:
256,192,102442,1,8,0:0:0:0:
256,192,102500,1,0,0:0:0:0:
256,192,102615,1,0,0:0:0:0:
256,192,102730,1,8,0:0:0:0:
256,192,102769,1,8,0:0:0:0:
256,192,102807,1,8,0:0:0:0:
256,192,102846,1,8,0:0:0:0:
256,192,102903,1,8,0:0:0:0:
256,192,102961,1,0,0:0:0:0:
256,192,103076,1,0,0:0:0:0:
256,192,103192,1,8,0:0:0:0:
256,192,103250,1,8,0:0:0:0:
256,192,103307,1,0,0:0:0:0:
256,192,103346,1,8,0:0:0:0:
256,192,103384,1,8,0:0:0:0:
256,192,103423,1,0,0:0:0:0:
256,192,103538,1,8,0:0:0:0:
256,192,103653,1,0,0:0:0:0:
256,192,103711,1,0,0:0:0:0:
256,192,103769,1,0,0:0:0:0:
256,192,103826,1,0,0:0:0:0:
256,192,103884,1,8,0:0:0:0:
256,192,104000,1,0,0:0:0:0:
256,192,104115,1,8,0:0:0:0:
256,192,104173,1,8,0:0:0:0:
256,192,104230,1,0,0:0:0:0:
256,192,104346,1,8,0:0:0:0:
256,192,104403,1,0,0:0:0:0:
256,192,104461,1,8,0:0:0:0:
256,192,104576,1,0,0:0:0:0:
256,192,104634,1,0,0:0:0:0:
256,192,104692,1,8,0:0:0:0:
256,192,104750,1,8,0:0:0:0:
256,192,104807,1,0,0:0:0:0:
256,192,104923,1,0,0:0:0:0:
256,192,105038,1,8,0:0:0:0:
256,192,105153,1,0,0:0:0:0:
256,192,105269,1,8,0:0:0:0:
256,192,105326,1,0,0:0:0:0:
256,192,105384,1,8,0:0:0:0:
256,192,105442,1,8,0:0:0:0:
256,192,105500,1,0,0:0:0:0:
256,192,105615,1,8,0:0:0:0:
256,192,105653,1,8,0:0:0:0:
256,192,105692,1,8,0:0:0:0:
256,192,105730,1,0,0:0:0:0:
256,192,105846,1,0,0:0:0:0:
256,192,105961,1,0,0:0:0:0:
256,192,106076,1,0,0:0:0:0:
256,192,106192,1,0,0:0:0:0:
256,192,106307,1,0,0:0:0:0:
256,192,106423,1,0,0:0:0:0:
256,192,106538,1,0,0:0:0:0:
256,192,106653,1,8,0:0:0:0:
256,192,106711,1,0,0:0:0:0:
256,192,106769,1,0,0:0:0:0:
256,192,106826,1,0,0:0:0:0:
256,192,106884,1,8,0:0:0:0:
256,192,106942,1,0,0:0:0:0:
256,192,107000,1,0,0:0:0:0:
256,192,107057,1,0,0:0:0:0:
256,192,107115,1,8,0:0:0:0:
256,192,107173,1,8,0:0:0:0:
256,192,107230,1,8,0:0:0:0:
256,192,107288,1,8,0:0:0:0:
256,192,107346,1,8,0:0:0:0:
256,192,107403,1,8,0:0:0:0:
256,192,107461,1,8,0:0:0:0:
256,192,107519,1,8,0:0:0:0:
256,192,107576,1,0,0:0:0:0:
256,192,107692,1,8,0:0:0:0:
256,192,107807,1,8,0:0:0:0:
256,192,107923,1,0,0:0:0:0:
256,192,107980,1,0,0:0:0:0:
256,192,108038,1,8,0:0:0:0:
256,192,108096,1,0,0:0:0:0:
256,192,108153,1,8,0:0:0:0:
256,192,108211,1,8,0:0:0:0:
256,192,108269,1,0,0:0:0:0:
256,192,108326,1,8,0:0:0:0:
256,192,108384,1,0,0:0:0:0:
256,192,108442,1,0,0:0:0:0:
256,192,108500,1,8,0:0:0:0:
256,192,108528,1,8,0:0:0:0:
256,192,108615,1,0,0:0:0:0:
256,192,108730,1,8,0:0:0:0:
256,192,108759,1,8,0:0:0:0:
256,192,108846,1,0,0:0:0:0:
256,192,108961,1,8,0:0:0:0:
256,192,108990,1,8,0:0:0:0:
256,192,109076,1,0,0:0:0:0:
256,192,109192,1,8,0:0:0:0:
256,192,109250,1,8,0:0:0:0:
256,192,109307,1,8,0:0:0:0:
256,192,109365,1,8,0:0:0:0:
256,192,109423,1,0,0:0:0:0:
256,192,109538,1,8,0:0:0:0:
256,192,109653,1,0,0:0:0:0:
256,192,109711,1,0,0:0:0:0:
256,192,109769,1,0,0:0:0:0:
256,192,109826,1,0,0:0:0:0:
256,192,109884,1,8,0:0:0:0:
256,192,110000,1,8,0:0:0:0:
256,192,110115,1,0,0:0:0:0:
256,192,110230,1,0,0:0:0:0:
256,192,110346,1,8,0:0:0:0:
256,192,110403,1,8,0:0:0:0:
256,192,110461,1,0,0:0:0:0:
256,192,110576,1,8,0:0:0:0:
256,192,110692,1,8,0:0:0:0:
256,192,110807,1,0,0:0:0:0:
256,192,110865,1,0,0:0:0:0:
256,192,110923,1,0,0:0:0:0:
256,192,110980,1,0,0:0:0:0:
256,192,111038,1,8,0:0:0:0:
256,192,111096,1,8,0:0:0:0:
256,192,111153,1,8,0:0:0:0:
256,192,111211,1,8,0:0:0:0:
256,192,111269,1,0,0:0:0:0:
256,192,111384,1,8,0:0:0:0:
256,192,111500,1,0,0:0:0:0:
256,192,111557,1,0,0:0:0:0:
256,192,111615,1,8,0:0:0:0:
256,192,111673,1,0,0:0:0:0:
256,192,111730,1,8,0:0:0:0:
256,192,111846,1,0,0:0:0:0:
256,192,111961,1,8,0:0:0:0:
256,192,112019,1,8,0:0:0:0:
256,192,112076,1,0,0:0:0:0:
256,192,112192,1,8,0:0:0:0:
256,192,112307,1,8,0:0:0:0:
256,192,112423,1,0,0:0:0:0:
256,192,112480,1,8,0:0:0:0:
256,192,112538,1,0,0:0:0:0:
256,192,112653,1,8,0:0:0:0:
256,192,112711,1,0,0:0:0:0:
256,192,112769,1,8,0:0:0:0:
256,192,112826,1,8,0:0:0:0:
256,192,112884,1,0,0:0:0:0:
256,192,113000,1,0,0:0:0:0:
256,192,113115,1,8,0:0:0:0:
256,192,113173,1,8,0:0:0:0:
256,192,113230,1,0,0:0:0:0:
256,192,113346,1,8,0:0:0:0:
256,192,113384,1,8,0:0:0:0:
256,192,113423,1,8,0:0:0:0:
256,192,113461,1,0,0:0:0:0:
256,192,113519,1,0,0:0:0:0:
256,192,113576,1,8,0:0:0:0:
256,192,113692,1,0,0:0:0:0:
256,192,113807,1,8,0:0:0:0:
256,192,113865,1,8,0:0:0:0:
256,192,113923,1,0,0:0:0:0:
256,192,113980,1,0,0:0:0:0:
256,192,114038,1,8,0:0:0:0:
256,192,114153,1,0,0:0:0:0:
256,192,114269,1,8,0:0:0:0:
256,192,114326,1,8,0:0:0:0:
256,192,114384,1,0,0:0:0:0:
256,192,114500,1,8,0:0:0:0:
256,192,114557,1,0,0:0:0:0:
256,192,114615,1,8,0:0:0:0:
256,192,114673,1,8,0:0:0:0:
256,192,114730,1,0,0:0:0:0:
256,192,114846,1,8,0:0:0:0:
256,192,114961,1,0,0:0:0:0:
256,192,115019,1,0,0:0:0:0:
256,192,115076,1,8,0:0:0:0:
256,192,115192,1,0,0:0:0:0:
256,192,115307,1,8,0:0:0:0:
256,192,115365,1,0,0:0:0:0:
256,192,115423,1,8,0:0:0:0:
256,192,115538,1,0,0:0:0:0:
256,192,115653,1,8,0:0:0:0:
256,192,115711,1,8,0:0:0:0:
256,192,115769,1,8,0:0:0:0:
256,192,115826,1,8,0:0:0:0:
256,192,115884,1,0,0:0:0:0:
256,192,116000,1,0,0:0:0:0:
256,192,116115,1,8,0:0:0:0:
256,192,116173,1,8,0:0:0:0:
256,192,116230,1,0,0:0:0:0:
256,192,116346,1,8,0:0:0:0:
256,192,116461,1,8,0:0:0:0:
256,192,116576,1,0,0:0:0:0:
256,192,116634,1,0,0:0:0:0:
256,192,116692,1,0,0:0:0:0:
256,192,116750,1,0,0:0:0:0:
256,192,116807,1,8,0:0:0:0:
256,192,116923,1,0,0:0:0:0:
256,192,117038,1,8,0:0:0:0:
256,192,117096,1,0,0:0:0:0:
256,192,117153,1,8,0:0:0:0:
256,192,117269,1,8,0:0:0:0:
256,192,117384,1,0,0:0:0:0:
256,192,117442,1,0,0:0:0:0:
256,192,117500,1,8,0:0:0:0:
256,192,117538,1,8,0:0:0:0:
256,192,117576,1,8,0:0:0:0:
256,192,117615,1,0,0:0:0:0:
256,192,117673,1,0,0:0:0:0:
256,192,117730,1,8,0:0:0:0:
256,192,118653,1,8,0:0:0:0:
256,192,118711,1,8,0:0:0:0:
256,192,118769,1,0,0:0:0:0:
256,192,118826,1,8,0:0:0:0:
256,192,118884,1,8,0:0:0:0:
256,192,118942,1,8,0:0:0:0:
256,192,119000,1,0,0:0:0:0:
256,192,119057,1,0,0:0:0:0:
256,192,119115,1,8,0:0:0:0:
256,192,119173,1,0,0:0:0:0:
256,192,119230,1,0,0:0:0:0:
256,192,119288,1,0,0:0:0:0:
256,192,119346,1,8,0:0:0:0:
256,192,119403,1,0,0:0:0:0:
256,192,119461,1,8,0:0:0:0:
256,192,119519,1,8,0:0:0:0:
256,192,119576,1,8,0:0:0:0:
256,192,119634,1,8,0:0:0:0:
256,192,119692,1,0,0:0:0:0:
256,192,119750,1,0,0:0:0:0:
256,192,119807,1,8,0:0:0:0:
256,192,119865,1,0,0:0:0:0:
256,192,119923,1,0,0:0:0:0:
256,192,119980,1,0,0:0:0:0:
256,192,120038,1,8,0:0:0:0:
256,192,120096,1,8,0:0:0:0:
256,192,120153,1,0,0:0:0:0:
256,192,120211,1,0,0:0:0:0:
256,192,120269,1,8,0:0:0:0:
256,192,120326,1,0,0:0:0:0:
256,192,120384,1,0,0:0:0:0:
256,192,120442,1,0,0:0:0:0:
256,192,120500,1,8,0:0:0:0:
256,192,120557,1,8,0:0:0:0:
256,192,120615,1,0,0:0:0:0:
256,192,120673,1,8,0:0:0:0:
256,192,120730,1,8,0:0:0:0:
256,192,120788,1,8,0:0:0:0:
256,192,120846,1,0,0:0:0:0:
256,192,120903,1,0,0:0:0:0:
256,192,120961,1,8,0:0:0:0:
256,192,121019,1,0,0:0:0:0:
256,192,121076,1,0,0:0:0:0:
256,192,121134,1,0,0:0:0:0:
256,192,121192,1,8,0:0:0:0:
256,192,121250,1,0,0:0:0:0:
256,192,121307,1,8,0:0:0:0:
256,192,121365,1,8,0:0:0:0:
256,192,121423,1,0,0:0:0:0:
256,192,121480,1,8,0:0:0:0:
256,192,121538,1,8,0:0:0:0:
256,192,121596,1,8,0:0:0:0:
256,192,121653,1,0,0:0:0:0:
256,192,121711,1,0,0:0:0:0:
256,192,121769,1,8,0:0:0:0:
256,192,121826,1,8,0:0:0:0:
256,192,121884,1,0,0:0:0:0:
256,192,121942,1,0,0:0:0:0:
256,192,122000,1,0,0:0:0:0:
256,192,122057,1,0,0:0:0:0:
256,192,122115,1,8,0:0:0:0:
256,192,122153,1,8,0:0:0:0:
256,192,122192,1,8,0:0:0:0:
256,192,122230,1,0,0:0:0:0:
256,192,122269,1,0,0:0:0:0:
256,192,122307,1,0,0:0:0:0:
256,192,122346,1,8,0:0:0:0:
256,192,122403,1,8,0:0:0:0:
256,192,122461,1,0,0:0:0:0:
256,192,122519,1,0,0:0:0:0:
256,192,122576,1,8,0:0:0:0:
256,192,122634,1,0,0:0:0:0:
256,192,122692,1,0,0:0:0:0:
256,192,122750,1,0,0:0:0:0:
256,192,122807,1,8,0:0:0:0:
256,192,122865,1,8,0:0:0:0:
256,192,122923,1,0,0:0:0:0:
256,192,122980,1,0,0:0:0:0:
256,192,123038,1,8,0:0:0:0:
256,192,123096,1,0,0:0:0:0:
256,192,123153,1,8,0:0:0:0:
256,192,123211,1,8,0:0:0:0:
256,192,123269,1,8,0:0:0:0:
256,192,123326,1,8,0:0:0:0:
256,192,123384,1,0,0:0:0:0:
256,192,123442,1,0,0:0:0:0:
256,192,123500,1,8,0:0:0:0:
256,192,123557,1,0,0:0:0:0:
256,192,123615,1,0,0:0:0:0:
256,192,123673,1,0,0:0:0:0:
256,192,123730,1,8,0:0:0:0:
256,192,123788,1,8,0:0:0:0:
256,192,123846,1,8,0:0:0:0:
256,192,123903,1,8,0:0:0:0:
256,192,123961,1,0,0:0:0:0:
256,192,124019,1,0,0:0:0:0:
256,192,124076,1,8,0:0:0:0:
256,192,124134,1,0,0:0:0:0:
256,192,124192,1,8,0:0:0:0:
256,192,124250,1,8,0:0:0:0:
256,192,124307,1,0,0:0:0:0:
256,192,124365,1,8,0:0:0:0:
256,192,124423,1,8,0:0:0:0:
256,192,124480,1,8,0:0:0:0:
256,192,124538,1,0,0:0:0:0:
256,192,124596,1,0,0:0:0:0:
256,192,124653,1,8,0:0:0:0:
256,192,124711,1,0,0:0:0:0:
256,192,124769,1,0,0:0:0:0:
256,192,124826,1,0,0:0:0:0:
256,192,124884,1,8,0:0:0:0:
256,192,124942,1,8,0:0:0:0:
256,192,125000,1,0,0:0:0:0:
256,192,125057,1,8,0:0:0:0:
256,192,125115,1,8,0:0:0:0:
256,192,125173,1,8,0:0:0:0:
256,192,125230,1,0,0:0:0:0:
256,192,125288,1,0,0:0:0:0:
256,192,125346,1,8,0:0:0:0:
256,192,125403,1,0,0:0:0:0:
256,192,125461,1,8,0:0:0:0:
256,192,125519,1,8,0:0:0:0:
256,192,125576,1,0,0:0:0:0:
256,192,125634,1,0,0:0:0:0:
256,192,125692,1,0,0:0:0:0:
256,192,125750,1,0,0:0:0:0:
256,192,125807,1,8,0:0:0:0:
256,192,125865,1,8,0:0:0:0:
256,192,125923,1,8,0:0:0:0:
256,192,125980,1,8,0:0:0:0:
256,192,126038,1,0,0:0:0:0:
