osu file format v14

[General]
AudioFilename: audio.mp3
AudioLeadIn: 0
PreviewTime: 94653
Countdown: 0
SampleSet: Normal
StackLeniency: 0.7
Mode: 1
LetterboxInBreaks: 0
WidescreenStoryboard: 1

[Editor]
Bookmarks: 122115
DistanceSpacing: 0.8
BeatDivisor: 4
GridSize: 32
TimelineZoom: 3.499998

[Metadata]
Title:Amen-Kun
TitleUnicode:Amen-Kun
Artist:Shoebill
ArtistUnicode:Shoebill
Creator:Metzo
Version:Kantan
Source:
Tags:british electronic instrumental english amen kun scousecore mashcore suck puck records breakcore five 5ive keep on movin movin' chucks nation zombeef jonny sniper enter enter: shikari sam hyde
BeatmapID:4035766
BeatmapSetID:1949230

[Difficulty]
HPDrainRate:8
CircleSize:5
OverallDifficulty:3
ApproachRate:5
SliderMultiplier:1.1
SliderTickRate:1

[Events]
//Background and Video events
0,0,"63457302_p0.jpg",0,115
//Break Periods
2,67161,72223
//Storyboard Layer 0 (Background)
//Storyboard Layer 1 (Fail)
//Storyboard Layer 2 (Pass)
//Storyboard Layer 3 (Foreground)
//Storyboard Layer 4 (Overlay)
//Storyboard Sound Samples

[TimingPoints]
500,230.769230769231,4,1,0,100,1,0
22653,-100,4,1,0,100,0,1
29115,-100,4,1,0,100,0,0
66961,-100,4,1,0,100,0,0
67019,-100,4,1,0,99,0,0
67076,-100,4,1,0,98,0,0
67134,-100,4,1,0,97,0,0
67192,-100,4,1,0,97,0,0
67249,-100,4,1,0,96,0,0
67307,-100,4,1,0,95,0,0
67365,-100,4,1,0,94,0,0
67422,-100,4,1,0,93,0,0
67480,-100,4,1,0,92,0,0
67538,-100,4,1,0,92,0,0
67596,-100,4,1,0,91,0,0
67653,-100,4,1,0,90,0,0
67711,-100,4,1,0,89,0,0
67769,-100,4,1,0,88,0,0
67826,-100,4,1,0,87,0,0
67884,-100,4,1,0,86,0,0
67942,-100,4,1,0,86,0,0
67999,-100,4,1,0,85,0,0
68057,-100,4,1,0,84,0,0
68115,-100,4,1,0,83,0,0
68172,-100,4,1,0,82,0,0
68230,-100,4,1,0,81,0,0
68288,-100,4,1,0,80,0,0
68346,-100,4,1,0,80,0,0
68403,-100,4,1,0,79,0,0
68461,-100,4,1,0,78,0,0
68519,-100,4,1,0,77,0,0
68576,-100,4,1,0,76,0,0
68634,-100,4,1,0,75,0,0
68692,-100,4,1,0,75,0,0
68749,-100,4,1,0,74,0,0
68807,-100,4,1,0,73,0,0
68865,-100,4,1,0,72,0,0
68923,-100,4,1,0,71,0,0
68980,-100,4,1,0,70,0,0
69038,-100,4,1,0,69,0,0
69096,-100,4,1,0,69,0,0
69153,-100,4,1,0,68,0,0
69211,-100,4,1,0,67,0,0
69269,-100,4,1,0,66,0,0
69326,-100,4,1,0,65,0,0
69384,-100,4,1,0,64,0,0
69442,-100,4,1,0,64,0,0
69499,-100,4,1,0,63,0,0
69557,-100,4,1,0,62,0,0
69615,-100,4,1,0,61,0,0
69673,-100,4,1,0,60,0,0
69730,-100,4,1,0,59,0,0
69788,-100,4,1,0,58,0,0
69846,-100,4,1,0,58,0,0
69903,-100,4,1,0,57,0,0
69961,-100,4,1,0,56,0,0
70019,-100,4,1,0,55,0,0
70076,-100,4,1,0,54,0,0
70134,-100,4,1,0,53,0,0
70192,-100,4,1,0,53,0,0
70249,-100,4,1,0,52,0,0
70307,-100,4,1,0,51,0,0
70365,-100,4,1,0,50,0,0
70423,-100,4,1,0,49,0,0
70480,-100,4,1,0,48,0,0
70538,-100,4,1,0,47,0,0
70596,-100,4,1,0,47,0,0
70653,-100,4,1,0,46,0,0
70711,-100,4,1,0,45,0,0
70769,-100,4,1,0,44,0,0
70826,-100,4,1,0,43,0,0
70884,-100,4,1,0,42,0,0
70942,-100,4,1,0,41,0,0
71000,-100,4,1,0,41,0,0
71057,-100,4,1,0,40,0,0
71115,-100,4,1,0,39,0,0
71173,-100,4,1,0,38,0,0
71230,-100,4,1,0,37,0,0
71288,-100,4,1,0,36,0,0
71346,-100,4,1,0,36,0,0
71403,-100,4,1,0,35,0,0
71461,-100,4,1,0,34,0,0
71519,-100,4,1,0,33,0,0
71576,-100,4,1,0,32,0,0
71634,-100,4,1,0,31,0,0
71692,-100,4,1,0,30,0,0
71750,-100,4,1,0,30,0,0
71807,-100,4,1,0,29,0,0
71865,-100,4,1,0,28,0,0
71923,-100,4,1,0,27,0,0
71980,-100,4,1,0,26,0,0
72038,-100,4,1,0,25,0,0
72096,-100,4,1,0,25,0,0
72153,-100,4,1,0,24,0,0
72211,-100,4,1,0,23,0,0
72269,-100,4,1,0,22,0,0
72327,-100,4,1,0,21,0,0
72384,-100,4,1,0,20,0,0
72442,-100,4,1,0,19,0,0
72500,-100,4,1,0,19,0,0
72557,-100,4,1,0,18,0,0
72615,-100,4,1,0,17,0,0
72673,-100,4,1,0,16,0,0
72730,-100,4,1,0,15,0,0
72788,-100,4,1,0,14,0,0
72846,-100,4,1,0,13,0,0
72903,-100,4,1,0,13,0,0
72961,-100,4,1,0,12,0,0
73019,-100,4,1,0,11,0,0
73077,-100,4,1,0,10,0,0
73134,-100,4,1,0,9,0,0
73192,-100,4,1,0,8,0,0
73250,-100,4,1,0,8,0,0
73307,-100,4,1,0,7,0,0
73365,-100,4,1,0,70,0,0
73423,-100,4,1,0,70,0,0
74288,-100,4,1,0,100,0,0
74346,-100,4,1,0,100,0,1
80807,-100,4,1,0,100,0,0
81730,-100,4,1,0,100,0,1
82653,-100,4,1,0,100,0,0
83576,-100,4,1,0,100,0,1
84500,-100,4,1,0,100,0,0
85423,-100,4,1,0,100,0,1
86317,-100,4,1,0,5,0,1
86346,-100,4,1,0,5,0,0
87211,-100,4,1,0,100,0,0
87269,-100,4,1,0,100,0,1
88192,-100,4,1,0,100,0,0
89115,-100,4,1,0,100,0,1
90038,-100,4,1,0,100,0,0
90961,-100,4,1,0,100,0,1
91884,-100,4,1,0,100,0,0
92807,-100,4,1,0,100,0,1
93730,-100,4,1,0,100,0,0
94653,230.769230769231,8,1,0,100,1,0
94682,-100,4,1,0,5,0,0
96442,-100,4,1,0,100,0,0
96499,230.769230769231,4,1,0,100,1,8
96500,230.769230769231,4,1,0,100,1,0
111269,-100,4,1,0,100,0,1
117730,-100,4,1,0,100,0,0
118653,-100,4,1,0,100,0,1
126038,-100,4,1,0,100,0,0
126096,-100,4,1,0,70,0,0

[HitObjects]
256,192,500,5,0,0:0:0:0:
256,192,961,1,0,0:0:0:0:
256,192,1423,1,8,0:0:0:0:
256,192,2346,1,0,0:0:0:0:
256,192,2807,1,8,0:0:0:0:
256,192,3269,1,0,0:0:0:0:
256,192,4192,1,8,0:0:0:0:
256,192,4653,1,8,0:0:0:0:
256,192,5115,1,0,0:0:0:0:
256,192,6038,1,8,0:0:0:0:
256,192,6500,1,0,0:0:0:0:
256,192,6961,1,8,0:0:0:0:
256,192,7423,1,8,0:0:0:0:
256,192,7884,1,0,0:0:0:0:
256,192,8346,1,8,0:0:0:0:
256,192,8576,1,8,0:0:0:0:
256,192,8807,1,0,0:0:0:0:
256,192,9269,1,0,0:0:0:0:
256,192,9500,1,0,0:0:0:0:
256,192,9730,1,8,0:0:0:0:
256,192,10192,1,0,0:0:0:0:
256,192,10423,1,8,0:0:0:0:
256,192,10653,1,0,0:0:0:0:
256,192,11576,1,8,0:0:0:0:
256,192,12038,1,0,0:0:0:0:
256,192,12269,1,0,0:0:0:0:
256,192,12500,1,8,0:0:0:0:
256,192,12961,1,8,0:0:0:0:
256,192,13192,1,8,0:0:0:0:
256,192,13423,1,0,0:0:0:0:
256,192,13884,1,8,0:0:0:0:
256,192,14115,1,0,0:0:0:0:
256,192,14346,1,8,0:0:0:0:
256,192,15269,1,0,0:0:0:0:
256,192,15730,1,8,0:0:0:0:
256,192,16192,1,0,0:0:0:0:
256,192,16423,1,0,0:0:0:0:
256,192,16653,1,8,0:0:0:0:
256,192,17115,1,8,0:0:0:0:
256,192,17576,1,0,0:0:0:0:
256,192,18038,1,8,0:0:0:0:
256,192,18961,5,0,0:0:0:0:
256,192,19192,1,8,0:0:0:0:
256,192,19423,1,0,0:0:0:0:
256,192,19884,1,8,0:0:0:0:
256,192,20346,1,0,0:0:0:0:
256,192,20807,1,8,0:0:0:0:
256,192,21038,1,0,0:0:0:0:
256,192,21269,1,8,0:0:0:0:
256,192,21730,1,0,0:0:0:0:
256,192,22653,1,8,0:0:0:0:
256,192,23115,1,0,0:0:0:0:
256,192,23576,1,8,0:0:0:0:
256,192,23807,1,8,0:0:0:0:
256,192,24038,1,0,0:0:0:0:
256,192,24269,1,0,0:0:0:0:
256,192,24500,1,8,0:0:0:0:
256,192,24961,1,0,0:0:0:0:
256,192,25423,1,8,0:0:0:0:
256,192,25653,1,0,0:0:0:0:
256,192,25884,1,8,0:0:0:0:
256,192,26115,1,8,0:0:0:0:
256,192,26346,1,0,0:0:0:0:
256,192,27269,1,8,0:0:0:0:
256,192,27500,1,8,0:0:0:0:
256,192,27730,1,0,0:0:0:0:
256,192,28192,1,8,0:0:0:0:
256,192,28653,1,0,0:0:0:0:
256,192,28884,1,8,0:0:0:0:
256,192,29115,1,0,0:0:0:0:
256,192,30038,1,8,0:0:0:0:
256,192,30269,1,8,0:0:0:0:
256,192,30500,1,0,0:0:0:0:
256,192,30961,1,8,0:0:0:0:
256,192,31423,1,0,0:0:0:0:
256,192,31884,1,0,0:0:0:0:
256,192,32115,1,0,0:0:0:0:
256,192,32346,1,8,0:0:0:0:
256,192,32807,1,0,0:0:0:0:
256,192,33730,1,8,0:0:0:0:
256,192,33961,1,0,0:0:0:0:
256,192,34192,1,8,0:0:0:0:
256,192,34653,1,8,0:0:0:0:
256,192,35115,1,8,0:0:0:0:
256,192,35576,1,0,0:0:0:0:
256,192,35807,1,8,0:0:0:0:
256,192,36038,1,0,0:0:0:0:
256,192,36500,1,0,0:0:0:0:
256,192,37423,1,0,0:0:0:0:
256,192,37884,1,8,0:0:0:0:
256,192,38346,1,0,0:0:0:0:
256,192,38576,1,0,0:0:0:0:
256,192,38807,1,8,0:0:0:0:
256,192,39269,1,8,0:0:0:0:
256,192,39730,1,0,0:0:0:0:
256,192,40192,1,8,0:0:0:0:
256,192,41115,1,0,0:0:0:0:
256,192,41346,1,8,0:0:0:0:
256,192,41576,1,0,0:0:0:0:
256,192,42038,1,8,0:0:0:0:
256,192,42500,1,0,0:0:0:0:
256,192,42961,1,8,0:0:0:0:
256,192,43192,1,0,0:0:0:0:
256,192,43423,1,8,0:0:0:0:
256,192,43884,1,0,0:0:0:0:
256,192,44807,1,4,0:0:0:0:
256,192,45269,1,8,0:0:0:0:
256,192,45730,1,0,0:0:0:0:
256,192,46653,1,12,0:0:0:0:
256,192,47115,1,0,0:0:0:0:
256,192,47346,1,0,0:0:0:0:
256,192,47576,1,8,0:0:0:0:
256,192,48500,1,4,0:0:0:0:
256,192,48961,1,8,0:0:0:0:
256,192,49192,1,0,0:0:0:0:
256,192,49423,1,8,0:0:0:0:
256,192,50346,1,12,0:0:0:0:
256,192,50807,1,0,0:0:0:0:
256,192,51038,1,8,0:0:0:0:
256,192,51269,1,0,0:0:0:0:
256,192,52192,1,8,0:0:0:0:
256,192,52423,1,8,0:0:0:0:
256,192,52653,1,0,0:0:0:0:
256,192,53115,1,8,0:0:0:0:
256,192,53576,1,0,0:0:0:0:
256,192,54269,1,0,0:0:0:0:
256,192,54500,1,8,0:0:0:0:
256,192,54730,1,0,0:0:0:0:
256,192,55192,1,0,0:0:0:0:
256,192,55423,1,8,0:0:0:0:
256,192,55653,1,0,0:0:0:0:
256,192,56115,1,0,0:0:0:0:
256,192,56346,1,8,0:0:0:0:
256,192,56807,1,0,0:0:0:0:
256,192,57269,1,8,0:0:0:0:
256,192,57961,1,8,0:0:0:0:
256,192,58192,1,0,0:0:0:0:
256,192,58423,1,8,0:0:0:0:
256,192,58884,1,8,0:0:0:0:
256,192,59115,1,0,0:0:0:0:
256,192,59346,1,8,0:0:0:0:
256,192,59807,1,8,0:0:0:0:
256,192,60038,1,0,0:0:0:0:
256,192,60500,1,8,0:0:0:0:
256,192,60961,1,8,0:0:0:0:
256,192,61653,1,0,0:0:0:0:
256,192,61884,1,0,0:0:0:0:
256,192,62115,1,8,0:0:0:0:
256,192,62576,1,0,0:0:0:0:
256,192,62807,1,0,0:0:0:0:
256,192,63038,1,8,0:0:0:0:
256,192,63500,1,0,0:0:0:0:
256,192,63730,1,8,0:0:0:0:
256,192,64192,1,0,0:0:0:0:
256,192,64653,1,0,0:0:0:0:
256,192,65346,1,8,0:0:0:0:
256,192,65576,1,8,0:0:0:0:
256,192,65807,1,0,0:0:0:0:
256,192,66269,1,8,0:0:0:0:
256,192,66500,1,0,0:0:0:0:
256,192,66730,1,0,0:0:0:0:
256,192,66961,1,8,0:0:0:0:
256,192,73423,5,0,0:0:0:0:
256,192,74346,5,0,0:0:0:0:
256,192,74576,1,8,0:0:0:0:
256,192,74807,1,0,0:0:0:0:
256,192,75269,1,8,0:0:0:0:
256,192,75500,1,0,0:0:0:0:
256,192,75730,1,8,0:0:0:0:
256,192,76192,1,0,0:0:0:0:
256,192,76653,1,0,0:0:0:0:
256,192,77115,1,8,0:0:0:0:
256,192,78038,1,8,0:0:0:0:
256,192,78269,1,0,0:0:0:0:
256,192,78500,1,8,0:0:0:0:
256,192,78961,1,0,0:0:0:0:
256,192,79192,1,8,0:0:0:0:
256,192,79423,1,0,0:0:0:0:
256,192,79884,1,8,0:0:0:0:
256,192,80346,1,8,0:0:0:0:
256,192,80807,1,0,0:0:0:0:
256,192,81730,1,0,0:0:0:0:
256,192,81961,1,0,0:0:0:0:
256,192,82192,1,0,0:0:0:0:
256,192,82423,1,0,0:0:0:0:
256,192,83576,1,8,0:0:0:0:
256,192,83807,1,8,0:0:0:0:
256,192,84038,1,8,0:0:0:0:
256,192,85423,1,0,0:0:0:0:
256,192,85884,1,0,0:0:0:0:
256,192,87269,1,8,0:0:0:0:
256,192,87500,1,8,0:0:0:0:
256,192,87730,1,8,0:0:0:0:
256,192,87961,1,8,0:0:0:0:
256,192,89115,1,0,0:0:0:0:
256,192,89576,1,8,0:0:0:0:
256,192,89807,1,0,0:0:0:0:
256,192,90961,1,8,0:0:0:0:
256,192,91423,1,8,0:0:0:0:
256,192,92807,1,0,0:0:0:0:
256,192,93269,1,0,0:0:0:0:
256,192,93500,1,0,0:0:0:0:
256,192,94653,1,0,0:0:0:0:
256,192,96500,1,0,0:0:0:0:
256,192,96730,1,8,0:0:0:0:
256,192,96961,1,0,0:0:0:0:
256,192,97423,1,8,0:0:0:0:
256,192,97653,1,8,0:0:0:0:
256,192,97884,1,0,0:0:0:0:
256,192,98346,1,0,0:0:0:0:
256,192,98807,1,8,0:0:0:0:
256,192,99269,1,0,0:0:0:0:
256,192,100192,1,8,0:0:0:0:
256,192,100423,1,0,0:0:0:0:
256,192,100653,1,8,0:0:0:0:
256,192,101115,1,0,0:0:0:0:
256,192,101346,1,0,0:0:0:0:
256,192,101576,1,8,0:0:0:0:
256,192,102038,1,8,0:0:0:0:
256,192,102500,1,0,0:0:0:0:
256,192,102961,1,8,0:0:0:0:
256,192,103884,1,0,0:0:0:0:
256,192,104346,1,8,0:0:0:0:
256,192,104576,1,8,0:0:0:0:
256,192,104807,1,0,0:0:0:0:
256,192,105269,1,8,0:0:0:0:
256,192,105730,1,0,0:0:0:0:
256,192,105961,1,0,0:0:0:0:
256,192,106192,1,8,0:0:0:0:
256,192,106653,1,0,0:0:0:0:
256,192,107576,1,8,0:0:0:0:
256,192,108038,1,0,0:0:0:0:
256,192,108269,1,0,0:0:0:0:
256,192,108500,1,8,0:0:0:0:
256,192,108961,1,0,0:0:0:0:
256,192,109423,1,8,0:0:0:0:
256,192,109653,1,8,0:0:0:0:
256,192,109884,1,0,0:0:0:0:
256,192,110346,1,8,0:0:0:0:
256,192,111269,1,0,0:0:0:0:
256,192,111500,1,8,0:0:0:0:
256,192,111730,1,0,0:0:0:0:
256,192,112192,1,8,0:0:0:0:
256,192,112653,1,0,0:0:0:0:
256,192,113115,1,8,0:0:0:0:
256,192,113346,1,0,0:0:0:0:
256,192,113576,1,8,0:0:0:0:
256,192,114038,1,0,0:0:0:0:
256,192,114500,1,8,0:0:0:0:
256,192,114961,1,0,0:0:0:0:
256,192,115884,1,8,0:0:0:0:
256,192,116115,1,8,0:0:0:0:
256,192,116346,1,0,0:0:0:0:
256,192,116807,1,8,0:0:0:0:
256,192,117269,1,0,0:0:0:0:
256,192,117730,1,8,0:0:0:0:
256,192,118653,1,0,0:0:0:0:
256,192,118884,1,8,0:0:0:0:
256,192,119115,1,0,0:0:0:0:
256,192,119346,1,8,0:0:0:0:
256,192,119576,1,0,0:0:0:0:
256,192,120038,1,0,0:0:0:0:
256,192,120500,1,8,0:0:0:0:
256,192,120730,1,0,0:0:0:0:
256,192,120961,1,8,0:0:0:0:
256,192,121192,1,0,0:0:0:0:
256,192,121423,1,8,0:0:0:0:
256,192,122346,1,8,0:0:0:0:
256,192,122576,1,8,0:0:0:0:
256,192,122807,1,0,0:0:0:0:
256,192,123038,1,8,0:0:0:0:
256,192,123269,1,0,0:0:0:0:
256,192,123730,1,8,0:0:0:0:
256,192,124192,1,0,0:0:0:0:
256,192,124423,1,0,0:0:0:0:
256,192,124653,1,8,0:0:0:0:
256,192,124884,1,0,0:0:0:0:
256,192,125115,1,8,0:0:0:0:
256,192,125576,1,8,0:0:0:0:
256,192,126038,1,4,0:0:0:0:
