osu file format v14

[General]
AudioFilename: audio_BPM217.96.mp3
AudioLeadIn: 0
PreviewTime: 0
Countdown: 1
SampleSet: Normal
StackLeniency: 0.7
Mode: 0
LetterboxInBreaks: 0
WidescreenStoryboard: 0

[Editor]
DistanceSpacing: 0.6
BeatDivisor: 4
GridSize: 32
TimelineZoom: 1

[Metadata]
Title:war endless
TitleUnicode:无尽的战争
Artist:/Shockwave-Sound
ArtistUnicode:橙光音乐/Shockwave-Sound
Creator:Aira Siritori
Version:war endless
Source:
Tags:
BeatmapID:0
BeatmapSetID:-1

[Difficulty]
HPDrainRate:1
CircleSize:6
OverallDifficulty:10
ApproachRate:10
SliderMultiplier:2.8
SliderTickRate:1

[Events]
//Background and Video events
0,0,"bg.png",0,0
//Break Periods
//Storyboard Layer 0 (Background)
//Storyboard Layer 1 (Fail)
//Storyboard Layer 2 (Pass)
//Storyboard Layer 3 (Foreground)
//Storyboard Sound Samples

[TimingPoints]
1380,275.279867865663,4,1,0,100,1,0
1449,-100,4,2,0,30,0,0

[HitObjects]
192,96,1380,5,0,0:0:0:0:
288,160,1655,1,0,0:0:0:0:
192,128,1724,1,0,0:0:0:0:
352,288,1793,1,0,0:0:0:0:
96,192,1931,1,0,0:0:0:0:
352,128,2206,1,0,0:0:0:0:
192,224,2275,1,0,0:0:0:0:
224,192,2344,1,0,0:0:0:0:
256,224,2481,1,0,0:0:0:0:
192,96,2757,1,0,0:0:0:0:
352,256,2825,1,0,0:0:0:0:
384,160,2894,1,0,0:0:0:0:
160,32,3032,1,0,0:0:0:0:
96,288,3307,1,0,0:0:0:0:
448,64,3376,1,0,0:0:0:0:
480,352,3445,1,0,0:0:0:0:
64,128,3582,1,0,0:0:0:0:
384,192,3857,1,0,0:0:0:0:
160,160,3926,1,0,0:0:0:0:
192,256,3995,1,0,0:0:0:0:
320,64,4133,1,0,0:0:0:0:
256,256,4408,1,0,0:0:0:0:
224,96,4477,1,0,0:0:0:0:
320,320,4546,1,0,0:0:0:0:
64,256,4684,1,0,0:0:0:0:
384,64,4959,1,0,0:0:0:0:
160,288,5028,1,0,0:0:0:0:
192,128,5096,1,0,0:0:0:0:
480,64,5234,1,0,0:0:0:0:
96,128,5509,1,0,0:0:0:0:
384,96,5578,1,0,0:0:0:0:
160,320,5647,1,0,0:0:0:0:
288,64,5785,2,0,L|320:128,1,70
224,320,5922,2,0,L|160:288,1,70
320,76,6060,2,0,L|334:146,1,70
191,307,6198,2,0,L|138:259,1,70
347,97,6335,2,0,L|343:168,1,70
164,286,6473,2,0,L|124:227,1,70
369,124,6611,2,0,L|346:192,1,70
142,259,6748,2,0,L|120:192,1,70
382,155,6886,2,0,L|343:215,1,70
129,228,7023,2,0,L|124:156,1,70
387,189,7161,2,0,L|334:237,1,70
124,194,7299,2,0,L|138:124,1,70
384,223,7436,2,0,L|320:256,1,70
128,160,7574,2,0,L|160:96,1,70
371,256,7712,2,0,L|301:270,1,70
140,127,7849,2,0,L|188:74,1,70
350,283,7987,2,0,L|279:279,1,70
161,100,8125,2,0,L|220:60,1,70
323,305,8262,2,0,L|256:282,1,70
188,78,8400,2,0,L|255:56,1,70
292,318,8538,2,0,L|232:279,1,70
219,65,8675,2,0,L|291:60,1,70
258,323,8813,2,0,L|210:270,1,70
253,60,8950,2,0,L|323:74,1,70
224,320,9088,2,0,L|191:256,1,70
287,64,9226,2,0,L|352:95,1,70
191,307,9363,2,0,L|177:237,1,70
320,76,9501,2,0,L|373:124,1,70
164,286,9639,2,0,L|168:215,1,70
347,97,9776,2,0,L|387:156,1,70
160,192,9914,1,0,0:0:0:0:
320,224,9983,1,0,0:0:0:0:
224,128,10052,1,0,0:0:0:0:
256,288,10120,1,0,0:0:0:0:
128,64,10189,2,0,L|198:52,1,70
320,96,10465,1,0,0:0:0:0:
288,256,10533,1,0,0:0:0:0:
256,160,10602,1,0,0:0:0:0:
256,224,10740,1,0,0:0:0:0:
224,192,10809,1,0,0:0:0:0:
320,160,10877,1,0,0:0:0:0:
128,224,11015,1,0,0:0:0:0:
352,192,11084,1,0,0:0:0:0:
320,160,11153,1,0,0:0:0:0:
128,192,11290,1,0,0:0:0:0:
160,224,11359,1,0,0:0:0:0:
320,256,11428,1,0,0:0:0:0:
224,160,11566,1,0,0:0:0:0:
256,256,11634,1,0,0:0:0:0:
288,96,11703,1,0,0:0:0:0:
320,352,11841,1,0,0:0:0:0:
160,64,11910,1,0,0:0:0:0:
128,288,11979,1,0,0:0:0:0:
384,224,12116,1,0,0:0:0:0:
160,192,12185,1,0,0:0:0:0:
320,224,12254,1,0,0:0:0:0:
224,96,12391,1,0,0:0:0:0:
192,320,12460,1,0,0:0:0:0:
352,352,12529,1,0,0:0:0:0:
448,64,12667,1,0,0:0:0:0:
96,288,12736,1,0,0:0:0:0:
128,128,12805,1,0,0:0:0:0:
352,224,12942,1,0,0:0:0:0:
320,128,13011,1,0,0:0:0:0:
288,288,13080,1,0,0:0:0:0:
384,128,13217,1,0,0:0:0:0:
96,160,13286,1,0,0:0:0:0:
448,192,13355,1,0,0:0:0:0:
64,96,13493,5,0,0:0:0:0:
416,320,13562,1,0,0:0:0:0:
384,32,13630,1,0,0:0:0:0:
224,160,13768,1,0,0:0:0:0:
256,256,13837,1,0,0:0:0:0:
288,96,13906,1,0,0:0:0:0:
416,288,14043,5,0,0:0:0:0:
128,256,14112,1,0,0:0:0:0:
352,160,14181,1,0,0:0:0:0:
64,288,14318,1,0,0:0:0:0:
480,64,14387,1,0,0:0:0:0:
512,352,14456,1,0,0:0:0:0:
128,128,14594,1,0,0:0:0:0:
384,256,14731,1,0,0:0:0:0:
128,128,14869,1,0,0:0:0:0:
352,256,14938,1,0,0:0:0:0:
192,128,15007,1,0,0:0:0:0:
224,256,15075,1,0,0:0:0:0:
256,160,15144,1,0,0:0:0:0:
288,160,15213,1,0,0:0:0:0:
192,224,15282,1,0,0:0:0:0:
352,224,15351,1,0,0:0:0:0:
192,192,15420,1,0,0:0:0:0:
224,192,15488,1,0,0:0:0:0:
256,192,15557,1,0,0:0:0:0:
288,192,15626,1,0,0:0:0:0:
224,96,15695,1,0,0:0:0:0:
256,288,15764,1,0,0:0:0:0:
288,96,15833,1,0,0:0:0:0:
320,288,15901,1,0,0:0:0:0:
160,256,15970,1,0,0:0:0:0:
320,128,16039,1,0,0:0:0:0:
288,256,16108,1,0,0:0:0:0:
256,128,16177,1,0,0:0:0:0:
224,128,16245,1,0,0:0:0:0:
224,224,16314,1,0,0:0:0:0:
288,192,16383,1,0,0:0:0:0:
224,224,16452,1,0,0:0:0:0:
224,128,16521,1,0,0:0:0:0:
192,256,16590,1,0,0:0:0:0:
352,256,16658,1,0,0:0:0:0:
128,128,16727,1,0,0:0:0:0:
384,160,16796,1,0,0:0:0:0:
128,192,16865,1,0,0:0:0:0:
128,224,16934,1,0,0:0:0:0:
352,224,17002,1,0,0:0:0:0:
192,160,17071,1,0,0:0:0:0:
192,192,17140,1,0,0:0:0:0:
320,160,17209,1,0,0:0:0:0:
224,224,17278,1,0,0:0:0:0:
256,160,17347,1,0,0:0:0:0:
288,224,17415,1,0,0:0:0:0:
224,192,17484,1,0,0:0:0:0:
288,160,17553,1,0,0:0:0:0:
256,224,17622,1,0,0:0:0:0:
224,160,17691,1,0,0:0:0:0:
192,224,17760,1,0,0:0:0:0:
352,224,17828,1,0,0:0:0:0:
128,160,17897,1,0,0:0:0:0:
96,224,17966,1,0,0:0:0:0:
448,224,18035,1,0,0:0:0:0:
32,160,18104,1,0,0:0:0:0:
32,256,18172,1,0,0:0:0:0:
480,288,18241,1,0,0:0:0:0:
32,64,18310,1,0,0:0:0:0:
64,320,18379,1,0,0:0:0:0:
416,320,18448,1,0,0:0:0:0:
128,64,18517,1,0,0:0:0:0:
160,320,18585,1,0,0:0:0:0:
192,64,18654,1,0,0:0:0:0:
288,64,18723,1,0,0:0:0:0:
256,320,18792,1,0,0:0:0:0:
288,64,18861,1,0,0:0:0:0:
192,64,18929,1,0,0:0:0:0:
352,320,18998,1,0,0:0:0:0:
160,288,19067,1,0,0:0:0:0:
352,128,19136,1,0,0:0:0:0:
352,224,19205,1,0,0:0:0:0:
160,192,19274,1,0,0:0:0:0:
352,224,19342,1,0,0:0:0:0:
352,128,19411,1,0,0:0:0:0:
160,96,19480,1,0,0:0:0:0:
384,288,19549,1,0,0:0:0:0:
416,96,19618,1,0,0:0:0:0:
64,96,19686,1,0,0:0:0:0:
480,288,19755,1,0,0:0:0:0:
480,128,19824,1,0,0:0:0:0:
32,160,19893,1,0,0:0:0:0:
480,192,19962,1,0,0:0:0:0:
480,224,20031,1,0,0:0:0:0:
32,256,20099,1,0,0:0:0:0:
480,96,20168,1,0,0:0:0:0:
480,320,20237,1,0,0:0:0:0:
32,352,20306,1,0,0:0:0:0:
448,32,20375,1,0,0:0:0:0:
416,352,20444,1,0,0:0:0:0:
384,32,20512,1,0,0:0:0:0:
160,32,20581,1,0,0:0:0:0:
320,352,20650,1,0,0:0:0:0:
256,32,20719,1,0,0:0:0:0:
256,96,20788,1,0,0:0:0:0:
256,224,20856,1,0,0:0:0:0:
288,160,20925,1,0,0:0:0:0:
192,160,20994,1,0,0:0:0:0:
352,224,21063,1,0,0:0:0:0:
128,224,21132,1,0,0:0:0:0:
416,160,21201,1,0,0:0:0:0:
416,192,21269,1,0,0:0:0:0:
96,160,21338,1,0,0:0:0:0:
416,256,21407,1,0,0:0:0:0:
416,96,21476,1,0,0:0:0:0:
128,96,21545,1,0,0:0:0:0:
352,288,21613,1,0,0:0:0:0:
320,96,21682,1,0,0:0:0:0:
288,288,21751,1,0,0:0:0:0:
256,288,21820,1,0,0:0:0:0:
224,96,21889,1,0,0:0:0:0:
192,288,21958,1,0,0:0:0:0:
352,288,22026,1,0,0:0:0:0:
128,96,22095,1,0,0:0:0:0:
416,96,22164,1,0,0:0:0:0:
64,288,22233,1,0,0:0:0:0:
32,96,22302,1,0,0:0:0:0:
480,128,22370,1,0,0:0:0:0:
32,224,22439,1,0,0:0:0:0:
32,192,22508,1,0,0:0:0:0:
480,224,22577,1,0,0:0:0:0:
32,128,22646,1,0,0:0:0:0:
32,288,22715,1,0,0:0:0:0:
480,320,22783,1,0,0:0:0:0:
64,64,22852,1,0,0:0:0:0:
96,320,22921,1,0,0:0:0:0:
384,320,22990,1,0,0:0:0:0:
160,64,23059,1,0,0:0:0:0:
192,320,23128,1,0,0:0:0:0:
224,64,23196,1,0,0:0:0:0:
256,64,23265,1,0,0:0:0:0:
256,288,23334,1,0,0:0:0:0:
256,128,23403,1,0,0:0:0:0:
256,160,23472,1,0,0:0:0:0:
256,192,23540,1,0,0:0:0:0:
256,224,23609,1,0,0:0:0:0:
256,256,23678,1,0,0:0:0:0:
256,96,23747,1,0,0:0:0:0:
256,320,23816,1,0,0:0:0:0:
288,320,23885,1,0,0:0:0:0:
320,64,23953,1,0,0:0:0:0:
352,320,24022,1,0,0:0:0:0:
128,320,24091,1,0,0:0:0:0:
416,64,24160,1,0,0:0:0:0:
64,64,24229,1,0,0:0:0:0:
480,320,24297,1,0,0:0:0:0:
480,96,24366,1,0,0:0:0:0:
32,128,24435,1,0,0:0:0:0:
480,224,24504,1,0,0:0:0:0:
480,192,24573,1,0,0:0:0:0:
32,224,24642,1,0,0:0:0:0:
480,128,24710,1,0,0:0:0:0:
480,288,24779,1,0,0:0:0:0:
32,320,24848,1,0,0:0:0:0:
480,32,24917,1,0,0:0:0:0:
448,352,24986,1,0,0:0:0:0:
96,352,25055,1,0,0:0:0:0:
384,32,25123,1,0,0:0:0:0:
352,352,25192,1,0,0:0:0:0:
320,32,25261,1,0,0:0:0:0:
224,32,25329,1,0,0:0:0:0:
256,352,25399,1,0,0:0:0:0:
256,64,25467,1,0,0:0:0:0:
256,96,25536,1,0,0:0:0:0:
256,256,25605,1,0,0:0:0:0:
256,160,25674,1,0,0:0:0:0:
256,192,25742,1,0,0:0:0:0:
256,224,25812,1,0,0:0:0:0:
256,128,25880,1,0,0:0:0:0:
256,288,25949,1,0,0:0:0:0:
256,64,26018,1,0,0:0:0:0:
256,352,26086,1,0,0:0:0:0:
288,352,26156,1,0,0:0:0:0:
192,32,26224,1,0,0:0:0:0:
160,352,26293,1,0,0:0:0:0:
384,352,26362,1,0,0:0:0:0:
96,32,26431,1,0,0:0:0:0:
448,32,26499,1,0,0:0:0:0:
32,352,26569,1,0,0:0:0:0:
0,32,26637,1,0,0:0:0:0:
512,64,26706,1,0,0:0:0:0:
32,288,26775,1,0,0:0:0:0:
64,128,26844,1,0,0:0:0:0:
416,160,26912,1,0,0:0:0:0:
128,192,26982,1,0,0:0:0:0:
160,224,27050,1,0,0:0:0:0:
320,256,27119,1,0,0:0:0:0:
224,96,27188,1,0,0:0:0:0:
256,320,27256,1,0,0:0:0:0:
288,32,27326,1,0,0:0:0:0:
192,64,27394,1,0,0:0:0:0:
352,288,27463,1,0,0:0:0:0:
128,256,27532,1,0,0:0:0:0:
512,128,27669,1,0,0:0:0:0:
128,384,28358,1,0,0:0:0:0:
32,32,28426,1,0,0:0:0:0:
