osu file format v14

[General]
AudioFilename: audio_BPM197.68.mp3
AudioLeadIn: 0
PreviewTime: 0
Countdown: 1
SampleSet: Normal
StackLeniency: 0.7
Mode: 0
LetterboxInBreaks: 0
WidescreenStoryboard: 0

[Editor]
DistanceSpacing: 0.6
BeatDivisor: 4
GridSize: 32
TimelineZoom: 1

[Metadata]
Title:war endless
TitleUnicode:无尽的战争
Artist:/Shockwave-Sound
ArtistUnicode:橙光音乐/Shockwave-Sound
Creator:Aira Siritori
Version:last war
Source:
Tags:
BeatmapID:0
BeatmapSetID:-1

[Difficulty]
HPDrainRate:1
CircleSize:7
OverallDifficulty:10
ApproachRate:10
SliderMultiplier:2.8
SliderTickRate:1

[Events]
//Background and Video events
0,0,"bg.png",0,0
//Break Periods
//Storyboard Layer 0 (Background)
//Storyboard Layer 1 (Fail)
//Storyboard Layer 2 (Pass)
//Storyboard Layer 3 (Foreground)
//Storyboard Sound Samples

[TimingPoints]
1522,303.520841764468,4,1,0,100,1,0
1598,-100,4,2,0,30,0,0

[HitObjects]
192,96,1522,5,0,0:0:0:0:
288,160,1825,1,0,0:0:0:0:
320,128,1901,1,0,0:0:0:0:
352,96,1977,1,0,0:0:0:0:
96,192,2129,1,0,0:0:0:0:
352,256,2432,1,0,0:0:0:0:
320,224,2508,1,0,0:0:0:0:
288,192,2584,1,0,0:0:0:0:
256,224,2736,1,0,0:0:0:0:
192,288,3040,1,0,0:0:0:0:
160,256,3115,1,0,0:0:0:0:
128,224,3191,1,0,0:0:0:0:
352,32,3343,1,0,0:0:0:0:
96,96,3646,1,0,0:0:0:0:
64,64,3723,1,0,0:0:0:0:
32,32,3798,1,0,0:0:0:0:
448,128,3950,1,0,0:0:0:0:
128,192,4253,1,0,0:0:0:0:
160,160,4329,1,0,0:0:0:0:
192,128,4405,1,0,0:0:0:0:
320,64,4557,1,0,0:0:0:0:
256,128,4860,1,0,0:0:0:0:
224,96,4936,1,0,0:0:0:0:
192,64,5012,1,0,0:0:0:0:
448,256,5164,1,0,0:0:0:0:
128,320,5467,1,0,0:0:0:0:
160,288,5544,1,0,0:0:0:0:
192,256,5619,1,0,0:0:0:0:
480,64,5771,1,0,0:0:0:0:
96,128,6075,1,0,0:0:0:0:
128,96,6151,1,0,0:0:0:0:
160,64,6226,1,0,0:0:0:0:
288,64,6378,2,0,L|320:128,1,70
224,320,6530,2,0,L|160:288,1,70
320,76,6682,2,0,L|334:146,1,70
191,307,6834,2,0,L|138:259,1,70
347,97,6985,2,0,L|343:168,1,70
164,286,7137,2,0,L|124:227,1,70
369,124,7289,2,0,L|346:192,1,70
142,259,7441,2,0,L|120:192,1,70
382,155,7592,2,0,L|343:215,1,70
129,228,7744,2,0,L|124:156,1,70
387,189,7896,2,0,L|334:237,1,70
124,194,8048,2,0,L|138:124,1,70
384,223,8199,2,0,L|320:256,1,70
128,160,8351,2,0,L|160:96,1,70
371,256,8503,2,0,L|301:270,1,70
140,127,8655,2,0,L|188:74,1,70
350,283,8806,2,0,L|279:279,1,70
161,100,8958,2,0,L|220:60,1,70
323,305,9110,2,0,L|256:282,1,70
188,78,9262,2,0,L|255:56,1,70
292,318,9414,2,0,L|232:279,1,70
219,65,9565,2,0,L|291:60,1,70
258,323,9717,2,0,L|210:270,1,70
253,60,9869,2,0,L|323:74,1,70
224,320,10020,2,0,L|191:256,1,70
287,64,10172,2,0,L|352:95,1,70
191,307,10324,2,0,L|177:237,1,70
320,76,10476,2,0,L|373:124,1,70
164,286,10628,2,0,L|168:215,1,70
347,97,10779,2,0,L|387:156,1,70
352,192,10931,1,0,0:0:0:0:
320,224,11007,1,0,0:0:0:0:
288,256,11083,1,0,0:0:0:0:
256,288,11159,1,0,0:0:0:0:
128,64,11235,2,0,L|198:52,1,70
320,96,11538,1,0,0:0:0:0:
288,128,11614,1,0,0:0:0:0:
256,160,11690,1,0,0:0:0:0:
256,224,11841,1,0,0:0:0:0:
288,192,11918,1,0,0:0:0:0:
320,160,11993,1,0,0:0:0:0:
128,160,12145,1,0,0:0:0:0:
160,192,12221,1,0,0:0:0:0:
192,224,12297,1,0,0:0:0:0:
384,192,12449,1,0,0:0:0:0:
352,160,12525,1,0,0:0:0:0:
320,128,12600,1,0,0:0:0:0:
224,160,12752,1,0,0:0:0:0:
256,128,12828,1,0,0:0:0:0:
288,96,12904,1,0,0:0:0:0:
192,32,13056,1,0,0:0:0:0:
160,64,13132,1,0,0:0:0:0:
128,96,13208,1,0,0:0:0:0:
384,224,13359,1,0,0:0:0:0:
352,192,13435,1,0,0:0:0:0:
320,160,13511,1,0,0:0:0:0:
224,288,13663,1,0,0:0:0:0:
192,320,13739,1,0,0:0:0:0:
160,352,13814,1,0,0:0:0:0:
448,320,13967,1,0,0:0:0:0:
416,288,14042,1,0,0:0:0:0:
384,256,14118,1,0,0:0:0:0:
160,224,14270,1,0,0:0:0:0:
192,256,14346,1,0,0:0:0:0:
224,288,14422,1,0,0:0:0:0:
384,256,14573,1,0,0:0:0:0:
416,224,14649,1,0,0:0:0:0:
448,192,14725,1,0,0:0:0:0:
64,288,14877,5,0,0:0:0:0:
96,320,14953,1,0,0:0:0:0:
128,352,15029,1,0,0:0:0:0:
288,160,15181,1,0,0:0:0:0:
256,128,15256,1,0,0:0:0:0:
224,96,15332,1,0,0:0:0:0:
416,96,15484,5,0,0:0:0:0:
384,128,15560,1,0,0:0:0:0:
352,160,15636,1,0,0:0:0:0:
64,96,15787,1,0,0:0:0:0:
32,64,15863,1,0,0:0:0:0:
0,32,15939,1,0,0:0:0:0:
384,128,16091,1,0,0:0:0:0:
128,128,16243,1,0,0:0:0:0:
384,128,16394,1,0,0:0:0:0:
352,128,16471,1,0,0:0:0:0:
320,128,16546,1,0,0:0:0:0:
288,128,16622,1,0,0:0:0:0:
256,160,16698,1,0,0:0:0:0:
288,160,16774,1,0,0:0:0:0:
320,160,16850,1,0,0:0:0:0:
352,160,16925,1,0,0:0:0:0:
320,192,17002,1,0,0:0:0:0:
288,192,17077,1,0,0:0:0:0:
256,192,17153,1,0,0:0:0:0:
224,192,17229,1,0,0:0:0:0:
288,96,17305,1,0,0:0:0:0:
256,96,17381,1,0,0:0:0:0:
224,96,17457,1,0,0:0:0:0:
192,96,17533,1,0,0:0:0:0:
160,128,17609,1,0,0:0:0:0:
192,128,17684,1,0,0:0:0:0:
224,128,17760,1,0,0:0:0:0:
256,128,17836,1,0,0:0:0:0:
288,128,17912,1,0,0:0:0:0:
288,160,17988,1,0,0:0:0:0:
288,192,18064,1,0,0:0:0:0:
288,224,18140,1,0,0:0:0:0:
288,256,18216,1,0,0:0:0:0:
320,256,18292,1,0,0:0:0:0:
352,256,18367,1,0,0:0:0:0:
384,256,18443,1,0,0:0:0:0:
384,224,18519,1,0,0:0:0:0:
384,192,18595,1,0,0:0:0:0:
384,160,18671,1,0,0:0:0:0:
352,160,18747,1,0,0:0:0:0:
320,160,18823,1,0,0:0:0:0:
320,192,18898,1,0,0:0:0:0:
320,224,18974,1,0,0:0:0:0:
288,224,19050,1,0,0:0:0:0:
256,224,19126,1,0,0:0:0:0:
224,224,19202,1,0,0:0:0:0:
224,192,19278,1,0,0:0:0:0:
224,160,19354,1,0,0:0:0:0:
256,160,19430,1,0,0:0:0:0:
288,160,19506,1,0,0:0:0:0:
320,160,19582,1,0,0:0:0:0:
352,160,19657,1,0,0:0:0:0:
384,160,19733,1,0,0:0:0:0:
416,160,19809,1,0,0:0:0:0:
448,160,19885,1,0,0:0:0:0:
480,160,19961,1,0,0:0:0:0:
480,128,20037,1,0,0:0:0:0:
480,96,20113,1,0,0:0:0:0:
480,64,20188,1,0,0:0:0:0:
448,64,20264,1,0,0:0:0:0:
416,64,20340,1,0,0:0:0:0:
384,64,20416,1,0,0:0:0:0:
352,64,20492,1,0,0:0:0:0:
320,64,20568,1,0,0:0:0:0:
288,64,20644,1,0,0:0:0:0:
256,64,20719,1,0,0:0:0:0:
224,64,20796,1,0,0:0:0:0:
192,64,20871,1,0,0:0:0:0:
160,64,20947,1,0,0:0:0:0:
160,96,21023,1,0,0:0:0:0:
160,128,21099,1,0,0:0:0:0:
160,160,21175,1,0,0:0:0:0:
160,192,21251,1,0,0:0:0:0:
160,224,21327,1,0,0:0:0:0:
160,256,21403,1,0,0:0:0:0:
160,288,21478,1,0,0:0:0:0:
128,288,21555,1,0,0:0:0:0:
96,288,21630,1,0,0:0:0:0:
64,288,21706,1,0,0:0:0:0:
32,288,21782,1,0,0:0:0:0:
32,256,21858,1,0,0:0:0:0:
32,224,21934,1,0,0:0:0:0:
32,192,22009,1,0,0:0:0:0:
32,160,22086,1,0,0:0:0:0:
32,128,22161,1,0,0:0:0:0:
32,96,22237,1,0,0:0:0:0:
32,64,22313,1,0,0:0:0:0:
32,32,22389,1,0,0:0:0:0:
64,32,22465,1,0,0:0:0:0:
96,32,22541,1,0,0:0:0:0:
128,32,22617,1,0,0:0:0:0:
160,32,22692,1,0,0:0:0:0:
192,32,22768,1,0,0:0:0:0:
256,32,22844,1,0,0:0:0:0:
256,96,22920,1,0,0:0:0:0:
256,160,22996,1,0,0:0:0:0:
224,160,23072,1,0,0:0:0:0:
192,160,23148,1,0,0:0:0:0:
160,160,23224,1,0,0:0:0:0:
128,160,23299,1,0,0:0:0:0:
96,160,23376,1,0,0:0:0:0:
96,192,23451,1,0,0:0:0:0:
96,224,23527,1,0,0:0:0:0:
96,256,23603,1,0,0:0:0:0:
96,288,23679,1,0,0:0:0:0:
128,288,23755,1,0,0:0:0:0:
160,288,23831,1,0,0:0:0:0:
192,288,23907,1,0,0:0:0:0:
224,288,23982,1,0,0:0:0:0:
256,288,24058,1,0,0:0:0:0:
288,288,24134,1,0,0:0:0:0:
320,288,24210,1,0,0:0:0:0:
352,288,24286,1,0,0:0:0:0:
384,288,24362,1,0,0:0:0:0:
416,288,24438,1,0,0:0:0:0:
448,288,24514,1,0,0:0:0:0:
480,288,24590,1,0,0:0:0:0:
480,256,24665,1,0,0:0:0:0:
480,224,24741,1,0,0:0:0:0:
480,192,24817,1,0,0:0:0:0:
480,160,24893,1,0,0:0:0:0:
480,128,24969,1,0,0:0:0:0:
480,96,25045,1,0,0:0:0:0:
480,64,25121,1,0,0:0:0:0:
448,64,25197,1,0,0:0:0:0:
416,64,25272,1,0,0:0:0:0:
384,64,25348,1,0,0:0:0:0:
352,64,25424,1,0,0:0:0:0:
320,64,25500,1,0,0:0:0:0:
288,64,25576,1,0,0:0:0:0:
256,64,25652,1,0,0:0:0:0:
256,96,25728,1,0,0:0:0:0:
256,128,25803,1,0,0:0:0:0:
256,160,25880,1,0,0:0:0:0:
256,192,25955,1,0,0:0:0:0:
256,224,26031,1,0,0:0:0:0:
256,256,26107,1,0,0:0:0:0:
256,288,26183,1,0,0:0:0:0:
256,320,26259,1,0,0:0:0:0:
224,320,26335,1,0,0:0:0:0:
192,320,26411,1,0,0:0:0:0:
160,320,26487,1,0,0:0:0:0:
128,320,26562,1,0,0:0:0:0:
96,320,26639,1,0,0:0:0:0:
64,320,26714,1,0,0:0:0:0:
32,320,26790,1,0,0:0:0:0:
32,288,26866,1,0,0:0:0:0:
32,256,26942,1,0,0:0:0:0:
32,224,27018,1,0,0:0:0:0:
32,192,27093,1,0,0:0:0:0:
32,160,27170,1,0,0:0:0:0:
32,128,27245,1,0,0:0:0:0:
32,96,27321,1,0,0:0:0:0:
32,64,27397,1,0,0:0:0:0:
32,32,27473,1,0,0:0:0:0:
64,32,27549,1,0,0:0:0:0:
96,32,27625,1,0,0:0:0:0:
128,32,27701,1,0,0:0:0:0:
160,32,27777,1,0,0:0:0:0:
192,32,27852,1,0,0:0:0:0:
224,32,27928,1,0,0:0:0:0:
256,32,28004,1,0,0:0:0:0:
256,64,28080,1,0,0:0:0:0:
256,96,28156,1,0,0:0:0:0:
256,128,28232,1,0,0:0:0:0:
256,160,28308,1,0,0:0:0:0:
256,192,28383,1,0,0:0:0:0:
256,224,28460,1,0,0:0:0:0:
256,256,28535,1,0,0:0:0:0:
256,288,28611,1,0,0:0:0:0:
256,320,28687,1,0,0:0:0:0:
256,352,28763,1,0,0:0:0:0:
288,352,28839,1,0,0:0:0:0:
320,352,28915,1,0,0:0:0:0:
352,352,28991,1,0,0:0:0:0:
384,352,29066,1,0,0:0:0:0:
416,352,29142,1,0,0:0:0:0:
448,352,29218,1,0,0:0:0:0:
480,352,29294,1,0,0:0:0:0:
512,352,29370,1,0,0:0:0:0:
512,320,29446,1,0,0:0:0:0:
480,288,29522,1,0,0:0:0:0:
448,256,29598,1,0,0:0:0:0:
416,224,29673,1,0,0:0:0:0:
384,192,29750,1,0,0:0:0:0:
352,160,29825,1,0,0:0:0:0:
320,128,29901,1,0,0:0:0:0:
288,96,29977,1,0,0:0:0:0:
256,64,30053,1,0,0:0:0:0:
224,32,30129,1,0,0:0:0:0:
192,64,30205,1,0,0:0:0:0:
160,96,30281,1,0,0:0:0:0:
128,128,30356,1,0,0:0:0:0:
512,256,30508,1,0,0:0:0:0:
128,384,31267,1,0,0:0:0:0:
480,32,31343,1,0,0:0:0:0:
