osu file format v14

[General]
AudioFilename: audio.mp3
AudioLeadIn: 0
PreviewTime: -1
Countdown: 1
SampleSet: Normal
StackLeniency: 0.7
Mode: 0
LetterboxInBreaks: 0
WidescreenStoryboard: 0

[Editor]
DistanceSpacing: 0.6
BeatDivisor: 4
GridSize: 32
TimelineZoom: 1

[Metadata]
Title:war endless
TitleUnicode:无尽的战争
Artist:/Shockwave-Sound
ArtistUnicode:橙光音乐/Shockwave-Sound
Creator:Aira Siritori
Version:begin
Source:
Tags:
BeatmapID:0
BeatmapSetID:-1

[Difficulty]
HPDrainRate:0
CircleSize:6
OverallDifficulty:10
ApproachRate:10
SliderMultiplier:2.8
SliderTickRate:1

[Events]
//Background and Video events
0,0,"bg.png",0,0
//Break Periods
//Storyboard Layer 0 (Background)
//Storyboard Layer 1 (Fail)
//Storyboard Layer 2 (Pass)
//Storyboard Layer 3 (Foreground)
//Storyboard Sound Samples

[TimingPoints]
3541,705.849136511223,4,1,0,100,1,0
3717,-100,4,2,0,30,0,0

[HitObjects]
192,96,3540,5,0,0:0:0:0:
288,224,4246,1,0,0:0:0:0:
320,128,4423,1,0,0:0:0:0:
352,288,4599,1,0,0:0:0:0:
96,192,4952,1,0,0:0:0:0:
160,128,5658,1,0,0:0:0:0:
192,224,5834,1,0,0:0:0:0:
224,192,6011,1,0,0:0:0:0:
256,160,6364,1,0,0:0:0:0:
320,288,7070,1,0,0:0:0:0:
352,128,7246,1,0,0:0:0:0:
384,224,7423,1,0,0:0:0:0:
352,32,7776,1,0,0:0:0:0:
416,288,8481,1,0,0:0:0:0:
448,64,8658,1,0,0:0:0:0:
480,352,8834,1,0,0:0:0:0:
64,128,9187,1,0,0:0:0:0:
128,192,9892,1,0,0:0:0:0:
160,224,10069,1,0,0:0:0:0:
192,128,10245,1,0,0:0:0:0:
192,320,10599,1,0,0:0:0:0:
256,128,11304,1,0,0:0:0:0:
288,288,11481,1,0,0:0:0:0:
320,64,11657,1,0,0:0:0:0:
64,256,12011,1,0,0:0:0:0:
128,64,12716,1,0,0:0:0:0:
160,288,12893,1,0,0:0:0:0:
192,128,13069,1,0,0:0:0:0:
32,320,13423,1,0,0:0:0:0:
96,128,14128,1,0,0:0:0:0:
128,288,14305,1,0,0:0:0:0:
160,64,14481,1,0,0:0:0:0:
288,320,14834,2,0,L|320:256,1,70
224,64,15187,2,0,L|160:96,1,70
320,308,15540,2,0,L|334:238,1,70
191,77,15893,2,0,L|138:125,1,70
347,287,16246,2,0,L|343:216,1,70
164,98,16599,2,0,L|124:157,1,70
369,260,16952,2,0,L|346:192,1,70
142,125,17305,2,0,L|120:192,1,70
382,229,17657,2,0,L|343:169,1,70
129,156,18010,2,0,L|124:228,1,70
387,195,18363,2,0,L|334:147,1,70
124,190,18716,2,0,L|138:260,1,70
384,161,19069,2,0,L|320:128,1,70
128,224,19422,2,0,L|160:288,1,70
371,128,19775,2,0,L|301:114,1,70
140,257,20128,2,0,L|188:310,1,70
350,101,20481,2,0,L|279:105,1,70
161,284,20834,2,0,L|220:324,1,70
323,79,21187,2,0,L|256:102,1,70
188,306,21540,2,0,L|255:328,1,70
292,66,21893,2,0,L|232:105,1,70
219,319,22246,2,0,L|291:324,1,70
258,61,22598,2,0,L|210:114,1,70
253,324,22951,2,0,L|323:310,1,70
224,64,23304,2,0,L|191:128,1,70
287,320,23657,2,0,L|352:289,1,70
191,77,24010,2,0,L|177:147,1,70
320,308,24363,2,0,L|373:260,1,70
164,98,24716,2,0,L|168:169,1,70
347,287,25069,2,0,L|387:228,1,70
352,192,25422,1,0,0:0:0:0:
320,160,25598,1,0,0:0:0:0:
288,256,25775,1,0,0:0:0:0:
256,96,25951,1,0,0:0:0:0:
128,320,26128,2,0,L|198:332,1,70
320,96,26834,1,0,0:0:0:0:
288,256,27010,1,0,0:0:0:0:
256,160,27186,1,0,0:0:0:0:
256,224,27539,1,0,0:0:0:0:
288,192,27716,1,0,0:0:0:0:
320,160,27892,1,0,0:0:0:0:
384,224,28245,1,0,0:0:0:0:
352,192,28422,1,0,0:0:0:0:
320,160,28598,1,0,0:0:0:0:
128,192,28951,1,0,0:0:0:0:
160,224,29128,1,0,0:0:0:0:
192,128,29304,1,0,0:0:0:0:
224,224,29657,1,0,0:0:0:0:
256,128,29833,1,0,0:0:0:0:
288,288,30010,1,0,0:0:0:0:
192,32,30363,1,0,0:0:0:0:
160,320,30539,1,0,0:0:0:0:
128,96,30716,1,0,0:0:0:0:
128,224,31069,1,0,0:0:0:0:
160,192,31245,1,0,0:0:0:0:
192,160,31422,1,0,0:0:0:0:
224,288,31774,1,0,0:0:0:0:
192,64,31951,1,0,0:0:0:0:
160,352,32127,1,0,0:0:0:0:
64,64,32481,1,0,0:0:0:0:
96,288,32657,1,0,0:0:0:0:
128,128,32834,1,0,0:0:0:0:
352,224,33186,1,0,0:0:0:0:
320,128,33363,1,0,0:0:0:0:
288,288,33539,1,0,0:0:0:0:
384,128,33892,1,0,0:0:0:0:
416,224,34068,1,0,0:0:0:0:
448,192,34245,1,0,0:0:0:0:
448,96,34598,5,0,0:0:0:0:
416,320,34775,1,0,0:0:0:0:
384,32,34951,1,0,0:0:0:0:
224,224,35304,1,0,0:0:0:0:
256,128,35480,1,0,0:0:0:0:
288,288,35657,1,0,0:0:0:0:
416,96,36010,5,0,0:0:0:0:
384,256,36187,1,0,0:0:0:0:
352,160,36363,1,0,0:0:0:0:
448,288,36715,1,0,0:0:0:0:
480,64,36891,1,0,0:0:0:0:
512,352,37068,1,0,0:0:0:0:
128,128,37421,1,0,0:0:0:0:
128,256,37774,1,0,0:0:0:0:
128,128,38127,1,0,0:0:0:0:
160,256,38304,1,0,0:0:0:0:
192,128,38480,1,0,0:0:0:0:
224,256,38656,1,0,0:0:0:0:
256,160,38833,1,0,0:0:0:0:
224,224,39009,1,0,0:0:0:0:
192,160,39186,1,0,0:0:0:0:
160,224,39362,1,0,0:0:0:0:
192,192,39539,1,0,0:0:0:0:
224,192,39715,1,0,0:0:0:0:
256,192,39892,1,0,0:0:0:0:
288,192,40068,1,0,0:0:0:0:
224,96,40245,1,0,0:0:0:0:
256,288,40421,1,0,0:0:0:0:
288,96,40598,1,0,0:0:0:0:
320,288,40774,1,0,0:0:0:0:
352,128,40951,1,0,0:0:0:0:
320,256,41127,1,0,0:0:0:0:
288,128,41303,1,0,0:0:0:0:
256,256,41480,1,0,0:0:0:0:
224,128,41656,1,0,0:0:0:0:
224,224,41833,1,0,0:0:0:0:
224,192,42009,1,0,0:0:0:0:
224,160,42186,1,0,0:0:0:0:
224,256,42362,1,0,0:0:0:0:
192,128,42539,1,0,0:0:0:0:
160,256,42715,1,0,0:0:0:0:
128,128,42892,1,0,0:0:0:0:
128,224,43068,1,0,0:0:0:0:
128,192,43245,1,0,0:0:0:0:
128,160,43421,1,0,0:0:0:0:
160,224,43597,1,0,0:0:0:0:
192,160,43774,1,0,0:0:0:0:
192,192,43950,1,0,0:0:0:0:
192,224,44127,1,0,0:0:0:0:
224,160,44303,1,0,0:0:0:0:
256,224,44480,1,0,0:0:0:0:
288,160,44656,1,0,0:0:0:0:
288,192,44833,1,0,0:0:0:0:
288,224,45009,1,0,0:0:0:0:
256,160,45186,1,0,0:0:0:0:
224,224,45362,1,0,0:0:0:0:
192,160,45539,1,0,0:0:0:0:
160,224,45715,1,0,0:0:0:0:
128,160,45891,1,0,0:0:0:0:
96,224,46068,1,0,0:0:0:0:
64,160,46244,1,0,0:0:0:0:
32,224,46421,1,0,0:0:0:0:
32,128,46597,1,0,0:0:0:0:
32,288,46774,1,0,0:0:0:0:
32,64,46950,1,0,0:0:0:0:
64,320,47127,1,0,0:0:0:0:
96,64,47303,1,0,0:0:0:0:
128,320,47480,1,0,0:0:0:0:
160,64,47656,1,0,0:0:0:0:
192,320,47833,1,0,0:0:0:0:
224,64,48009,1,0,0:0:0:0:
256,320,48185,1,0,0:0:0:0:
288,64,48362,1,0,0:0:0:0:
320,320,48538,1,0,0:0:0:0:
352,64,48715,1,0,0:0:0:0:
352,288,48891,1,0,0:0:0:0:
352,128,49068,1,0,0:0:0:0:
352,224,49244,1,0,0:0:0:0:
352,192,49421,1,0,0:0:0:0:
352,160,49597,1,0,0:0:0:0:
352,256,49774,1,0,0:0:0:0:
352,96,49950,1,0,0:0:0:0:
384,288,50127,1,0,0:0:0:0:
416,96,50303,1,0,0:0:0:0:
448,288,50479,1,0,0:0:0:0:
480,96,50656,1,0,0:0:0:0:
480,256,50832,1,0,0:0:0:0:
480,160,51009,1,0,0:0:0:0:
480,192,51185,1,0,0:0:0:0:
480,224,51362,1,0,0:0:0:0:
480,128,51538,1,0,0:0:0:0:
480,288,51715,1,0,0:0:0:0:
480,64,51891,1,0,0:0:0:0:
480,352,52068,1,0,0:0:0:0:
448,32,52244,1,0,0:0:0:0:
416,352,52421,1,0,0:0:0:0:
384,32,52597,1,0,0:0:0:0:
352,352,52773,1,0,0:0:0:0:
320,32,52950,1,0,0:0:0:0:
256,352,53126,1,0,0:0:0:0:
256,96,53303,1,0,0:0:0:0:
256,224,53479,1,0,0:0:0:0:
288,160,53656,1,0,0:0:0:0:
320,224,53832,1,0,0:0:0:0:
352,160,54009,1,0,0:0:0:0:
384,224,54185,1,0,0:0:0:0:
416,160,54362,1,0,0:0:0:0:
416,192,54538,1,0,0:0:0:0:
416,224,54715,1,0,0:0:0:0:
416,128,54891,1,0,0:0:0:0:
416,288,55067,1,0,0:0:0:0:
384,96,55244,1,0,0:0:0:0:
352,288,55420,1,0,0:0:0:0:
320,96,55597,1,0,0:0:0:0:
288,288,55773,1,0,0:0:0:0:
256,96,55950,1,0,0:0:0:0:
224,288,56126,1,0,0:0:0:0:
192,96,56303,1,0,0:0:0:0:
160,288,56479,1,0,0:0:0:0:
128,96,56656,1,0,0:0:0:0:
96,288,56832,1,0,0:0:0:0:
64,96,57009,1,0,0:0:0:0:
32,288,57185,1,0,0:0:0:0:
32,128,57361,1,0,0:0:0:0:
32,224,57538,1,0,0:0:0:0:
32,192,57714,1,0,0:0:0:0:
32,160,57891,1,0,0:0:0:0:
32,256,58067,1,0,0:0:0:0:
32,96,58244,1,0,0:0:0:0:
32,320,58420,1,0,0:0:0:0:
64,64,58597,1,0,0:0:0:0:
96,320,58773,1,0,0:0:0:0:
128,64,58950,1,0,0:0:0:0:
160,320,59126,1,0,0:0:0:0:
192,64,59303,1,0,0:0:0:0:
224,320,59479,1,0,0:0:0:0:
256,64,59656,1,0,0:0:0:0:
256,288,59832,1,0,0:0:0:0:
256,128,60008,1,0,0:0:0:0:
256,224,60185,1,0,0:0:0:0:
256,192,60361,1,0,0:0:0:0:
256,160,60538,1,0,0:0:0:0:
256,256,60714,1,0,0:0:0:0:
256,96,60891,1,0,0:0:0:0:
256,320,61067,1,0,0:0:0:0:
288,64,61244,1,0,0:0:0:0:
320,320,61420,1,0,0:0:0:0:
352,64,61597,1,0,0:0:0:0:
384,320,61773,1,0,0:0:0:0:
416,64,61950,1,0,0:0:0:0:
448,320,62126,1,0,0:0:0:0:
480,64,62302,1,0,0:0:0:0:
480,288,62479,1,0,0:0:0:0:
480,128,62655,1,0,0:0:0:0:
480,224,62832,1,0,0:0:0:0:
480,192,63008,1,0,0:0:0:0:
480,160,63185,1,0,0:0:0:0:
480,256,63361,1,0,0:0:0:0:
480,96,63538,1,0,0:0:0:0:
480,320,63714,1,0,0:0:0:0:
480,32,63891,1,0,0:0:0:0:
448,352,64067,1,0,0:0:0:0:
416,32,64244,1,0,0:0:0:0:
384,352,64420,1,0,0:0:0:0:
352,32,64597,1,0,0:0:0:0:
320,352,64773,1,0,0:0:0:0:
288,32,64949,1,0,0:0:0:0:
256,352,65126,1,0,0:0:0:0:
256,64,65302,1,0,0:0:0:0:
256,288,65479,1,0,0:0:0:0:
256,128,65655,1,0,0:0:0:0:
256,224,65832,1,0,0:0:0:0:
256,192,66008,1,0,0:0:0:0:
256,160,66185,1,0,0:0:0:0:
256,256,66361,1,0,0:0:0:0:
256,96,66538,1,0,0:0:0:0:
256,320,66714,1,0,0:0:0:0:
256,32,66890,1,0,0:0:0:0:
224,352,67067,1,0,0:0:0:0:
192,32,67243,1,0,0:0:0:0:
160,352,67420,1,0,0:0:0:0:
128,32,67596,1,0,0:0:0:0:
96,352,67773,1,0,0:0:0:0:
64,32,67949,1,0,0:0:0:0:
32,352,68126,1,0,0:0:0:0:
0,32,68302,1,0,0:0:0:0:
0,320,68479,1,0,0:0:0:0:
32,96,68655,1,0,0:0:0:0:
64,256,68832,1,0,0:0:0:0:
96,160,69008,1,0,0:0:0:0:
128,192,69185,1,0,0:0:0:0:
160,224,69361,1,0,0:0:0:0:
192,128,69537,1,0,0:0:0:0:
224,288,69714,1,0,0:0:0:0:
256,64,69890,1,0,0:0:0:0:
288,352,70067,1,0,0:0:0:0:
320,64,70243,1,0,0:0:0:0:
352,288,70420,1,0,0:0:0:0:
384,128,70596,1,0,0:0:0:0:
512,256,70949,1,0,0:0:0:0:
384,0,72714,1,0,0:0:0:0:
32,352,72890,1,0,0:0:0:0:
