osu file format v14

[General]
AudioFilename: audio.mp3
AudioLeadIn: 0
PreviewTime: -1
Countdown: 1
SampleSet: None
StackLeniency: 0.7
Mode: 0
LetterboxInBreaks: 0
WidescreenStoryboard: 0

[Editor]
DistanceSpacing: 0.1
BeatDivisor: 1
GridSize: 8
TimelineZoom: 1

[Metadata]
Title:Madre mia guili
TitleUnicode:Madre mia guili
Artist:Sho k c >:v
ArtistUnicode:Sho k c >:v
Creator:Akyshoshida
Version:Detective v:
Source:
Tags:gadgadgadga
BeatmapID:1296548
BeatmapSetID:614622

[Difficulty]
HPDrainRate:5
CircleSize:5
OverallDifficulty:5
ApproachRate:5
SliderMultiplier:1.4
SliderTickRate:1

[Events]
//Background and Video events
//Break Periods
2,79700,107800
//Storyboard Layer 0 (Background)
//Storyboard Layer 1 (Fail)
//Storyboard Layer 2 (Pass)
//Storyboard Layer 3 (Foreground)
//Storyboard Sound Samples

[TimingPoints]
0,500,4,1,0,100,1,0

[HitObjects]
212,157,15000,5,0,0:0:0:0:
212,157,15500,1,0,0:0:0:0:
212,157,16000,1,0,0:0:0:0:
323,155,17000,1,0,0:0:0:0:
150,125,17500,1,0,0:0:0:0:
238,71,18000,1,0,0:0:0:0:
387,106,18500,1,0,0:0:0:0:
54,320,19500,1,0,0:0:0:0:
319,320,20000,1,0,0:0:0:0:
344,171,20500,1,0,0:0:0:0:
65,212,21500,5,0,0:0:0:0:
263,244,22000,1,0,0:0:0:0:
255,100,23000,1,0,0:0:0:0:
134,119,23500,1,0,0:0:0:0:
330,211,24000,1,0,0:0:0:0:
305,95,24500,1,0,0:0:0:0:
165,126,25000,1,0,0:0:0:0:
57,306,25500,1,0,0:0:0:0:
245,317,26000,1,0,0:0:0:0:
233,211,26500,1,0,0:0:0:0:
233,211,27000,1,0,0:0:0:0:
237,214,27500,1,0,0:0:0:0:
233,211,28000,1,0,0:0:0:0:
394,181,28500,1,0,0:0:0:0:
268,82,29000,1,0,0:0:0:0:
139,181,29500,1,0,0:0:0:0:
139,181,30000,1,0,0:0:0:0:
139,181,30500,1,0,0:0:0:0:
304,214,31500,1,0,0:0:0:0:
248,287,32000,1,0,0:0:0:0:
113,122,33000,5,0,0:0:0:0:
294,229,34000,1,0,0:0:0:0:
203,266,34500,1,0,0:0:0:0:
91,231,35000,1,0,0:0:0:0:
115,136,35500,1,0,0:0:0:0:
225,178,36500,5,0,0:0:0:0:
80,171,37500,1,0,0:0:0:0:
120,97,38000,1,0,0:0:0:0:
251,213,38500,1,0,0:0:0:0:
143,106,39500,5,0,0:0:0:0:
134,209,40000,1,0,0:0:0:0:
246,211,40500,1,0,0:0:0:0:
239,115,41000,1,0,0:0:0:0:
239,115,41500,1,0,0:0:0:0:
239,115,42000,1,0,0:0:0:0:
154,126,43000,1,0,0:0:0:0:
118,222,43500,1,0,0:0:0:0:
113,220,44500,5,0,0:0:0:0:
235,218,45000,1,0,0:0:0:0:
234,151,45500,1,0,0:0:0:0:
134,33,46500,1,0,0:0:0:0:
343,58,47000,1,0,0:0:0:0:
277,219,48000,1,0,0:0:0:0:
277,219,48500,1,0,0:0:0:0:
277,219,49000,1,0,0:0:0:0:
277,219,49500,1,0,0:0:0:0:
204,202,50500,1,0,0:0:0:0:
135,153,51000,1,0,0:0:0:0:
67,110,51500,1,0,0:0:0:0:
242,62,52000,1,0,0:0:0:0:
212,184,52500,1,0,0:0:0:0:
139,190,53500,5,0,0:0:0:0:
230,109,54000,1,0,0:0:0:0:
288,223,54500,1,0,0:0:0:0:
128,184,55500,1,0,0:0:0:0:
232,164,56500,5,0,0:0:0:0:
115,175,57000,1,0,0:0:0:0:
248,108,57500,1,0,0:0:0:0:
317,255,58000,1,0,0:0:0:0:
209,230,58500,1,0,0:0:0:0:
135,129,59500,5,0,0:0:0:0:
248,204,61000,5,0,0:0:0:0:
161,102,61500,1,0,0:0:0:0:
306,118,62500,1,0,0:0:0:0:
282,227,63000,1,0,0:0:0:0:
180,220,63500,1,0,0:0:0:0:
184,118,64000,1,0,0:0:0:0:
243,179,64500,1,0,0:0:0:0:
243,179,65000,1,0,0:0:0:0:
243,179,65500,1,0,0:0:0:0:
243,179,66000,1,0,0:0:0:0:
288,169,67000,5,0,0:0:0:0:
150,155,67500,1,0,0:0:0:0:
187,251,68000,1,0,0:0:0:0:
187,251,69000,1,0,0:0:0:0:
174,197,70500,5,0,0:0:0:0:
243,121,71000,1,0,0:0:0:0:
305,201,71500,1,0,0:0:0:0:
195,252,72000,1,0,0:0:0:0:
90,149,72500,1,0,0:0:0:0:
48,316,73000,1,0,0:0:0:0:
426,362,73500,1,0,0:0:0:0:
441,206,74000,1,0,0:0:0:0:
192,238,74500,1,0,0:0:0:0:
165,109,75500,1,0,0:0:0:0:
274,210,76000,1,0,0:0:0:0:
145,235,77000,1,0,0:0:0:0:
314,148,78000,1,0,0:0:0:0:
117,163,78500,5,0,0:0:0:0:
229,268,79000,1,0,0:0:0:0:
371,153,79500,1,0,0:0:0:0:
252,189,109000,5,0,0:0:0:0:
252,189,109500,1,0,0:0:0:0:
252,189,110000,1,0,0:0:0:0:
137,135,110500,1,0,0:0:0:0:
292,53,111000,1,0,0:0:0:0:
134,191,111500,1,0,0:0:0:0:
77,64,112000,1,0,0:0:0:0:
242,151,113000,1,0,0:0:0:0:
123,141,114000,5,0,0:0:0:0:
128,145,114500,1,0,0:0:0:0:
310,164,116000,1,0,0:0:0:0:
214,178,116500,1,0,0:0:0:0:
377,93,117000,1,0,0:0:0:0:
228,143,118500,1,0,0:0:0:0:
194,226,119000,1,0,0:0:0:0:
313,222,119500,1,0,0:0:0:0:
162,236,120500,1,0,0:0:0:0:
292,240,121500,1,0,0:0:0:0:
141,232,122500,1,0,0:0:0:0:
141,232,123000,1,0,0:0:0:0:
368,212,123500,1,0,0:0:0:0:
173,149,124500,5,0,0:0:0:0:
33,338,125500,1,0,0:0:0:0:
242,342,126000,1,0,0:0:0:0:
270,219,126500,1,0,0:0:0:0:
138,190,127000,1,0,0:0:0:0:
259,127,127500,1,0,0:0:0:0:
77,87,128000,1,0,0:0:0:0:
169,35,128500,1,0,0:0:0:0:
304,73,129000,1,0,0:0:0:0:
286,227,129500,1,0,0:0:0:0:
453,262,130000,1,0,0:0:0:0:
500,342,130500,1,0,0:0:0:0:
247,259,131000,1,0,0:0:0:0:
173,165,132000,1,0,0:0:0:0:
173,165,132500,1,0,0:0:0:0:
341,137,133000,1,0,0:0:0:0:
164,163,133500,1,0,0:0:0:0:
168,166,134000,1,0,0:0:0:0:
168,166,134500,1,0,0:0:0:0:
238,80,135000,1,0,0:0:0:0:
238,80,136000,1,0,0:0:0:0:
108,129,136500,1,0,0:0:0:0:
93,240,137500,1,0,0:0:0:0:
197,217,138000,5,0,0:0:0:0:
194,147,138500,1,0,0:0:0:0:
296,108,139000,1,0,0:0:0:0:
315,132,139500,1,0,0:0:0:0:
188,165,140500,1,0,0:0:0:0:
122,184,141000,1,0,0:0:0:0:
130,291,141500,1,0,0:0:0:0:
221,183,142500,5,0,0:0:0:0:
221,183,143000,1,0,0:0:0:0:
387,118,144000,1,0,0:0:0:0:
161,80,144500,1,0,0:0:0:0:
201,280,146000,1,0,0:0:0:0:
146,199,147500,1,0,0:0:0:0:
308,106,148000,1,0,0:0:0:0:
166,197,148500,1,0,0:0:0:0:
169,155,149000,1,0,0:0:0:0:
256,192,149500,12,0,150000,0:0:0:0:
