osu file format v14

[General]
AudioFilename: audio.mp3
AudioLeadIn: 0
PreviewTime: 41331
Countdown: 0
SampleSet: Soft
StackLeniency: 0.7
Mode: 0
LetterboxInBreaks: 0
WidescreenStoryboard: 0

[Editor]
DistanceSpacing: 0.6
BeatDivisor: 4
GridSize: 16
TimelineZoom: 1

[Metadata]
Title:SUPER CHOCOLATE
TitleUnicode:SUPER CHOCOLATE
Artist:Shizuru (CV: Nabatame Hitomi), Rino (CV: Asumi Kana)
ArtistUnicode:シズル (CV: 生天目仁美), リノ (CV: 阿澄佳奈)
Creator:Usaha
Version:Honmei
Source:プリンセスコネクト!Re:Dive
Tags:princess connect re:dive re dive video game japanese pop priconne プリコネ cygames purikone nagi hisakawa cyndere -rei bongo
BeatmapID:3607678
BeatmapSetID:1762615

[Difficulty]
HPDrainRate:5
CircleSize:4.5
OverallDifficulty:9
ApproachRate:9.3
SliderMultiplier:1.74
SliderTickRate:1

[Events]
//Background and Video events
0,0,"3f3061a3.jpg",0,0
Video,98,"supah choco.mp4"
//Break Periods
//Storyboard Layer 0 (Background)
//Storyboard Layer 1 (Fail)
//Storyboard Layer 2 (Pass)
//Storyboard Layer 3 (Foreground)
//Storyboard Layer 4 (Overlay)
//Storyboard Sound Samples

[TimingPoints]
575,292.682926829268,4,2,1,80,1,0
11111,-125,4,2,1,80,0,0
11404,-125,4,2,1,70,0,0
20477,-100,4,2,1,75,0,0
29843,-75.187969924812,4,2,1,75,0,0
30135,-125,4,2,1,70,0,0
34526,-125,4,2,1,80,0,0
40379,-100,4,2,1,80,0,0
41550,-90.9090909090909,4,2,1,85,0,1
49160,-76.9230769230769,4,2,1,85,0,1
49453,-90.9090909090909,4,2,1,85,0,1
55892,-81.9672131147541,4,2,1,85,0,1
56184,-90.9090909090909,4,2,1,85,0,1
56477,-81.9672131147541,4,2,1,85,0,1
56770,-90.9090909090909,4,2,1,85,0,1
57062,-81.9672131147541,4,2,1,85,0,1
57355,-90.9090909090909,4,2,1,85,0,1
57648,-81.9672131147541,4,2,1,85,0,1
57794,-90.9090909090909,4,2,1,85,0,1
58965,-90.9090909090909,4,2,1,80,0,0
60282,-100,4,2,1,80,0,0
70672,-166.666666666667,4,2,1,80,0,0
71257,-166.666666666667,4,2,1,5,0,0

[Colours]
Combo1 : 164,219,187
Combo2 : 201,155,227
Combo3 : 129,175,254
Combo4 : 224,158,201

[HitObjects]
256,192,575,12,8,1453,0:2:0:0:
73,310,1745,6,0,P|50:268|59:222,1,87,4|0,1:2|0:2,0:2:0:0:
223,278,2038,2,0,P|198:318|153:334,1,87,10|0,0:2|0:2,0:2:0:0:
151,219,2331,5,0,1:2:0:0:
151,219,2477,1,2,0:2:0:0:
324,290,2623,1,8,0:2:0:0:
288,115,2770,2,0,P|276:68|286:17,1,87,2|0,0:2|1:2,0:2:0:0:
247,287,3062,6,0,P|223:329|219:381,1,87,2|8,0:2|0:2,0:2:0:0:
192,108,3355,6,0,P|158:73|141:24,1,87,2|0,0:2|1:2,0:2:0:0:
97,291,3648,5,2,0:2:0:0:
269,192,3794,1,10,0:2:0:0:
84,152,3940,5,2,0:2:0:0:
269,192,4087,2,0,P|317:189|354:165,1,87,0|0,1:2|0:2,0:2:0:0:
212,26,4379,2,0,P|190:69|192:113,1,87,10|0,0:2|0:2,0:2:0:0:
340,35,4672,5,0,1:2:0:0:
340,35,4818,1,2,0:2:0:0:
447,126,4965,1,8,0:2:0:0:
328,277,5111,2,0,L|229:262,1,87,2|0,0:2|1:2,0:2:0:0:
377,176,5404,6,0,L|278:161,1,87,2|8,0:2|0:2,0:2:0:0:
310,306,5696,6,0,L|211:291,1,87,2|0,0:2|1:2,0:2:0:0:
383,149,5989,5,2,0:2:0:0:
426,244,6135,1,10,0:2:0:0:
465,60,6282,5,2,0:2:0:0:
274,148,6428,2,0,P|254:194|266:243,1,87,0|0,1:2|0:2,0:2:0:0:
402,340,6721,2,0,P|451:334|488:299,1,87,10|0,0:2|0:2,0:2:0:0:
421,147,7014,5,0,1:2:0:0:
421,147,7160,1,2,0:2:0:0:
304,333,7306,1,8,0:2:0:0:
148,197,7453,2,0,P|99:195|54:220,1,87,2|0,0:2|1:2,0:2:0:0:
233,194,7745,6,0,P|210:150|166:124,1,87,2|8,0:2|0:2,0:2:0:0:
289,261,8038,6,0,P|315:219|316:168,1,87,2|0,0:2|1:2,0:2:0:0:
198,62,8331,5,2,0:2:0:0:
380,121,8477,1,2,0:2:0:0:
198,62,8623,1,2,0:2:0:0:
398,34,8770,5,12,0:2:0:0:
173,169,8916,1,8,0:2:0:0:
111,110,9209,5,8,0:2:0:0:
388,233,9355,1,8,0:2:0:0:
441,178,9648,5,8,0:2:0:0:
161,299,9794,2,0,L|151:207,1,87,8|0,0:2|0:2,0:2:0:0:
459,259,10087,5,8,0:2:0:0:
179,380,10233,2,0,L|189:288,1,87,8|0,0:2|0:2,0:2:0:0:
441,178,10526,6,0,P|447:137|412:116,1,87,8|0,0:2|0:2,0:2:0:0:
211,120,10818,6,0,P|204:79|239:58,1,87,8|0,0:2|0:2,0:2:0:0:
291,153,11111,6,0,P|263:189|161:189,1,139.2,0|2,1:2|0:2,0:2:0:0:
174,197,11696,2,0,P|219:203|270:291,1,139.2,2|0,0:2|0:2,0:2:0:0:
270,275,12282,6,0,L|281:180,1,69.6,2|0,1:2|0:2,0:2:0:0:
367,238,12574,1,8,0:2:0:0:
198,179,12721,6,0,L|187:84,1,69.6,2|0,1:2|0:2,0:2:0:0:
101,142,13013,1,8,0:2:0:0:
295,114,13160,6,0,L|306:19,1,69.6,2|0,1:2|0:2,0:2:0:0:
387,179,13453,6,0,P|432:177|443:87,1,139.2,2|0,1:2|0:2,0:2:0:0:
453,98,14038,6,0,P|432:137|504:192,1,139.2,2|0,0:2|0:2,0:2:0:0:
490,195,14623,6,0,L|400:186,1,69.6,2|0,1:2|0:2,0:2:0:0:
470,90,14916,1,8,0:2:0:0:
376,270,15062,6,0,L|466:261,1,69.6,2|0,1:2|0:2,0:2:0:0:
384,121,15355,1,8,0:2:0:0:
482,348,15501,6,0,L|392:339,1,69.6,2|0,1:2|0:2,0:2:0:0:
220,326,15794,6,0,B|138:299|155:339|65:313,1,139.2,0|0,1:2|0:2,0:2:0:0:
82,317,16379,2,0,P|136:280|150:206,1,139.2,2|0,0:2|0:2,0:2:0:0:
150,211,16965,6,0,L|160:286,1,69.6,2|0,1:2|0:2,0:2:0:0:
234,166,17257,1,8,0:2:0:0:
64,198,17404,6,0,L|74:123,1,69.6,2|0,1:2|0:2,0:2:0:0:
0,83,17696,1,8,0:2:0:0:
234,166,17843,6,0,L|244:241,1,69.6,2|0,1:2|0:2,0:2:0:0:
353,321,18135,6,0,P|405:322|407:230,1,139.2,2|8,1:2|0:2,0:2:0:0:
341,139,18574,2,0,P|340:175|357:212,1,69.6,2|0,1:2|0:2,0:2:0:0:
470,113,18867,1,8,0:2:0:0:
324,145,19014,2,0,P|326:180|347:215,1,69.6,2|0,1:2|0:2,0:2:0:0:
217,37,19306,6,0,P|165:36|163:128,1,139.2,2|8,1:2|0:2,0:2:0:0:
229,219,19745,2,0,P|230:183|213:146,1,69.6,2|0,1:2|0:2,0:2:0:0:
100,245,20038,1,8,0:2:0:0:
246,213,20184,2,0,P|244:178|223:143,1,69.6,2|0,1:2|0:2,0:2:0:0:
198,298,20477,6,0,P|280:312|337:251,1,174,2|10,1:2|0:2,0:2:0:0:
387,338,20916,1,0,1:2:0:0:
246,213,21062,2,0,P|245:169|267:131,1,87,2|0,1:2|0:2,0:2:0:0:
427,145,21355,2,0,P|389:167|345:167,1,87,8|0,0:2|0:2,0:2:0:0:
180,98,21648,6,0,P|140:77|27:128,1,174,2|8,1:2|0:2,0:2:0:0:
228,39,22087,2,0,P|251:76|251:119,1,87,2|0,1:2|1:2,0:2:0:0:
336,110,22379,1,0,0:2:0:0:
200,175,22526,2,0,P|156:176|119:154,1,87,10|0,0:2|0:2,0:2:0:0:
308,195,22818,6,0,B|421:174|421:174|362:244,1,174,2|10,1:2|0:2,0:2:0:0:
336,110,23257,1,0,1:2:0:0:
281,279,23404,2,0,P|285:323|317:365,1,87,2|0,1:2|0:2,0:2:0:0:
410,298,23696,2,0,P|406:254|374:212,1,87,8|0,0:2|0:2,0:2:0:0:
195,315,23989,6,0,P|136:309|107:208,1,174,2|8,1:2|0:2,0:2:0:0:
190,178,24428,1,2,1:2:0:0:
31,187,24574,2,0,P|14:147|26:94,1,87,0|0,1:2|0:2,0:2:0:0:
157,21,24867,2,0,P|162:64|136:111,1,87,10|0,0:2|0:2,0:2:0:0:
240,257,25160,6,0,P|303:202|383:226,1,174,2|8,1:2|0:2,0:2:0:0:
464,188,25599,1,0,1:2:0:0:
297,184,25745,2,0,P|282:143|286:88,1,87,2|0,1:2|0:2,0:2:0:0:
199,112,26038,2,0,P|206:68|237:23,1,87,8|0,0:2|0:2,0:2:0:0:
390,61,26331,6,0,P|405:102|401:157,1,87,2|0,1:2|0:2,0:2:0:0:
488,133,26624,2,0,P|480:176|449:221,1,87,8|0,0:2|1:2,0:2:0:0:
211,279,26916,6,0,L|193:189,1,87,2|0,1:2|0:2,0:2:0:0:
346,303,27209,2,0,L|328:213,1,87,10|0,0:2|0:2,0:2:0:0:
85,178,27501,6,0,B|184:147|161:200|259:164,1,174,2|8,1:2|0:2,0:2:0:0:
94,261,27940,2,0,P|51:256|18:228,1,87,2|0,1:2|1:2,0:2:0:0:
81,102,28233,1,0,0:2:0:0:
75,277,28379,2,0,P|33:265|6:232,1,87,10|0,0:2|0:2,0:2:0:0:
255,178,28672,6,0,B|215:212|215:212|95:191,1,174,2|0,1:2|0:2,0:2:0:0:
266,201,29257,2,0,B|226:235|226:235|106:214,1,174,2|0,1:2|0:2,0:2:0:0:
277,222,29843,2,0,B|237:256|237:256|117:235,1,174,4|0,1:2|0:2,0:2:0:0:
3,191,30135,5,10,0:0:0:0:
22,295,30282,1,2,0:2:0:0:
39,201,30428,1,2,0:2:0:0:
22,295,30574,1,2,0:2:0:0:
137,167,30721,6,0,P|125:133|101:146,1,69.6,10|0,0:2|0:2,0:2:0:0:
194,242,31014,6,0,P|227:204|220:109,1,139.2,0|8,1:2|0:2,0:2:0:0:
168,56,31453,1,0,0:2:0:0:
288,81,31599,2,0,P|322:81|352:64,1,69.6,0|0,0:2|0:2,0:2:0:0:
145,131,31892,2,0,P|110:131|80:114,1,69.6,8|0,0:2|0:2,0:2:0:0:
243,199,32184,6,0,L|255:273,1,69.6,2|0,1:2|0:2,0:2:0:0:
312,352,32477,1,10,0:2:0:0:
211,337,32623,1,2,0:2:0:0:
312,352,32770,1,2,0:2:0:0:
342,262,32916,1,2,0:2:0:0:
152,262,33062,6,0,P|141:232|171:221,1,69.6,10|0,0:2|0:2,0:2:0:0:
355,289,33355,6,0,P|405:286|423:199,1,139.2,0|8,1:2|0:2,0:2:0:0:
370,147,33794,1,0,0:2:0:0:
370,147,33940,2,0,P|352:111|354:71,1,69.6,2|0,0:2|0:2,0:2:0:0:
307,210,34233,2,0,P|273:187|255:152,1,69.6,8|0,0:2|0:2,0:2:0:0:
442,109,34526,5,2,1:2:0:0:
442,109,34672,1,0,0:2:0:0:
278,66,34818,1,8,0:2:0:0:
373,272,34965,6,0,P|396:195|355:135,1,139.2,2|0,1:2|1:2,0:2:0:0:
255,242,35404,2,0,P|273:282|282:318,1,69.6,10|0,0:2|0:2,0:2:0:0:
32,306,35696,5,2,1:2:0:0:
32,306,35842,1,0,0:2:0:0:
208,326,35988,1,8,0:2:0:0:
107,135,36135,6,0,P|84:212|125:272,1,139.2,2|0,1:2|1:2,0:2:0:0:
230,157,36574,2,0,P|222:123|220:88,1,69.6,10|0,0:2|0:2,0:2:0:0:
285,38,36867,5,2,1:2:0:0:
263,341,37160,1,2,1:2:0:0:
365,93,37453,1,2,1:2:0:0:
355,180,37599,1,0,1:2:0:0:
344,267,37745,1,2,1:2:0:0:
450,130,37892,1,2,1:2:0:0:
41,211,38623,1,0,1:2:0:0:
432,336,39209,5,0,1:2:0:0:
256,192,39282,12,0,40233,0:2:0:0:
170,184,40379,5,8,0:2:0:0:
315,200,40526,1,8,0:2:0:0:
130,247,40672,5,8,0:2:0:0:
383,187,40818,1,8,0:2:0:0:
145,115,41111,5,8,0:2:0:0:
450,220,41257,2,0,P|456:176|424:135,1,87,8|0,0:2|0:2,0:2:0:0:
351,170,41550,5,4,0:2:0:0:
376,295,41696,1,0,0:2:0:0:
286,131,41843,5,10,0:2:0:0:
255,323,41989,1,0,0:2:0:0:
244,66,42135,5,2,1:2:0:0:
133,260,42281,1,0,0:2:0:0:
290,7,42428,5,10,0:2:0:0:
62,151,42574,2,0,P|27:109|20:63,1,95.7000029205323,6|0,0:3|1:2,0:2:0:0:
168,23,42867,5,8,0:3:0:0:
76,187,43014,2,0,P|25:166|-1:128,1,95.7000029205323,10|0,0:2|0:2,0:2:0:0:
194,59,43306,6,0,P|201:113|182:155,1,95.7000029205323,2|0,1:2|0:2,0:2:0:0:
169,355,43599,2,0,P|162:301|181:259,1,95.7000029205323,8|0,0:2|0:2,0:2:0:0:
370,189,43892,5,2,1:2:0:0:
245,214,44038,1,0,0:2:0:0:
394,268,44184,5,10,0:2:0:0:
217,202,44331,1,0,0:2:0:0:
475,160,44477,5,2,1:2:0:0:
244,92,44623,1,0,0:2:0:0:
455,38,44770,5,10,0:2:0:0:
171,138,44916,2,0,P|124:135|88:104,1,95.7000029205323,6|0,0:3|1:2,0:2:0:0:
233,17,45209,5,8,0:3:0:0:
291,277,45355,2,0,P|337:274|373:243,1,95.7000029205323,10|0,0:2|0:2,0:2:0:0:
107,309,45648,6,0,P|88:347|129:356,1,95.7000029205323,2|0,1:2|0:2,0:2:0:0:
258,213,45940,2,0,P|265:163|252:114,1,95.7000029205323,10|0,0:2|0:2,0:2:0:0:
67,320,46233,5,2,1:2:0:0:
158,336,46379,1,0,0:2:0:0:
74,171,46526,5,10,0:2:0:0:
179,162,46672,1,0,0:2:0:0:
34,41,46818,5,2,1:2:0:0:
150,11,46965,1,0,0:2:0:0:
89,246,47111,5,10,0:2:0:0:
323,190,47257,2,0,P|291:175|273:228,1,95.7000029205323,6|0,0:3|1:2,0:2:0:0:
195,311,47550,5,8,0:3:0:0:
408,203,47696,2,0,P|424:247|423:294,1,95.7000029205323,10|0,0:2|0:2,0:2:0:0:
276,99,47989,6,0,P|280:51|266:6,1,95.7000029205323,2|0,1:2|0:2,0:2:0:0:
191,249,48282,6,0,P|183:295|158:336,1,95.7000029205323,10|0,0:2|0:2,0:2:0:0:
74,89,48574,6,0,L|56:193,1,95.7000029205323,2|0,1:2|0:2,0:2:0:0:
257,81,48867,2,0,L|239:185,1,95.7000029205323,10|0,0:2|0:2,0:2:0:0:
69,16,49160,6,0,P|116:43|19:68,1,226.199989645386,2|8,1:2|0:2,0:2:0:0:
146,94,49599,2,0,P|196:114|220:167,1,95.7000029205323,6|0,0:3|1:2,0:2:0:0:
41,198,49892,5,0,0:2:0:0:
290,104,50038,2,0,P|298:158|264:206,1,95.7000029205323,10|0,0:2|0:2,0:2:0:0:
138,372,50331,2,0,P|130:318|164:270,1,95.7000029205323,0|0,1:2|0:2,0:2:0:0:
378,209,50623,5,2,1:2:0:0:
354,250,50696,1,0,1:2:0:0:
314,275,50769,1,0,1:2:0:0:
267,277,50842,1,0,1:2:0:0:
224,256,50916,2,0,L|208:144,1,95.7000029205323,4|0,1:2|0:2,0:2:0:0:
403,282,51209,2,0,L|387:170,1,95.7000029205323,10|0,0:2|0:2,0:2:0:0:
224,350,51501,5,2,1:2:0:0:
384,227,51648,1,0,0:2:0:0:
156,146,51794,1,10,0:2:0:0:
334,122,51940,6,0,L|350:10,1,95.7000029205323,6|0,1:3|0:2,0:2:0:0:
219,84,52233,1,0,1:2:0:0:
454,207,52379,2,0,L|438:95,1,95.7000029205323,10|0,0:2|0:2,0:2:0:0:
233,277,52672,2,0,P|210:231|225:187,1,95.7000029205323,2|0,1:2|0:2,0:2:0:0:
407,341,52965,2,0,P|430:309|388:294,1,95.7000029205323,10|0,0:2|0:2,0:2:0:0:
181,330,53257,6,0,L|74:309,1,95.7000029205323,2|0,1:2|0:2,0:2:0:0:
269,153,53550,2,0,L|162:132,1,95.7000029205323,10|0,0:2|0:2,0:2:0:0:
261,354,53843,5,2,1:2:0:0:
202,157,53989,1,0,0:2:0:0:
423,190,54135,1,10,0:2:0:0:
203,243,54282,6,0,P|156:237|122:205,1,95.7000029205323,6|0,0:3|1:2,0:2:0:0:
300,118,54574,1,0,1:2:0:0:
43,212,54721,6,0,P|49:165|81:131,1,95.7000029205323,10|0,0:2|0:2,0:2:0:0:
289,230,55014,2,0,P|282:276|250:310,1,95.7000029205323,0|0,1:2|0:2,0:2:0:0:
203,143,55306,6,0,P|216:94|241:51,1,95.7000029205323,10|0,0:2|0:2,0:2:0:0:
126,227,55599,2,0,L|135:327,1,95.7000029205323,0|0,1:2|1:2,0:2:0:0:
318,216,55892,6,0,B|347:70|347:70|315:12,1,212.279991254334,10|0,0:2|1:2,0:2:0:0:
232,103,56331,1,0,1:2:0:0:
419,134,56477,6,0,P|499:100|427:50,1,212.279991254334,10|0,0:2|1:2,0:2:0:0:
313,35,56916,1,0,1:2:0:0:
247,213,57062,6,0,B|174:286|174:286|156:171,1,212.279991254334,10|0,0:2|1:2,0:2:0:0:
316,176,57501,1,0,1:2:0:0:
108,119,57648,2,0,P|61:135|102:162,1,106.139995627167,10|0,0:2|0:2,0:2:0:0:
259,78,57940,5,8,0:2:0:0:
169,57,58087,1,0,1:2:0:0:
200,323,58233,5,8,0:2:0:0:
295,289,58380,1,0,1:2:0:0:
227,4,58526,5,8,0:2:0:0:
359,353,58672,1,8,0:2:0:0:
33,176,58818,1,8,0:2:0:0:
425,91,58965,1,8,0:2:0:0:
253,190,59989,1,2,0:2:0:0:
253,190,60282,6,0,L|267:278,1,87,4|0,1:2|0:2,0:2:0:0:
402,145,60574,2,0,L|416:233,1,87,10|0,0:2|0:2,0:2:0:0:
210,102,60868,5,2,1:2:0:0:
210,102,61014,1,0,0:2:0:0:
332,135,61160,1,10,0:2:0:0:
139,233,61307,2,0,P|90:227|46:199,1,87,2|0,0:2|1:2,0:2:0:0:
268,47,61599,6,0,P|223:27|171:29,1,87,2|8,0:2|0:2,0:2:0:0:
296,261,61892,6,0,P|257:291|207:302,1,87,2|0,0:2|1:2,0:2:0:0:
398,103,62185,5,2,0:2:0:0:
332,184,62331,1,8,0:2:0:0:
355,15,62477,5,2,0:2:0:0:
407,240,62623,2,0,L|421:327,1,87,2|0,1:2|0:2,0:2:0:0:
226,190,62916,2,0,L|240:277,1,87,10|0,0:2|0:2,0:2:0:0:
372,116,63209,5,2,1:2:0:0:
323,194,63355,1,0,0:2:0:0:
275,28,63502,1,10,0:2:0:0:
138,193,63648,2,0,P|104:173|133:135,1,87,2|0,0:2|1:2,0:2:0:0:
352,313,63940,6,0,P|386:293|356:254,1,87,2|8,0:2|0:2,0:2:0:0:
163,363,64233,6,0,P|129:343|159:304,1,87,2|0,0:2|1:2,0:2:0:0:
352,384,64526,5,2,0:2:0:0:
239,274,64672,1,8,0:2:0:0:
447,221,64819,1,2,0:2:0:0:
230,175,64965,6,0,P|215:135|229:94,1,87,2|0,1:2|0:2,0:2:0:0:
383,43,65257,2,0,P|375:85|343:112,1,87,10|0,0:2|0:2,0:2:0:0:
138,35,65551,5,2,1:2:0:0:
138,35,65697,1,0,0:2:0:0:
248,106,65843,1,10,0:2:0:0:
85,218,65990,2,0,P|64:180|59:137,1,87,2|0,0:2|1:2,0:2:0:0:
83,294,66282,6,0,P|41:282|7:255,1,87,2|8,0:2|0:2,0:2:0:0:
148,349,66574,6,0,P|110:369|67:374,1,87,2|0,0:2|1:2,0:2:0:0:
234,326,66868,5,2,0:2:0:0:
85,218,67014,1,8,0:2:0:0:
241,144,67160,1,2,0:2:0:0:
192,245,67307,5,8,0:2:0:0:
137,29,67453,1,8,0:2:0:0:
210,2,67746,5,8,0:2:0:0:
264,293,67892,1,8,0:2:0:0:
331,335,68185,5,8,0:2:0:0:
293,28,68331,2,0,P|333:47|307:70,1,87,8|0,0:2|0:2,0:2:0:0:
404,364,68623,5,8,0:2:0:0:
412,69,68769,2,0,P|415:113|382:102,1,87,8|0,0:2|0:2,0:2:0:0:
211,120,69062,6,0,P|183:81|185:24,1,87,8|0,0:2|0:2,0:2:0:0:
192,206,69355,2,0,P|147:188|117:139,1,87,8|0,0:2|0:2,0:2:0:0:
269,245,69648,5,12,0:2:0:0:
49,174,69794,2,0,L|40:74,1,87,8|0,0:2|0:2,0:2:0:0:
140,35,70087,5,12,0:2:0:0:
350,212,70233,2,0,L|359:112,1,87,8|0,0:2|0:2,0:2:0:0:
277,67,70526,5,12,0:2:0:0:
224,353,70672,2,0,P|144:306|195:228,1,208.79999362793,8|0,0:2|0:2,0:2:0:0:
