osu file format v14

[General]
AudioFilename: audio.mp3
AudioLeadIn: 0
PreviewTime: 41331
Countdown: 0
SampleSet: Soft
StackLeniency: 0.7
Mode: 0
LetterboxInBreaks: 0
WidescreenStoryboard: 0

[Editor]
Bookmarks: 11111,20477,29843,39209,41550,51940,60282,69648,70818,71404
DistanceSpacing: 0.6
BeatDivisor: 4
GridSize: 4
TimelineZoom: 1

[Metadata]
Title:SUPER CHOCOLATE
TitleUnicode:SUPER CHOCOLATE
Artist:Shizuru (CV: Nabatame Hitomi), Rino (CV: Asumi Kana)
ArtistUnicode:シズル (CV: 生天目仁美), リノ (CV: 阿澄佳奈)
Creator:Usaha
Version:-Rei's Super Extra
Source:プリンセスコネクト!Re:Dive
Tags:princess connect re:dive re dive video game japanese pop priconne プリコネ cygames purikone nagi hisakawa cyndere -rei bongo
BeatmapID:3609262
BeatmapSetID:1762615

[Difficulty]
HPDrainRate:5
CircleSize:4.2
OverallDifficulty:8
ApproachRate:9
SliderMultiplier:1.7
SliderTickRate:1

[Events]
//Background and Video events
0,0,"3f3061a3.jpg",0,0
Video,98,"supah choco.mp4"
//Break Periods
//Storyboard Layer 0 (Background)
//Storyboard Layer 1 (Fail)
//Storyboard Layer 2 (Pass)
//Storyboard Layer 3 (Foreground)
//Storyboard Layer 4 (Overlay)
//Storyboard Sound Samples

[TimingPoints]
575,292.682926829268,4,2,1,80,1,0
11111,-166.666666666667,4,2,1,80,0,0
11404,-166.666666666667,4,2,1,70,0,0
18574,-125,4,2,1,70,0,0
19306,-166.666666666667,4,2,1,70,0,0
19745,-125,4,2,1,70,0,0
20477,-125,4,2,1,75,0,0
30135,-125,4,2,1,70,0,0
34526,-125,4,2,1,80,0,0
41257,-100,4,2,1,80,0,0
41550,-90.9090909090909,4,2,1,85,0,0
58965,-90.9090909090909,4,2,1,80,0,0
60282,-100,4,2,1,80,0,0
71257,-100,4,2,1,5,0,0

[Colours]
Combo1 : 164,219,187
Combo2 : 201,155,227
Combo3 : 129,175,254
Combo4 : 224,158,201

[HitObjects]
256,192,575,12,8,1453,0:2:0:0:
391,218,1745,6,0,L|492:194,1,85,4|0,1:2|0:2,0:2:0:0:
221,329,2038,2,0,L|40:286,1,170,10|0,0:2|1:2,0:2:0:0:
163,189,2477,1,2,0:2:0:0:
163,189,2623,1,8,0:2:0:0:
289,277,2770,6,0,L|303:382,1,85,2|0,0:2|1:2,0:2:0:0:
119,132,3062,2,0,L|105:237,1,85,2|8,0:2|0:2,0:2:0:0:
317,10,3355,2,0,L|331:115,1,85,2|0,0:2|1:2,0:2:0:0:
349,243,3648,1,2,0:2:0:0:
265,132,3794,1,10,0:2:0:0:
349,243,3940,1,2,0:2:0:0:
410,144,4087,6,0,L|515:123,1,85,0|0,1:2|0:2,0:2:0:0:
194,183,4380,2,0,L|17:142,1,170,10|0,0:2|1:2,0:2:0:0:
151,48,4819,1,2,0:2:0:0:
151,48,4965,1,8,0:2:0:0:
390,209,5111,6,0,L|491:185,1,85,2|0,0:2|1:2,0:2:0:0:
243,114,5404,2,0,L|344:90,1,85,2|8,0:2|0:2,0:2:0:0:
154,279,5696,2,0,L|255:255,1,85,2|0,0:2|1:2,0:2:0:0:
120,144,5990,1,2,0:2:0:0:
52,265,6136,1,10,0:2:0:0:
120,144,6282,1,2,0:2:0:0:
323,259,6428,6,0,L|409:231,1,85,0|0,1:2|0:2,0:2:0:0:
162,371,6721,2,0,L|192:187,1,170,10|0,0:2|1:2,0:2:0:0:
219,40,7160,1,2,0:2:0:0:
219,40,7306,1,8,0:2:0:0:
138,64,7453,6,0,L|37:37,1,85,2|0,0:2|1:2,0:2:0:0:
223,216,7746,2,0,L|122:189,1,85,2|8,0:2|0:2,0:2:0:0:
393,111,8038,2,0,L|292:84,1,85,2|0,0:2|1:2,0:2:0:0:
370,195,8331,1,2,0:2:0:0:
474,74,8477,1,2,0:2:0:0:
370,195,8623,1,2,0:2:0:0:
322,19,8770,5,12,0:2:0:0:
370,195,8916,1,8,0:2:0:0:
261,73,9209,5,8,0:2:0:0:
259,246,9355,1,8,0:2:0:0:
183,62,9648,5,8,0:2:0:0:
114,227,9794,1,8,0:2:0:0:
147,0,10087,5,8,0:2:0:0:
0,130,10233,1,8,0:2:0:0:
310,0,10526,5,8,0:2:0:0:
334,366,10818,5,8,0:2:0:0:
438,48,11111,5,0,1:2:0:0:
438,48,11404,6,0,L|488:27,2,50.9999984436036,2|0|2,0:2|0:0|0:2,0:0:0:0:
438,48,12282,6,0,L|454:163,1,101.999996887207,2|8,1:2|0:2,0:2:0:0:
324,239,12721,2,0,L|340:124,1,101.999996887207,2|8,1:2|0:2,0:2:0:0:
353,49,13160,1,2,1:2:0:0:
466,227,13453,5,2,1:2:0:0:
466,227,13745,2,0,L|478:165,2,50.9999984436036,0|0|2,0:2|0:0|0:2,0:0:0:0:
466,227,14624,2,0,L|356:206,1,101.999996887207,2|8,1:2|0:2,0:2:0:0:
243,271,15062,2,0,L|133:250,1,101.999996887207,2|8,1:2|0:2,0:2:0:0:
13,224,15502,1,2,1:2:0:0:
154,50,15794,5,0,1:2:0:0:
154,50,16087,2,0,L|147:-12,2,50.9999984436036,0|0|2,0:2|0:0|0:2,0:0:0:0:
154,50,16965,2,0,L|261:30,1,101.999996887207,2|8,1:2|0:2,0:2:0:0:
345,81,17404,2,0,L|450:61,1,101.999996887207,2|8,1:2|0:2,0:2:0:0:
512,0,17843,1,2,1:2:0:0:
292,190,18135,6,0,P|263:144|274:95,1,101.999996887207,2|8,1:2|0:2,0:2:0:0:
200,210,18574,2,0,P|150:217|99:135,1,136,2|8,1:2|0:2,0:2:0:0:
186,106,19014,1,2,1:2:0:0:
313,266,19306,6,0,P|361:241|377:193,1,101.999996887207,2|8,1:2|0:2,0:2:0:0:
381,330,19745,2,0,P|419:361|503:329,1,136,2|8,1:2|0:2,0:2:0:0:
442,257,20185,1,2,1:2:0:0:
229,311,20477,6,0,L|143:283,1,68,2|0,1:2|0:0,0:2:0:0:
93,266,20770,1,10,0:2:0:0:
93,266,20916,1,0,1:2:0:0:
292,384,21062,2,0,L|323:246,1,136,2|8,1:2|0:2,0:2:0:0:
359,115,21501,1,0,0:2:0:0:
426,180,21648,6,0,P|478:147|476:62,1,136,2|8,1:2|0:2,0:2:0:0:
245,150,22087,2,0,P|253:211|333:242,1,136,2|0,1:2|0:2,0:2:0:0:
354,135,22526,2,0,L|385:-3,1,136,10|2,0:2|1:2,0:2:0:0:
304,358,23111,1,10,0:2:0:0:
416,338,23404,2,0,L|505:315,1,68,2|0,1:2|0:2,0:2:0:0:
439,250,23696,2,0,L|504:232,1,68,8|0,0:2|0:2,0:2:0:0:
225,134,23989,6,0,L|73:103,1,136,2|8,1:2|0:2,0:2:0:0:
366,193,24428,2,0,L|516:151,1,136,2|0,1:2|0:2,0:0:0:0:
408,85,24867,1,10,0:2:0:0:
225,354,25160,5,2,1:2:0:0:
184,133,25453,2,0,L|171:56,1,68,8|0,0:2|1:2,0:0:0:0:
366,193,25745,2,0,L|344:284,1,68,2|0,1:2|0:2,0:2:0:0:
277,158,26038,2,0,L|265:76,1,68,8|0,0:2|0:2,0:2:0:0:
150,277,26331,6,0,L|82:266,1,68,2|0,1:2|0:2,0:2:0:0:
209,210,26623,2,0,L|141:199,1,68,8|0,0:2|1:2,0:2:0:0:
427,343,26916,2,0,P|483:313|480:225,1,136,2|10,1:2|0:2,0:2:0:0:
266,1,27501,5,2,1:2:0:0:
231,144,27794,1,8,0:2:0:0:
231,144,27940,1,2,1:2:0:0:
193,293,28233,1,0,0:2:0:0:
193,293,28379,1,10,0:2:0:0:
425,259,28672,6,0,P|448:158|304:172,2,272,2|2|4,1:2|1:2|1:2,0:2:0:0:
174,333,30135,6,0,L|96:309,1,68,10|2,0:2|0:2,0:0:0:0:
177,236,30428,2,0,L|83:206,1,68,2|2,0:2|0:2,0:0:0:0:
17,185,30721,1,10,0:2:0:0:
352,320,31014,6,0,P|404:249|370:206,1,136,0|8,1:2|0:2,0:2:0:0:
192,109,31453,1,0,0:2:0:0:
269,162,31599,2,0,B|339:177|341:128|414:139,2,136,0|8|2,0:2|0:2|1:2,0:2:0:0:
106,185,32477,6,0,L|101:116,1,68,10|2,0:2|0:2,0:0:0:0:
191,203,32770,2,0,L|181:105,1,68,2|2,0:2|0:2,0:0:0:0:
171,4,33063,1,10,0:2:0:0:
333,253,33356,5,0,1:2:0:0:
400,206,33501,1,0,0:0:0:0:
352,139,33648,1,8,0:2:0:0:
286,187,33795,1,0,0:2:0:0:
408,282,33941,6,0,B|469:315|425:353|501:381,2,136,2|8|2,0:2|0:2|1:2,0:2:0:0:
189,284,34672,1,0,0:2:0:0:
189,284,34818,1,8,0:2:0:0:
110,358,34965,2,0,P|47:326|44:257,1,136,2|0,1:2|1:2,0:2:0:0:
92,167,35404,1,10,0:2:0:0:
236,362,35696,5,2,1:2:0:0:
336,219,35843,1,0,0:2:0:0:
403,268,35989,1,8,0:2:0:0:
291,284,36135,2,0,P|228:252|225:183,1,136,2|0,1:2|1:2,0:2:0:0:
294,62,36574,1,10,0:2:0:0:
294,62,36867,5,2,1:2:0:0:
218,365,37160,1,2,1:2:0:0:
294,62,37453,1,2,1:2:0:0:
320,146,37599,1,0,1:2:0:0:
227,123,37745,1,2,1:2:0:0:
294,62,37892,1,2,1:2:0:0:
256,192,38623,5,0,1:2:0:0:
256,192,39209,5,0,1:2:0:0:
256,192,39282,12,0,40233,0:2:0:0:
256,192,40379,5,8,0:2:0:0:
256,192,40526,1,8,0:2:0:0:
256,192,40672,1,8,0:2:0:0:
256,192,40818,1,8,0:2:0:0:
360,132,41111,5,8,0:2:0:0:
143,301,41257,2,0,P|72:276|81:178,1,170,8|4,0:2|0:2,0:2:0:0:
307,48,41696,1,0,0:2:0:0:
191,132,41843,2,0,L|82:112,1,93.5000028533936,10|0,0:2|0:2,0:0:0:0:
420,229,42135,2,0,L|534:215,1,93.5000028533936,2|0,1:2|0:2,0:0:0:0:
337,121,42428,1,10,0:2:0:0:
185,287,42574,6,0,L|222:408,1,93.5000028533936,6|0,0:3|1:2,0:2:0:0:
334,208,42867,1,8,0:3:0:0:
102,269,43014,2,0,L|-15:254,1,93.5000028533936,10|0,0:2|0:2,0:2:0:0:
171,59,43306,2,0,P|214:112|157:205,2,187.000005706787,2|8|2,1:2|0:2|1:2,0:2:0:0:
90,21,44038,5,0,0:2:0:0:
300,130,44184,2,0,L|414:92,1,93.5000028533936,10|0,0:2|0:2,0:0:0:0:
68,116,44477,2,0,L|101:235,1,93.5000028533936,2|0,1:2|0:2,0:0:0:0:
144,360,44770,1,10,0:2:0:0:
325,291,44916,6,0,L|449:275,1,93.5000028533936,6|0,0:3|1:2,0:2:0:0:
235,168,45209,1,8,0:3:0:0:
110,279,45355,2,0,L|-14:263,1,93.5000028533936,10|0,0:2|0:2,0:2:0:0:
420,204,45648,2,0,L|544:188,1,93.5000028533936,2|0,1:2|0:2,0:2:0:0:
272,340,45940,2,0,B|239:327|239:327|228:263,1,93.5000028533936,10|0,0:2|0:2,0:2:0:0:
226,56,46233,5,2,1:2:0:0:
226,56,46379,1,0,0:2:0:0:
293,116,46526,2,0,L|399:89,1,93.5000028533936,10|0,0:2|0:2,0:0:0:0:
108,159,46818,2,0,L|2:132,1,93.5000028533936,2|0,1:2|0:2,0:0:0:0:
139,70,47111,1,10,0:2:0:0:
298,284,47257,6,0,P|323:246|317:184,1,93.5000028533936,6|0,0:3|1:2,0:2:0:0:
216,134,47550,1,8,0:3:0:0:
420,237,47697,2,0,L|531:219,1,93.5000028533936,10|0,0:2|0:2,0:2:0:0:
190,218,47989,2,0,B|93:258|167:320|56:355,2,187.000005706787,2|10|2,1:2|0:2|1:2,0:2:0:0:
380,305,48721,5,0,0:2:0:0:
255,384,48867,2,0,P|224:338|225:280,1,93.5000028533936,10|0,0:2|0:2,0:2:0:0:
297,25,49160,1,2,1:2:0:0:
337,100,49306,1,0,0:0:0:0:
248,95,49453,1,8,0:2:0:0:
400,34,49599,6,0,L|522:11,1,93.5000028533936,6|0,0:3|1:2,0:2:0:0:
168,77,49892,1,0,0:2:0:0:
421,121,50038,2,0,L|543:144,1,93.5000028533936,10|0,0:2|0:2,0:2:0:0:
326,366,50331,2,0,L|294:252,1,93.5000028533936,0|0,1:2|0:2,0:2:0:0:
210,136,50623,5,2,1:2:0:0:
248,132,50696,1,0,1:2:0:0:
277,166,50770,1,0,1:2:0:0:
261,211,50843,1,0,1:2:0:0:
224,223,50916,2,0,L|106:202,1,93.5000028533936,4|0,1:2|0:2,0:2:0:0:
360,147,51209,2,0,L|480:134,1,93.5000028533936,10|0,0:2|0:2,0:2:0:0:
131,206,51501,1,2,1:2:0:0:
424,214,51648,1,0,0:2:0:0:
273,74,51794,1,10,0:2:0:0:
76,314,51940,5,6,1:3:0:0:
76,314,52233,1,0,1:2:0:0:
99,40,52379,1,10,0:2:0:0:
208,335,52672,1,2,1:2:0:0:
255,54,52965,1,10,0:2:0:0:
255,54,53111,1,0,0:2:0:0:
381,223,53257,6,0,P|420:185|427:137,1,93.5000028533936,2|0,1:2|0:2,0:2:0:0:
255,54,53550,2,0,P|268:106|306:136,1,93.5000028533936,10|0,0:2|0:2,0:2:0:0:
368,26,53842,1,2,1:2:0:0:
389,307,53989,1,0,0:2:0:0:
374,102,54135,1,10,0:2:0:0:
400,383,54282,5,6,0:3:0:0:
460,92,54575,1,0,1:2:0:0:
460,92,54721,1,10,0:2:0:0:
299,379,55014,1,0,1:2:0:0:
386,63,55307,1,10,0:2:0:0:
322,303,55599,5,0,1:2:0:0:
322,303,55745,1,0,1:2:0:0:
357,151,55892,1,10,0:2:0:0:
236,338,56184,5,0,1:2:0:0:
236,338,56330,1,0,1:2:0:0:
276,121,56477,1,10,0:2:0:0:
157,361,56770,5,0,1:2:0:0:
157,361,56916,1,0,1:2:0:0:
197,99,57063,1,10,0:2:0:0:
79,384,57355,5,0,1:2:0:0:
79,384,57501,1,0,1:2:0:0:
118,75,57648,1,10,0:2:0:0:
236,384,57940,5,8,0:2:0:0:
281,15,58233,1,8,0:2:0:0:
512,264,58526,1,8,0:2:0:0:
323,167,58672,1,8,0:2:0:0:
365,324,58818,1,8,0:2:0:0:
458,125,58965,1,8,0:2:0:0:
256,192,59038,12,2,59989,0:2:0:0:
342,103,60282,6,0,L|352:11,1,85,4|0,1:2|0:2,0:2:0:0:
200,233,60575,2,0,P|117:184|144:118,1,170,10|2,0:2|1:2,0:2:0:0:
352,206,61014,1,0,0:2:0:0:
352,206,61160,1,10,0:2:0:0:
154,305,61307,6,0,L|34:326,1,85,2|0,0:2|1:2,0:2:0:0:
288,142,61599,2,0,L|194:158,1,85,2|8,0:2|0:2,0:2:0:0:
411,271,61892,2,0,L|525:248,1,85,2|0,0:2|1:2,0:2:0:0:
380,112,62185,1,2,0:2:0:0:
319,296,62331,1,8,0:2:0:0:
380,112,62477,1,2,0:2:0:0:
202,250,62624,6,0,P|158:223|152:164,1,85,2|0,1:2|0:2,0:2:0:0:
296,0,62917,2,0,L|270:184,1,170,10|2,0:2|1:2,0:2:0:0:
184,47,63356,1,0,0:2:0:0:
184,47,63502,1,10,0:2:0:0:
353,178,63648,6,0,L|458:190,1,85,2|0,0:2|1:2,0:2:0:0:
142,163,63940,2,0,L|37:151,1,85,2|8,0:2|0:2,0:2:0:0:
388,268,64233,2,0,L|491:280,1,85,2|0,0:2|1:2,0:2:0:0:
272,93,64527,1,2,0:2:0:0:
221,256,64673,1,8,0:2:0:0:
272,93,64819,1,2,0:2:0:0:
151,308,64965,6,0,P|116:272|120:208,1,85,2|0,1:2|0:2,0:2:0:0:
328,170,65258,2,0,L|292:362,1,170,10|2,0:2|1:2,0:2:0:0:
223,172,65697,1,0,0:2:0:0:
223,172,65843,1,10,0:2:0:0:
430,277,65990,6,0,L|531:250,1,85,2|0,0:2|1:2,0:2:0:0:
409,202,66282,2,0,L|510:175,1,85,2|8,0:2|0:2,0:2:0:0:
203,341,66575,2,0,L|102:314,1,85,2|0,0:2|1:2,0:2:0:0:
248,115,66868,1,2,0:2:0:0:
293,286,67014,1,8,0:2:0:0:
248,115,67160,1,2,0:2:0:0:
318,359,67307,5,8,0:2:0:0:
420,168,67453,1,8,0:2:0:0:
314,365,67746,5,8,0:2:0:0:
373,93,67892,1,8,0:2:0:0:
311,371,68185,5,8,0:2:0:0:
297,59,68331,1,8,0:2:0:0:
308,376,68624,5,8,0:2:0:0:
211,67,68770,1,8,0:2:0:0:
305,381,69063,5,8,0:2:0:0:
507,253,69355,5,8,0:2:0:0:
0,200,69648,5,12,0:2:0:0:
5,337,69794,1,8,0:2:0:0:
20,191,70087,5,12,0:2:0:0:
77,374,70233,1,8,0:2:0:0:
46,183,70526,5,12,0:2:0:0:
102,11,70672,1,8,0:2:0:0:
256,192,70745,12,0,71550,0:0:0:0:
