osu file format v14

[General]
AudioFilename: audio.mp3
AudioLeadIn: 0
PreviewTime: 41393
Countdown: 0
SampleSet: Soft
StackLeniency: 0.4
Mode: 0
LetterboxInBreaks: 0
WidescreenStoryboard: 1

[Editor]
DistanceSpacing: 2.5
BeatDivisor: 4
GridSize: 16
TimelineZoom: 1.9

[Metadata]
Title:SUPER CHOCOLATE
TitleUnicode:SUPER CHOCOLATE
Artist:Shizuru (CV: Nabatame Hitomi), Rino (CV: Asumi Kana)
ArtistUnicode:シズル(CV:生天目仁美)、リノ(CV:阿澄佳奈)
Creator:Reiszen
Version:YUA'S INSANE
Source:プリンセスコネクト!Re:Dive
Tags:japanese pop jpop j-pop video game princess connect プリンセスコネクト プリコネ purikone re:dive re dive cygames Sightread Take Sinyus20 -Yua
BeatmapID:3969698
BeatmapSetID:1902790

[Difficulty]
HPDrainRate:5
CircleSize:4
OverallDifficulty:8
ApproachRate:9
SliderMultiplier:1.5
SliderTickRate:1

[Events]
//Background and Video events
0,0,"bg.png",0,0
//Break Periods
2,118934,126622
//Storyboard Layer 0 (Background)
//Storyboard Layer 1 (Fail)
//Storyboard Layer 2 (Pass)
//Storyboard Layer 3 (Foreground)
//Storyboard Layer 4 (Overlay)
//Storyboard Sound Samples

[TimingPoints]
491,292.682926829268,4,2,1,40,1,0
1661,-100,4,2,1,80,0,0
10734,-166.666666666667,4,2,1,80,0,0
11027,-166.666666666667,4,2,1,50,0,0
20393,-125,4,2,1,70,0,0
27417,-111.111111111111,4,2,1,70,0,0
29759,-100,4,2,1,60,0,0
30930,-125,4,2,1,60,0,0
32100,-100,4,2,1,60,0,0
33271,-125,4,2,1,60,0,0
34442,-125,4,2,1,65,0,0
39125,-62.5,4,2,1,65,0,0
39198,-62.5,4,2,1,35,0,0
40295,-100,4,2,1,95,0,0
41466,-83.3333333333333,4,2,1,85,0,1
43515,-166.666666666667,4,2,1,85,0,1
43734,-166.666666666667,4,2,1,5,0,1
43808,-83.3333333333333,4,2,1,85,0,1
48198,-83.3333333333333,4,2,1,85,0,1
48490,-83.3333333333333,4,2,1,85,0,1
55808,-83.3333333333333,4,2,1,85,0,1
56100,-83.3333333333333,4,2,1,85,0,1
56685,-83.3333333333333,4,2,1,85,0,1
57270,-83.3333333333333,4,2,1,85,0,1
57856,-83.3333333333333,4,2,1,85,0,1
58881,-125,4,2,1,85,0,0
60198,-100,4,2,1,80,0,0
69564,-166.666666666667,4,2,1,50,0,0
71905,-142.857142857143,4,2,1,70,0,0
78930,-200,4,2,1,60,0,0
83612,-125,4,2,1,70,0,0
85954,-111.111111111111,4,2,1,70,0,0
88296,-100,4,2,1,60,0,0
89466,-125,4,2,1,60,0,0
90637,-100,4,2,1,60,0,0
91808,-125,4,2,1,60,0,0
92978,-125,4,2,1,65,0,0
97661,-62.5,4,2,1,65,0,0
97734,-62.5,4,2,1,35,0,0
98832,-100,4,2,1,65,0,0
100003,-83.3333333333333,4,2,1,85,0,1
102051,-166.666666666667,4,2,1,85,0,1
102271,-166.666666666667,4,2,1,5,0,1
102344,-83.3333333333333,4,2,1,85,0,1
106735,-83.3333333333333,4,2,1,85,0,1
107027,-83.3333333333333,4,2,1,85,0,1
114344,-83.3333333333333,4,2,1,85,0,1
114636,-100,4,2,1,85,0,1
114929,-83.3333333333333,4,2,1,85,0,1
115221,-100,4,2,1,85,0,1
115514,-83.3333333333333,4,2,1,85,0,1
115806,-100,4,2,1,85,0,1
116100,-83.3333333333333,4,2,1,85,0,1
116392,-83.3333333333333,4,2,1,85,0,1
117417,-125,4,2,1,85,0,0
118734,-166.666666666667,4,2,1,60,0,0
127222,-166.666666666667,4,2,1,60,0,0
128100,-200,4,2,1,50,0,0
137466,-125,4,2,1,70,0,0
146832,-99.9999999999999,4,2,1,75,0,0
148295,-125,4,2,1,75,0,0
149173,-99.9999999999999,4,2,1,75,0,0
150637,-125,4,2,1,75,0,0
151515,-100,4,2,1,75,0,0
152978,-125,4,2,1,75,0,0
153856,-99.9999999999999,4,2,1,75,0,0
156198,-90.9090909090909,4,2,1,80,0,0
163222,-100,4,2,1,95,0,0
164978,-166.666666666667,4,2,1,95,0,0
165564,-125,4,2,1,60,0,0
167612,-200,4,2,1,60,0,0
167832,-200,4,2,1,5,0,0
167905,-125,4,2,1,60,0,0
174930,-83.3333333333333,4,2,1,85,0,1
176978,-166.666666666667,4,2,1,85,0,1
177198,-166.666666666667,4,2,1,5,0,1
177271,-83.3333333333333,4,2,1,85,0,1
181661,-83.3333333333333,4,2,1,85,0,1
181954,-83.3333333333333,4,2,1,85,0,1
188978,-100,4,2,1,85,0,0
189271,-83.3333333333333,4,2,1,85,0,1
189344,-83.3333333333333,4,2,1,85,0,0
189856,-83.3333333333333,4,2,1,85,0,1
189930,-83.3333333333333,4,2,1,85,0,0
190442,-83.3333333333333,4,2,1,85,0,1
190515,-83.3333333333333,4,2,1,85,0,0
191027,-83.3333333333333,4,2,1,85,0,1
191100,-100,4,2,1,85,0,0
191905,-100,4,2,1,85,0,1
192490,-100,4,2,1,85,0,0
193076,-100,4,2,1,85,0,1
193661,-100,4,2,1,85,0,0
194247,-100,4,2,1,85,0,1
194686,-125,4,2,1,85,0,0
196003,-100,4,2,1,80,0,0
205076,-166.666666666667,4,2,1,80,0,0
205295,-166.666666666667,4,2,1,5,0,0
205369,-100,4,2,1,90,0,0
207417,-166.666666666667,4,2,1,90,0,0
207637,-166.666666666667,4,2,1,5,0,0
207710,-100,4,2,1,85,0,0
209759,-166.666666666667,4,2,1,85,0,0
209978,-166.666666666667,4,2,1,5,0,0
210051,-100,4,2,1,80,0,0
211076,-166.666666666667,4,2,1,80,0,0
211588,-166.666666666667,4,2,1,5,0,0

[Colours]
Combo1 : 200,159,255
Combo2 : 255,129,111

[HitObjects]
256,192,491,12,8,1369,0:3:0:0:
50,179,1661,6,0,L|147:160,1,75,4|2,3:2|0:0,0:0:0:0:
109,77,1954,2,0,L|35:91,1,75,8|2,0:1|0:0,0:0:0:0:
223,11,2247,1,0,3:2:0:0:
223,11,2393,1,2,0:0:0:0:
264,163,2539,1,8,0:1:0:0:
360,68,2686,6,0,P|293:94|265:178,2,150,2|2|2,0:0|0:0|0:0,0:0:0:0:
505,193,3564,2,0,L|348:159,1,150,2|2,0:0|0:0,0:0:0:0:
231,287,4003,6,0,L|250:384,1,75,0|2,3:2|0:0,0:0:0:0:
333,346,4296,2,0,L|318:272,1,75,8|2,0:1|0:0,0:0:0:0:
264,163,4588,1,0,3:2:0:0:
264,163,4734,1,2,0:0:0:0:
116,245,4881,1,8,0:1:0:0:
231,287,5027,5,2,0:0:0:0:
231,287,5320,2,0,P|223:211|224:124,1,150,2|2,0:0|0:0,0:0:0:0:
180,346,5905,2,0,P|223:368|303:304,1,150,2|2,0:0|0:0,0:0:0:0:
417,267,6344,6,0,L|490:281,1,75,0|2,3:2|0:0,0:0:0:0:
505,193,6637,2,0,L|431:179,1,75,8|2,0:1|0:0,0:0:0:0:
328,100,6930,1,0,3:2:0:0:
328,100,7076,1,2,0:0:0:0:
475,26,7222,1,8,0:1:0:0:
431,179,7369,6,0,P|365:169|330:88,2,150,2|2|2,0:0|0:0|0:0,0:0:0:0:
261,13,8247,2,0,P|221:80|130:78,1,150,2|2,0:0|0:0,0:0:0:0:
76,37,8686,5,12,3:0:0:0:
177,181,8832,1,8,3:0:0:0:
68,53,9125,5,8,3:0:0:0:
169,197,9271,1,8,3:0:0:0:
169,197,9564,5,12,3:0:0:0:
293,14,9710,1,8,3:0:0:0:
157,183,10003,5,8,3:0:0:0:
282,0,10149,1,8,3:0:0:0:
330,226,10442,1,8,3:0:0:0:
484,57,10734,2,0,P|486:78|481:55,1,89.9999972534181,8|2,3:0|3:0,0:0:0:0:
480,54,12198,6,0,L|465:154,1,89.9999972534181,2|10,3:0|0:3,0:0:0:0:
416,218,12637,2,0,L|429:307,1,89.9999972534181,2|10,3:0|0:3,0:0:0:0:
489,371,13076,1,2,3:0:0:0:
221,272,13369,5,2,3:0:0:0:
221,272,14539,2,0,P|189:240|143:235,1,89.9999972534181,2|10,3:0|0:3,0:0:0:0:
102,163,14978,2,0,P|58:174|30:212,1,89.9999972534181,2|10,3:0|0:3,0:0:0:0:
55,295,15417,1,2,3:0:0:0:
297,155,15710,5,2,3:0:0:0:
297,155,16881,2,0,L|400:128,1,89.9999972534181,2|10,3:0|0:3,0:0:0:0:
446,63,17320,2,0,L|358:40,1,89.9999972534181,2|10,3:0|0:3,0:0:0:0:
276,66,17759,1,2,3:0:0:0:
382,178,18051,6,0,P|416:206|432:248,1,89.9999972534181,2|10,3:0|0:3,0:0:0:0:
358,351,18490,2,0,L|342:263,1,89.9999972534181,2|10,3:0|0:3,0:0:0:0:
256,192,18930,1,2,3:0:0:0:
129,178,19222,6,0,P|95:206|80:248,1,89.9999972534181,2|10,3:0|0:3,0:0:0:0:
153,351,19661,2,0,L|170:263,1,89.9999972534181,2|10,3:0|0:3,0:0:0:0:
256,192,20101,1,2,3:0:0:0:
368,29,20393,6,0,P|416:45|434:68,1,60,0|0,3:0|0:0,0:0:0:0:
512,131,20686,1,10,0:3:0:0:
512,131,20832,1,0,3:0:0:0:
382,203,20978,2,0,P|335:183|332:108,1,120,0|10,3:0|0:3,0:0:0:0:
325,120,21417,1,0,0:0:0:0:
474,212,21564,2,0,L|456:336,1,120,0|10,3:0|0:3,0:0:0:0:
364,321,22003,2,0,L|381:202,1,120,0|0,3:0|0:0,0:0:0:0:
438,132,22442,1,10,0:3:0:0:
208,240,22734,6,0,L|126:224,1,60,0|0,3:0|0:0,0:0:0:0:
29,208,23027,1,10,0:3:0:0:
95,294,23173,1,0,3:0:0:0:
16,198,23320,2,0,L|44:68,1,120,0|10,3:0|0:3,0:0:0:0:
41,80,23759,1,0,0:0:0:0:
136,19,23905,2,0,P|197:46|213:101,1,120,0|10,3:0|0:3,0:0:0:0:
281,146,24344,2,0,P|227:185|171:171,1,120,0|0,3:0|0:0,0:0:0:0:
129,102,24783,1,10,0:3:0:0:
323,21,25076,5,0,3:0:0:0:
323,21,25369,2,0,L|335:92,1,60,10|0,0:3|3:0,0:0:0:0:
413,94,25661,2,0,L|387:161,1,60,0|0,3:0|0:0,0:0:0:0:
454,202,25954,2,0,L|398:247,1,60,10|0,0:3|0:0,0:0:0:0:
360,363,26247,6,0,L|348:281,1,60,0|0,3:0|0:0,0:0:0:0:
258,274,26539,2,0,L|267:334,1,60,10|0,0:3|3:0,0:0:0:0:
201,202,26832,6,0,L|213:120,1,60,0|0,3:0|0:0,0:0:0:0:
302,113,27124,2,0,L|294:173,1,60,10|0,0:3|0:0,0:0:0:0:
200,29,27417,6,0,P|131:37|84:114,1,134.999995880127,0|10,3:0|0:3,0:0:0:0:
0,196,27856,2,0,B|96:168|96:168|132:181,1,134.999995880127,0|0,3:0|0:0,0:0:0:0:
181,326,28295,2,0,P|141:310|119:281,1,67.4999979400635,10|0,0:3|0:0,0:0:0:0:
206,231,28588,2,0,L|422:197,1,202.499993820191,0|0,3:0|0:0,0:0:0:0:
512,276,29173,2,0,L|311:244,1,202.499993820191,0|0,3:0|0:0,0:0:0:0:
206,231,29759,5,0,3:0:0:0:
300,52,30051,1,10,3:0:0:0:
300,52,30198,1,2,0:0:0:0:
380,119,30344,1,2,0:0:0:0:
380,119,30490,1,2,0:0:0:0:
444,40,30637,2,0,B|459:39|477:24|477:24|465:38|459:60,1,75,2|0,3:0|0:0,0:0:0:0:
380,119,30930,6,0,L|391:205,1,60,0|0,3:0|0:0,0:0:0:0:
400,297,31222,1,10,3:0:0:0:
400,297,31369,1,0,0:0:0:0:
306,227,31515,2,0,B|274:257|274:257|268:273|268:273|268:256|268:256|249:216,1,120,0|2,0:0|3:0,0:0:0:0:
256,368,32100,5,0,3:0:0:0:
63,343,32393,1,10,3:0:0:0:
63,343,32539,1,2,0:0:0:0:
132,265,32686,1,2,0:0:0:0:
132,265,32832,1,2,0:0:0:0:
43,224,32978,2,0,B|19:223|-3:215|-3:215|19:231|32:250,1,75,2|0,3:0|0:0,0:0:0:0:
132,265,33271,6,0,L|121:179,1,60,0|0,3:0|0:0,0:0:0:0:
112,87,33563,1,10,3:0:0:0:
112,87,33710,1,0,0:0:0:0:
206,157,33856,2,0,B|238:127|238:127|243:110|243:110|244:128|244:128|263:168,1,120,0|2,0:0|3:0,0:0:0:0:
296,303,34442,5,2,3:0:0:0:
390,286,34588,1,2,0:0:0:0:
484,269,34734,1,10,0:3:0:0:
502,163,34881,2,0,P|458:112|395:119,1,120,2|2,3:0|3:0,0:0:0:0:
409,111,35320,1,10,0:3:0:0:
176,32,35612,5,2,3:0:0:0:
251,160,35759,1,2,0:0:0:0:
305,8,35905,1,10,0:3:0:0:
163,127,36051,2,0,L|40:111,1,120,2|2,3:0|3:0,0:0:0:0:
44,111,36490,1,10,0:3:0:0:
18,266,36783,5,2,3:0:0:0:
25,274,37076,5,2,3:0:0:0:
32,282,37369,5,2,3:0:0:0:
127,277,37515,1,2,3:0:0:0:
290,362,37661,5,2,3:0:0:0:
195,357,37808,2,0,B|202:309|202:309|198:307|198:307|206:309|206:309|202:308|202:308|211:258|211:258|205:257|205:257|216:259|216:259|211:258|211:258|217:213,1,180,2|0,3:0|0:0,0:0:0:0:
186,96,38539,2,0,B|192:32|232:56|242:15|242:15|241:59|291:40|274:119,1,210,2|0,3:0|0:0,0:0:0:0:
224,174,39125,2,0,P|217:194|214:173,14,60,2|0|0|0|0|0|0|0|0|0|0|0|0|0|0,3:0|0:0|0:0|0:0|0:0|0:0|0:0|0:0|0:0|0:0|0:0|0:0|0:0|0:0|0:0,0:0:0:0:
306,185,40295,5,8,3:1:0:0:
137,160,40442,1,8,3:1:0:0:
295,268,40588,1,8,3:1:0:0:
126,243,40735,1,8,3:1:0:0:
112,245,41027,1,0,3:0:0:0:
305,274,41173,2,0,P|335:273|384:263,1,75,8|0,0:1|0:0,0:0:0:0:
495,137,41466,6,0,P|476:96|471:51,1,89.9999972534181,4|0,3:2|0:0,0:0:0:0:
402,162,41759,2,0,P|397:117|378:75,1,89.9999972534181,10|0,0:1|0:0,0:0:0:0:
495,137,42051,2,0,P|476:96|471:51,1,89.9999972534181,0|0,3:0|0:0,0:0:0:0:
470,230,42344,1,10,0:1:0:0:
402,162,42490,2,0,P|374:72|299:27,1,179.999994506836
205,133,42930,2,0,L|320:109,2,89.9999972534181,10|0|0,0:1|0:0|3:0,0:0:0:0:
45,247,43515,6,0,L|59:334,1,67.4999979400635,10|0,0:1|0:0,0:0:0:0:
117,363,43808,6,0,P|158:344|203:339,1,89.9999972534181,0|0,3:0|0:0,0:0:0:0:
92,270,44101,2,0,P|137:265|179:246,1,89.9999972534181,10|0,0:1|0:0,0:0:0:0:
117,363,44393,2,0,P|158:344|203:339,1,89.9999972534181,0|0,3:0|0:0,0:0:0:0:
24,338,44686,1,10,0:1:0:0:
92,270,44832,2,0,P|182:242|227:167,1,179.999994506836
211,19,45271,2,0,P|189:55|197:116,1,89.9999972534181,10|0,0:1|0:0,0:0:0:0:
368,247,45564,2,0,P|347:209|290:186,1,89.9999972534181,0|0,3:0|0:0,0:0:0:0:
315,349,45856,6,0,L|456:316,1,134.999995880127,10|0,0:1|0:0,0:0:0:0:
446,318,46149,2,0,B|457:282|486:263|486:263|464:145,1,179.999994506836,0|10,3:0|0:1,0:0:0:0:
505,36,46588,1,0,0:0:0:0:
381,12,46734,2,0,P|328:24|300:83,1,89.9999972534181,0|0,3:0|0:0,0:0:0:0:
283,146,47027,1,10,0:1:0:0:
130,87,47173,2,0,L|325:46,1,179.999994506836
283,146,47612,2,0,L|166:170,1,89.9999972534181,10|0,0:1|0:0,0:0:0:0:
80,27,47905,1,0,3:0:0:0:
47,34,47978,1,0,3:0:0:0:
21,56,48051,1,0,3:0:0:0:
9,86,48124,1,0,3:0:0:0:
15,116,48198,2,0,P|42:160|41:219,1,89.9999972534181,10|0,0:1|0:0,0:0:0:0:
116,341,48490,6,0,B|157:358|157:358|209:319,1,89.9999972534181,0|0,3:0|0:0,0:0:0:0:
181,250,48783,2,0,B|140:233|140:233|88:272,1,89.9999972534181,10|0,0:1|0:0,0:0:0:0:
271,368,49076,2,0,L|302:175,1,179.999994506836,0|10,3:0|0:1,0:0:0:0:
346,90,49515,2,0,P|324:25|270:86,1,179.999994506836
313,204,49954,2,0,P|362:192|422:186,1,89.9999972534181,10|0,0:1|0:0,0:0:0:0:
512,105,50247,2,0,P|463:93|403:87,1,89.9999972534181,0|0,3:0|0:0,0:0:0:0:
178,22,50539,1,10,3:1:0:0:
181,41,50612,1,0,3:0:0:0:
184,60,50685,1,0,3:0:0:0:
187,79,50758,1,0,3:0:0:0:
190,98,50832,6,0,L|176:206,1,89.9999972534181,4|0,3:2|0:0,0:0:0:0:
95,91,51125,2,0,L|81:199,1,89.9999972534181,10|0,0:1|0:0,0:0:0:0:
77,329,51417,1,0,3:0:0:0:
77,329,51564,1,0,0:0:0:0:
234,262,51710,1,10,0:1:0:0:
83,180,51856,6,0,P|45:190|11:248,1,89.9999972534181,0|0,3:0|0:0,0:0:0:0:
234,262,52149,1,0,3:0:0:0:
152,134,52295,2,0,P|124:106|57:105,1,89.9999972534181,10|0,0:1|0:0,0:0:0:0:
234,262,52588,2,0,L|353:240,1,89.9999972534181,0|0,3:0|0:0,0:0:0:0:
487,128,52881,5,10,0:1:0:0:
487,128,53173,2,0,L|379:114,1,89.9999972534181,0|0,3:0|0:0,0:0:0:0:
327,57,53466,1,10,0:1:0:0:
327,57,53612,1,0,0:0:0:0:
278,189,53759,1,0,3:0:0:0:
329,262,53905,1,0,0:0:0:0:
417,279,54051,1,10,0:1:0:0:
487,128,54198,6,0,P|477:90|419:56,1,89.9999972534181,0|0,3:0|0:0,0:0:0:0:
278,189,54490,1,0,3:0:0:0:
466,215,54637,2,0,P|493:187|494:120,1,89.9999972534181,10|0,0:1|0:0,0:0:0:0:
278,189,54930,2,0,L|290:285,1,89.9999972534181,0|0,3:0|0:0,0:0:0:0:
162,354,55222,6,0,L|150:264,1,89.9999972534181,10|0,0:1|0:0,0:0:0:0:
129,92,55515,5,0,3:0:0:0:
129,92,55808,2,0,L|219:80,1,89.9999972534181,10|0,0:1|0:0,0:0:0:0:
391,59,56101,5,0,3:0:0:0:
391,59,56393,2,0,L|403:149,1,89.9999972534181,10|0,0:1|0:0,0:0:0:0:
424,321,56686,5,0,3:0:0:0:
424,321,56978,2,0,L|334:333,1,89.9999972534181,10|0,0:1|0:0,0:0:0:0:
162,354,57271,5,0,3:0:0:0:
162,354,57564,2,0,L|150:264,1,89.9999972534181,10|0,0:1|0:0,0:0:0:0:
162,85,57856,6,0,P|111:77|73:115,1,89.9999972534181,10|0,3:0|0:0,0:0:0:0:
97,182,58149,2,0,P|148:190|186:152,1,89.9999972534181,10|0,3:0|0:0,0:0:0:0:
314,80,58442,1,10,3:0:0:0:
250,228,58588,1,10,3:0:0:0:
322,65,58734,1,10,3:0:0:0:
412,166,58881,6,0,P|470:157|494:96,1,120,10|0,3:0|0:0,0:0:0:0:
399,149,59320,2,0,L|419:274,1,120
431,348,59832,1,0,0:0:0:0:
432,355,59905,2,0,L|436:380,1,15
431,348,60198,6,0,L|349:359,1,75,4|2,3:2|0:0,0:0:0:0:
342,276,60490,2,0,L|417:267,1,75,8|2,0:1|0:0,0:0:0:0:
235,311,60783,1,0,3:2:0:0:
235,311,60930,1,2,0:0:0:0:
137,227,61076,1,8,0:1:0:0:
228,128,61222,6,0,P|157:163|141:252,2,150,2|2|2,0:0|0:0|0:0,0:0:0:0:
219,364,62100,2,0,L|228:208,1,150,2|2,0:0|0:0,0:0:0:0:
94,117,62539,6,0,L|0:130,1,75,0|2,3:2|0:0,0:0:0:0:
27,211,62832,2,0,L|101:200,1,75,8|2,0:1|0:0,0:0:0:0:
213,47,63125,1,0,3:2:0:0:
213,47,63271,1,2,0:0:0:0:
227,214,63417,1,8,0:1:0:0:
94,117,63564,5,2,0:0:0:0:
94,117,63856,2,0,B|71:79|20:78|20:78|59:91|76:137,1,150,2|2,0:0|0:0,0:0:0:0:
122,326,64442,2,0,P|84:347|46:266,1,150,2|2,0:0|0:0,0:0:0:0:
144,206,64881,6,0,L|157:112,1,75,0|2,3:2|0:0,0:0:0:0:
238,139,65174,2,0,L|227:213,1,75,8|2,0:1|0:0,0:0:0:0:
214,354,65466,1,0,3:2:0:0:
214,354,65612,1,2,0:0:0:0:
356,298,65759,1,8,0:1:0:0:
226,213,65905,6,0,B|201:249|201:249|216:367,2,150,2|2|2,0:0|0:0|0:0,0:0:0:0:
356,298,66783,2,0,P|440:297|467:220,1,150,2|2,0:0|0:0,0:0:0:0:
438,128,67222,5,8,3:0:0:0:
302,240,67368,1,8,3:0:0:0:
420,121,67661,5,8,3:0:0:0:
286,233,67807,1,8,3:0:0:0:
286,233,68100,5,8,3:0:0:0:
120,142,68246,1,8,3:0:0:0:
271,243,68539,5,8,3:0:0:0:
105,152,68685,1,8,3:0:0:0:
437,334,68978,1,8,3:0:0:0:
498,159,69271,2,0,B|492:126|500:101|500:101|464:134|448:196,1,150,8|2,3:0|3:0,0:0:0:0:
453,178,70734,6,0,P|393:185|368:166,1,89.9999972534181,2|10,3:0|0:3,0:0:0:0:
318,97,71173,2,0,P|258:90|233:109,1,89.9999972534181,2|10,3:0|0:3,0:0:0:0:
184,178,71612,1,2,3:0:0:0:
309,287,71905,6,0,L|301:232,1,52.4999983978272,6|0,3:0|0:0,0:0:0:0:
233,357,72198,1,10,0:3:0:0:
233,357,72344,1,0,0:0:0:0:
146,300,72490,2,0,P|106:317|40:329,1,104.999996795654,0|10,3:0|0:3,0:0:0:0:
46,329,72930,1,0,0:0:0:0:
8,225,73076,6,0,L|30:118,1,104.999996795654,0|10,3:0|0:3,0:0:0:0:
115,39,73515,2,0,P|134:72|195:72,1,104.999996795654,0|0,3:0|3:0,0:0:0:0:
286,27,73954,1,10,0:3:0:0:
443,146,74247,6,0,L|434:208,1,52.4999983978272,2|0,3:0|0:0,0:0:0:0:
512,69,74539,1,10,0:3:0:0:
512,69,74686,1,0,0:0:0:0:
392,32,74832,2,0,L|410:140,1,104.999996795654,0|10,3:0|0:3,0:0:0:0:
409,135,75271,1,0,0:0:0:0:
288,42,75417,2,0,P|225:50|197:83,1,104.999996795654,0|10,3:0|0:3,0:0:0:0:
277,214,75856,2,0,P|292:173|266:116,1,104.999996795654,0|0,3:0|3:0,0:0:0:0:
164,177,76295,1,10,0:3:0:0:
298,320,76588,6,0,L|400:295,1,104.999996795654,0|10,3:0|0:3,0:0:0:0:
469,194,77027,2,0,L|363:168,1,104.999996795654,0|0,3:0|3:0,0:0:0:0:
256,192,77466,1,10,0:3:0:0:
214,320,77759,6,0,L|111:295,1,104.999996795654,0|10,3:0|0:3,0:0:0:0:
43,194,78198,2,0,L|148:168,1,104.999996795654,0|0,3:0|3:0,0:0:0:0:
256,192,78637,1,10,0:3:0:0:
256,192,78930,6,0,L|241:78,1,112.5,4|0,3:0|3:0,0:0:0:0:
183,21,79515,2,0,P|141:55|77:50,1,112.5,10|0,0:3|0:0,0:0:0:0:
28,113,80100,1,0,3:0:0:0:
28,113,80247,1,10,0:3:0:0:
75,180,80393,2,0,L|125:167,1,37.5,0|0,3:0|0:0,0:0:0:0:
190,147,80686,2,0,L|226:156,1,37.5,10|0,0:3|0:0,0:0:0:0:
274,222,80978,2,0,L|260:291,1,56.25,0|0,3:0|0:0,0:0:0:0:
262,277,81271,6,0,B|309:273|309:273|323:285|323:285|375:282,1,112.5,0|0,3:0|3:0,0:0:0:0:
426,342,81856,2,0,B|481:329|481:329|494:268,1,112.5,10|0,0:3|0:0,0:0:0:0:
470,194,82442,1,0,3:0:0:0:
470,194,82588,1,10,0:3:0:0:
500,117,82734,2,0,L|490:67,1,37.5,0|0,3:0|0:0,0:0:0:0:
442,14,83027,2,0,L|406:22,1,37.5,10|0,0:3|0:0,0:0:0:0:
338,70,83320,2,0,L|274:61,1,56.25,0|0,3:0|0:0,0:0:0:0:
251,82,83612,5,0,3:0:0:0:
251,82,83905,2,0,P|224:98|206:127,1,60,10|0,0:3|3:0,0:0:0:0:
133,161,84198,2,0,P|133:192|149:222,1,60,0|0,3:0|0:0,0:0:0:0:
142,302,84490,2,0,P|169:317|203:318,1,60,10|0,0:3|0:0,0:0:0:0:
304,219,84783,6,0,P|277:235|259:264,1,60,0|0,3:0|0:0,0:0:0:0:
343,362,85076,2,0,L|333:288,1,60,10|0,0:3|3:0,0:0:0:0:
401,177,85369,6,0,L|411:251,1,60,0|0,3:0|0:0,0:0:0:0:
440,320,85661,2,0,P|467:304|485:275,1,60,10|0,0:3|0:0,0:0:0:0:
439,104,85954,6,0,P|381:94|325:146,1,134.999995880127,0|10,3:0|0:3,0:0:0:0:
203,233,86393,2,0,B|104:224|104:224|64:182,1,134.999995880127,0|0,3:0|0:0,0:0:0:0:
98,42,86832,2,0,P|136:13|164:13,1,67.4999979400635,10|0,0:3|0:0,0:0:0:0:
247,35,87125,6,0,L|199:249,1,202.499993820191,0|0,3:0|0:0,0:0:0:0:
311,339,87710,2,0,L|263:125,1,202.499993820191,0|0,3:0|0:0,0:0:0:0:
247,35,88295,5,0,3:0:0:0:
55,118,88588,1,10,3:0:0:0:
55,118,88734,1,2,0:0:0:0:
119,200,88881,1,2,0:0:0:0:
119,200,89027,1,2,0:0:0:0:
58,278,89173,2,0,B|51:314|51:314|91:294,1,75,2|0,3:0|0:0,0:0:0:0:
119,200,89466,6,0,P|158:208|192:235,1,60,0|0,3:0|0:0,0:0:0:0:
255,285,89759,1,10,3:0:0:0:
255,285,89905,1,0,0:0:0:0:
366,272,90051,2,0,B|398:302|398:302|404:318|404:318|404:301|404:301|422:263,1,120,0|2,0:0|3:0,0:0:0:0:
493,358,90637,5,0,3:0:0:0:
384,192,90930,1,10,3:0:0:0:
384,192,91076,1,2,0:0:0:0:
448,110,91223,1,2,0:0:0:0:
448,110,91369,1,2,0:0:0:0:
363,36,91515,2,0,B|335:20|315:19|315:19|345:50,1,75,2|0,3:0|0:0,0:0:0:0:
448,110,91808,6,0,P|409:118|375:145,1,60,0|0,3:0|0:0,0:0:0:0:
312,195,92101,1,10,3:0:0:0:
312,195,92247,1,0,0:0:0:0:
201,182,92393,2,0,B|169:212|169:212|163:228|163:228|163:211|163:211|144:173,1,120,0|2,0:0|3:0,0:0:0:0:
101,42,92978,5,2,3:0:0:0:
30,147,93125,1,2,0:0:0:0:
115,54,93271,1,10,0:3:0:0:
144,173,93417,2,0,B|166:216|166:216|130:306,1,120,2|2,3:0|3:0,0:0:0:0:
139,282,93856,1,10,0:3:0:0:
259,355,94149,5,2,3:0:0:0:
308,273,94295,1,2,0:0:0:0:
358,191,94441,1,10,0:3:0:0:
459,172,94588,2,0,P|415:207|355:188,1,120,2|2,3:0|3:0,0:0:0:0:
357,190,95027,1,10,0:3:0:0:
386,96,95320,5,2,3:0:0:0:
379,88,95613,5,2,3:0:0:0:
372,80,95906,5,2,3:0:0:0:
277,85,96052,1,2,3:0:0:0:
114,165,96198,5,2,3:0:0:0:
209,170,96344,2,0,B|202:218|202:218|206:220|206:220|198:218|198:218|202:219|202:219|193:269|193:269|199:270|199:270|188:268|188:268|193:269|193:269|187:310,1,180,2|0,3:0|0:0,0:0:0:0:
273,264,97076,2,0,B|263:234|245:211|206:204|206:204|209:192|209:192|206:204|206:204|170:198|132:211|110:257,1,210,2|0,3:0|0:0,0:0:0:0:
184,302,97661,2,0,P|191:282|194:303,14,60,2|0|0|0|0|0|0|0|0|0|0|0|0|0|0,3:0|0:0|0:0|0:0|0:0|0:0|0:0|0:0|0:0|0:0|0:0|0:0|0:0|0:0|0:0,0:0:0:0:
130,210,98832,5,8,3:1:0:0:
116,356,98978,1,8,3:1:0:0:
258,221,99125,1,8,3:1:0:0:
251,364,99271,1,8,3:1:0:0:
250,374,99564,1,0,3:0:0:0:
255,211,99710,2,0,P|257:157|268:110,1,75,8|0,0:1|0:0,0:0:0:0:
141,39,100003,6,0,B|99:60|99:60|39:62,1,89.9999972534181,4|0,3:2|0:0,0:0:0:0:
162,135,100295,2,0,B|118:136|118:136|77:158,1,89.9999972534181,10|0,0:1|0:0,0:0:0:0:
141,39,100588,2,0,B|99:60|99:60|39:62,1,89.9999972534181,0|0,3:0|0:0,0:0:0:0:
223,66,100881,1,10,0:1:0:0:
162,135,101027,2,0,B|118:136|118:136|78:158|78:158|35:268,1,179.999994506836
163,346,101466,2,0,L|143:241,2,89.9999972534181,10|0|0,0:1|0:0|3:0,0:0:0:0:
300,303,102051,6,0,L|370:288,1,67.4999979400635,10|0,0:1|0:0,0:0:0:0:
433,230,102344,6,0,B|411:188|411:188|409:128,1,89.9999972534181,0|0,3:0|0:0,0:0:0:0:
337,251,102636,2,0,B|335:207|335:207|313:166,1,89.9999972534181,10|0,0:1|0:0,0:0:0:0:
433,230,102929,2,0,B|411:188|411:188|409:128,1,89.9999972534181,0|0,3:0|0:0,0:0:0:0:
406,312,103222,1,10,0:1:0:0:
337,251,103368,2,0,B|335:207|335:207|314:167|314:167|204:124,1,179.999994506836
100,26,103808,2,0,L|142:129,1,89.9999972534181,10|0,0:1|0:0,0:0:0:0:
97,275,104100,2,0,L|165:187,1,89.9999972534181,0|0,3:0|0:0,0:0:0:0:
315,59,104393,6,0,P|363:59|426:134,1,134.999995880127,10|0,0:1|0:0,0:0:0:0:
422,116,104686,2,0,B|434:229|361:160|392:304,1,179.999994506836,0|10,3:0|0:1,0:0:0:0:
305,369,105125,1,0,0:0:0:0:
249,242,105271,2,0,P|198:258|176:305,1,89.9999972534181,0|0,3:0|0:0,0:0:0:0:
109,366,105564,1,10,0:1:0:0:
67,175,105710,2,0,P|128:188|178:292,1,179.999994506836
109,366,106149,2,0,P|51:343|39:300,1,89.9999972534181,10|0,0:1|0:0,0:0:0:0:
67,175,106442,1,0,3:0:0:0:
100,168,106515,1,0,3:0:0:0:
134,161,106588,1,0,3:0:0:0:
167,155,106661,1,0,3:0:0:0:
201,148,106734,2,0,L|311:126,1,89.9999972534181,10|0,0:1|0:0,0:0:0:0:
461,13,107027,6,0,P|486:53|469:111,1,89.9999972534181,0|0,3:0|0:0,0:0:0:0:
392,110,107320,2,0,P|367:70|384:12,1,89.9999972534181,10|0,0:1|0:0,0:0:0:0:
438,189,107612,2,0,P|347:190|285:118,1,179.999994506836,0|10,3:0|0:1,0:0:0:0:
206,49,108051,2,0,B|150:50|126:88|126:88|103:44|36:36,1,179.999994506836
5,176,108490,2,0,L|113:158,1,89.9999972534181,10|0,0:1|0:0,0:0:0:0:
186,286,108783,2,0,L|78:268,1,89.9999972534181,0|0,3:0|0:0,0:0:0:0:
308,243,109076,1,10,3:1:0:0:
324,258,109149,1,0,3:0:0:0:
335,277,109222,1,0,3:0:0:0:
340,299,109295,1,0,3:0:0:0:
337,321,109369,6,0,L|459:313,1,89.9999972534181,4|0,3:2|0:0,0:0:0:0:
332,231,109661,2,0,L|454:223,1,89.9999972534181,10|0,0:1|0:0,0:0:0:0:
186,286,109954,1,0,3:0:0:0:
186,286,110100,1,0,0:0:0:0:
213,108,110247,1,10,0:1:0:0:
332,231,110393,6,0,P|309:271|266:285,1,89.9999972534181,0|0,3:0|0:0,0:0:0:0:
213,108,110686,1,0,3:0:0:0:
391,178,110832,2,0,P|414:217|404:262,1,89.9999972534181,10|0,0:1|0:0,0:0:0:0:
213,108,111125,2,0,L|232:2,1,89.9999972534181,0|0,3:0|0:0,0:0:0:0:
64,75,111417,5,10,0:1:0:0:
64,75,111710,2,0,L|79:176,1,89.9999972534181,0|0,3:0|0:0,0:0:0:0:
99,265,112003,1,10,0:1:0:0:
99,265,112149,1,0,0:0:0:0:
242,169,112295,1,0,3:0:0:0:
275,85,112441,1,0,0:0:0:0:
225,9,112588,1,10,0:1:0:0:
64,75,112734,6,0,P|29:107|21:157,1,89.9999972534181,0|0,3:0|0:0,0:0:0:0:
242,169,113027,1,0,3:0:0:0:
9,168,113173,2,0,P|19:214|58:246,1,89.9999972534181,10|0,0:1|0:0,0:0:0:0:
242,169,113466,2,0,L|116:187,1,89.9999972534181,0|0,3:0|0:0,0:0:0:0:
105,320,113759,6,0,L|194:307,1,89.9999972534181,10|0,0:1|0:0,0:0:0:0:
367,287,114051,5,0,3:0:0:0:
367,287,114344,2,0,L|354:197,1,89.9999972534181,10|0,0:1|0:0,0:0:0:0:
334,25,114637,5,0,3:0:0:0:
334,25,114930,2,0,L|244:37,1,89.9999972534181,10|0,0:1|0:0,0:0:0:0:
72,58,115222,5,0,3:0:0:0:
72,58,115515,2,0,L|84:148,1,89.9999972534181,10|0,0:1|0:0,0:0:0:0:
105,320,115808,5,0,3:0:0:0:
105,320,116100,2,0,L|195:308,1,89.9999972534181,10|0,0:1|0:0,0:0:0:0:
371,250,116393,6,0,P|393:288|384:330,1,89.9999972534181,10|0,3:0|0:0,0:0:0:0:
299,346,116686,2,0,P|277:308|286:266,1,89.9999972534181,10|0,3:0|0:0,0:0:0:0:
366,111,116978,1,10,3:0:0:0:
216,38,117125,1,10,3:0:0:0:
383,121,117271,1,10,3:0:0:0:
273,175,117417,6,0,L|294:49,1,120,10|0,3:0|0:0,0:0:0:0:
393,20,117856,2,0,P|415:61|370:126,1,120
295,139,118369,1,0,0:0:0:0:
288,140,118442,2,0,L|263:144,1,15
393,20,118734,5,6,3:0:0:0:
117,107,127222,6,0,P|117:69|81:12,2,89.9999972534181,2|10|2,3:0|0:3|3:0,0:0:0:0:
21,270,128100,5,2,3:0:0:0:
21,270,128247,1,0,0:0:0:0:
92,330,128393,2,0,L|173:311,1,75,0|8,0:0|0:3,0:0:0:0:
440,253,129125,1,2,3:0:0:0:
286,358,129417,1,2,3:0:0:0:
286,358,129564,2,0,L|276:310,1,37.5,2|0,3:0|0:0,0:0:0:0:
321,238,129856,2,0,L|311:190,1,37.5,10|0,0:3|0:0,0:0:0:0:
258,124,130149,1,2,3:0:0:0:
258,124,130295,1,0,0:0:0:0:
329,62,130442,5,2,3:0:0:0:
329,62,130588,1,0,0:0:0:0:
416,94,130734,2,0,P|444:129|448:167,1,75,0|8,0:0|0:3,0:0:0:0:
228,333,131466,1,2,3:0:0:0:
79,218,131759,1,2,3:0:0:0:
79,218,131905,2,0,L|128:205,1,37.5,2|0,3:0|0:0,0:0:0:0:
187,147,132198,2,0,L|236:134,1,37.5,10|0,0:3|0:0,0:0:0:0:
317,165,132490,1,2,3:0:0:0:
317,165,132637,1,0,0:0:0:0:
298,73,132783,6,0,L|294:34,1,37.5,2|0,3:0|0:0,0:0:0:0:
205,3,133076,2,0,P|187:10|172:21,1,37.5,0|0,0:0|3:0,0:0:0:0:
90,67,133369,2,0,P|68:98|61:141,1,75,8|0,0:3|0:0,0:0:0:0:
61,227,133808,1,2,3:0:0:0:
218,330,134100,1,2,3:0:0:0:
218,330,134247,2,0,L|209:279,1,37.5,2|0,3:0|0:0,0:0:0:0:
297,254,134539,2,0,L|303:290,1,37.5,10|0,0:3|0:0,0:0:0:0:
373,353,134832,1,2,3:0:0:0:
373,353,134978,1,0,0:0:0:0:
460,318,135125,6,0,P|475:308|487:280,1,37.5,2|0,3:0|0:0,0:0:0:0:
510,201,135417,2,0,L|501:150,1,37.5,0|0,0:0|3:0,0:0:0:0:
447,88,135710,2,0,B|411:92|411:92|379:61,1,75,8|0,0:3|0:0,0:0:0:0:
307,8,136149,1,2,3:0:0:0:
192,157,136442,1,2,3:0:0:0:
192,157,136588,2,0,L|141:166,1,37.5,2|0,3:0|0:0,0:0:0:0:
172,255,136881,2,0,L|135:261,1,37.5,10|0,0:3|0:0,0:0:0:0:
45,276,137173,1,2,3:0:0:0:
45,276,137320,1,0,0:0:0:0:
145,343,137466,6,0,L|277:321,1,120,4|8,3:0|0:3,0:0:0:0:
381,224,137905,1,0,0:0:0:0:
290,207,138051,2,0,L|261:338,1,120,0|8,3:0|0:3,0:0:0:0:
381,224,138490,2,0,P|374:165|315:117,1,120
278,47,138930,2,0,P|240:44|204:76,1,60,10|0,0:3|0:0,0:0:0:0:
129,67,139222,2,0,P|108:98|117:145,1,60,2|0,3:0|0:0,0:0:0:0:
51,206,139515,1,10,0:3:0:0:
51,206,139661,1,0,0:0:0:0:
143,306,139808,6,0,L|164:181,1,120,0|8,3:0|0:3,0:0:0:0:
219,71,140247,1,0,0:0:0:0:
264,146,140393,2,0,P|220:186|138:174,1,120,0|8,3:0|0:3,0:0:0:0:
337,100,140832,2,0,P|393:118|424:195,1,120
482,237,141271,2,0,P|461:268|426:280,1,60,10|0,0:3|0:0,0:0:0:0:
401,356,141564,2,0,P|363:353|335:329,1,60,2|0,3:0|0:0,0:0:0:0:
292,265,141856,1,10,0:3:0:0:
338,187,142003,1,0,0:0:0:0:
337,100,142149,6,0,P|321:53|242:35,1,120,0|8,3:0|0:3,0:0:0:0:
142,113,142588,1,0,0:0:0:0:
236,148,142734,2,0,L|260:17,1,120,0|8,3:0|0:3,0:0:0:0:
142,113,143173,2,0,L|158:245,1,120
145,338,143612,2,0,L|210:324,1,60,10|0,0:3|0:0,0:0:0:0:
287,276,143905,2,0,L|350:296,1,60,2|0,3:0|0:0,0:0:0:0:
442,350,144198,1,10,0:3:0:0:
512,215,144344,1,0,0:0:0:0:
415,144,144490,6,0,P|355:137|308:188,1,120,0|8,3:0|0:3,0:0:0:0:
201,81,144930,1,0,0:0:0:0:
324,54,145076,2,0,L|310:194,1,120,0|8,3:0|0:3,0:0:0:0:
201,81,145515,2,0,B|160:87|160:87|136:106|136:106|84:112,1,120
17,226,145954,6,0,L|91:216,1,60,10|0,0:3|0:0,0:0:0:0:
213,155,146247,2,0,L|184:224,1,60,2|0,3:0|0:0,0:0:0:0:
176,360,146539,2,0,L|130:300,1,60,10|0,0:3|0:0,0:0:0:0:
17,226,146832,6,0,L|91:216,1,75,4|0,3:0|0:0,0:0:0:0:
213,155,147125,1,10,0:3:0:0:
122,78,147271,1,0,0:0:0:0:
274,12,147417,2,0,P|258:54|246:104,1,75,2|0,3:0|0:0,0:0:0:0:
390,215,147710,2,0,P|374:173|362:123,1,75,10|0,0:3|3:0,0:0:0:0:
205,243,148003,2,0,P|247:227|297:215,1,75,2|0,0:0|3:0,0:0:0:0:
512,128,148295,6,0,L|438:118,1,60,10|0,0:3|0:0,0:0:0:0:
316,57,148588,2,0,L|344:126,1,60,2|0,3:0|0:0,0:0:0:0:
353,262,148880,2,0,L|398:202,1,60,10|0,0:3|0:0,0:0:0:0:
512,128,149173,6,0,L|438:118,1,75,2|0,3:0|0:0,0:0:0:0:
316,57,149466,1,10,0:3:0:0:
450,2,149612,1,0,0:0:0:0:
343,134,149759,2,0,P|297:136|264:116,1,75,2|0,3:0|0:0,0:0:0:0:
182,6,150051,2,0,P|206:44|205:83,1,75,10|0,0:3|3:0,0:0:0:0:
47,99,150344,2,0,P|89:89|135:71,1,75,2|0,0:0|3:0,0:0:0:0:
196,152,150637,6,0,P|174:172|161:199,1,60,10|0,0:3|0:0,0:0:0:0:
232,355,150929,2,0,P|226:323|211:301,1,60,2|0,3:0|0:0,0:0:0:0:
39,285,151222,2,0,P|68:294|98:293,1,60,10|0,0:3|0:0,0:0:0:0:
196,152,151515,6,0,P|173:173|162:243,1,75,2|0,3:0|0:0,0:0:0:0:
211,301,151808,1,10,0:3:0:0:
363,241,151954,1,0,0:0:0:0:
284,359,152100,2,0,P|292:318|293:272,1,75,2|0,3:0|0:0,0:0:0:0:
456,192,152393,2,0,P|448:233|447:279,1,75,10|0,0:3|3:0,0:0:0:0:
271,141,152686,2,0,P|279:100|280:54,1,75,2|0,0:0|3:0,0:0:0:0:
430,81,152978,6,0,P|410:103|383:116,1,60,10|0,0:3|0:0,0:0:0:0:
226,45,153270,2,0,P|258:51|280:66,1,60,2|0,3:0|0:0,0:0:0:0:
296,238,153563,2,0,P|287:209|288:179,1,60,10|0,0:3|0:0,0:0:0:0:
430,81,153856,6,0,P|409:104|339:115,1,75,2|0,3:0|0:0,0:0:0:0:
288,179,154149,1,10,0:3:0:0:
456,219,154295,1,0,0:0:0:0:
324,278,154442,2,0,L|237:259,1,75,2|0,3:0|0:0,0:0:0:0:
94,242,154734,2,0,L|110:315,1,75,10|0,0:3|3:0,0:0:0:0:
141,155,155027,2,0,P|76:133|12:206,1,150,2|8,0:0|0:3,0:0:0:0:
17,179,155466,1,0,0:0:0:0:
110,315,155612,2,0,L|94:242,1,75,0|0,3:0|0:0,0:0:0:0:
205,69,155905,2,0,L|221:142,1,75,8|0,0:3|0:0,0:0:0:0:
213,305,156198,6,0,B|249:313|281:286|281:286|319:283|379:330,1,165.000005035401,6|10,3:0|0:3,0:0:0:0:
364,319,156637,1,0,0:0:0:0:
497,363,156783,1,2,3:0:0:0:
497,363,156930,1,2,0:0:0:0:
441,235,157076,1,10,0:3:0:0:
512,123,157222,6,0,P|498:83|439:48,1,82.5000025177003,2|0,0:0|3:0,0:0:0:0:
326,28,157515,1,2,0:0:0:0:
431,127,157661,2,0,P|389:119|329:152,1,82.5000025177003,10|0,0:3|0:0,0:0:0:0:
194,193,157954,1,2,3:0:0:0:
194,193,158100,1,2,0:0:0:0:
216,306,158247,1,10,0:3:0:0:
318,246,158393,1,2,0:0:0:0:
152,354,158539,6,0,B|103:344|81:319|81:319|45:320|10:365,2,165.000005035401,2|10|2,3:0|0:3|3:0,0:0:0:0:
281,308,159271,1,2,0:0:0:0:
281,308,159417,1,10,0:3:0:0:
223,229,159564,2,0,L|256:55,1,165.000005035401,2|2,0:0|0:0,0:0:0:0:
136,25,160003,2,0,L|155:125,1,82.5000025177003,10|0,0:3|0:0,0:0:0:0:
309,222,160295,2,0,L|328:122,1,82.5000025177003,2|0,3:0|0:0,0:0:0:0:
253,66,160588,1,10,0:3:0:0:
253,66,160734,1,2,0:0:0:0:
349,9,160881,5,0,3:0:0:0:
430,81,161027,1,2,0:0:0:0:
324,140,161173,2,0,P|278:119|254:89,1,82.5000025177003,10|2,0:3|0:0,0:0:0:0:
430,81,161466,5,2,3:0:0:0:
481,212,161612,1,2,0:0:0:0:
400,163,161759,5,10,0:3:0:0:
350,323,161905,1,2,0:0:0:0:
255,360,162051,6,0,P|217:351|163:344,1,82.5000025177003,0|2,3:0|0:0,0:0:0:0:
159,336,162271,1,2,0:0:0:0:
159,336,162344,1,10,0:3:0:0:
57,247,162490,1,2,0:0:0:0:
60,237,162563,1,2,0:0:0:0:
63,227,162636,1,2,3:0:0:0:
191,138,162783,1,2,0:0:0:0:
185,116,162856,1,2,0:0:0:0:
179,95,162930,2,0,L|197:10,1,82.5000025177003,10|2,0:3|0:0,0:0:0:0:
97,44,163222,5,14,3:0:0:0:
257,92,163369,1,10,3:0:0:0:
92,62,163661,5,10,3:0:0:0:
252,110,163808,1,10,3:0:0:0:
252,110,164100,5,10,3:0:0:0:
189,331,164247,1,10,3:0:0:0:
270,115,164539,5,10,3:0:0:0:
207,336,164686,1,10,3:0:0:0:
37,178,164978,2,0,B|75:156|75:156|118:176,1,89.9999972534181,10|10,3:0|3:0,0:0:0:0:
220,300,165564,6,0,L|306:284,1,60,4|0,3:0|0:0,0:0:0:0:
361,273,165856,2,0,L|419:262,1,60,0|0,3:0|0:0,0:0:0:0:
205,219,166149,6,0,L|291:203,1,60,0|0,3:0|0:0,0:0:0:0:
291,131,166442,1,0,3:0:0:0:
346,192,166588,2,0,L|467:169,1,120
502,65,167027,2,0,P|476:39|432:35,2,60,0|0|0,3:0|0:0|3:0,0:0:0:0:
291,131,167612,6,0,L|227:122,1,56.25,2|0,3:0|0:0,0:0:0:0:
143,79,167905,6,0,L|159:165,1,60,0|0,3:0|0:0,0:0:0:0:
170,220,168197,2,0,L|180:278,1,60,0|0,3:0|0:0,0:0:0:0:
224,64,168490,6,0,L|240:150,1,60,0|0,3:0|0:0,0:0:0:0:
312,150,168783,1,0,3:0:0:0:
251,205,168929,2,0,L|273:326,1,120
191,337,169369,2,0,L|180:278,1,60,0|0,3:0|0:0,0:0:0:0:
109,351,169661,2,0,L|98:292,1,60,0|0,3:0|0:0,0:0:0:0:
17,216,169954,6,0,P|32:168|82:134,1,90,0|0,3:0|0:0,0:0:0:0:
60,142,170247,2,0,P|109:157|180:136,1,120,0|0,3:0|3:0,0:0:0:0:
219,42,170686,1,0,0:0:0:0:
297,100,170832,2,0,L|285:180,1,60,0|0,3:0|0:0,0:0:0:0:
322,251,171125,1,0,3:0:0:0:
398,144,171271,2,0,P|351:101|286:105,1,120
322,251,171710,2,0,L|403:239,1,60,0|0,3:0|0:0,0:0:0:0:
468,298,172003,2,0,L|473:330,3,30,0|0|0|0,3:0|0:0|0:0|0:0,0:0:0:0:
475,348,172295,2,0,L|397:335,1,60,2|0,3:0|0:0,0:0:0:0:
322,251,172588,6,0,P|302:283|297:331,1,60,0|0,3:0|0:0,0:0:0:0:
216,271,172881,2,0,P|236:239|241:191,1,60,0|0,3:0|0:0,0:0:0:0:
145,341,173173,2,0,P|96:340|50:280,1,120,0|0,3:0|3:0,0:0:0:0:
0,173,173612,2,0,L|127:148,1,120
141,72,174051,2,0,L|79:84,1,60,0|0,3:0|0:0,0:0:0:0:
103,227,174344,2,0,L|161:215,1,60,0|0,3:0|0:0,0:0:0:0:
264,130,174637,1,0,3:0:0:0:
278,134,174710,1,0,3:0:0:0:
293,137,174783,1,0,3:0:0:0:
307,140,174856,1,0,3:0:0:0:
322,144,174930,6,0,B|343:137|362:119|362:119|385:129|438:135,1,89.9999972534181,4|0,3:2|0:0,0:0:0:0:
341,233,175222,2,0,B|358:234|381:244|381:244|400:226|421:219,1,89.9999972534181,10|0,0:1|0:0,0:0:0:0:
322,144,175515,2,0,B|343:137|362:119|362:119|385:129|438:135,1,89.9999972534181,0|0,3:0|0:0,0:0:0:0:
253,209,175808,1,10,0:1:0:0:
341,233,175954,2,0,B|358:234|381:244|381:244|400:226|428:217|428:217|486:232|497:292,1,179.999994506836
356,351,176393,2,0,P|308:346|271:305,2,89.9999972534181,10|0|0,0:1|0:0|3:0,0:0:0:0:
136,322,176978,6,0,L|125:238,1,67.4999979400635,10|0,0:1|0:0,0:0:0:0:
62,188,177271,6,0,B|55:167|37:148|37:148|47:125|53:72,1,89.9999972534181,0|0,3:0|0:0,0:0:0:0:
151,169,177563,2,0,B|152:152|162:129|162:129|144:110|137:89,1,89.9999972534181,10|0,0:1|0:0,0:0:0:0:
62,188,177856,2,0,B|55:167|37:148|37:148|47:125|53:72,1,89.9999972534181,0|0,3:0|0:0,0:0:0:0:
127,257,178149,1,10,0:1:0:0:
151,169,178295,2,0,B|152:152|162:129|162:129|144:110|135:82|135:82|150:24|210:13,1,179.999994506836
315,123,178734,2,0,P|264:126|237:94,1,89.9999972534181,10|0,0:1|0:0,0:0:0:0:
415,52,179027,2,0,L|399:162,1,89.9999972534181,0|0,3:0|0:0,0:0:0:0:
317,249,179320,6,0,B|403:230|403:230|448:269,1,134.999995880127,10|0,0:1|0:0,0:0:0:0:
438,260,179612,2,0,P|393:341|297:328,1,179.999994506836,0|10,3:0|0:1,0:0:0:0:
175,321,180051,1,0,0:0:0:0:
317,249,180198,2,0,L|291:126,1,89.9999972534181,0|0,3:0|0:0,0:0:0:0:
278,70,180490,1,10,0:1:0:0:
143,233,180637,2,0,B|244:201|218:278|337:243,1,179.999994506836
370,124,181076,2,0,P|319:131|297:181,1,89.9999972534181,10|0,0:1|0:0,0:0:0:0:
484,153,181369,1,0,3:0:0:0:
500,123,181442,1,0,3:0:0:0:
505,90,181515,1,0,3:0:0:0:
494,57,181588,1,0,3:0:0:0:
474,26,181661,2,0,L|361:43,1,89.9999972534181,10|0,0:1|0:0,0:0:0:0:
187,23,181954,6,0,L|209:132,1,89.9999972534181,0|0,3:0|0:0,0:0:0:0:
300,94,182247,2,0,L|282:5,1,89.9999972534181,10|0,0:1|0:0,0:0:0:0:
216,192,182539,2,0,B|166:193|137:152|137:152|91:153|53:202,1,179.999994506836,0|10,3:0|0:1,0:0:0:0:
13,346,182978,2,0,P|100:306|202:277,1,179.999994506836
330,350,183417,2,0,P|282:350|251:317,1,89.9999972534181,10|0,0:1|0:0,0:0:0:0:
381,176,183710,2,0,P|356:260|354:271,1,89.9999972534181,0|0,3:0|0:0,0:0:0:0:
494,324,184003,1,10,3:1:0:0:
489,301,184076,1,0,3:0:0:0:
485,279,184149,1,0,3:0:0:0:
481,257,184222,1,0,3:0:0:0:
477,235,184295,6,0,L|459:132,1,89.9999972534181,4|0,3:2|0:0,0:0:0:0:
375,160,184588,2,0,L|393:263,1,89.9999972534181,10|0,0:1|0:0,0:0:0:0:
349,4,184881,1,0,3:0:0:0:
349,4,185027,1,0,0:0:0:0:
181,61,185173,1,10,0:1:0:0:
293,180,185320,6,0,P|343:182|386:139,1,89.9999972534181,0|0,3:0|0:0,0:0:0:0:
349,4,185612,1,0,3:0:0:0:
445,200,185759,2,0,P|471:157|455:98,1,89.9999972534181,10|0,0:1|0:0,0:0:0:0:
349,4,186051,2,0,L|238:27,1,89.9999972534181,0|0,3:0|0:0,0:0:0:0:
81,124,186344,5,10,0:1:0:0:
81,124,186637,2,0,L|174:140,1,89.9999972534181,0|0,3:0|0:0,0:0:0:0:
337,164,186930,1,10,0:1:0:0:
337,164,187076,1,0,0:0:0:0:
249,296,187222,1,0,3:0:0:0:
163,324,187368,1,0,0:0:0:0:
93,266,187515,1,10,0:1:0:0:
81,124,187661,6,0,P|120:87|180:83,1,89.9999972534181,0|0,3:0|0:0,0:0:0:0:
229,287,187954,1,0,3:0:0:0:
162,61,188100,2,0,P|213:76|247:126,1,89.9999972534181,10|0,0:1|0:0,0:0:0:0:
229,287,188393,2,0,L|119:267,1,89.9999972534181,0|0,3:0|0:0,0:0:0:0:
348,333,188686,6,0,L|328:223,1,89.9999972534181,10|0,0:1|0:0,0:0:0:0:
86,366,188978,5,0,3:0:0:0:
86,366,189271,2,0,L|196:346,1,89.9999972534181,10|0,0:1|0:0,0:0:0:0:
53,104,189563,5,0,3:0:0:0:
53,104,189856,2,0,L|69:192,1,89.9999972534181,10|0,0:1|0:0,0:0:0:0:
315,71,190150,5,0,3:0:0:0:
315,71,190442,2,0,L|226:87,1,89.9999972534181,10|0,0:1|0:0,0:0:0:0:
348,333,190734,5,0,3:0:0:0:
348,333,191027,2,0,L|328:223,1,89.9999972534181,10|0,0:1|0:0,0:0:0:0:
283,82,191320,6,0,P|315:63|352:66,1,75,14|0,3:0|0:0,0:0:0:0:
372,150,191612,2,0,P|340:169|304:167,1,75,10|0,3:0|0:0,0:0:0:0:
167,109,191905,1,10,3:0:0:0:
78,230,192051,1,10,3:0:0:0:
179,95,192198,2,0,L|195:172,1,75,10|10,3:0|3:0,0:0:0:0:
235,235,192417,1,0,0:0:0:0:
235,235,192490,6,0,P|253:267|251:303,1,75,14|0,3:0|0:0,0:0:0:0:
318,363,192783,2,0,P|350:344|386:346,1,75,10|0,3:0|0:0,0:0:0:0:
492,251,193076,1,10,3:0:0:0:
342,197,193222,1,10,3:0:0:0:
511,259,193369,2,0,L|493:161,1,75,10|10,3:0|3:0,0:0:0:0:
512,105,193588,1,0,0:0:0:0:
512,105,193661,6,0,P|479:86|443:88,1,75,14|0,3:0|0:0,0:0:0:0:
363,49,193954,2,0,P|330:67|314:100,1,75,14|0,3:0|0:0,0:0:0:0:
162,33,194247,1,14,3:0:0:0:
252,180,194393,1,10,3:0:0:0:
173,19,194539,1,10,3:0:0:0:
75,101,194686,6,0,L|94:224,1,120,14|0,3:0|0:0,0:0:0:0:
67,340,195125,2,0,P|124:351|178:299,1,120
249,256,195637,1,0,0:0:0:0:
258,258,195710,2,0,P|267:261|277:270,1,15
454,327,196003,6,0,L|438:253,1,75,4|2,3:2|0:0,0:0:0:0:
354,270,196295,2,0,L|369:343,1,75,8|2,0:1|0:0,0:0:0:0:
333,152,196588,1,0,3:2:0:0:
333,152,196734,1,2,0:0:0:0:
404,55,196881,1,8,0:1:0:0:
467,154,197027,6,0,P|403:181|321:136,2,150,2|2|2,0:0|0:0|0:0,0:0:0:0:
320,1,197905,2,0,L|333:166,1,150,2|2,0:0|0:0,0:0:0:0:
187,211,198344,6,0,L|112:216,1,75,0|2,3:2|0:0,0:0:0:0:
105,130,198637,2,0,L|179:124,1,75,8|2,0:1|0:0,0:0:0:0:
7,192,198930,1,0,3:2:0:0:
7,192,199076,1,2,0:0:0:0:
102,309,199222,1,8,0:1:0:0:
187,211,199369,5,2,0:0:0:0:
187,211,199661,2,0,B|190:153|128:135|128:135|158:156|166:182,1,150,2|2,0:0|0:0,0:0:0:0:
266,43,200247,2,0,B|358:22|358:22|380:48|429:54,1,150,2|2,0:0|0:0,0:0:0:0:
500,155,200686,6,0,L|494:229,1,75,0|2,3:2|0:0,0:0:0:0:
407,222,200979,2,0,L|412:147,1,75,8|2,0:1|0:0,0:0:0:0:
418,354,201271,1,0,3:2:0:0:
418,354,201417,1,2,0:0:0:0:
276,315,201564,1,8,0:1:0:0:
331,197,201710,6,0,P|281:230|278:319,2,150,2|2|2,0:0|0:0|0:0,0:0:0:0:
204,362,202588,2,0,P|148:362|79:288,1,150,2|2,0:0|0:0,0:0:0:0:
17,227,203027,5,12,3:0:0:0:
229,257,203173,1,8,3:0:0:0:
26,213,203466,5,8,3:0:0:0:
238,243,203612,1,8,3:0:0:0:
238,243,203905,5,8,3:0:0:0:
111,12,204051,1,8,3:0:0:0:
252,234,204344,5,8,3:0:0:0:
125,3,204490,1,8,3:0:0:0:
379,73,204783,1,8,3:0:0:0:
134,181,205076,2,0,P|146:201|135:180,1,67.4999979400635,8|0,3:0|0:0,0:0:0:0:
137,157,205369,5,12,3:0:0:0:
183,344,205515,1,8,0:3:0:0:
151,166,205808,5,8,3:0:0:0:
197,353,205954,1,8,0:3:0:0:
197,353,206247,5,8,3:0:0:0:
428,293,206393,1,8,0:3:0:0:
206,339,206686,5,8,3:0:0:0:
437,279,206832,1,8,0:3:0:0:
197,151,207125,1,8,0:3:0:0:
351,118,207417,2,0,P|374:113|353:112,1,67.4999979400635,8|0,0:3|0:0,0:0:0:0:
340,124,207710,5,12,3:0:0:0:
305,320,207856,1,8,0:3:0:0:
332,134,208149,5,8,3:0:0:0:
297,330,208295,1,8,0:3:0:0:
85,295,208588,5,8,3:0:0:0:
297,330,208734,1,8,0:3:0:0:
73,301,209027,5,8,3:0:0:0:
287,338,209173,1,8,3:0:0:0:
199,260,209320,1,0,3:0:0:0:
180,372,209466,1,8,3:0:0:0:
312,234,209759,2,0,P|334:231|312:235,1,67.4999979400635,8|0,3:0|0:0,0:0:0:0:
294,234,210051,5,8,3:0:0:0:
347,35,210198,1,8,0:3:0:0:
347,35,210490,5,8,3:0:0:0:
148,88,210637,1,8,0:3:0:0:
148,88,210930,5,8,3:0:0:0:
314,276,211076,2,0,P|381:263|470:251,1,157.499995193482,12|0,0:3|0:0,0:0:0:0:
