osu file format v14

[General]
AudioFilename: audio.mp3
AudioLeadIn: 0
PreviewTime: 41393
Countdown: 0
SampleSet: Soft
StackLeniency: 0.7
Mode: 0
LetterboxInBreaks: 0
WidescreenStoryboard: 1

[Editor]
Bookmarks: 11018,20384,29750,41457,60189,69555,78921,88286,99994,118725,127213,128091,137457,146823,156189,163213,165555,174921,188969,195994,205360,207701,210042,211067
DistanceSpacing: 1.3
BeatDivisor: 4
GridSize: 4
TimelineZoom: 1.9

[Metadata]
Title:SUPER CHOCOLATE
TitleUnicode:SUPER CHOCOLATE
Artist:Shizuru (CV: Nabatame Hitomi), Rino (CV: Asumi Kana)
ArtistUnicode:シズル(CV:生天目仁美)、リノ(CV:阿澄佳奈)
Creator:Reiszen
Version:TAKE'S HARD
Source:プリンセスコネクト!Re:Dive
Tags:japanese pop jpop j-pop video game princess connect プリンセスコネクト プリコネ purikone re:dive re dive cygames Sightread Take Sinyus20 -Yua
BeatmapID:3944154
BeatmapSetID:1902790

[Difficulty]
HPDrainRate:5
CircleSize:3.6
OverallDifficulty:6.5
ApproachRate:8
SliderMultiplier:1.3
SliderTickRate:1

[Events]
//Background and Video events
0,0,"bg.png",0,0
//Break Periods
2,118725,126472
2,165764,173887
//Storyboard Layer 0 (Background)
//Storyboard Layer 1 (Fail)
//Storyboard Layer 2 (Pass)
//Storyboard Layer 3 (Foreground)
//Storyboard Layer 4 (Overlay)
//Storyboard Sound Samples

[TimingPoints]
491,292.682926829268,4,2,1,40,1,0
1661,-100,4,2,1,80,0,0
11027,-125,4,2,1,50,0,0
20393,-125,4,2,1,70,0,0
29759,-125,4,2,1,60,0,0
34442,-125,4,2,1,65,0,0
38539,-333.333333333333,4,2,1,65,0,0
39051,-333.333333333333,4,2,1,5,0,0
39125,-166.666666666667,4,2,1,65,0,0
40295,-125,4,2,1,95,0,0
41466,-90.9090909090909,4,2,1,85,0,1
58881,-100,4,2,1,85,0,0
60198,-100,4,2,1,80,0,0
69564,-125,4,2,1,50,0,0
71905,-125,4,2,1,70,0,0
78930,-142.857142857143,4,2,1,60,0,0
83612,-125,4,2,1,70,0,0
88296,-125,4,2,1,60,0,0
92978,-125,4,2,1,65,0,0
97076,-333.333333333333,4,2,1,65,0,0
97588,-333.333333333333,4,2,1,5,0,0
97661,-166.666666666667,4,2,1,65,0,0
98832,-125,4,2,1,65,0,0
100003,-90.9090909090909,4,2,1,85,0,1
117417,-100,4,2,1,85,0,0
118734,-142.857142857143,4,2,1,60,0,0
128100,-142.857142857143,4,2,1,50,0,0
137466,-125,4,2,1,70,0,0
146832,-125,4,2,1,75,0,0
156198,-125,4,2,1,80,0,0
163222,-100,4,2,1,95,0,0
165564,-100,4,2,1,60,0,0
174930,-90.9090909090909,4,2,1,85,0,1
188978,-90.9090909090909,4,2,1,85,0,0
189198,-90.9090909090909,4,2,1,5,0,0
189271,-90.9090909090909,4,2,1,85,0,1
189344,-90.9090909090909,4,2,1,85,0,0
189856,-90.9090909090909,4,2,1,85,0,1
189930,-90.9090909090909,4,2,1,85,0,0
190369,-90.9090909090909,4,2,1,5,0,0
190442,-90.9090909090909,4,2,1,85,0,1
190515,-90.9090909090909,4,2,1,85,0,0
191320,-90.9090909090909,4,2,1,85,0,1
191905,-90.9090909090909,4,2,1,85,0,0
192490,-90.9090909090909,4,2,1,85,0,1
193076,-90.9090909090909,4,2,1,85,0,0
193661,-90.9090909090909,4,2,1,85,0,1
194247,-90.9090909090909,4,2,1,85,0,0
194686,-100,4,2,1,85,0,0
196003,-100,4,2,1,80,0,0
205369,-100,4,2,1,90,0,0
207710,-100,4,2,1,85,0,0
210051,-100,4,2,1,80,0,0
211076,-133.333333333333,4,2,1,80,0,0
211588,-133.333333333333,4,2,1,5,0,0

[Colours]
Combo1 : 200,159,255
Combo2 : 255,129,111

[HitObjects]
256,192,491,12,8,1369,0:3:0:0:
295,117,1661,6,0,P|262:121|230:128,1,65,4|0,3:2|0:0,0:0:0:0:
160,180,1954,2,0,P|128:172|96:168,1,65,10|0,0:1|0:0,0:0:0:0:
27,218,2247,1,0,3:2:0:0:
27,218,2393,2,0,P|42:249|43:296,1,65,0|10,0:0|0:1,0:0:0:0:
128,347,2686,6,0,P|63:355|0:370,2,130
293,383,3564,1,0,0:0:0:0:
293,383,3710,2,0,P|289:350|274:321,1,65,10|0,0:1|0:0,0:0:0:0:
255,235,4003,6,0,P|286:218|295:125,1,130,0|10,3:2|0:1,0:0:0:0:
367,76,4442,1,0,0:0:0:0:
435,124,4588,2,0,P|470:119|499:113,2,65,0|0|10,3:2|0:0|0:1,0:0:0:0:
384,192,5027,6,0,P|351:188|323:173,1,65,0|0,0:0|3:2,0:0:0:0:
240,191,5320,2,0,P|219:165|210:134,1,65,0|10,0:0|0:1,0:0:0:0:
249,59,5612,1,0,0:0:0:0:
85,37,5905,1,0,0:0:0:0:
85,37,6051,2,0,P|80:72|74:101,1,65,10|0,0:1|0:0,0:0:0:0:
14,199,6344,6,0,P|50:183|98:189,1,65,0|0,3:2|0:0,0:0:0:0:
148,225,6637,2,0,P|126:248|115:279,1,65,10|0,0:1|0:0,0:0:0:0:
80,356,6930,1,0,3:2:0:0:
80,356,7076,2,0,P|111:362|144:367,1,65,0|10,0:0|0:1,0:0:0:0:
203,298,7369,6,0,P|266:282|330:274,2,130
342,188,8247,1,0,0:0:0:0:
342,188,8393,2,0,B|360:139|360:139|348:95,1,97.5,10|0,0:1|0:0,0:0:0:0:
333,64,8686,5,12,3:0:0:0:
333,64,8832,2,0,P|304:79|215:53,1,130,8|8,3:0|3:0,0:0:0:0:
147,2,9271,1,8,3:0:0:0:
38,131,9564,1,12,3:0:0:0:
38,131,9710,1,8,3:0:0:0:
174,239,10003,1,8,3:0:0:0:
174,239,10149,1,8,3:0:0:0:
36,337,10442,6,0,P|46:272|59:209,2,130,8|8|2,3:0|3:0|3:0,0:0:0:0:
457,191,12198,2,0,P|429:204|355:175,1,104,2|10,3:0|0:3,0:0:0:0:
305,110,12637,2,0,P|356:103|408:95,1,104,2|10,3:0|0:3,0:0:0:0:
466,34,13076,1,2,3:0:0:0:
509,194,13369,5,2,3:0:0:0:
177,169,14539,2,0,P|169:118|163:66,1,104,2|10,3:0|0:3,0:0:0:0:
99,21,14978,2,0,P|65:17|8:78,1,104,2|10,3:0|0:3,0:0:0:0:
49,135,15417,1,2,3:0:0:0:
204,75,15710,5,2,3:0:0:0:
300,304,16881,2,0,P|261:295|197:326,1,104,2|10,3:0|0:3,0:0:0:0:
148,254,17320,2,0,P|155:202|161:150,1,104,2|10,3:0|0:3,0:0:0:0:
204,75,17759,1,2,3:0:0:0:
359,172,18051,6,0,P|390:179|458:154,1,104,2|10,3:0|0:3,0:0:0:0:
510,81,18490,2,0,P|453:72|399:66,1,104,2|10,3:0|0:3,0:0:0:0:
349,5,18930,1,2,3:0:0:0:
240,117,19222,6,0,P|209:110|141:135,1,104,2|10,3:0|0:3,0:0:0:0:
63,161,19661,2,0,P|58:194|54:227,1,52,2|0,3:0|0:0,0:0:0:0:
9,282,19954,1,10,0:3:0:0:
9,282,20101,1,2,3:0:0:0:
142,356,20393,6,0,P|128:329|155:253,1,104,0|10,3:0|0:3,0:0:0:0:
225,296,20832,1,0,3:0:0:0:
225,296,20978,2,0,P|281:304|337:311,1,104,0|10,3:0|0:3,0:0:0:0:
404,357,21417,1,0,0:0:0:0:
404,357,21564,2,0,P|441:361|489:309,1,104,0|10,3:0|0:3,0:0:0:0:
444,242,22003,2,0,P|407:246|359:194,1,104,0|0,3:0|0:0,0:0:0:0:
398,130,22442,2,0,P|425:138|454:137,1,52,10|0,0:3|0:0,0:0:0:0:
500,74,22734,5,0,3:0:0:0:
372,2,23027,2,0,P|346:5|320:9,1,52,10|0,0:3|3:0,0:0:0:0:
264,62,23320,2,0,P|212:54|161:47,1,104,0|10,3:0|0:3,0:0:0:0:
82,17,23759,1,0,0:0:0:0:
30,89,23905,2,0,P|38:116|37:145,1,52,0|0,3:0|0:0,0:0:0:0:
0,220,24198,1,10,0:3:0:0:
0,220,24344,2,0,P|50:228|98:208,1,104,0|0,3:0|0:0,0:0:0:0:
127,124,24783,1,10,0:3:0:0:
299,156,25076,6,0,P|270:154|215:203,1,104,0|10,3:0|0:3,0:0:0:0:
227,288,25515,1,0,3:0:0:0:
227,288,25661,2,0,P|252:291|278:294,1,52,0|0,3:0|0:0,0:0:0:0:
353,341,25954,1,10,0:3:0:0:
499,229,26247,2,0,P|476:215|460:143,1,104,0|10,3:0|0:3,0:0:0:0:
399,86,26686,1,0,3:0:0:0:
399,86,26832,2,0,P|373:85|348:77,1,52,0|0,3:0|0:0,0:0:0:0:
294,13,27125,1,10,0:3:0:0:
120,31,27417,6,0,P|113:89|106:147,1,104,0|10,3:0|0:3,0:0:0:0:
61,216,27856,1,0,3:0:0:0:
61,216,28003,2,0,P|32:189|23:154,1,52,0|0,3:0|0:0,0:0:0:0:
26,94,28295,1,10,0:3:0:0:
161,239,28588,2,0,P|258:253|316:173,2,208,0|0|0,3:0|3:0|3:0,0:0:0:0:
63,107,30051,6,0,L|114:102,1,52,10|2,3:0|0:0,0:0:0:0:
174,43,30344,2,0,L|225:48,1,52,2|2,0:0|0:0,0:0:0:0:
299,7,30637,1,2,3:0:0:0:
465,2,30930,6,0,P|472:30|470:53,1,52,0|0,3:0|0:0,0:0:0:0:
412,112,31222,2,0,P|397:90|390:65,1,52,10|0,3:0|0:0,0:0:0:0:
492,125,31515,2,0,P|472:171|426:192,1,104,0|2,0:0|3:0,0:0:0:0:
272,127,32100,5,0,3:0:0:0:
159,261,32393,2,0,L|107:265,1,52,10|2,3:0|0:0,0:0:0:0:
23,241,32686,1,2,0:0:0:0:
23,241,32832,1,2,0:0:0:0:
46,157,32978,1,2,3:0:0:0:
135,5,33271,6,0,P|155:22|169:44,1,52,0|0,3:0|0:0,0:0:0:0:
207,115,33564,2,0,P|182:123|156:124,1,52,10|0,3:0|0:0,0:0:0:0:
87,74,33856,1,0,0:0:0:0:
144,231,34149,1,2,3:0:0:0:
291,154,34442,6,0,P|293:179|297:205,2,52,2|2|10,3:0|0:0|0:3,0:0:0:0:
243,80,34881,2,0,P|294:72|346:66,1,104,2|2,3:0|3:0,0:0:0:0:
405,0,35320,1,10,0:3:0:0:
461,154,35612,2,0,P|486:149|512:147,2,52,2|2|10,3:0|0:0|0:3,0:0:0:0:
377,140,36051,2,0,P|380:190|414:229,1,104,2|2,3:0|3:0,0:0:0:0:
498,232,36490,1,10,0:3:0:0:
512,60,36783,5,2,3:0:0:0:
377,140,37076,1,2,3:0:0:0:
266,26,37369,2,0,P|240:28|214:31,1,52,2|2,3:0|3:0,0:0:0:0:
132,4,37661,1,2,3:0:0:0:
132,4,37807,1,2,3:0:0:0:
101,139,38539,6,0,P|111:173|115:207,1,68.2499979171754,2|0,3:0|0:0,0:0:0:0:
119,232,39125,6,0,P|136:249|255:147,1,233.999992858887,2|0,3:0|0:0,0:0:0:0:
383,45,40295,6,0,L|433:56,1,52,8|8,3:1|3:1,0:0:0:0:
488,119,40588,1,8,3:1:0:0:
431,179,40734,1,8,3:1:0:0:
473,344,41027,1,0,3:0:0:0:
473,344,41173,1,8,0:1:0:0:
244,334,41466,6,0,P|236:298|226:264,1,71.5000021820069,4|0,3:2|0:0,0:0:0:0:
250,172,41759,1,10,0:1:0:0:
250,172,41905,1,0,0:0:0:0:
158,161,42051,2,0,B|81:185|96:136|16:155,1,143.000004364014,0|10,3:0|0:1,0:0:0:0:
127,84,42490,6,0,P|161:73|196:66,1,71.5000021820069,0|0,0:0|3:0,0:0:0:0:
260,5,42783,1,0,0:0:0:0:
343,53,42930,2,0,P|332:87|325:122,1,71.5000021820069,10|0,0:1|0:0,0:0:0:0:
431,69,43222,2,0,P|424:33|414:0,1,71.5000021820069,0|0,3:0|0:0,0:0:0:0:
512,51,43515,2,0,B|530:110|530:110|510:150,1,107.25000327301,10|0,0:1|0:0,0:0:0:0:
488,179,43808,6,0,P|452:178|421:196,1,71.5000021820069,0|0,3:0|0:0,0:0:0:0:
332,176,44100,1,10,0:1:0:0:
332,176,44247,1,0,0:0:0:0:
283,259,44393,2,0,P|351:280|420:295,1,143.000004364014,0|10,3:0|0:1,0:0:0:0:
430,196,44832,6,0,P|420:161|413:126,1,71.5000021820069,0|0,0:0|3:0,0:0:0:0:
444,36,45125,1,0,0:0:0:0:
357,6,45271,2,0,P|322:13|290:29,1,71.5000021820069,10|0,0:1|0:0,0:0:0:0:
230,98,45564,2,0,P|264:108|299:114,1,71.5000021820069,0|0,3:0|0:0,0:0:0:0:
210,21,45856,2,0,P|175:31|140:38,1,71.5000021820069,10|0,0:1|0:0,0:0:0:0:
9,80,46149,6,0,P|27:49|36:15,1,71.5000021820069,0|0,3:0|0:0,0:0:0:0:
97,110,46442,1,10,0:1:0:0:
97,110,46588,1,0,0:0:0:0:
29,180,46734,2,0,P|71:233|142:236,1,143.000004364014,0|10,3:0|0:1,0:0:0:0:
218,311,47173,6,0,P|234:279|260:255,1,71.5000021820069,0|0,0:0|3:0,0:0:0:0:
216,179,47466,1,0,0:0:0:0:
306,127,47612,2,0,P|313:162|323:196,1,71.5000021820069,10|0,0:1|0:0,0:0:0:0:
425,178,47905,2,0,P|417:213|407:247,1,71.5000021820069,0|0,3:0|0:0,0:0:0:0:
453,326,48198,2,0,B|413:346|413:346|353:327,1,107.25000327301,10|0,0:1|0:0,0:0:0:0:
318,319,48490,6,0,P|287:337|270:368,1,71.5000021820069,0|0,3:0|0:0,0:0:0:0:
199,316,48783,2,0,P|164:324|133:343,1,71.5000021820069,10|0,0:1|0:0,0:0:0:0:
28,379,49076,2,0,P|20:345|1:314,2,71.5000021820069,0|0|10,3:0|0:0|0:1,0:0:0:0:
80,281,49515,6,0,P|88:246|107:215,1,71.5000021820069,0|0,0:0|3:0,0:0:0:0:
90,126,49808,1,0,0:0:0:0:
186,151,49954,2,0,P|221:144|255:134,1,71.5000021820069,10|0,0:1|0:0,0:0:0:0:
264,48,50247,2,0,P|298:58|333:65,1,71.5000021820069,0|0,3:0|0:0,0:0:0:0:
391,155,50539,6,0,P|407:149|425:145,3,35.7500010910034,10|0|0|0,3:1|3:0|3:0|3:0,0:0:0:0:
463,139,50832,6,0,B|481:61|432:76|456:0,2,143.000004364014,4|10|0,3:2|0:1|3:0,0:0:0:0:
497,231,51564,1,0,0:0:0:0:
497,231,51710,1,10,0:1:0:0:
446,313,51856,5,0,3:0:0:0:
267,345,52149,1,0,3:0:0:0:
267,345,52295,2,0,P|260:310|249:275,1,71.5000021820069,10|0,0:1|0:0,0:0:0:0:
340,266,52588,2,0,P|347:230|357:196,1,71.5000021820069,0|0,3:0|0:0,0:0:0:0:
286,138,52881,5,10,0:1:0:0:
151,265,53173,2,0,B|74:289|89:240|9:259,2,143.000004364014,0|10|0,3:0|0:1|3:0,0:0:0:0:
204,189,53905,1,0,0:0:0:0:
204,189,54051,1,10,0:1:0:0:
157,107,54198,5,0,3:0:0:0:
315,8,54490,1,0,3:0:0:0:
315,8,54636,2,0,P|350:15|385:26,1,71.5000021820069,10|0,0:1|0:0,0:0:0:0:
330,106,54930,2,0,P|292:117|250:208,1,143.000004364014,0|10,3:0|0:1,0:0:0:0:
358,361,55515,6,0,P|394:365|446:322,1,107.25000327301,0|0,3:0|0:0,0:0:0:0:
461,277,55808,2,0,P|431:257|397:247,1,71.5000021820069,10|0,0:1|0:0,0:0:0:0:
314,289,56100,2,0,P|280:301|245:313,1,71.5000021820069,0|0,3:0|0:0,0:0:0:0:
163,271,56393,2,0,P|174:237|187:203,1,71.5000021820069,10|0,0:1|0:0,0:0:0:0:
152,117,56686,2,0,P|116:155|64:155,1,107.25000327301,0|0,3:0|0:0,0:0:0:0:
19,141,56978,2,0,P|28:106|48:77,1,71.5000021820069,10|0,0:1|0:0,0:0:0:0:
114,10,57271,2,0,P|147:22|182:34,1,71.5000021820069,0|0,3:0|0:0,0:0:0:0:
246,100,57564,2,0,P|279:88|313:75,1,71.5000021820069,10|0,0:1|0:0,0:0:0:0:
381,13,57856,5,10,3:0:0:0:
512,147,58149,1,10,3:0:0:0:
348,236,58442,1,10,3:0:0:0:
264,246,58588,1,10,3:0:0:0:
210,182,58734,1,10,3:0:0:0:
246,100,58881,6,0,P|220:63|-1:134,1,325,10|0,3:0|0:0,0:0:0:0:
0,127,60198,6,0,P|33:131|63:144,1,65,4|0,3:2|0:0,0:0:0:0:
144,126,60490,2,0,P|156:96|160:63,1,65,10|0,0:1|0:0,0:0:0:0:
246,100,60783,1,0,3:2:0:0:
246,100,60930,2,0,L|310:89,1,65,0|10,0:0|0:1,0:0:0:0:
366,16,61222,6,0,P|418:52|482:54,2,130
297,186,62100,1,0,0:0:0:0:
297,186,62247,2,0,L|233:197,1,65,10|0,0:1|0:0,0:0:0:0:
239,281,62539,6,0,P|207:300|121:272,1,130,0|10,3:2|0:1,0:0:0:0:
72,206,62978,1,0,0:0:0:0:
62,119,63125,2,0,P|29:123|-1:136,2,65,0|0|10,3:2|0:0|0:1,0:0:0:0:
127,64,63564,6,0,P|159:67|187:82,1,65,0|0,0:0|3:2,0:0:0:0:
262,44,63856,2,0,P|282:68|291:99,1,65,0|10,0:0|0:1,0:0:0:0:
354,157,64149,1,0,0:0:0:0:
326,334,64442,1,0,0:0:0:0:
326,334,64588,2,0,L|390:345,1,65,10|0,0:1|0:0,0:0:0:0:
505,331,64881,6,0,P|494:302|494:267,1,65,0|0,3:2|0:0,0:0:0:0:
441,201,65173,2,0,P|452:172|452:137,1,65,10|0,0:1|0:0,0:0:0:0:
411,69,65466,1,0,3:2:0:0:
411,69,65612,2,0,L|347:58,1,65,0|10,0:0|0:1,0:0:0:0:
260,16,65905,6,0,P|195:17|143:54,2,130
358,181,66783,1,0,0:0:0:0:
358,181,66930,2,0,B|314:169|314:169|242:196,1,97.5,10|0,0:1|0:0,0:0:0:0:
235,208,67222,5,8,3:0:0:0:
235,208,67369,2,0,P|212:243|234:325,1,130,8|8,3:0|3:0,0:0:0:0:
298,377,67808,1,8,3:0:0:0:
451,303,68100,1,8,3:0:0:0:
451,303,68247,1,8,3:0:0:0:
355,174,68539,1,8,3:0:0:0:
355,174,68686,1,8,3:0:0:0:
438,27,68978,6,0,P|451:90|460:154,2,130,8|8|2,3:0|3:0|3:0,0:0:0:0:
96,67,70734,2,0,P|134:99|185:98,1,104,2|10,3:0|0:3,0:0:0:0:
179,9,71173,2,0,P|230:15|281:23,1,104,2|10,3:0|0:3,0:0:0:0:
345,77,71612,1,2,3:0:0:0:
218,201,71905,6,0,P|167:199|128:232,1,104,6|10,3:0|0:3,0:0:0:0:
53,276,72344,1,0,0:0:0:0:
53,276,72490,2,0,P|23:271|-5:268,2,52,0|0|10,3:0|3:0|0:3,0:0:0:0:
112,336,72930,1,0,0:0:0:0:
112,336,73076,6,0,P|164:328|216:321,1,104,0|10,3:0|0:3,0:0:0:0:
290,363,73515,2,0,P|341:369|392:377,1,104,0|0,3:0|3:0,0:0:0:0:
466,327,73954,1,10,0:3:0:0:
357,187,74247,6,0,P|382:231|429:250,1,104,2|10,3:0|0:3,0:0:0:0:
461,170,74686,1,0,0:0:0:0:
461,170,74832,2,0,P|491:175|519:178,2,52,0|0|10,3:0|3:0|0:3,0:0:0:0:
417,98,75271,1,0,0:0:0:0:
417,98,75417,6,0,P|365:90|313:83,1,104,0|10,3:0|0:3,0:0:0:0:
251,19,75856,2,0,P|199:25|148:33,1,104,0|0,3:0|3:0,0:0:0:0:
62,10,76295,1,10,0:3:0:0:
0,184,76588,6,0,P|47:180|95:219,1,104,0|10,3:0|0:3,0:0:0:0:
69,294,77027,2,0,P|116:298|164:259,1,104,0|0,3:0|3:0,0:0:0:0:
192,187,77466,1,10,0:3:0:0:
346,272,77759,6,0,P|339:323|331:374,1,104,0|10,3:0|0:3,0:0:0:0:
247,345,78198,2,0,P|254:293|261:242,1,104,0|0,3:0|3:0,0:0:0:0:
192,187,78637,1,10,0:3:0:0:
252,44,78930,6,0,P|276:34|343:56,1,90.9999972229005,4|0,3:0|0:0,0:0:0:0:
420,45,79369,1,0,3:0:0:0:
420,45,79515,2,0,P|426:90|432:135,1,90.9999972229005,10|0,0:3|0:0,0:0:0:0:
512,268,80100,2,0,P|488:259|421:271,1,90.9999972229005,0|0,3:0|3:0,0:0:0:0:
365,321,80539,2,0,P|341:330|274:318,1,90.9999972229005
210,283,80978,1,0,3:0:0:0:
60,338,81271,6,0,P|64:293|48:248,1,90.9999972229005,0|0,3:0|0:0,0:0:0:0:
6,190,81710,1,0,3:0:0:0:
6,190,81856,2,0,P|12:145|18:100,1,90.9999972229005,10|0,0:3|0:0,0:0:0:0:
135,0,82442,2,0,P|166:31|179:75,1,90.9999972229005,0|0,3:0|3:0,0:0:0:0:
233,135,82881,2,0,P|258:130|310:86,1,90.9999972229005
334,15,83320,1,0,3:0:0:0:
508,55,83612,6,0,P|475:98|483:157,1,104,0|10,3:0|0:3,0:0:0:0:
433,217,84051,1,0,3:0:0:0:
433,217,84198,2,0,P|407:216|382:208,1,52,0|0,3:0|0:0,0:0:0:0:
305,242,84490,2,0,P|317:265|322:290,1,52,10|0,0:3|0:0,0:0:0:0:
382,356,84783,2,0,P|335:377|285:366,1,104,0|10,3:0|0:3,0:0:0:0:
220,309,85222,1,0,3:0:0:0:
220,309,85369,2,0,P|194:312|168:315,1,52,0|0,3:0|0:0,0:0:0:0:
105,252,85661,2,0,P|79:255|53:258,1,52,10|0,0:3|0:0,0:0:0:0:
4,158,85954,6,0,P|32:153|75:72,1,104,0|10,3:0|0:3,0:0:0:0:
132,26,86393,1,0,3:0:0:0:
132,26,86539,2,0,P|157:26|182:34,1,52,0|0,3:0|0:0,0:0:0:0:
272,0,86832,2,0,P|289:17|301:41,1,52,10|0,0:3|0:0,0:0:0:0:
351,125,87125,2,0,P|455:105|473:0,2,208,0|0|0,3:0|3:0|3:0,0:0:0:0:
189,167,88588,6,0,P|200:195|202:223,1,52,10|2,3:0|0:0,0:0:0:0:
137,269,88881,2,0,P|109:258|81:256,1,52,2|2,0:0|0:0,0:0:0:0:
16,299,89173,1,2,3:0:0:0:
171,358,89466,6,0,P|201:362|222:353,1,52,0|0,3:0|0:0,0:0:0:0:
301,333,89759,2,0,P|289:305|271:290,1,52,10|0,3:0|0:0,0:0:0:0:
249,206,90051,2,0,P|298:187|357:193,1,104,0|2,0:0|3:0,0:0:0:0:
512,188,90637,5,0,3:0:0:0:
452,27,90930,2,0,L|400:22,1,52,10|2,3:0|0:0,0:0:0:0:
334,75,91222,1,2,0:0:0:0:
334,75,91368,1,2,0:0:0:0:
249,39,91515,1,2,3:0:0:0:
77,76,91808,6,0,P|82:50|99:31,1,52,0|0,3:0|0:0,0:0:0:0:
159,88,92100,2,0,P|153:113|136:132,1,52,10|0,3:0|0:0,0:0:0:0:
57,157,92393,2,0,L|67:278,1,104,0|2,0:0|3:0,0:0:0:0:
220,321,92978,6,0,P|243:327|271:325,2,52,2|2|10,3:0|0:0|0:3,0:0:0:0:
132,324,93417,2,0,P|136:291|205:235,1,104,2|2,3:0|3:0,0:0:0:0:
262,214,93856,1,10,0:3:0:0:
388,322,94149,2,0,L|383:373,2,52,2|2|10,3:0|0:0|0:3,0:0:0:0:
461,281,94588,2,0,L|451:177,1,104,2|2,3:0|3:0,0:0:0:0:
508,115,95027,1,10,0:3:0:0:
349,62,95320,5,2,3:0:0:0:
289,217,95612,1,2,3:0:0:0:
171,99,95905,2,0,L|119:103,1,52,2|2,3:0|3:0,0:0:0:0:
49,68,96198,1,2,3:0:0:0:
49,68,96344,1,2,3:0:0:0:
24,222,97076,6,0,P|30:260|39:292,1,68.2499979171754,2|0,3:0|0:0,0:0:0:0:
50,317,97661,6,0,B|166:355|152:230|280:269,1,233.999992858887,2|0,3:0|0:0,0:0:0:0:
432,217,98832,6,0,L|421:167,1,52,8|8,3:1|3:1,0:0:0:0:
343,119,99125,1,8,3:1:0:0:
273,170,99271,1,8,3:1:0:0:
175,42,99564,1,0,3:0:0:0:
175,42,99710,1,8,0:1:0:0:
13,198,100003,6,0,P|40:158|134:156,1,143.000004364014,4|10,3:2|0:1,0:0:0:0:
219,127,100442,1,0,0:0:0:0:
219,126,100588,2,0,P|227:161|236:196,1,71.5000021820069,0|0,3:0|0:0,0:0:0:0:
196,281,100881,1,10,0:1:0:0:
267,343,101027,6,0,P|303:357|377:284,1,143.000004364014
471,242,101466,2,0,P|433:234|406:207,1,71.5000021820069,10|0,0:1|0:0,0:0:0:0:
317,186,101759,2,0,P|340:159|346:124,1,71.5000021820069,0|0,3:0|0:0,0:0:0:0:
396,49,102051,2,0,B|359:33|359:33|291:54,1,107.25000327301,10|0,0:1|0:0,0:0:0:0:
262,68,102344,6,0,P|243:72|192:56,1,71.5000021820069,0|0,3:0|0:0,0:0:0:0:
106,40,102637,2,0,L|32:59,1,71.5000021820069,10|0,0:1|0:0,0:0:0:0:
0,164,102930,2,0,L|138:126,1,143.000004364014,0|10,3:0|0:1,0:0:0:0:
229,169,103369,6,0,P|205:195|199:230,1,71.5000021820069,0|0,0:0|3:0,0:0:0:0:
145,298,103661,1,0,0:0:0:0:
208,365,103808,2,0,P|246:363|277:347,1,71.5000021820069,10|0,0:1|0:0,0:0:0:0:
291,258,104100,1,0,3:0:0:0:
291,258,104247,1,0,0:0:0:0:
382,277,104393,2,0,L|451:259,1,71.5000021820069,10|0,0:1|0:0,0:0:0:0:
512,165,104686,6,0,P|478:177|394:114,1,143.000004364014,0|10,3:0|0:1,0:0:0:0:
370,25,105125,1,0,0:0:0:0:
370,25,105271,2,0,P|336:34|313:62,1,71.5000021820069,0|0,3:0|0:0,0:0:0:0:
313,155,105564,1,10,0:1:0:0:
260,231,105710,6,0,P|227:216|209:186,1,71.5000021820069,0|0,0:0|3:0,0:0:0:0:
207,94,106003,1,0,0:0:0:0:
207,94,106149,2,0,L|138:76,1,71.5000021820069,10|0,0:1|0:0,0:0:0:0:
88,0,106442,2,0,L|19:18,1,71.5000021820069,0|0,3:0|0:0,0:0:0:0:
52,106,106734,2,0,B|36:143|36:143|57:211,1,107.25000327301,10|0,0:1|0:0,0:0:0:0:
69,240,107027,6,0,P|104:239|137:225,1,71.5000021820069,0|0,3:0|0:0,0:0:0:0:
172,141,107320,1,10,0:1:0:0:
172,141,107466,1,0,0:0:0:0:
146,37,107612,2,0,P|218:59|285:63,1,143.000004364014,0|10,3:0|0:1,0:0:0:0:
383,10,108051,6,0,P|415:23|438:50,1,71.5000021820069,0|0,0:0|3:0,0:0:0:0:
450,136,108344,1,0,0:0:0:0:
363,88,108490,2,0,P|349:122|344:157,1,71.5000021820069,10|0,0:1|0:0,0:0:0:0:
295,235,108783,2,0,P|272:208|244:186,1,71.5000021820069,0|0,3:0|0:0,0:0:0:0:
158,223,109076,6,0,P|141:228|123:232,3,35.7500010910034,10|0|0|0,3:1|3:0|3:0|3:0,0:0:0:0:
88,241,109369,6,0,B|69:318|118:303|94:380,2,143.000004364014,4|10|0,3:2|0:1|3:0,0:0:0:0:
27,179,110100,1,0,0:0:0:0:
27,179,110247,1,10,0:1:0:0:
80,104,110393,5,0,3:0:0:0:
179,262,110686,1,0,3:0:0:0:
267,223,110832,2,0,P|301:232|331:251,1,71.5000021820069,10|0,0:1|0:0,0:0:0:0:
355,346,111125,2,0,P|380:320|411:303,1,71.5000021820069,0|0,3:0|0:0,0:0:0:0:
500,271,111417,5,10,0:1:0:0:
373,121,111710,2,0,B|451:140|436:91|513:115,2,143.000004364014,0|10|0,3:0|0:1|3:0,0:0:0:0:
303,66,112442,1,0,0:0:0:0:
303,66,112588,1,10,0:1:0:0:
218,105,112734,5,0,3:0:0:0:
305,269,113027,1,0,3:0:0:0:
241,336,113173,2,0,P|207:327|177:308,1,71.5000021820069,10|0,0:1|0:0,0:0:0:0:
95,353,113466,2,0,P|56:350|20:264,1,143.000004364014,0|10,3:0|0:1,0:0:0:0:
90,92,114051,6,0,P|120:93|168:40,1,107.25000327301,0|0,3:0|0:0,0:0:0:0:
176,3,114344,2,0,P|219:9|246:33,1,71.5000021820069,10|0,0:1|0:0,0:0:0:0:
322,94,114637,2,0,P|353:77|387:64,1,71.5000021820069,0|0,3:0|0:0,0:0:0:0:
488,77,114930,2,0,P|471:108|458:142,1,71.5000021820069,10|0,0:1|0:0,0:0:0:0:
402,232,115222,2,0,P|387:205|318:189,1,107.25000327301,0|0,3:0|0:0,0:0:0:0:
283,205,115515,2,0,P|302:234|305:269,1,71.5000021820069,10|0,0:1|0:0,0:0:0:0:
236,340,115808,2,0,P|202:327|170:310,1,71.5000021820069,0|0,3:0|0:0,0:0:0:0:
83,247,116100,2,0,P|116:234|148:217,1,71.5000021820069,10|0,0:1|0:0,0:0:0:0:
208,141,116393,5,10,3:0:0:0:
411,193,116686,1,10,3:0:0:0:
243,56,116978,1,10,3:0:0:0:
165,70,117125,1,10,3:0:0:0:
124,139,117271,1,10,3:0:0:0:
147,217,117417,6,0,P|152:268|5:203,1,325,10|0,3:0|0:0,0:0:0:0:
372,126,127222,6,0,P|380:172|385:226,2,90.9999972229005,2|10|2,3:0|0:3|3:0,0:0:0:0:
292,213,128100,2,0,P|294:236|298:259,2,45.4999986114502,2|0|0,3:0|0:0|0:0,0:0:0:0:
212,315,128686,2,0,P|177:273|91:276,1,136.499995834351,8|2,0:3|3:0,0:0:0:0:
12,384,129417,1,2,3:0:0:0:
12,384,129564,6,0,P|4:338|-1:284,2,90.9999972229005,2|10|2,3:0|0:3|3:0,0:0:0:0:
99,270,130442,2,0,P|94:247|92:224,2,45.4999986114502,2|0|0,3:0|0:0|0:0,0:0:0:0:
192,160,131027,2,0,P|161:166|90:88,1,136.499995834351,8|2,0:3|3:0,0:0:0:0:
196,0,131759,1,2,3:0:0:0:
196,0,131905,6,0,P|150:4|105:12,2,90.9999972229005,2|10|2,3:0|0:3|3:0,0:0:0:0:
255,64,132637,1,0,0:0:0:0:
255,64,132783,2,0,P|299:73|344:73,1,90.9999972229005,2|0,3:0|0:0,0:0:0:0:
482,136,133369,2,0,P|458:128|383:209,1,136.499995834351,8|2,0:3|3:0,0:0:0:0:
512,274,134100,1,2,3:0:0:0:
512,274,134247,6,0,P|466:278|421:286,2,90.9999972229005,2|10|2,3:0|0:3|3:0,0:0:0:0:
381,191,135125,2,0,P|333:181|287:182,1,90.9999972229005,2|0,3:0|0:0,0:0:0:0:
224,225,135564,1,0,3:0:0:0:
224,225,135710,2,0,P|157:226|103:177,1,136.499995834351,8|2,0:3|3:0,0:0:0:0:
4,92,136442,1,2,3:0:0:0:
4,92,136588,6,0,P|11:47|15:1,2,90.9999972229005,2|10|2,3:0|0:3|3:0,0:0:0:0:
74,251,137466,6,0,L|134:241,1,52,4|0,3:0|0:0,0:0:0:0:
148,156,137759,2,0,L|97:165,1,52,8|0,0:3|0:0,0:0:0:0:
123,81,138051,2,0,L|246:60,1,104,0|8,3:0|0:3,0:0:0:0:
289,1,138490,1,0,0:0:0:0:
289,1,138637,6,0,P|317:0|347:16,1,52,0|0,3:0|0:0,0:0:0:0:
410,64,138930,2,0,P|459:50|511:57,2,104,10|2|10,0:3|3:0|0:3,0:0:0:0:
336,114,139661,1,0,0:0:0:0:
336,114,139808,6,0,P|360:128|378:156,1,52,0|0,3:0|0:0,0:0:0:0:
345,231,140100,2,0,P|317:230|287:215,1,52,8|0,0:3|0:0,0:0:0:0:
236,165,140393,2,0,P|186:179|135:172,1,104,0|8,3:0|0:3,0:0:0:0:
55,144,140832,1,0,0:0:0:0:
55,144,140978,5,0,3:0:0:0:
102,305,141271,2,0,L|0:322,2,104,10|2|10,0:3|3:0|0:3,0:0:0:0:
172,354,142003,1,0,0:0:0:0:
172,354,142149,6,0,P|204:354|224:341,1,52,0|0,3:0|0:0,0:0:0:0:
277,280,142442,2,0,L|328:288,1,52,8|0,0:3|0:0,0:0:0:0:
302,376,142734,2,0,L|410:357,1,104,0|8,3:0|0:3,0:0:0:0:
491,345,143173,1,0,0:0:0:0:
491,345,143320,5,0,3:0:0:0:
414,198,143612,2,0,P|449:180|519:186,2,104,10|2|10,0:3|3:0|0:3,0:0:0:0:
338,173,144344,1,0,0:0:0:0:
338,173,144490,2,0,P|307:172|285:162,1,52,0|0,3:0|0:0,0:0:0:0:
220,107,144783,2,0,P|243:96|260:77,1,52,8|0,0:3|0:0,0:0:0:0:
212,3,145076,2,0,P|160:1|112:20,1,104,0|8,3:0|0:3,0:0:0:0:
25,9,145515,1,0,0:0:0:0:
25,9,145661,5,0,3:0:0:0:
95,157,145954,2,0,P|87:185|70:207,1,52,10|0,0:3|0:0,0:0:0:0:
0,230,146247,2,0,P|9:254|28:272,1,52,2|0,3:0|0:0,0:0:0:0:
87,327,146539,2,0,P|102:306|109:281,1,52,10|0,0:3|0:0,0:0:0:0:
177,236,146832,6,0,B|213:223|213:223|252:231,1,78,4|0,3:0|0:0,0:0:0:0:
277,242,147125,2,0,L|271:297,1,52,10|0,0:3|0:0,0:0:0:0:
315,364,147417,2,0,L|366:358,1,52,2|0,3:0|0:0,0:0:0:0:
428,299,147710,2,0,L|479:293,1,52,10|0,0:3|3:0,0:0:0:0:
505,210,148003,6,0,P|480:207|438:176,1,78,2|0,0:0|0:0,0:0:0:0:
424,153,148295,2,0,P|432:125|449:103,1,52,10|0,0:3|0:0,0:0:0:0:
512,64,148588,2,0,P|495:44|472:31,1,52,2|0,3:0|0:0,0:0:0:0:
387,45,148881,2,0,P|364:57|347:77,1,52,10|0,0:3|0:0,0:0:0:0:
277,126,149173,6,0,B|238:134|238:134|202:121,1,78,2|0,3:0|0:0,0:0:0:0:
176,110,149466,2,0,L|181:58,1,52,10|0,0:3|0:0,0:0:0:0:
108,15,149759,2,0,L|102:66,1,52,2|0,3:0|0:0,0:0:0:0:
18,61,150051,2,0,L|23:112,1,52,10|0,0:3|3:0,0:0:0:0:
79,179,150344,6,0,P|54:182|16:219,1,78,2|0,0:0|0:0,0:0:0:0:
10,244,150637,2,0,P|26:263|49:276,1,52,10|0,0:3|0:0,0:0:0:0:
60,355,150930,2,0,P|85:350|107:337,1,52,2|0,3:0|0:0,0:0:0:0:
181,367,151222,2,0,P|189:342|189:316,1,52,10|0,0:3|0:0,0:0:0:0:
133,248,151515,6,0,B|142:168,1,78,2|0,3:0|0:0,0:0:0:0:
150,145,151808,2,0,L|202:140,1,52,10|0,0:3|0:0,0:0:0:0:
270,90,152100,1,2,3:0:0:0:
270,90,152247,1,0,0:0:0:0:
337,38,152393,2,0,L|389:33,1,52,10|0,0:3|3:0,0:0:0:0:
487,63,152686,6,0,P|452:79|434:113,1,78,2|0,0:0|0:0,0:0:0:0:
432,140,152978,2,0,P|451:156|464:179,1,52,10|0,0:3|0:0,0:0:0:0:
427,254,153271,2,0,P|402:262|376:262,1,52,2|0,3:0|0:0,0:0:0:0:
330,192,153564,2,0,P|334:166|348:144,1,52,10|0,0:3|0:0,0:0:0:0:
272,87,153856,6,0,B|195:95,1,78,2|0,3:0|0:0,0:0:0:0:
170,80,154149,2,0,L|118:85,1,52,10|0,0:3|0:0,0:0:0:0:
41,53,154442,1,2,3:0:0:0:
41,53,154588,1,0,0:0:0:0:
0,127,154734,2,0,L|5:179,1,52,10|0,0:3|3:0,0:0:0:0:
74,230,155027,6,0,P|61:252|57:278,1,52,2|0,0:0|3:0,0:0:0:0:
38,362,155320,2,0,P|93:364|134:328,1,104,8|0,0:3|3:0,0:0:0:0:
175,262,155759,1,0,0:0:0:0:
175,262,155905,2,0,P|202:260|227:257,1,52,8|0,0:3|0:0,0:0:0:0:
280,185,156198,6,0,P|264:167|253:139,1,52,6|0,3:0|0:0,0:0:0:0:
264,49,156490,2,0,P|287:59|313:61,1,52,10|0,0:3|0:0,0:0:0:0:
405,50,156783,2,0,L|418:0,2,52,2|2|10,3:0|0:0|0:3,0:0:0:0:
430,132,157222,2,0,P|472:127|513:192,1,104,2|2,0:0|0:0,0:0:0:0:
491,263,157661,2,0,P|460:261|438:248,1,52,10|0,0:3|0:0,0:0:0:0:
362,209,157954,2,0,L|355:260,1,52,2|2,3:0|0:0,0:0:0:0:
302,336,158247,1,10,0:3:0:0:
302,336,158393,1,2,0:0:0:0:
227,279,158539,6,0,P|180:257|130:268,1,104,2|10,3:0|0:3,0:0:0:0:
52,240,158978,1,0,0:0:0:0:
52,240,159125,2,0,L|0:247,2,52,2|2|10,3:0|0:0|0:3,0:0:0:0:
118,174,159564,2,0,P|80:164|46:97,1,104,2|2,0:0|0:0,0:0:0:0:
0,33,160003,2,0,L|51:26,1,52,10|0,0:3|0:0,0:0:0:0:
134,0,160295,1,2,3:0:0:0:
277,98,160588,2,0,P|276:123|265:147,1,52,10|2,0:3|0:0,0:0:0:0:
193,100,160881,6,0,L|142:107,2,52,0|2|10,3:0|0:0|0:3,0:0:0:0:
231,27,161320,1,2,0:0:0:0:
314,6,161466,2,0,P|339:6|365:13,1,52,2|2,3:0|0:0,0:0:0:0:
452,27,161759,1,10,0:3:0:0:
452,27,161905,1,2,0:0:0:0:
397,94,162051,6,0,L|390:145,1,52,0|2,3:0|0:0,0:0:0:0:
390,178,162271,1,2,0:0:0:0:
390,178,162344,1,10,0:3:0:0:
315,221,162490,6,0,L|289:217,2,26,2|2|2,0:0|0:0|3:0,0:0:0:0:
349,298,162783,2,0,L|323:302,2,26,2|2|10,0:0|0:0|0:3,0:0:0:0:
421,345,163076,2,0,L|447:341,1,26,2|2,0:0|0:0,0:0:0:0:
486,335,163222,5,14,3:0:0:0:
486,335,163368,2,0,P|504:308|489:216,1,130,10|10,3:0|3:0,0:0:0:0:
437,147,163808,1,10,3:0:0:0:
281,206,164100,1,10,3:0:0:0:
281,206,164247,1,10,3:0:0:0:
304,42,164539,1,10,3:0:0:0:
304,42,164686,1,10,3:0:0:0:
158,127,164978,6,0,P|93:136|30:150,1,130,10|10,3:0|3:0,0:0:0:0:
30,150,165564,1,4,3:0:0:0:
52,74,174637,6,0,P|67:70|83:65,3,32.5,0|0|0|0,3:0|3:0|3:0|3:0,0:0:0:0:
118,53,174930,5,4,3:2:0:0:
118,53,175076,1,0,0:0:0:0:
204,20,175222,2,0,L|222:89,1,71.5000021820069,10|0,0:1|0:0,0:0:0:0:
303,135,175515,2,0,P|342:145|391:63,1,143.000004364014,0|10,3:0|0:1,0:0:0:0:
465,12,175954,6,0,P|481:46|483:81,2,71.5000021820069,0|0|0,0:0|3:0|0:0,0:0:0:0:
393,71,176393,2,0,L|411:140,1,71.5000021820069,10|0,0:1|0:0,0:0:0:0:
476,217,176686,1,0,3:0:0:0:
476,217,176832,1,0,0:0:0:0:
407,279,176978,2,0,B|370:295|370:295|302:274,1,107.25000327301,10|0,0:1|0:0,0:0:0:0:
270,266,177271,6,0,P|266:301|247:331,1,71.5000021820069,0|0,3:0|0:0,0:0:0:0:
158,371,177564,2,0,P|122:368|92:349,1,71.5000021820069,10|0,0:1|0:0,0:0:0:0:
1,286,177856,2,0,L|70:268,1,71.5000021820069,0|0,3:0|0:0,0:0:0:0:
165,277,178149,1,10,0:1:0:0:
217,193,178295,6,0,P|200:161|172:140,1,71.5000021820069,0|0,0:0|3:0,0:0:0:0:
83,171,178588,1,0,0:0:0:0:
83,171,178734,2,0,P|64:98|47:33,1,143.000004364014,10|0,0:1|3:0,0:0:0:0:
144,0,179173,1,0,0:0:0:0:
144,0,179320,2,0,P|153:34|162:69,1,71.5000021820069,10|0,0:1|0:0,0:0:0:0:
250,104,179612,5,0,3:0:0:0:
250,104,179759,1,0,0:0:0:0:
325,50,179905,2,0,L|394:68,1,71.5000021820069,10|0,0:1|0:0,0:0:0:0:
477,26,180198,2,0,P|500:63|498:113,1,71.5000021820069,0|0,3:0|0:0,0:0:0:0:
481,180,180490,1,10,0:1:0:0:
385,156,180637,6,0,P|346:151|294:241,1,143.000004364014
230,298,181076,2,0,P|195:288|160:279,1,71.5000021820069,10|0,0:1|0:0,0:0:0:0:
75,319,181369,1,0,3:0:0:0:
75,319,181515,1,0,0:0:0:0:
7,253,181661,2,0,B|-9:216|-9:216|10:152,1,107.25000327301,10|0,0:1|0:0,0:0:0:0:
21,118,181954,6,0,P|89:117|129:173,1,143.000004364014,0|10,3:0|0:1,0:0:0:0:
212,223,182393,1,0,0:0:0:0:
212,223,182539,2,0,P|240:201|253:168,1,71.5000021820069,0|0,3:0|0:0,0:0:0:0:
194,100,182832,1,10,0:1:0:0:
240,17,182978,6,0,P|316:47|381:22,1,143.000004364014
476,16,183417,2,0,P|465:50|457:84,1,71.5000021820069,10|0,0:1|0:0,0:0:0:0:
507,174,183710,1,0,3:0:0:0:
507,174,183856,1,0,0:0:0:0:
439,255,184003,6,0,P|421:249|404:245,3,35.7500010910034,10|0|0|0,3:1|3:0|3:0|3:0,0:0:0:0:
367,244,184295,6,0,B|343:321|392:306|373:386,2,143.000004364014,4|10|0,3:2|0:1|3:0,0:0:0:0:
301,185,185027,1,0,0:0:0:0:
301,185,185173,1,10,0:1:0:0:
229,232,185320,5,0,3:0:0:0:
40,189,185612,1,0,3:0:0:0:
100,119,185759,2,0,P|91:84|81:50,1,71.5000021820069,10|0,0:1|0:0,0:0:0:0:
162,11,186051,2,0,P|203:17|233:49,1,71.5000021820069,0|0,3:0|0:0,0:0:0:0:
320,23,186344,5,10,0:1:0:0:
473,131,186637,6,0,B|454:208|503:193|479:270,2,143.000004364014,0|10|0,3:0|0:1|3:0,0:0:0:0:
406,72,187369,1,0,0:0:0:0:
406,72,187515,1,10,0:1:0:0:
328,121,187661,5,0,3:0:0:0:
395,296,187954,1,0,3:0:0:0:
338,355,188100,2,0,P|318:361|271:344,1,71.5000021820069,10|0,0:1|0:0,0:0:0:0:
206,270,188393,2,0,P|250:273|291:176,1,143.000004364014,0|10,3:0|0:1,0:0:0:0:
233,16,188978,6,0,P|195:8|133:52,1,107.25000327301,0|0,3:0|0:0,0:0:0:0:
126,78,189271,2,0,L|48:63,1,71.5000021820069,10|0,0:1|0:0,0:0:0:0:
6,144,189564,2,0,P|26:174|27:220,1,71.5000021820069,0|0,3:0|0:0,0:0:0:0:
97,278,189856,2,0,P|112:245|152:221,1,71.5000021820069,10|0,0:1|0:0,0:0:0:0:
232,159,190149,2,0,P|224:197|268:259,1,107.25000327301,0|0,3:0|0:0,0:0:0:0:
292,271,190442,2,0,L|362:257,1,71.5000021820069,10|0,0:1|0:0,0:0:0:0:
450,204,190734,2,0,P|446:168|426:139,1,71.5000021820069,0|0,3:0|0:0,0:0:0:0:
407,48,191027,2,0,P|377:67|342:71,1,71.5000021820069,10|0,0:1|0:0,0:0:0:0:
269,10,191320,5,14,3:0:0:0:
90,98,191612,1,10,3:0:0:0:
198,244,191905,1,10,3:0:0:0:
147,313,192052,1,10,3:0:0:0:
61,305,192198,2,0,L|47:235,1,71.5000021820069,10|10,3:0|3:0,0:0:0:0:
116,177,192490,5,14,3:0:0:0:
234,338,192783,1,10,3:0:0:0:
336,180,193076,1,10,3:0:0:0:
403,233,193223,1,10,3:0:0:0:
484,203,193369,2,0,L|470:133,1,71.5000021820069,10|10,3:0|3:0,0:0:0:0:
384,88,193661,5,14,3:0:0:0:
261,235,193954,1,14,3:0:0:0:
175,60,194247,1,14,3:0:0:0:
91,48,194393,1,10,3:0:0:0:
31,103,194539,1,10,3:0:0:0:
32,185,194686,6,0,B|217:221|152:98|373:140,1,325,14|0,3:0|0:0,0:0:0:0:
343,135,196003,6,0,P|348:170|354:199,1,65,4|0,3:2|0:0,0:0:0:0:
435,238,196295,2,0,P|439:205|446:173,1,65,10|0,0:1|0:0,0:0:0:0:
512,108,196588,1,0,3:2:0:0:
512,108,196734,2,0,P|498:79|470:62,1,65,0|10,0:0|0:1,0:0:0:0:
388,15,197027,6,0,P|355:32|321:33,1,65,0|0,0:0|3:2,0:0:0:0:
263,95,197320,2,0,P|231:74|213:45,1,65,0|10,0:0|0:1,0:0:0:0:
139,86,197612,2,0,P|122:53|30:42,1,130
12,120,198051,2,0,L|23:184,1,65,10|0,0:1|0:0,0:0:0:0:
127,181,198344,6,0,P|167:170|227:245,1,130,0|10,3:2|0:1,0:0:0:0:
177,297,198783,1,0,0:0:0:0:
177,297,198930,2,0,P|142:292|113:286,2,65,0|0|10,3:2|0:0|0:1,0:0:0:0:
241,357,199369,6,0,P|273:353|301:338,1,65,0|0,0:0|3:2,0:0:0:0:
390,366,199661,2,0,P|403:336|403:304,1,65,0|10,0:0|0:1,0:0:0:0:
472,241,199954,2,0,P|453:214|425:198,1,65,0|0,0:0|3:2,0:0:0:0:
330,234,200247,1,0,0:0:0:0:
330,234,200393,2,0,L|266:223,1,65,10|0,0:1|0:0,0:0:0:0:
191,175,200686,6,0,P|205:146|207:113,1,65,0|0,3:2|0:0,0:0:0:0:
142,56,200978,2,0,P|124:82|97:100,1,65,10|0,0:1|0:0,0:0:0:0:
9,88,201271,1,0,3:2:0:0:
9,88,201417,2,0,P|13:120|20:152,1,65,0|10,0:0|0:1,0:0:0:0:
84,236,201710,6,0,L|73:300,1,65,0|0,0:0|3:2,0:0:0:0:
151,340,202003,2,0,L|162:276,1,65,0|10,0:0|0:1,0:0:0:0:
252,252,202295,2,0,L|228:386,1,130
326,354,202734,2,0,B|370:366|370:366|442:339,1,97.5,10|0,0:1|0:0,0:0:0:0:
458,328,203027,5,12,3:0:0:0:
458,328,203173,2,0,P|476:297|443:213,1,130,8|8,3:0|3:0,0:0:0:0:
361,236,203612,1,8,3:0:0:0:
283,88,203905,1,8,3:0:0:0:
283,88,204051,1,8,3:0:0:0:
126,154,204344,1,8,3:0:0:0:
126,154,204490,1,8,3:0:0:0:
213,302,204783,6,0,P|222:237|235:174,2,130,8|8|12,3:0|3:0|3:0,0:0:0:0:
153,362,205515,2,0,P|89:367|39:327,1,130,8|8,0:3|3:0,0:0:0:0:
17,246,205954,1,8,0:3:0:0:
97,99,206247,1,8,3:0:0:0:
97,99,206393,1,8,0:3:0:0:
240,200,206686,1,8,3:0:0:0:
240,200,206832,1,8,0:3:0:0:
316,49,207125,6,0,P|252:62|188:71,2,130,8|8|12,0:3|0:3|3:0,0:0:0:0:
387,3,207856,2,0,P|450:-2|500:37,1,130,8|8,0:3|3:0,0:0:0:0:
477,118,208295,1,8,0:3:0:0:
350,226,208588,1,8,3:0:0:0:
350,226,208734,1,8,0:3:0:0:
471,360,209027,5,8,3:0:0:0:
471,360,209173,2,0,P|480:322|481:291,1,65,8|0,3:0|3:0,0:0:0:0:
414,237,209466,2,0,P|376:228|345:227,1,65,8|0,3:0|3:0,0:0:0:0:
288,296,209759,2,0,P|252:301|196:272,1,97.5,8|0,3:0|0:0,0:0:0:0:
171,250,210051,5,8,3:0:0:0:
171,250,210198,1,8,0:3:0:0:
36,110,210490,1,8,3:0:0:0:
36,110,210637,1,8,0:3:0:0:
215,10,210930,5,8,3:0:0:0:
215,10,211076,2,0,P|294:14|385:28,1,170.625006508827,12|0,0:3|0:0,0:0:0:0:
