osu file format v14

[General]
AudioFilename: audio.mp3
AudioLeadIn: 0
PreviewTime: 41393
Countdown: 0
SampleSet: Soft
StackLeniency: 0.7
Mode: 0
LetterboxInBreaks: 0
WidescreenStoryboard: 1

[Editor]
Bookmarks: 24335,31506,208140
DistanceSpacing: 1.1
BeatDivisor: 2
GridSize: 16
TimelineZoom: 2.4

[Metadata]
Title:SUPER CHOCOLATE
TitleUnicode:SUPER CHOCOLATE
Artist:Shizuru (CV: Nabatame Hitomi), Rino (CV: Asumi Kana)
ArtistUnicode:シズル(CV:生天目仁美)、リノ(CV:阿澄佳奈)
Creator:Reiszen
Version:SIGHTREAD'S NORMAL
Source:プリンセスコネクト!Re:Dive
Tags:japanese pop jpop j-pop video game princess connect プリンセスコネクト プリコネ purikone re:dive re dive cygames Sightread Take Sinyus20 -Yua
BeatmapID:3926185
BeatmapSetID:1902790

[Difficulty]
HPDrainRate:3.3
CircleSize:3.3
OverallDifficulty:3
ApproachRate:5.5
SliderMultiplier:0.8
SliderTickRate:1

[Events]
//Background and Video events
0,0,"bg.png",0,0
//Break Periods
2,118934,125413
2,165764,173121
//Storyboard Layer 0 (Background)
//Storyboard Layer 1 (Fail)
//Storyboard Layer 2 (Pass)
//Storyboard Layer 3 (Foreground)
//Storyboard Layer 4 (Overlay)
//Storyboard Sound Samples

[TimingPoints]
491,292.682926829268,4,2,1,40,1,0
1661,-105.263157894737,4,2,1,80,0,0
11027,-111.111111111111,4,2,1,50,0,0
20393,-105.263157894737,4,2,1,70,0,0
29759,-105.263157894737,4,2,1,60,0,0
34442,-105.263157894737,4,2,1,65,0,0
40295,-105.263157894737,4,2,1,95,0,0
41466,-95.2380952380952,4,2,1,85,0,1
58881,-95.2380952380952,4,2,1,85,0,0
60198,-105.263157894737,4,2,1,80,0,0
69564,-111.111111111111,4,2,1,50,0,0
71905,-105.263157894737,4,2,1,70,0,0
78930,-111.111111111111,4,2,1,60,0,0
83612,-107.52688172043,4,2,1,70,0,0
85954,-105.263157894737,4,2,1,70,0,0
88296,-105.263157894737,4,2,1,60,0,0
92978,-105.263157894737,4,2,1,65,0,0
100003,-95.2380952380952,4,2,1,85,0,1
117417,-105.263157894737,4,2,1,85,0,0
118734,-111.111111111111,4,2,1,60,0,0
128100,-111.111111111111,4,2,1,50,0,0
137466,-105.263157894737,4,2,1,70,0,0
146832,-105.263157894737,4,2,1,75,0,0
156198,-105.263157894737,4,2,1,80,0,0
163222,-105.263157894737,4,2,1,95,0,0
165564,-111.111111111111,4,2,1,60,0,0
174930,-95.2380952380952,4,2,1,85,0,1
188978,-95.2380952380952,4,2,1,85,0,0
189271,-95.2380952380952,4,2,1,85,0,1
189344,-95.2380952380952,4,2,1,85,0,0
189856,-95.2380952380952,4,2,1,85,0,1
189930,-95.2380952380952,4,2,1,85,0,0
190442,-95.2380952380952,4,2,1,85,0,1
190515,-95.2380952380952,4,2,1,85,0,0
191027,-95.2380952380952,4,2,1,85,0,1
191100,-95.2380952380952,4,2,1,85,0,0
191320,-95.2380952380952,4,2,1,85,0,0
191905,-95.2380952380952,4,2,1,85,0,1
192490,-95.2380952380952,4,2,1,85,0,0
193076,-95.2380952380952,4,2,1,85,0,1
193661,-95.2380952380952,4,2,1,85,0,0
194247,-95.2380952380952,4,2,1,85,0,1
194686,-100,4,2,1,85,0,0
196003,-105.263157894737,4,2,1,80,0,0
205369,-105.263157894737,4,2,1,90,0,0
207710,-105.263157894737,4,2,1,85,0,0
210051,-105.263157894737,4,2,1,80,0,0
211076,-105.263157894737,4,2,1,80,0,0
211515,-105.263157894737,4,2,1,80,0,0

[Colours]
Combo1 : 200,159,255
Combo2 : 255,129,111

[HitObjects]
16,22,1661,6,0,L|127:9,1,75.9999979705811,4|8,3:2|0:1,0:0:0:0:
175,8,2247,2,0,L|181:69,1,37.9999989852906,0|2,3:2|0:0,0:0:0:0:
191,91,2539,1,8,0:1:0:0:
191,91,2686,2,0,P|222:125|284:118,1,75.9999979705811,2|2,0:0|0:0,0:0:0:0:
333,125,3271,1,2,0:0:0:0:
402,78,3564,2,0,B|463:74|463:74|507:130,1,113.999996955872,2|0,0:0|3:2,0:0:0:0:
498,198,4295,5,8,0:1:0:0:
499,281,4588,2,0,L|443:299,1,37.9999989852906,0|2,3:2|0:0,0:0:0:0:
432,320,4881,1,8,0:1:0:0:
432,320,5027,2,0,L|332:288,1,75.9999979705811,2|2,0:0|0:0,0:0:0:0:
281,267,5612,1,2,0:0:0:0:
210,222,5905,2,0,P|147:193|94:218,1,113.999996955872,2|0,0:0|3:2,0:0:0:0:
41,257,6637,5,8,0:1:0:0:
32,340,6930,2,0,L|76:367,1,37.9999989852906,0|2,3:2|0:0,0:0:0:0:
109,370,7222,1,8,0:1:0:0:
109,370,7369,2,0,P|153:366|207:352,1,75.9999979705811,2|2,0:0|0:0,0:0:0:0:
265,342,7954,1,2,0:0:0:0:
318,277,8247,1,2,0:0:0:0:
411,193,8686,6,0,L|469:210,1,37.9999989852906,12|8,3:0|3:0,0:0:0:0:
497,271,9125,2,0,L|480:329,1,37.9999989852906,8|8,3:0|3:0,0:0:0:0:
416,354,9564,2,0,L|358:337,1,37.9999989852906,12|8,3:0|3:0,0:0:0:0:
304,320,10003,1,8,3:0:0:0:
304,320,10149,1,8,3:0:0:0:
220,309,10442,2,0,L|131:331,1,75.9999979705811,8|8,3:0|3:0,0:0:0:0:
67,333,11027,6,0,P|27:285|34:181,1,143.999995605469,2|0,3:0|0:0,0:0:0:0:
89,62,12198,2,0,L|171:47,1,71.9999978027344,2|10,3:0|0:3,0:0:0:0:
188,20,12637,2,0,L|270:35,1,71.9999978027344,2|10,3:0|0:3,0:0:0:0:
296,44,13076,1,2,3:0:0:0:
373,28,13369,6,0,P|464:43|468:101,1,143.999995605469,2|0,3:0|0:0,0:0:0:0:
470,239,14539,2,0,L|388:254,1,71.9999978027344,2|10,3:0|0:3,0:0:0:0:
369,278,14978,2,0,L|287:263,1,71.9999978027344,2|10,3:0|0:3,0:0:0:0:
259,256,15417,1,2,3:0:0:0:
180,244,15710,6,0,P|123:222|119:138,1,143.999995605469,2|0,3:0|0:0,0:0:0:0:
260,86,16881,2,0,P|304:156|314:166,1,71.9999978027344,2|10,3:0|0:3,0:0:0:0:
321,178,17320,2,0,P|404:175|418:170,1,71.9999978027344,2|10,3:0|0:3,0:0:0:0:
431,172,17759,1,2,3:0:0:0:
498,131,18051,6,0,L|484:48,1,71.9999978027344,2|10,3:0|0:3,0:0:0:0:
477,21,18490,2,0,L|394:35,1,71.9999978027344,2|10,3:0|0:3,0:0:0:0:
366,40,18930,1,2,3:0:0:0:
311,97,19222,2,0,P|278:125|236:139,1,71.9999978027344,2|10,3:0|0:3,0:0:0:0:
213,146,19661,2,0,P|185:113|171:71,1,71.9999978027344,2|10,3:0|0:3,0:0:0:0:
160,49,20100,1,2,3:0:0:0:
84,12,20393,6,0,B|44:13|44:13|16:46,1,75.9999979705811,0|10,3:0|0:3,0:0:0:0:
7,82,20832,1,0,3:0:0:0:
7,82,20978,2,0,P|16:132|33:184,1,75.9999979705811,0|10,3:0|0:3,0:0:0:0:
50,235,21564,2,0,L|152:248,1,75.9999979705811,0|10,3:0|0:3,0:0:0:0:
138,284,22003,2,0,L|239:270,1,75.9999979705811,0|0,3:0|0:0,0:0:0:0:
254,267,22442,1,10,0:3:0:0:
325,223,22734,6,0,P|376:190|395:189,1,75.9999979705811,0|10,3:0|0:3,0:0:0:0:
435,189,23173,1,0,3:0:0:0:
435,189,23320,2,0,P|468:239|469:258,1,75.9999979705811,0|10,3:0|0:3,0:0:0:0:
479,336,23905,2,0,L|380:356,1,75.9999979705811,0|10,3:0|0:3,0:0:0:0:
365,366,24344,2,0,L|266:346,1,75.9999979705811,0|0,3:0|0:0,0:0:0:0:
248,344,24783,1,10,0:3:0:0:
164,341,25076,6,0,P|129:358|72:359,1,75.9999979705811,0|10,3:0|0:3,0:0:0:0:
8,364,25661,1,0,3:0:0:0:
2,280,25954,1,10,0:3:0:0:
28,200,26247,2,0,P|77:167|118:159,1,75.9999979705811,0|10,3:0|0:3,0:0:0:0:
175,145,26832,1,0,3:0:0:0:
220,215,27125,1,10,0:3:0:0:
288,263,27417,6,0,L|386:250,1,75.9999979705811,0|10,3:0|0:3,0:0:0:0:
404,245,27856,2,0,L|391:147,1,75.9999979705811,0|0,3:0|0:0,0:0:0:0:
389,127,28295,1,10,0:3:0:0:
327,70,28588,2,0,B|258:54|258:54|249:67|249:67|183:49,1,151.999995941162,0|0,3:0|3:0,0:0:0:0:
19,33,29759,6,0,P|2:99|11:133,1,75.9999979705811,0|10,3:0|3:0,0:0:0:0:
11,151,30198,1,2,0:0:0:0:
11,151,30344,2,0,L|78:171,1,37.9999989852906,2|2,0:0|0:0,0:0:0:0:
87,173,30637,1,2,3:0:0:0:
166,200,30930,2,0,L|267:183,1,75.9999979705811,0|10,3:0|3:0,0:0:0:0:
286,186,31369,1,0,0:0:0:0:
286,186,31515,2,0,L|303:287,1,75.9999979705811,0|2,0:0|3:0,0:0:0:0:
319,341,32100,6,0,P|355:362|415:367,1,75.9999979705811,0|10,3:0|3:0,0:0:0:0:
434,374,32539,1,2,0:0:0:0:
434,374,32686,2,0,L|491:355,1,37.9999989852906,2|2,0:0|0:0,0:0:0:0:
509,347,32978,1,2,3:0:0:0:
493,264,33271,2,0,L|472:160,1,75.9999979705811,0|10,3:0|3:0,0:0:0:0:
470,153,33710,1,0,0:0:0:0:
470,153,33856,2,0,L|366:174,1,75.9999979705811,0|2,0:0|3:0,0:0:0:0:
322,209,34442,6,0,P|266:234|239:235,1,75.9999979705811,2|10,3:0|0:3,0:0:0:0:
210,234,34881,2,0,P|185:178|184:151,1,75.9999979705811,2|2,3:0|3:0,0:0:0:0:
177,122,35320,1,10,0:3:0:0:
234,61,35612,2,0,L|297:45,1,37.9999989852906,2|2,3:0|0:0,0:0:0:0:
317,48,35905,1,10,0:3:0:0:
317,48,36051,2,0,P|386:94|402:98,1,75.9999979705811,2|2,3:0|3:0,0:0:0:0:
416,109,36490,1,10,0:3:0:0:
490,146,36783,6,0,L|505:234,1,75.9999979705811,2|2,3:0|3:0,0:0:0:0:
509,304,37369,2,0,L|451:340,1,37.9999989852906,2|2,3:0|3:0,0:0:0:0:
444,349,37661,1,2,3:0:0:0:
444,349,37808,1,2,3:0:0:0:
235,349,38539,5,2,3:0:0:0:
125,222,39125,2,0,P|21:190|72:92,1,227.999993911743,2|0,3:0|0:0,0:0:0:0:
110,40,40295,2,0,L|164:56,1,37.9999989852906,8|8,3:1|3:1,0:0:0:0:
180,74,40588,2,0,L|234:58,1,37.9999989852906,8|8,3:1|3:1,0:0:0:0:
302,83,41027,1,0,3:0:0:0:
302,83,41173,1,8,0:1:0:0:
394,75,41466,6,0,P|444:154|443:169,1,83.9999974365235,4|10,3:2|0:1,0:0:0:0:
456,231,42051,2,0,L|397:254,1,41.9999987182618,0|0,3:0|0:0,0:0:0:0:
384,279,42344,1,10,0:1:0:0:
384,279,42490,2,0,L|278:257,1,83.9999974365235
256,251,42930,1,10,0:1:0:0:
171,286,43222,2,0,L|118:288,1,41.9999987182618,0|0,3:0|0:0,0:0:0:0:
82,290,43515,1,10,0:1:0:0:
5,238,43808,6,0,P|-5:184|16:134,1,83.9999974365235,0|10,3:0|0:1,0:0:0:0:
68,91,44393,2,0,L|140:71,1,41.9999987182618,0|0,3:0|0:0,0:0:0:0:
145,51,44686,1,10,0:1:0:0:
145,51,44832,2,0,L|245:70,1,83.9999974365235
270,83,45271,1,10,0:1:0:0:
325,157,45564,2,0,P|369:190|422:173,1,83.9999974365235,0|10,3:0|0:1,0:0:0:0:
488,190,46149,6,0,L|513:97,1,83.9999974365235,0|10,3:0|0:1,0:0:0:0:
508,16,46734,2,0,L|456:0,1,41.9999987182618,0|0,3:0|0:0,0:0:0:0:
425,7,47027,1,10,0:1:0:0:
425,7,47173,2,0,P|392:38|327:48,1,83.9999974365235
310,61,47612,1,10,0:1:0:0:
230,13,47905,2,0,L|131:13,1,83.9999974365235,0|10,3:0|0:1,0:0:0:0:
53,21,48490,6,0,L|38:77,1,41.9999987182618,0|0,3:0|0:0,0:0:0:0:
17,100,48783,2,0,L|32:156,1,41.9999987182618,10|0,0:1|0:0,0:0:0:0:
57,176,49076,2,0,P|27:230|38:269,1,83.9999974365235,0|10,3:0|0:1,0:0:0:0:
44,293,49515,2,0,P|98:322|137:311,1,83.9999974365235
163,311,49954,1,10,0:1:0:0:
203,227,50247,1,0,3:0:0:0:
295,231,50539,2,0,L|331:194,1,41.9999987182618,10|0,3:1|3:0,0:0:0:0:
366,180,50832,6,0,P|437:180|451:190,1,83.9999974365235,4|10,3:2|0:1,0:0:0:0:
508,253,51417,2,0,L|486:307,1,41.9999987182618,0|0,3:0|0:0,0:0:0:0:
482,340,51710,1,10,0:1:0:0:
482,340,51856,2,0,L|384:366,1,83.9999974365235,0|0,3:0|3:0,0:0:0:0:
354,364,52295,1,10,0:1:0:0:
261,369,52588,2,0,P|217:369|174:336,1,83.9999974365235,0|10,3:0|0:1,0:0:0:0:
110,292,53173,6,0,L|133:202,1,83.9999974365235,0|10,3:0|0:1,0:0:0:0:
172,127,53759,2,0,L|152:59,1,41.9999987182618,0|0,3:0|0:0,0:0:0:0:
142,50,54051,1,10,0:1:0:0:
142,50,54198,2,0,P|87:39|49:66,1,83.9999974365235,0|0,3:0|3:0,0:0:0:0:
23,72,54637,1,10,0:1:0:0:
0,161,54930,1,0,3:0:0:0:
71,218,55222,1,10,0:1:0:0:
162,208,55515,6,0,L|252:169,1,83.9999974365235,0|10,3:0|0:1,0:0:0:0:
326,143,56100,2,0,L|365:233,1,83.9999974365235,0|10,3:0|0:1,0:0:0:0:
373,311,56686,2,0,P|436:306|464:283,1,83.9999974365235,0|10,3:0|0:1,0:0:0:0:
510,223,57271,2,0,P|505:160|482:132,1,83.9999974365235,0|10,3:0|0:1,0:0:0:0:
441,70,57856,6,0,L|376:84,1,41.9999987182618,10|0,3:0|0:0,0:0:0:0:
356,94,58149,1,10,3:0:0:0:
309,173,58442,2,0,L|315:223,2,41.9999987182618,10|10|10,3:0|3:0|3:0,0:0:0:0:
266,155,58881,2,0,P|211:142|184:148,1,83.9999974365235,10|0,3:0|0:0,0:0:0:0:
138,152,59320,2,0,P|83:165|56:159,1,83.9999974365235
1,85,59905,1,0,0:0:0:0:
7,1,60198,6,0,L|110:1,1,75.9999979705811,4|8,3:2|0:1,0:0:0:0:
158,39,60783,2,0,L|227:39,1,37.9999989852906,0|2,3:2|0:0,0:0:0:0:
237,40,61076,1,8,0:1:0:0:
237,40,61222,2,0,P|278:13|326:17,1,75.9999979705811,2|2,0:0|0:0,0:0:0:0:
387,11,61808,1,2,0:0:0:0:
470,11,62100,2,0,B|499:65|499:65|470:125,1,113.999996955872,2|0,0:0|3:2,0:0:0:0:
427,180,62832,5,8,0:1:0:0:
349,215,63125,2,0,L|290:192,1,37.9999989852906,0|2,3:2|0:0,0:0:0:0:
276,198,63417,1,8,0:1:0:0:
276,198,63564,2,0,P|207:164|180:171,1,75.9999979705811,2|2,0:0|0:0,0:0:0:0:
127,161,64149,1,2,0:0:0:0:
43,167,64442,2,0,L|15:282,1,113.999996955872,2|0,0:0|3:2,0:0:0:0:
8,360,65173,5,8,0:1:0:0:
91,369,65466,2,0,L|156:368,1,37.9999989852906,0|2,3:2|0:0,0:0:0:0:
170,370,65759,1,8,0:1:0:0:
170,370,65905,2,0,P|202:323|231:315,1,75.9999979705811,2|2,0:0|0:0,0:0:0:0:
301,315,66490,1,2,0:0:0:0:
369,363,66783,1,2,0:0:0:0:
494,363,67222,6,0,L|502:318,1,37.9999989852906,8|8,3:0|3:0,0:0:0:0:
447,261,67661,2,0,L|439:216,1,37.9999989852906,8|8,3:0|3:0,0:0:0:0:
494,159,68100,2,0,L|502:114,1,37.9999989852906,8|8,3:0|3:0,0:0:0:0:
512,42,68539,1,8,3:0:0:0:
512,42,68686,1,8,3:0:0:0:
432,16,68978,2,0,P|386:18|340:47,1,75.9999979705811,8|8,3:0|3:0,0:0:0:0:
330,104,69564,6,0,P|301:180|230:156,1,143.999995605469,2|0,3:0|0:0,0:0:0:0:
91,179,70734,2,0,L|47:100,1,71.9999978027344,2|10,3:0|0:3,0:0:0:0:
38,80,71173,2,0,L|117:36,1,71.9999978027344,2|10,3:0|0:3,0:0:0:0:
140,29,71612,1,2,3:0:0:0:
222,12,71905,6,0,P|267:19|313:44,1,75.9999979705811,6|10,3:0|0:3,0:0:0:0:
346,97,72490,2,0,L|326:162,1,37.9999989852906,0|0,3:0|3:0,0:0:0:0:
324,173,72783,1,10,0:3:0:0:
245,202,73076,2,0,P|201:204|172:229,1,75.9999979705811,0|10,3:0|0:3,0:0:0:0:
158,260,73515,2,0,P|160:304|185:333,1,75.9999979705811,0|0,3:0|3:0,0:0:0:0:
209,356,73954,1,10,0:3:0:0:
292,362,74247,6,0,L|380:353,1,75.9999979705811,2|10,3:0|0:3,0:0:0:0:
413,353,74686,1,0,0:0:0:0:
413,353,74832,1,0,3:0:0:0:
474,296,75125,1,10,0:3:0:0:
502,217,75417,2,0,B|511:177|511:177|480:130,1,75.9999979705811,0|10,3:0|0:3,0:0:0:0:
455,126,75856,2,0,B|415:117|415:117|368:148,1,75.9999979705811,0|0,3:0|3:0,0:0:0:0:
353,162,76295,1,10,0:3:0:0:
296,223,76588,6,0,P|293:309|281:329,1,75.9999979705811,0|10,3:0|0:3,0:0:0:0:
285,337,77027,2,0,L|205:357,1,75.9999979705811,0|0,3:0|3:0,0:0:0:0:
170,363,77466,1,10,0:3:0:0:
86,366,77759,2,0,P|13:320|1:300,1,75.9999979705811,0|10,3:0|0:3,0:0:0:0:
0,299,78198,2,0,L|22:219,1,75.9999979705811,0|0,3:0|3:0,0:0:0:0:
31,188,78637,1,10,0:3:0:0:
66,116,78930,6,0,P|135:78|186:137,1,143.999995605469,4|10,3:0|0:3,0:0:0:0:
223,178,79808,1,0,0:0:0:0:
251,251,80100,2,0,L|302:240,1,35.9999989013672,0|10,3:0|0:3,0:0:0:0:
325,235,80393,1,0,3:0:0:0:
401,214,80686,2,0,P|409:173|385:123,1,71.9999978027344,10|0,0:3|3:0,0:0:0:0:
384,67,81271,6,0,B|323:35|323:35|245:64,1,143.999995605469,0|10,3:0|0:3,0:0:0:0:
177,85,82149,1,0,0:0:0:0:
108,125,82442,2,0,L|86:185,1,35.9999989013672,0|10,3:0|0:3,0:0:0:0:
83,196,82734,1,0,3:0:0:0:
70,274,83027,2,0,P|148:292|163:289,1,71.9999978027344,10|0,0:3|3:0,0:0:0:0:
213,261,83612,6,0,P|283:223|298:222,1,74.4000023272706,0|10,3:0|0:3,0:0:0:0:
320,220,84051,1,0,3:0:0:0:
320,220,84198,2,0,L|425:250,1,74.4000023272706,0|10,3:0|0:3,0:0:0:0:
472,259,84783,2,0,P|476:309|458:340,1,74.4000023272706,0|10,3:0|0:3,0:0:0:0:
442,364,85222,1,0,3:0:0:0:
442,364,85369,2,0,L|341:355,1,74.4000023272706,0|10,3:0|0:3,0:0:0:0:
284,355,85954,6,0,L|256:264,1,75.9999979705811,0|10,3:0|0:3,0:0:0:0:
221,268,86393,2,0,L|249:177,1,75.9999979705811,0|0,3:0|0:0,0:0:0:0:
259,156,86832,1,10,0:3:0:0:
291,78,87125,2,0,P|256:19|166:11,1,151.999995941162,0|0,3:0|3:0,0:0:0:0:
11,19,88295,6,0,L|3:104,1,75.9999979705811,0|10,3:0|3:0,0:0:0:0:
9,140,88734,1,2,0:0:0:0:
9,140,88881,2,0,L|30:196,1,37.9999989852906,2|2,0:0|0:0,0:0:0:0:
38,213,89173,1,2,3:0:0:0:
69,290,89466,2,0,P|127:346|149:353,1,75.9999979705811,0|10,3:0|3:0,0:0:0:0:
165,359,89905,1,0,0:0:0:0:
165,359,90051,2,0,L|266:334,1,75.9999979705811,0|2,0:0|3:0,0:0:0:0:
322,331,90637,6,0,B|351:358|351:358|410:363,1,75.9999979705811,0|10,3:0|3:0,0:0:0:0:
433,362,91076,1,2,0:0:0:0:
433,362,91222,2,0,L|469:339,1,37.9999989852906,2|2,0:0|0:0,0:0:0:0:
498,316,91515,1,2,3:0:0:0:
493,232,91808,2,0,P|502:167|493:136,1,75.9999979705811,0|10,3:0|3:0,0:0:0:0:
484,124,92247,1,0,0:0:0:0:
484,124,92393,2,0,P|419:115|388:124,1,75.9999979705811,0|2,0:0|3:0,0:0:0:0:
327,132,92978,6,0,L|345:222,1,75.9999979705811,2|10,3:0|0:3,0:0:0:0:
382,223,93417,2,0,L|363:313,1,75.9999979705811,2|2,3:0|3:0,0:0:0:0:
358,338,93856,1,10,0:3:0:0:
277,361,94149,2,0,L|225:369,1,37.9999989852906,2|2,3:0|0:0,0:0:0:0:
201,370,94442,1,10,0:3:0:0:
201,370,94588,2,0,P|158:346|115:347,1,75.9999979705811,2|2,3:0|3:0,0:0:0:0:
90,350,95027,1,10,0:3:0:0:
7,360,95320,6,0,L|6:253,1,75.9999979705811,2|2,3:0|3:0,0:0:0:0:
9,200,95905,2,0,L|74:198,1,37.9999989852906,2|2,3:0|3:0,0:0:0:0:
92,204,96198,1,2,3:0:0:0:
92,204,96344,1,2,3:0:0:0:
299,229,97076,5,2,3:0:0:0:
463,256,97661,2,0,P|512:181|431:62,1,227.999993911743,2|0,3:0|0:0,0:0:0:0:
383,23,98832,2,0,L|318:3,1,37.9999989852906,8|8,3:1|3:1,0:0:0:0:
310,33,99125,2,0,L|245:53,1,37.9999989852906,8|8,3:1|3:1,0:0:0:0:
195,62,99564,1,0,3:0:0:0:
195,62,99710,1,8,0:1:0:0:
114,16,100003,6,0,P|73:13|26:47,1,83.9999974365235,4|10,3:2|0:1,0:0:0:0:
6,120,100588,2,0,L|26:181,1,41.9999987182618,0|0,3:0|0:0,0:0:0:0:
37,207,100881,1,10,0:1:0:0:
37,207,101027,2,0,L|121:179,1,83.9999974365235
160,163,101466,1,10,0:1:0:0:
238,114,101759,2,0,L|296:129,1,41.9999987182618,0|0,3:0|0:0,0:0:0:0:
322,139,102051,1,10,0:1:0:0:
411,163,102344,6,0,P|422:219|400:262,1,83.9999974365235,0|10,3:0|0:1,0:0:0:0:
386,331,102930,2,0,L|323:351,1,41.9999987182618,0|0,3:0|0:0,0:0:0:0:
307,366,103222,1,10,0:1:0:0:
307,366,103369,2,0,L|200:353,1,83.9999974365235
177,347,103808,1,10,0:1:0:0:
86,361,104100,2,0,P|41:360|12:328,1,83.9999974365235,0|10,3:0|0:1,0:0:0:0:
7,241,104686,6,0,L|30:138,1,83.9999974365235,0|10,3:0|0:1,0:0:0:0:
55,71,105271,2,0,L|106:82,1,41.9999987182618,0|0,3:0|0:0,0:0:0:0:
144,97,105564,1,10,0:1:0:0:
144,97,105710,2,0,P|194:62|239:64,1,83.9999974365235
261,63,106149,1,10,0:1:0:0:
344,103,106442,2,0,L|417:158,1,83.9999974365235,0|10,3:0|0:1,0:0:0:0:
474,221,107027,6,0,L|443:305,2,83.9999974365235,0|10|0,3:0|0:1|3:0,0:0:0:0:
498,134,107905,1,10,0:1:0:0:
498,134,108051,2,0,P|493:91|468:53,1,83.9999974365235
432,31,108490,2,0,P|389:35|351:61,1,83.9999974365235,10|0,0:1|3:0,0:0:0:0:
286,119,109076,2,0,L|239:127,1,41.9999987182618,10|0,3:1|3:0,0:0:0:0:
203,147,109369,6,0,L|110:130,1,83.9999974365235,4|10,3:2|0:1,0:0:0:0:
20,131,109954,2,0,L|5:185,1,41.9999987182618,0|0,3:0|0:0,0:0:0:0:
11,221,110247,1,10,0:1:0:0:
11,221,110393,2,0,P|25:276|44:297,1,83.9999974365235,0|0,3:0|3:0,0:0:0:0:
75,327,110832,1,10,0:1:0:0:
160,362,111125,2,0,L|256:367,1,83.9999974365235,0|10,3:0|0:1,0:0:0:0:
336,359,111710,6,0,P|317:309|327:260,1,83.9999974365235,0|10,3:0|0:1,0:0:0:0:
348,191,112295,2,0,L|406:162,1,41.9999987182618,0|0,3:0|0:0,0:0:0:0:
434,162,112588,1,10,0:1:0:0:
434,162,112734,2,0,B|477:158|477:158|518:203,1,83.9999974365235,0|0,3:0|3:0,0:0:0:0:
511,234,113173,1,10,0:1:0:0:
505,327,113466,1,0,3:0:0:0:
421,367,113759,1,10,0:1:0:0:
328,369,114051,6,0,P|243:328|240:317,1,83.9999974365235,0|10,3:0|0:1,0:0:0:0:
196,271,114637,2,0,L|218:161,1,83.9999974365235,0|10,3:0|0:1,0:0:0:0:
229,97,115222,2,0,L|119:75,1,83.9999974365235,0|10,3:0|0:1,0:0:0:0:
54,67,115808,2,0,L|32:177,1,83.9999974365235,0|10,3:0|0:1,0:0:0:0:
24,240,116393,6,0,L|89:254,1,41.9999987182618,10|0,3:0|0:0,0:0:0:0:
109,262,116686,1,10,3:0:0:0:
188,309,116979,2,0,L|182:358,2,41.9999987182618,10|10|10,3:0|3:0|3:0,0:0:0:0:
227,295,117418,2,0,P|282:282|309:288,1,75.9999979705811,10|0,3:0|0:0,0:0:0:0:
338,302,117857,2,0,P|393:315|419:308,1,75.9999979705811
491,287,118442,1,0,0:0:0:0:
495,208,118734,5,6,3:0:0:0:
256,192,127222,6,0,L|304:112,2,71.9999978027344,2|10|2,3:0|0:3|3:0,0:0:0:0:
211,257,128100,6,0,P|140:270|69:228,1,143.999995605469,2|8,3:0|0:3,0:0:0:0:
9,141,129125,2,0,B|9:86|9:86|68:44,1,107.999996704102,2|2,3:0|3:0,0:0:0:0:
125,25,129856,1,10,0:3:0:0:
186,74,130149,1,2,3:0:0:0:
212,149,130442,6,0,P|249:187|325:140,1,143.999995605469,2|8,3:0|0:3,0:0:0:0:
367,43,131466,2,0,B|420:22|420:22|476:51,1,107.999996704102,2|2,3:0|3:0,0:0:0:0:
508,112,132198,1,10,0:3:0:0:
490,188,132490,1,2,3:0:0:0:
445,252,132783,6,0,B|426:273|380:261|380:261|333:248|310:275,1,143.999995605469,2|8,3:0|0:3,0:0:0:0:
218,350,133808,2,0,L|101:366,1,107.999996704102,2|2,3:0|3:0,0:0:0:0:
31,365,134539,1,10,0:3:0:0:
5,290,134832,1,2,3:0:0:0:
26,213,135125,6,0,L|98:169,1,71.9999978027344,2|0,3:0|0:0,0:0:0:0:
160,144,135710,2,0,P|191:188|261:192,1,107.999996704102,8|2,0:3|3:0,0:0:0:0:
324,197,136442,1,2,3:0:0:0:
324,197,136588,1,2,3:0:0:0:
403,196,136881,2,0,L|429:116,1,71.9999978027344,10|2,0:3|3:0,0:0:0:0:
444,50,137466,6,0,P|410:18|361:13,1,75.9999979705811,4|8,3:0|0:3,0:0:0:0:
298,12,138051,2,0,L|214:36,1,75.9999979705811,0|8,3:0|0:3,0:0:0:0:
185,46,138490,2,0,L|212:138,1,75.9999979705811
218,159,138930,1,10,0:3:0:0:
277,217,139222,1,2,3:0:0:0:
260,299,139515,1,10,0:3:0:0:
196,353,139808,6,0,P|129:362|101:348,1,75.9999979705811,0|8,3:0|0:3,0:0:0:0:
45,328,140393,2,0,P|36:261|50:233,1,75.9999979705811,0|8,3:0|0:3,0:0:0:0:
49,214,140832,2,0,L|155:178,1,75.9999979705811
160,176,141271,1,10,0:3:0:0:
234,215,141564,1,2,3:0:0:0:
307,176,141856,1,10,0:3:0:0:
382,140,142149,6,0,L|376:82,1,37.9999989852906,0|0,3:0|0:0,0:0:0:0:
373,60,142442,1,8,0:3:0:0:
306,9,142734,2,0,L|208:31,1,75.9999979705811,0|8,3:0|0:3,0:0:0:0:
205,58,143173,2,0,L|107:36,1,75.9999979705811
89,35,143612,1,10,0:3:0:0:
5,35,143905,1,2,3:0:0:0:
5,118,144198,1,10,0:3:0:0:
24,199,144490,6,0,L|54:248,1,37.9999989852906,0|0,3:0|0:0,0:0:0:0:
65,267,144783,1,8,0:3:0:0:
122,327,145076,2,0,P|175:328|220:297,1,75.9999979705811,0|8,3:0|0:3,0:0:0:0:
232,299,145515,2,0,L|240:195,1,75.9999979705811
241,181,145954,1,10,0:3:0:0:
307,130,146247,2,0,P|353:139|406:141,1,75.9999979705811,2|10,3:0|0:3,0:0:0:0:
466,152,146832,6,0,P|493:211|482:254,1,75.9999979705811,4|10,3:0|0:3,0:0:0:0:
485,303,147417,2,0,L|510:342,2,37.9999989852906,2|0|10,3:0|0:0|0:3,0:0:0:0:
444,313,147856,2,0,L|355:336,1,75.9999979705811,0|0,3:0|3:0,0:0:0:0:
329,340,148295,1,10,0:3:0:0:
245,345,148588,2,0,P|230:303|241:245,1,75.9999979705811,2|10,3:0|0:3,0:0:0:0:
285,208,149173,6,0,P|300:166|289:108,1,75.9999979705811,2|10,3:0|0:3,0:0:0:0:
286,52,149759,2,0,L|320:15,2,37.9999989852906,2|0|10,3:0|0:0|0:3,0:0:0:0:
245,61,150198,2,0,L|145:76,1,75.9999979705811,0|0,3:0|3:0,0:0:0:0:
128,78,150637,1,10,0:3:0:0:
45,94,150930,2,0,P|24:139|35:184,1,75.9999979705811,2|10,3:0|0:3,0:0:0:0:
47,245,151515,5,2,3:0:0:0:
129,256,151808,1,10,0:3:0:0:
204,211,152100,2,0,L|196:162,2,37.9999989852906,2|0|10,3:0|0:0|0:3,0:0:0:0:
236,237,152539,2,0,L|332:259,1,75.9999979705811,0|0,3:0|3:0,0:0:0:0:
351,263,152978,1,10,0:3:0:0:
420,310,153271,2,0,B|457:300|457:300|491:241,1,75.9999979705811,2|10,3:0|0:3,0:0:0:0:
504,189,153856,5,2,3:0:0:0:
453,121,154149,1,10,0:3:0:0:
473,39,154442,2,0,L|517:14,2,37.9999989852906,2|0|10,3:0|0:0|0:3,0:0:0:0:
431,32,154881,2,0,P|364:10|330:17,1,75.9999979705811,0|0,3:0|3:0,0:0:0:0:
318,18,155320,1,8,0:3:0:0:
247,62,155612,2,0,L|218:146,1,75.9999979705811,0|8,3:0|0:3,0:0:0:0:
162,194,156198,6,0,P|111:220|75:219,1,75.9999979705811,6|10,3:0|0:3,0:0:0:0:
15,189,156783,2,0,L|6:140,1,37.9999989852906,2|2,3:0|0:0,0:0:0:0:
6,113,157076,1,10,0:3:0:0:
6,113,157222,2,0,P|43:67|67:59,1,75.9999979705811,2|2,0:0|0:0,0:0:0:0:
96,46,157661,2,0,L|201:70,1,75.9999979705811,10|2,0:3|3:0,0:0:0:0:
249,89,158247,2,0,L|292:69,1,37.9999989852906,10|2,0:3|0:0,0:0:0:0:
321,55,158539,6,0,P|383:74|415:74,1,75.9999979705811,2|10,3:0|0:3,0:0:0:0:
475,56,159125,2,0,L|490:105,1,37.9999989852906,2|2,3:0|0:0,0:0:0:0:
506,135,159417,1,10,0:3:0:0:
506,135,159564,2,0,L|480:239,1,75.9999979705811,2|2,0:0|0:0,0:0:0:0:
477,249,160003,2,0,L|373:223,1,75.9999979705811,10|2,0:3|3:0,0:0:0:0:
321,213,160588,1,10,0:3:0:0:
244,178,160881,6,0,L|196:179,1,37.9999989852906,0|2,3:0|0:0,0:0:0:0:
172,163,161173,1,10,0:3:0:0:
172,163,161320,2,0,L|79:198,1,75.9999979705811,2|2,0:0|0:0,0:0:0:0:
62,206,161759,1,10,0:3:0:0:
22,279,162051,2,0,P|36:350|54:362,1,75.9999979705811,0|10,3:0|0:3,0:0:0:0:
79,366,162490,1,2,0:0:0:0:
79,366,162637,2,0,L|178:358,1,75.9999979705811,2|10,3:0|0:3,0:0:0:0:
238,356,163222,6,0,L|299:370,1,37.9999989852906,14|10,3:0|3:0,0:0:0:0:
329,301,163661,2,0,L|390:287,1,37.9999989852906,10|10,3:0|3:0,0:0:0:0:
451,277,164100,1,10,3:0:0:0:
451,277,164247,1,10,3:0:0:0:
492,204,164539,1,10,3:0:0:0:
492,204,164686,1,10,3:0:0:0:
468,124,164978,2,0,P|433:92|383:87,1,75.9999979705811,10|10,3:0|3:0,0:0:0:0:
326,82,165564,5,4,3:0:0:0:
256,192,174930,6,0,L|144:208,1,83.9999974365235,4|10,3:2|0:1,0:0:0:0:
103,264,175515,2,0,L|47:256,1,41.9999987182618,0|0,3:0|0:0,0:0:0:0:
23,242,175808,1,10,0:1:0:0:
23,242,175954,2,0,P|7:181|7:144,1,83.9999974365235
7,113,176393,1,10,0:1:0:0:
17,21,176686,2,0,L|118:6,1,83.9999974365235,0|10,3:0|0:1,0:0:0:0:
192,12,177271,6,0,P|222:71|251:84,1,83.9999974365235,0|10,3:0|0:1,0:0:0:0:
319,117,177856,2,0,L|386:91,1,41.9999987182618,0|0,3:0|0:0,0:0:0:0:
405,89,178149,1,10,0:1:0:0:
405,89,178295,2,0,P|425:132|442:174,1,83.9999974365235
455,209,178734,1,10,0:1:0:0:
408,289,179027,2,0,P|347:299|301:274,1,83.9999974365235,0|10,3:0|0:1,0:0:0:0:
262,228,179612,6,0,L|149:237,1,83.9999974365235,0|10,3:0|0:1,0:0:0:0:
85,227,180198,2,0,L|60:269,1,41.9999987182618,0|0,3:0|0:0,0:0:0:0:
51,310,180490,1,10,0:1:0:0:
51,310,180637,2,0,P|75:350|133:356,1,83.9999974365235
155,363,181076,1,10,0:1:0:0:
247,361,181369,2,0,L|339:307,1,83.9999974365235,0|10,3:0|0:1,0:0:0:0:
386,254,181954,6,0,L|452:266,1,41.9999987182618,0|0,3:0|0:0,0:0:0:0:
473,268,182247,2,0,L|485:202,1,41.9999987182618,10|0,0:1|0:0,0:0:0:0:
485,180,182539,2,0,P|504:128|494:84,1,83.9999974365235,0|10,3:0|0:1,0:0:0:0:
480,58,182978,2,0,P|428:39|384:49,1,83.9999974365235
357,58,183417,1,10,0:1:0:0:
276,102,183710,1,0,3:0:0:0:
242,188,184003,2,0,L|174:195,1,41.9999987182618,10|0,3:1|3:0,0:0:0:0:
154,193,184295,6,0,P|105:204|62:183,1,83.9999974365235,4|10,3:2|0:1,0:0:0:0:
19,118,184881,2,0,L|13:52,1,41.9999987182618,0|0,3:0|0:0,0:0:0:0:
25,32,185173,1,10,0:1:0:0:
25,32,185320,2,0,L|124:24,1,83.9999974365235,0|0,3:0|3:0,0:0:0:0:
152,41,185759,1,10,0:1:0:0:
231,87,186051,2,0,L|329:68,1,83.9999974365235,0|10,3:0|0:1,0:0:0:0:
387,15,186637,6,0,P|468:18|488:38,1,83.9999974365235,0|10,3:0|0:1,0:0:0:0:
504,102,187222,2,0,L|503:151,1,41.9999987182618,0|0,3:0|0:0,0:0:0:0:
500,193,187515,1,10,0:1:0:0:
500,193,187661,2,0,L|408:218,1,83.9999974365235,0|0,3:0|3:0,0:0:0:0:
374,228,188100,1,10,0:1:0:0:
284,252,188393,1,0,3:0:0:0:
223,182,188686,1,10,0:1:0:0:
159,115,188978,6,0,L|65:127,1,83.9999974365235,0|10,3:0|0:1,0:0:0:0:
18,198,189564,2,0,L|30:292,1,83.9999974365235,0|10,3:0|0:1,0:0:0:0:
96,343,190149,2,0,L|190:331,1,83.9999974365235,0|10,3:0|0:1,0:0:0:0:
236,260,190734,2,0,L|330:272,1,83.9999974365235,0|10,3:0|0:1,0:0:0:0:
411,276,191320,6,0,P|473:237|483:192,1,83.9999974365235,14|10,3:0|3:0,0:0:0:0:
500,141,191905,2,0,L|478:85,1,41.9999987182618,10|10,3:0|3:0,0:0:0:0:
464,60,192198,1,10,3:0:0:0:
386,10,192490,2,0,L|272:35,1,83.9999974365235,14|10,3:0|3:0,0:0:0:0:
232,86,193076,2,0,L|176:64,1,41.9999987182618,10|10,3:0|3:0,0:0:0:0:
151,50,193369,1,10,3:0:0:0:
61,27,193661,6,0,P|22:68|34:118,1,83.9999974365235,14|14,3:0|3:0,0:0:0:0:
13,185,194247,2,0,L|64:216,1,41.9999987182618,14|10,3:0|3:0,0:0:0:0:
91,224,194539,1,10,3:0:0:0:
91,224,194686,2,0,P|184:190|200:192,1,80,14|0,3:0|0:0,0:0:0:0:
206,187,195125,1,0,0:0:0:0:
291,205,195417,1,0,0:0:0:0:
452,247,196003,6,0,B|453:288|453:288|411:329,1,75.9999979705811,4|8,3:2|0:1,0:0:0:0:
351,346,196588,2,0,L|289:336,1,37.9999989852906,0|2,3:2|0:0,0:0:0:0:
276,333,196881,1,8,0:1:0:0:
276,333,197027,2,0,P|220:345|180:334,1,75.9999979705811,2|2,0:0|0:0,0:0:0:0:
119,331,197612,1,2,0:0:0:0:
35,320,197905,2,0,L|45:195,1,113.999996955872,2|0,0:0|3:2,0:0:0:0:
53,123,198637,5,8,0:1:0:0:
101,54,198930,2,0,L|159:42,1,37.9999989852906,0|2,3:2|0:0,0:0:0:0:
183,43,199222,1,8,0:1:0:0:
183,43,199369,2,0,P|222:86|270:91,1,75.9999979705811,2|2,0:0|0:0,0:0:0:0:
321,100,199954,1,2,0:0:0:0:
402,80,200247,2,0,P|441:102|426:168,1,113.999996955872,2|0,0:0|3:2,0:0:0:0:
375,224,200978,5,8,0:1:0:0:
296,252,201271,2,0,L|240:233,1,37.9999989852906,0|2,3:2|0:0,0:0:0:0:
236,212,201564,1,8,0:1:0:0:
236,212,201710,2,0,L|136:214,1,75.9999979705811,2|2,0:0|0:0,0:0:0:0:
76,216,202295,1,2,0:0:0:0:
47,294,202588,1,2,0:0:0:0:
154,358,203027,6,0,L|221:378,1,37.9999989852906,12|8,3:0|3:0,0:0:0:0:
264,329,203466,2,0,L|331:309,1,37.9999989852906,8|8,3:0|3:0,0:0:0:0:
386,305,203905,1,8,3:0:0:0:
386,305,204051,1,8,3:0:0:0:
450,250,204344,1,8,3:0:0:0:
450,250,204490,1,8,3:0:0:0:
483,173,204783,2,0,P|479:110|452:77,1,75.9999979705811,8|8,3:0|3:0,0:0:0:0:
403,54,205369,6,0,L|350:47,1,37.9999989852906,12|8,3:0|0:3,0:0:0:0:
290,11,205808,2,0,L|237:18,1,37.9999989852906,8|8,3:0|0:3,0:0:0:0:
173,33,206247,1,8,3:0:0:0:
173,33,206393,1,8,0:3:0:0:
107,83,206686,1,8,3:0:0:0:
107,83,206832,1,8,0:3:0:0:
75,160,207125,2,0,P|67:226|80:254,1,75.9999979705811,8|8,0:3|0:3,0:0:0:0:
122,297,207710,6,0,L|158:305,1,37.9999989852906,12|8,3:0|0:3,0:0:0:0:
224,357,208149,2,0,L|260:348,1,37.9999989852906,8|8,3:0|0:3,0:0:0:0:
343,322,208588,1,8,3:0:0:0:
343,322,208734,1,8,0:3:0:0:
403,264,209027,1,8,3:0:0:0:
403,264,209173,1,8,3:0:0:0:
419,181,209466,2,0,P|426:136|398:91,1,75.9999979705811,8|8,3:0|3:0,0:0:0:0:
361,44,210051,6,0,L|307:38,1,37.9999989852906,8|8,3:0|0:3,0:0:0:0:
246,73,210490,2,0,L|192:78,1,37.9999989852906,8|8,3:0|0:3,0:0:0:0:
128,84,210930,1,8,3:0:0:0:
128,84,211076,1,12,0:3:0:0:
