osu file format v14

[General]
AudioFilename: audio.mp3
AudioLeadIn: 0
PreviewTime: 41393
Countdown: 0
SampleSet: Soft
StackLeniency: 0.7
Mode: 0
LetterboxInBreaks: 0
WidescreenStoryboard: 1

[Editor]
Bookmarks: 24335
DistanceSpacing: 1
BeatDivisor: 4
GridSize: 8
TimelineZoom: 1.9

[Metadata]
Title:SUPER CHOCOLATE
TitleUnicode:SUPER CHOCOLATE
Artist:Shizuru (CV: Nabatame Hitomi), Rino (CV: Asumi Kana)
ArtistUnicode:シズル(CV:生天目仁美)、リノ(CV:阿澄佳奈)
Creator:Reiszen
Version:L-O-V-E
Source:プリンセスコネクト!Re:Dive
Tags:japanese pop jpop j-pop video game princess connect プリンセスコネクト プリコネ purikone re:dive re dive cygames Sightread Take Sinyus20 -Yua
BeatmapID:3922958
BeatmapSetID:1902790

[Difficulty]
HPDrainRate:6
CircleSize:4
OverallDifficulty:9
ApproachRate:9.2
SliderMultiplier:1.76
SliderTickRate:1

[Events]
//Background and Video events
0,0,"bg.png",0,0
//Break Periods
2,118725,126652
2,165764,174067
//Storyboard Layer 0 (Background)
//Storyboard Layer 1 (Fail)
//Storyboard Layer 2 (Pass)
//Storyboard Layer 3 (Foreground)
//Storyboard Layer 4 (Overlay)
//Storyboard Sound Samples

[TimingPoints]
491,292.682926829268,4,2,1,40,1,0
1661,-100,4,2,1,80,0,0
11027,-100,4,2,1,50,0,0
12198,-166.666666666667,4,2,1,50,0,0
20393,-125,4,2,1,70,0,0
27417,-111.111111111111,4,2,1,70,0,0
29759,-111.111111111111,4,2,1,60,0,0
30930,-166.666666666667,4,2,1,60,0,0
33856,-250,4,2,1,60,0,0
34149,-166.666666666667,4,2,1,60,0,0
34442,-166.666666666667,4,2,1,65,0,0
34881,-125,4,2,1,65,0,0
40295,-125,4,2,1,95,0,0
41466,-100,4,2,1,85,0,1
43515,-83.3333333333333,4,2,1,85,0,1
43808,-100,4,2,1,85,0,1
48198,-83.3333333333333,4,2,1,85,0,1
48490,-100,4,2,1,85,0,1
55808,-66.6666666666667,4,2,1,85,0,1
56100,-100,4,2,1,85,0,1
56393,-66.6666666666667,4,2,1,85,0,1
56686,-100,4,2,1,85,0,1
56978,-66.6666666666667,4,2,1,85,0,1
57271,-100,4,2,1,85,0,1
57564,-66.6666666666667,4,2,1,85,0,1
58881,-66.6666666666667,4,2,1,85,0,0
60198,-100,4,2,1,80,0,0
69564,-100,4,2,1,50,0,0
70734,-166.666666666667,4,2,1,50,0,0
71905,-125,4,2,1,70,0,0
78930,-142.857142857143,4,2,1,60,0,0
83612,-125,4,2,1,70,0,0
85954,-111.111111111111,4,2,1,70,0,0
88296,-111.111111111111,4,2,1,60,0,0
89466,-166.666666666667,4,2,1,60,0,0
92393,-250,4,2,1,60,0,0
92686,-166.666666666667,4,2,1,60,0,0
92978,-166.666666666667,4,2,1,65,0,0
93417,-125,4,2,1,65,0,0
100003,-100,4,2,1,85,0,1
102051,-83.3333333333333,4,2,1,85,0,1
102344,-100,4,2,1,85,0,1
106734,-83.3333333333333,4,2,1,85,0,1
107027,-100,4,2,1,85,0,1
114344,-66.6666666666667,4,2,1,85,0,1
114637,-100,4,2,1,85,0,1
114930,-66.6666666666667,4,2,1,85,0,1
115222,-100,4,2,1,85,0,1
115515,-66.6666666666667,4,2,1,85,0,1
115808,-100,4,2,1,85,0,1
116100,-66.6666666666667,4,2,1,85,0,1
117417,-66.6666666666667,4,2,1,85,0,0
118734,-66.6666666666667,4,2,1,60,0,0
127222,-166.666666666667,4,2,1,60,0,0
128100,-166.666666666667,4,2,1,50,0,0
137466,-125,4,2,1,70,0,0
146832,-111.111111111111,4,2,1,75,0,0
148295,-125,4,2,1,75,0,0
149173,-111.111111111111,4,2,1,75,0,0
150637,-125,4,2,1,75,0,0
151515,-111.111111111111,4,2,1,75,0,0
152978,-125,4,2,1,75,0,0
153856,-111.111111111111,4,2,1,75,0,0
156198,-100,4,2,1,80,0,0
163222,-100,4,2,1,95,0,0
165564,-100,4,2,1,60,0,0
174930,-100,4,2,1,85,0,1
176978,-83.3333333333333,4,2,1,85,0,1
177271,-100,4,2,1,85,0,1
181661,-83.3333333333333,4,2,1,85,0,1
181954,-100,4,2,1,85,0,1
188978,-100,4,2,1,85,0,0
189271,-58.8235294117647,4,2,1,85,0,1
189417,-58.8235294117647,4,2,1,85,0,0
189856,-58.8235294117647,4,2,1,85,0,1
190003,-58.8235294117647,4,2,1,85,0,0
190442,-58.8235294117647,4,2,1,85,0,1
190588,-58.8235294117647,4,2,1,85,0,0
191027,-58.8235294117647,4,2,1,85,0,1
191173,-58.8235294117647,4,2,1,85,0,0
191905,-58.8235294117647,4,2,1,85,0,1
192490,-58.8235294117647,4,2,1,85,0,0
193076,-58.8235294117647,4,2,1,85,0,1
193661,-58.8235294117647,4,2,1,85,0,0
194247,-58.8235294117647,4,2,1,85,0,1
194686,-58.8235294117647,4,2,1,85,0,0
196003,-100,4,2,1,80,0,0
205369,-100,4,2,1,90,0,0
207710,-100,4,2,1,85,0,0
210051,-100,4,2,1,80,0,0
211076,-250,4,2,1,80,0,0
211588,-250,4,2,1,5,0,0

[Colours]
Combo1 : 200,159,255
Combo2 : 255,129,111

[HitObjects]
256,192,491,12,8,1369,0:3:0:0:
26,105,1661,6,1,L|118:88,1,88,4|0,3:2|0:0,0:0:0:0:
172,206,1954,2,1,L|85:221,1,88,10|0,0:1|0:0,0:0:0:0:
380,97,2247,5,0,3:2:0:0:
446,214,2393,1,0,0:0:0:0:
399,9,2539,1,10,0:1:0:0:
284,180,2686,6,1,P|294:223|302:272,1,88,0|0,0:0|3:2,0:0:0:0:
473,121,2978,2,1,P|480:77|490:34,1,88,0|10,0:0|0:1,0:0:0:0:
295,177,3271,2,1,P|305:220|313:269,1,88,0|0,0:0|3:2,0:0:0:0:
112,89,3564,5,0,0:0:0:0:
281,0,3710,1,10,0:1:0:0:
45,17,3856,1,0,0:0:0:0:
191,140,4003,6,1,L|208:226,1,88,0|0,3:2|0:0,0:0:0:0:
34,313,4295,2,1,L|16:226,1,88,10|0,0:1|0:0,0:0:0:0:
112,89,4588,5,0,3:2:0:0:
293,162,4734,1,0,0:0:0:0:
110,262,4881,1,10,0:1:0:0:
289,357,5027,6,1,P|326:336|374:340,1,88,0|0,0:0|3:2,0:0:0:0:
512,333,5320,2,1,P|476:310|454:266,1,88,0|10,0:0|0:1,0:0:0:0:
383,149,5612,2,1,P|381:191|354:231,1,88,0|0,0:0|3:2,0:0:0:0:
293,162,5905,1,0,0:0:0:0:
499,52,6051,6,1,P|429:61|387:23,1,132,10|0,0:1|0:0,0:0:0:0:
377,0,6344,6,1,P|327:10|285:8,1,88,0|0,3:2|0:0,0:0:0:0:
206,170,6637,2,1,P|256:160|298:162,1,88,10|0,0:1|0:0,0:0:0:0:
5,127,6930,5,0,3:2:0:0:
194,51,7076,1,0,0:0:0:0:
0,3,7222,1,10,0:1:0:0:
113,160,7369,6,1,P|128:214|142:268,1,88,0|0,0:0|3:2,0:0:0:0:
24,384,7661,2,1,P|36:341|48:299,1,88,0|10,0:0|0:1,0:0:0:0:
122,154,7954,2,1,P|137:208|151:262,1,88,0|0,0:0|3:2,0:0:0:0:
239,304,8247,5,0,0:0:0:0:
0,206,8393,1,10,0:1:0:0:
446,40,8686,5,12,3:0:0:0:
391,237,8832,1,8,3:0:0:0:
344,7,9125,5,8,3:0:0:0:
401,238,9271,1,8,3:0:0:0:
137,223,9564,5,12,3:0:0:0:
348,117,9710,1,8,3:0:0:0:
93,44,10003,5,8,3:0:0:0:
350,105,10149,1,8,3:0:0:0:
133,355,10442,5,8,3:0:0:0:
234,66,10734,1,8,3:0:0:0:
313,249,11027,5,2,3:0:0:0:
228,92,12198,6,1,P|180:102|118:106,1,105.6,2|10,3:0|0:3,0:0:0:0:
291,166,12637,2,1,P|339:156|401:152,1,105.6,2|10,3:0|0:3,0:0:0:0:
230,241,13076,1,2,3:0:0:0:
394,381,13369,1,2,3:0:0:0:
394,381,14539,6,1,L|380:330,1,52.7999999999999,2|0,3:0|0:0,0:0:0:0:
363,254,14832,1,10,0:3:0:0:
266,319,14978,6,1,L|279:268,1,52.7999999999999,2|0,3:0|0:0,0:0:0:0:
303,190,15271,1,10,0:3:0:0:
443,275,15417,5,2,3:0:0:0:
167,357,15710,5,2,3:0:0:0:
0,260,16881,6,1,P|56:273|100:294,1,105.6,2|10,3:0|0:3,0:0:0:0:
241,181,17320,2,1,P|185:194|141:215,1,105.6,2|10,3:0|0:3,0:0:0:0:
30,116,17759,1,2,3:0:0:0:
299,0,18051,6,1,P|343:29|354:80,1,105.6,2|10,3:0|0:3,0:0:0:0:
321,148,18490,2,1,P|362:118|412:129,1,105.6,2|10,3:0|0:3,0:0:0:0:
266,81,18930,1,2,3:0:0:0:
440,236,19222,6,1,P|395:265|384:316,1,105.6,2|10,3:0|0:3,0:0:0:0:
418,384,19661,2,1,P|376:354|326:365,1,105.6,2|10,3:0|0:3,0:0:0:0:
473,317,20100,1,2,3:0:0:0:
14,362,20393,6,1,P|79:345|152:339,1,140.8,0|10,3:0|0:3,0:0:0:0:
292,183,20832,1,0,3:0:0:0:
342,283,20978,2,1,P|276:266|203:260,1,140.8,0|10,3:0|0:3,0:0:0:0:
2,226,21417,5,0,0:0:0:0:
73,166,21564,2,1,P|93:201|94:237,1,70.4,0|0,3:0|0:0,0:0:0:0:
261,134,21856,5,10,0:3:0:0:
190,74,22003,2,1,P|170:109|169:145,1,70.4,0|0,3:0|3:0,0:0:0:0:
0,68,22295,5,0,0:0:0:0:
71,8,22442,2,1,P|91:43|92:79,1,70.4,10|0,0:3|0:0,0:0:0:0:
156,328,22734,6,1,P|214:287|295:307,1,140.8,0|10,3:0|0:3,0:0:0:0:
374,374,23173,1,0,3:0:0:0:
473,232,23320,2,1,P|415:191|334:211,1,140.8,0|10,3:0|0:3,0:0:0:0:
282,27,23759,5,0,0:0:0:0:
249,160,23905,2,1,P|239:116|226:80,1,70.4,0|0,3:0|0:0,0:0:0:0:
106,84,24198,5,10,0:3:0:0:
139,217,24344,2,1,P|149:173|162:137,1,70.4,0|0,3:0|3:0,0:0:0:0:
62,13,24637,5,0,0:0:0:0:
29,146,24783,2,1,P|19:102|6:66,1,70.4,10|0,0:3|0:0,0:0:0:0:
82,306,25076,6,1,P|138:262|202:281,1,140.8,0|10,3:0|0:3,0:0:0:0:
296,297,25515,1,0,3:0:0:0:
233,371,25661,2,1,P|301:352|375:353,1,140.8,0|10,3:0|0:3,0:0:0:0:
511,118,26247,6,1,P|455:74|391:93,1,140.8,0|10,3:0|0:3,0:0:0:0:
308,103,26686,1,0,3:0:0:0:
261,22,26832,2,1,P|296:20|330:12,1,70.4,0|0,3:0|0:0,0:0:0:0:
352,182,27125,2,1,P|316:183|282:191,1,70.4,10|0,0:3|0:0,0:0:0:0:
0,68,27417,6,1,P|57:17|132:33,1,158.4,0|10,3:0|0:3,0:0:0:0:
190,151,27856,6,1,P|156:132|110:136,1,79.2000000000001,0|0,3:0|3:0,0:0:0:0:
113,330,28149,1,0,0:0:0:0:
53,251,28295,6,1,P|87:232|133:236,1,79.2000000000001,10|0,0:3|0:0,0:0:0:0:
267,360,28588,5,0,3:0:0:0:
208,69,29173,1,0,3:0:0:0:
420,333,29759,5,0,3:0:0:0:
420,333,30051,5,10,3:0:0:0:
416,262,30198,1,2,0:0:0:0:
379,323,30344,1,2,0:0:0:0:
443,296,30490,1,2,0:0:0:0:
375,279,30637,1,2,3:0:0:0:
173,318,30930,6,1,P|220:340|272:333,1,105.6,0|10,3:0|3:0,0:0:0:0:
87,315,31369,1,0,0:0:0:0:
233,252,31515,1,0,0:0:0:0:
5,221,31808,1,2,3:0:0:0:
109,60,32100,5,0,3:0:0:0:
109,60,32393,5,10,3:0:0:0:
54,145,32539,1,2,0:0:0:0:
51,42,32686,1,2,0:0:0:0:
112,122,32832,1,2,0:0:0:0:
15,94,32978,1,2,3:0:0:0:
397,159,33271,5,0,3:0:0:0:
322,134,33417,1,0,0:0:0:0:
398,146,33564,5,10,3:0:0:0:
318,145,33710,1,0,0:0:0:0:
455,55,33856,6,1,P|474:56|474:91,1,52.8,0|0,0:0|0:0,0:0:0:0:
465,98,34149,6,1,P|478:131|482:159,1,52.7999999999999,2|0,3:0|0:0,0:0:0:0:
355,279,34442,5,2,3:0:0:0:
398,146,34588,1,2,0:0:0:0:
430,243,34734,1,10,0:3:0:0:
318,145,34881,2,1,L|242:162,1,70.4,2|0,3:0|0:0,0:0:0:0:
195,224,35173,5,2,3:0:0:0:
363,74,35320,1,10,0:3:0:0:
23,32,35612,5,2,3:0:0:0:
183,107,35759,1,2,0:0:0:0:
30,149,35905,1,10,0:3:0:0:
126,0,36051,2,1,L|109:76,1,70.4,2|0,3:0|0:0,0:0:0:0:
120,292,36344,5,2,3:0:0:0:
26,37,36490,1,10,0:3:0:0:
40,296,36783,5,2,3:0:0:0:
40,296,37076,5,2,3:0:0:0:
40,296,37369,5,2,3:0:0:0:
150,203,37515,1,2,3:0:0:0:
240,349,37661,1,2,3:0:0:0:
123,287,37808,1,2,3:0:0:0:
404,203,38539,5,2,3:0:0:0:
256,192,39125,12,1,40149,0:0:0:0:
370,92,40295,5,8,3:1:0:0:
466,275,40442,1,8,3:1:0:0:
451,44,40588,5,8,3:1:0:0:
387,321,40734,1,8,3:1:0:0:
387,321,41027,5,0,3:0:0:0:
268,53,41173,1,8,0:1:0:0:
44,371,41466,6,1,P|86:342|133:343,1,88,4|0,3:2|0:0,0:0:0:0:
301,282,41759,2,1,P|259:253|212:254,1,88,10|0,0:1|0:0,0:0:0:0:
46,229,42051,2,1,P|51:149|130:152,1,176,0|10,3:0|0:1,0:0:0:0:
305,20,42490,6,1,P|323:67|337:116,1,88,0|0,0:0|3:0,0:0:0:0:
380,258,42783,5,0,0:0:0:0:
467,64,42930,2,1,P|449:111|435:160,1,88,10|0,0:1|0:0,0:0:0:0:
362,342,43222,2,1,B|386:348|398:368|398:368|404:344|427:328,1,88,0|0,3:0|0:0,0:0:0:0:
230,132,43515,6,1,P|127:153|49:157,1,158.4,10|0,0:1|0:0,0:0:0:0:
9,94,43808,6,1,P|48:68|95:73,1,88,0|0,3:0|0:0,0:0:0:0:
42,239,44100,5,10,0:1:0:0:
87,69,44247,1,0,0:0:0:0:
207,286,44393,2,1,P|164:292|125:272,1,88,0|0,3:0|0:0,0:0:0:0:
176,55,44686,5,10,0:1:0:0:
242,211,44832,2,1,L|331:202,1,88,0|0,0:0|3:0,0:0:0:0:
505,284,45125,5,0,0:0:0:0:
450,115,45271,2,1,P|434:166|423:213,1,88,10|0,0:1|0:0,0:0:0:0:
340,383,45564,2,1,P|329:340|315:298,1,88,0|0,3:0|0:0,0:0:0:0:
512,57,45856,6,1,P|481:33|427:34,1,88,10|0,0:1|0:0,0:0:0:0:
315,298,46149,6,1,P|274:314|231:310,1,88,0|0,3:0|0:0,0:0:0:0:
119,136,46442,2,1,P|153:162|171:202,1,88,10|0,0:1|0:0,0:0:0:0:
77,381,46734,2,1,P|82:337|107:302,1,88,0|0,3:0|0:0,0:0:0:0:
267,217,47027,5,10,0:1:0:0:
49,75,47173,2,1,P|95:43|132:46,1,88,0|0,0:0|3:0,0:0:0:0:
315,298,47466,5,0,0:0:0:0:
259,16,47612,2,1,L|236:106,1,88,10|0,0:1|0:0,0:0:0:0:
385,207,47905,2,1,L|363:121,1,88,0|0,3:0|0:0,0:0:0:0:
234,304,48198,6,1,P|312:311|389:328,1,158.4,10|0,0:1|0:0,0:0:0:0:
449,384,48490,6,1,P|445:330|472:298,1,88,0|0,3:0|0:0,0:0:0:0:
509,128,48783,2,1,P|490:175|480:217,1,88,10|0,0:1|0:0,0:0:0:0:
279,13,49076,6,1,B|328:-6|372:21|355:54|402:83|453:52,1,176,0|10,3:0|0:1,0:0:0:0:
209,68,49515,6,1,P|164:61|115:49,1,88,0|0,0:0|3:0,0:0:0:0:
55,225,49808,1,0,0:0:0:0:
4,148,49954,2,1,P|41:129|90:140,1,88,10|0,0:1|0:0,0:0:0:0:
196,273,50247,2,1,P|161:250|146:202,1,88,0|0,3:0|0:0,0:0:0:0:
0,377,50539,5,10,3:1:0:0:
7,356,50612,1,0,3:0:0:0:
24,342,50686,1,0,3:0:0:0:
45,336,50759,1,0,3:0:0:0:
66,340,50832,6,1,L|155:355,1,88,4|0,3:2|0:0,0:0:0:0:
232,193,51125,2,1,L|143:208,1,88,10|0,0:1|0:0,0:0:0:0:
313,306,51417,5,0,3:0:0:0:
392,121,51564,1,0,0:0:0:0:
218,287,51710,1,10,0:1:0:0:
436,384,51856,6,1,P|444:338|455:292,1,88,0|0,3:0|0:0,0:0:0:0:
313,216,52149,1,0,3:0:0:0:
495,144,52295,2,1,P|502:187|512:230,1,88,10|0,0:1|0:0,0:0:0:0:
343,41,52588,2,1,P|392:23|437:48,1,88,0|0,3:0|0:0,0:0:0:0:
241,110,52881,6,1,B|252:92|256:62|256:62|261:83|274:92,1,88,10|0,0:1|0:0,0:0:0:0:
76,60,53173,2,1,P|139:58|168:51,1,88,0|0,3:0|0:0,0:0:0:0:
349,199,53466,2,1,P|305:190|261:191,1,88,10|0,0:1|0:0,0:0:0:0:
71,358,53759,5,0,3:0:0:0:
154,133,53905,1,0,0:0:0:0:
282,337,54051,1,10,0:1:0:0:
176,237,54198,1,0,3:0:0:0:
176,237,54490,5,0,3:0:0:0:
346,99,54637,2,1,P|388:94|440:78,1,88,10|0,0:1|0:0,0:0:0:0:
166,242,54930,2,1,P|128:230|72:221,1,88,0|0,3:0|0:0,0:0:0:0:
447,366,55222,5,10,0:1:0:0:
447,366,55515,6,1,P|491:345|459:309,1,88,0|0,3:0|0:0,0:0:0:0:
399,296,55808,2,1,P|305:308|253:322,1,132,10|0,0:1|0:0,0:0:0:0:
61,266,56100,6,1,P|17:245|49:209,1,88,0|0,3:0|0:0,0:0:0:0:
109,196,56393,2,1,P|203:208|255:222,1,132,10|0,0:1|0:0,0:0:0:0:
450,172,56686,6,1,P|494:151|462:115,1,88,0|0,3:0|0:0,0:0:0:0:
402,102,56978,2,1,P|308:114|256:128,1,132,10|0,0:1|0:0,0:0:0:0:
65,72,57271,6,1,P|21:51|53:15,1,88,0|0,3:0|0:0,0:0:0:0:
113,2,57564,2,1,P|207:14|259:28,1,132,10|0,0:1|0:0,0:0:0:0:
48,172,57856,5,10,3:0:0:0:
48,172,58149,5,10,3:0:0:0:
48,172,58442,5,10,3:0:0:0:
276,270,58588,1,10,3:0:0:0:
15,254,58734,5,10,3:0:0:0:
329,190,58881,1,10,3:0:0:0:
467,95,60198,6,1,L|482:8,1,88,4|0,3:2|0:0,0:0:0:0:
326,29,60490,2,1,L|310:115,1,88,10|0,0:1|0:0,0:0:0:0:
215,264,60783,5,0,3:2:0:0:
389,322,60930,1,0,0:0:0:0:
211,142,61076,1,10,0:1:0:0:
419,178,61222,6,1,P|461:187|505:195,1,88,0|0,0:0|3:2,0:0:0:0:
285,363,61515,2,1,P|242:372|198:380,1,88,0|10,0:0|0:1,0:0:0:0:
426,168,61808,2,1,P|468:177|512:185,1,88,0|0,0:0|3:2,0:0:0:0:
247,56,62100,5,0,0:0:0:0:
413,0,62247,1,10,0:1:0:0:
282,199,62393,1,0,0:0:0:0:
137,20,62539,6,1,P|154:59|154:106,1,88,0|0,3:2|0:0,0:0:0:0:
36,242,62832,2,1,P|18:202|19:156,1,88,10|0,0:1|0:0,0:0:0:0:
212,253,63125,5,0,3:2:0:0:
70,86,63271,1,0,0:0:0:0:
110,296,63417,1,10,0:1:0:0:
245,99,63564,6,1,P|282:78|330:82,1,88,0|0,0:0|3:2,0:0:0:0:
445,253,63856,1,0,0:0:0:0:
326,80,64003,1,10,0:1:0:0:
473,0,64149,2,1,P|471:42|444:82,1,88,0|0,0:0|3:2,0:0:0:0:
301,163,64442,1,0,0:0:0:0:
512,303,64588,6,1,P|442:294|400:332,1,132,10|0,0:1|0:0,0:0:0:0:
337,384,64881,6,1,P|287:374|245:376,1,88,0|0,3:2|0:0,0:0:0:0:
84,335,65173,2,1,P|127:335|170:326,1,88,10|0,0:1|0:0,0:0:0:0:
372,193,65466,5,0,3:2:0:0:
160,110,65612,1,0,0:0:0:0:
259,267,65759,1,10,0:1:0:0:
468,25,65905,6,1,P|483:79|497:133,1,88,0|0,0:0|3:2,0:0:0:0:
354,283,66198,2,1,P|366:240|378:198,1,88,0|10,0:0|0:1,0:0:0:0:
478,24,66490,2,1,P|493:78|507:132,1,88,0|0,0:0|3:2,0:0:0:0:
427,341,66783,5,0,0:0:0:0:
314,103,66930,1,10,0:1:0:0:
59,324,67222,5,8,3:0:0:0:
256,269,67369,1,8,3:0:0:0:
26,222,67661,5,8,3:0:0:0:
257,279,67808,1,8,3:0:0:0:
472,146,68100,5,8,3:0:0:0:
199,211,68247,1,8,3:0:0:0:
500,305,68539,5,8,3:0:0:0:
203,203,68686,1,8,3:0:0:0:
480,61,68978,1,8,3:0:0:0:
223,0,69271,1,8,3:0:0:0:
302,89,69564,5,2,3:0:0:0:
36,374,70734,6,1,P|53:343|119:335,1,105.6,2|10,3:0|0:3,0:0:0:0:
245,298,71173,2,1,P|228:267|162:259,1,105.6,2|10,3:0|0:3,0:0:0:0:
38,218,71612,1,2,3:0:0:0:
192,42,71905,6,1,L|332:19,1,140.8,6|10,3:0|0:3,0:0:0:0:
441,180,72344,1,0,0:0:0:0:
500,87,72490,2,1,P|465:68|419:74,1,70.4,0|0,3:0|3:0,0:0:0:0:
278,151,72783,2,1,P|312:149|342:132,1,70.4,10|0,0:3|0:0,0:0:0:0:
122,0,73076,6,1,P|107:40|99:74,1,70.4,0|0,3:0|0:0,0:0:0:0:
0,224,73369,1,10,0:3:0:0:
18,80,73515,6,1,P|33:120|41:154,1,70.4,0|0,3:0|0:0,0:0:0:0:
140,304,73808,1,0,3:0:0:0:
34,361,73954,6,1,P|42:326|55:294,1,70.4,10|0,0:3|0:0,0:0:0:0:
347,382,74247,6,1,P|285:368|204:361,1,140.8,2|10,3:0|0:3,0:0:0:0:
358,235,74686,5,0,0:0:0:0:
445,383,74832,1,0,3:0:0:0:
458,244,74978,1,0,3:0:0:0:
347,382,75125,2,1,P|340:337|330:299,1,70.4,10|0,0:3|0:0,0:0:0:0:
507,154,75417,6,1,P|461:151|435:135,1,70.4,0|0,3:0|0:0,0:0:0:0:
242,26,75710,1,10,0:3:0:0:
422,15,75856,6,1,P|376:18|350:34,1,70.4,0|0,3:0|0:0,0:0:0:0:
195,148,76149,1,0,3:0:0:0:
353,160,76295,6,1,P|307:157|281:141,1,70.4,10|0,0:3|0:0,0:0:0:0:
35,88,76588,6,1,P|73:49|161:61,1,140.8,0|10,3:0|0:3,0:0:0:0:
29,231,77027,2,1,P|20:191|6:157,1,70.4,0|0,3:0|0:0,0:0:0:0:
62,361,77320,1,0,3:0:0:0:
110,283,77466,2,1,P|119:243|133:209,1,70.4,10|0,0:3|0:0,0:0:0:0:
324,332,77759,6,1,B|285:324|262:355|262:355|249:319|211:311,1,140.8,0|10,3:0|0:3,0:0:0:0:
396,278,78198,2,1,P|412:312|420:351,1,70.4,0|0,3:0|0:0,0:0:0:0:
447,117,78490,1,0,3:0:0:0:
510,181,78637,2,1,P|494:215|486:254,1,70.4,10|0,0:3|0:0,0:0:0:0:
385,42,78930,6,1,P|325:62|256:70,1,123.2,4|0,3:0|0:0,0:0:0:0:
286,159,79369,1,0,3:0:0:0:
164,53,79515,2,1,P|184:113|192:182,1,123.2,10|0,0:3|0:0,0:0:0:0:
133,342,79954,1,0,0:0:0:0:
106,246,80100,5,0,3:0:0:0:
133,342,80247,1,10,0:3:0:0:
191,172,80393,5,0,3:0:0:0:
133,342,80686,1,10,0:3:0:0:
44,186,80978,1,0,3:0:0:0:
250,336,81271,6,1,P|311:350|378:326,1,123.2,0|0,3:0|0:0,0:0:0:0:
308,260,81710,1,0,3:0:0:0:
456,358,81856,2,1,P|498:312|511:242,1,123.2,10|0,0:3|0:0,0:0:0:0:
429,138,82295,1,0,0:0:0:0:
505,81,82442,5,0,3:0:0:0:
428,223,82588,1,10,0:3:0:0:
378,68,82734,5,0,3:0:0:0:
426,236,83027,1,10,0:3:0:0:
510,75,83320,1,0,3:0:0:0:
284,352,83612,6,1,P|217:370|155:316,1,140.8,0|10,3:0|0:3,0:0:0:0:
48,183,84051,1,0,3:0:0:0:
137,250,84198,2,1,P|68:261|0:278,1,140.8,0|10,3:0|0:3,0:0:0:0:
283,168,84783,6,1,P|348:184|401:141,1,140.8,0|10,3:0|0:3,0:0:0:0:
415,54,85222,1,0,3:0:0:0:
334,7,85369,2,1,P|332:42|324:76,1,70.4,0|0,3:0|0:0,0:0:0:0:
494,98,85661,2,1,P|495:62|503:28,1,70.4,10|0,0:3|0:0,0:0:0:0:
506,295,85954,6,1,P|425:315|363:266,1,158.4,0|10,3:0|0:3,0:0:0:0:
312,209,86393,6,1,P|278:190|232:194,1,79.2000000000001,0|0,3:0|3:0,0:0:0:0:
193,378,86686,1,0,0:0:0:0:
133,299,86832,6,1,P|167:280|213:284,1,79.2000000000001,10|0,0:3|0:0,0:0:0:0:
334,366,87125,5,0,3:0:0:0:
83,219,87710,1,0,3:0:0:0:
435,71,88295,5,0,3:0:0:0:
435,71,88588,5,10,3:0:0:0:
431,142,88734,1,2,0:0:0:0:
394,81,88881,1,2,0:0:0:0:
458,108,89027,1,2,0:0:0:0:
390,125,89173,1,2,3:0:0:0:
82,0,89466,6,1,L|106:108,1,105.6,0|10,3:0|3:0,0:0:0:0:
180,49,89905,1,0,0:0:0:0:
27,146,90051,1,0,0:0:0:0:
230,173,90344,1,2,3:0:0:0:
16,346,90637,5,0,3:0:0:0:
16,346,90930,5,10,3:0:0:0:
71,261,91076,1,2,0:0:0:0:
74,364,91222,1,2,0:0:0:0:
13,284,91369,1,2,0:0:0:0:
110,312,91515,1,2,3:0:0:0:
306,228,91808,5,0,3:0:0:0:
281,303,91954,1,0,0:0:0:0:
293,227,92100,5,10,3:0:0:0:
292,307,92247,1,0,0:0:0:0:
477,193,92393,6,1,P|474:174|439:177,1,52.8,0|0,0:0|0:0,0:0:0:0:
433,187,92686,6,1,P|398:177|370:176,1,52.7999999999999,2|0,3:0|0:0,0:0:0:0:
251,143,92978,5,2,3:0:0:0:
342,67,93125,1,2,0:0:0:0:
293,227,93271,1,10,0:3:0:0:
191,79,93417,2,1,P|221:57|255:58,1,70.4,2|0,3:0|0:0,0:0:0:0:
342,67,93710,5,2,3:0:0:0:
132,10,93856,1,10,0:3:0:0:
129,274,94149,5,2,3:0:0:0:
37,195,94295,1,2,0:0:0:0:
86,355,94442,1,10,0:3:0:0:
188,207,94588,2,1,P|157:185|124:186,1,70.4,2|0,3:0|0:0,0:0:0:0:
37,195,94881,5,2,3:0:0:0:
178,355,95027,1,10,0:3:0:0:
422,234,95320,5,2,3:0:0:0:
422,234,95612,5,2,3:0:0:0:
422,234,95905,5,2,3:0:0:0:
345,270,96051,1,2,3:0:0:0:
490,283,96198,5,2,3:0:0:0:
279,220,96344,1,2,3:0:0:0:
505,94,97076,5,2,3:0:0:0:
256,192,97661,12,1,98686,0:0:0:0:
233,214,98832,5,8,3:1:0:0:
22,150,98978,1,8,3:1:0:0:
314,174,99125,5,8,3:1:0:0:
65,276,99271,1,8,3:1:0:0:
65,276,99564,5,0,3:0:0:0:
267,339,99710,1,8,0:1:0:0:
267,339,100003,6,1,P|309:310|356:311,1,88,4|0,3:2|0:0,0:0:0:0:
507,306,100295,2,1,P|463:301|429:275,1,88,10|0,0:1|0:0,0:0:0:0:
397,56,100588,2,1,P|476:53|480:133,1,176,0|10,3:0|0:1,0:0:0:0:
261,64,101027,6,1,P|212:57|174:41,1,88,0|0,0:0|3:0,0:0:0:0:
4,126,101320,1,0,0:0:0:0:
60,9,101466,2,1,P|85:56|95:99,1,88,10|0,0:1|0:0,0:0:0:0:
77,184,101759,2,1,B|101:190|113:210|113:210|119:186|142:170,1,88,0|0,3:0|0:0,0:0:0:0:
13,374,102051,6,1,P|84:322|160:345,1,158.4,10|0,0:1|0:0,0:0:0:0:
164,349,102344,6,1,P|207:354|246:329,1,88,0|0,3:0|0:0,0:0:0:0:
348,158,102637,5,10,0:1:0:0:
309,369,102783,1,0,0:0:0:0:
192,203,102930,2,1,P|235:210|277:223,1,88,0|0,3:0|0:0,0:0:0:0:
440,252,103222,5,10,0:1:0:0:
509,70,103369,2,1,P|466:62|426:80,1,88,0|0,0:0|3:0,0:0:0:0:
351,296,103661,5,0,0:0:0:0:
258,126,103808,2,1,P|305:119|351:149,1,88,10|0,0:1|0:0,0:0:0:0:
497,372,104100,2,1,P|502:326|514:281,1,88,0|0,3:0|0:0,0:0:0:0:
341,137,104393,2,1,P|351:179|356:223,1,88,10|0,0:1|0:0,0:0:0:0:
18,252,104686,6,1,P|62:252|100:233,1,88,0|0,3:0|0:0,0:0:0:0:
142,30,104978,2,1,P|119:66|117:110,1,88,10|0,0:1|0:0,0:0:0:0:
269,244,105271,2,1,P|248:204|212:180,1,88,0|0,3:0|0:0,0:0:0:0:
23,158,105564,5,10,0:1:0:0:
216,79,105710,2,1,P|259:75|312:61,1,88,0|0,0:0|3:0,0:0:0:0:
506,184,106003,5,0,0:0:0:0:
353,205,106149,2,1,L|376:115,1,88,10|0,0:1|0:0,0:0:0:0:
489,5,106442,2,1,L|511:91,1,88,0|0,3:0|0:0,0:0:0:0:
493,280,106734,6,1,P|415:287|337:303,1,158.4,10|0,0:1|0:0,0:0:0:0:
275,360,107027,6,1,P|233:365|195:343,1,88,0|0,3:0|0:0,0:0:0:0:
233,168,107320,2,1,P|258:202|258:245,1,88,10|0,0:1|0:0,0:0:0:0:
79,384,107612,2,1,P|66:291|42:198,1,176,0|10,3:0|0:1,0:0:0:0:
1,9,108051,6,1,P|43:34|82:28,1,88,0|0,0:0|3:0,0:0:0:0:
314,121,108344,1,0,0:0:0:0:
169,79,108490,2,1,P|211:54|250:60,1,88,10|0,0:1|0:0,0:0:0:0:
189,238,108783,2,1,P|154:215|139:167,1,88,0|0,3:0|0:0,0:0:0:0:
337,31,109076,5,10,3:1:0:0:
358,35,109149,1,0,3:0:0:0:
379,40,109222,1,0,3:0:0:0:
401,45,109295,1,0,3:0:0:0:
422,50,109369,6,1,P|400:95|398:135,1,88,4|0,3:2|0:0,0:0:0:0:
484,252,109661,2,1,P|505:297|508:337,1,88,10|0,0:1|0:0,0:0:0:0:
496,116,109954,5,0,3:0:0:0:
273,234,110100,1,0,0:0:0:0:
406,315,110247,1,10,0:1:0:0:
292,102,110393,6,1,P|249:100|204:126,1,88,0|0,3:0|0:0,0:0:0:0:
56,282,110686,1,0,3:0:0:0:
40,165,110832,2,1,P|83:163|128:189,1,88,10|0,0:1|0:0,0:0:0:0:
177,384,111125,2,1,P|184:339|199:296,1,88,0|0,3:0|0:0,0:0:0:0:
302,368,111417,6,1,B|291:350|287:320|287:320|282:341|269:351,1,88,10|0,0:1|0:0,0:0:0:0:
420,311,111710,6,1,P|468:300|522:297,1,88,0|0,3:0|0:0,0:0:0:0:
281,177,112003,2,1,P|237:173|194:162,1,88,10|0,0:1|0:0,0:0:0:0:
503,23,112295,5,0,3:0:0:0:
375,227,112442,1,0,0:0:0:0:
296,0,112588,1,10,0:1:0:0:
424,154,112734,1,0,3:0:0:0:
424,154,113027,5,0,3:0:0:0:
218,48,113173,2,1,P|176:53|124:69,1,88,10|0,0:1|0:0,0:0:0:0:
14,139,113466,2,1,P|57:144|108:160,1,88,0|0,3:0|0:0,0:0:0:0:
192,366,113759,1,10,0:1:0:0:
192,366,114051,6,1,B|154:368|136:381|136:381|144:369|145:352,1,88,0|0,3:0|0:0,0:0:0:0:
45,236,114344,2,1,P|18:291|67:330,1,132,10|0,0:1|0:0,0:0:0:0:
293,299,114637,6,1,B|331:301|349:314|349:314|341:302|340:285,1,88,0|0,3:0|0:0,0:0:0:0:
440,169,114930,2,1,P|467:224|418:263,1,132,10|0,0:1|0:0,0:0:0:0:
188,195,115222,6,1,B|150:197|132:210|132:210|140:198|141:181,1,88,0|0,3:0|0:0,0:0:0:0:
41,65,115515,2,1,P|14:120|63:159,1,132,10|0,0:1|0:0,0:0:0:0:
271,130,115808,6,1,B|309:132|327:145|327:145|319:133|318:116,1,88,0|0,3:0|0:0,0:0:0:0:
418,0,116100,2,1,P|445:55|396:94,1,132,10|0,0:1|0:0,0:0:0:0:
181,99,116393,5,10,3:0:0:0:
181,99,116686,5,10,3:0:0:0:
181,99,116978,5,10,3:0:0:0:
359,184,117125,1,10,3:0:0:0:
140,182,117271,5,10,3:0:0:0:
397,93,117417,1,10,3:0:0:0:
376,199,127222,6,1,P|357:271|353:309,2,105.6,2|10|2,3:0|0:3|3:0,0:0:0:0:
494,72,128100,6,1,P|467:72|444:50,2,52.7999999999999,2|0|0,3:0|0:0|0:0,0:0:0:0:
353,5,128686,1,8,0:3:0:0:
353,5,128978,5,0,0:0:0:0:
205,64,129125,1,2,3:0:0:0:
205,64,129417,1,2,3:0:0:0:
98,28,129564,6,1,P|113:80|122:136,2,105.6,2|10|2,3:0|0:3|3:0,0:0:0:0:
176,199,130295,1,0,0:0:0:0:
87,215,130442,6,1,P|75:244|71:273,1,52.7999999999999,2|0,3:0|0:0,0:0:0:0:
73,356,130734,2,1,P|46:344|14:344,1,52.7999999999999,0|0,0:0|3:0,0:0:0:0:
147,300,131027,1,8,0:3:0:0:
147,300,131320,5,0,0:0:0:0:
277,354,131466,1,2,3:0:0:0:
277,354,131759,1,2,3:0:0:0:
368,307,131905,6,1,P|420:327|473:334,2,105.6,2|10|2,3:0|0:3|3:0,0:0:0:0:
285,254,132637,1,0,0:0:0:0:
400,110,132783,6,1,P|381:159|369:210,1,105.6,2|0,3:0|0:0,0:0:0:0:
326,67,133222,1,0,3:0:0:0:
368,0,133369,1,8,0:3:0:0:
368,0,133661,5,0,0:0:0:0:
214,66,133808,1,2,3:0:0:0:
214,66,134100,5,2,3:0:0:0:
350,148,134247,1,2,3:0:0:0:
218,218,134539,5,10,0:3:0:0:
327,70,134832,1,2,3:0:0:0:
397,226,135125,6,1,P|450:218|510:215,1,105.6,2|0,3:0|0:0,0:0:0:0:
341,292,135564,1,0,3:0:0:0:
341,292,135710,1,8,0:3:0:0:
393,358,136003,5,0,0:0:0:0:
255,317,136149,2,1,P|202:309|142:306,1,105.6,2|2,3:0|3:0,0:0:0:0:
5,301,136588,1,2,3:0:0:0:
149,208,136881,1,10,0:3:0:0:
149,208,137173,1,2,3:0:0:0:
24,142,137320,1,0,0:0:0:0:
130,23,137466,6,1,L|147:103,1,70.4,4|0,3:0|0:0,0:0:0:0:
234,140,137759,2,1,L|248:71,1,70.4,8|0,0:3|0:0,0:0:0:0:
336,0,138051,2,1,P|404:20|477:27,1,140.8,0|8,3:0|0:3,0:0:0:0:
317,160,138490,6,1,P|351:140|386:137,1,70.4,0|0,0:0|3:0,0:0:0:0:
447,291,138783,1,0,0:0:0:0:
510,223,138930,2,1,P|476:203|441:200,1,70.4,10|0,0:3|0:0,0:0:0:0:
299,361,139222,2,1,P|333:356|363:337,1,70.4,2|0,3:0|0:0,0:0:0:0:
302,257,139515,1,10,0:3:0:0:
302,257,139661,1,0,0:0:0:0:
105,367,139808,5,0,3:0:0:0:
55,283,139954,1,0,0:0:0:0:
168,211,140100,2,1,P|154:260|150:292,1,70.4,8|0,0:3|0:0,0:0:0:0:
7,160,140393,6,1,P|51:185|99:120,1,140.8,0|8,3:0|0:3,0:0:0:0:
17,13,140832,2,1,P|87:37|161:43,1,140.8,0|0,0:0|0:0,0:0:0:0:
300,24,141271,2,1,P|265:3|227:12,1,70.4,10|0,0:3|0:0,0:0:0:0:
199,129,141564,6,1,P|209:165|216:205,1,70.4,2|0,3:0|0:0,0:0:0:0:
231,290,141856,1,10,0:3:0:0:
297,184,142003,1,0,0:0:0:0:
450,382,142149,6,1,L|459:309,1,70.4,0|0,3:0|0:0,0:0:0:0:
369,282,142442,2,1,L|360:351,1,70.4,8|0,0:3|0:0,0:0:0:0:
507,204,142734,2,1,P|450:220|405:151,1,140.8,0|8,3:0|0:3,0:0:0:0:
448,40,143173,6,1,P|403:21|324:70,1,140.8,0|0,0:0|0:0,0:0:0:0:
252,109,143612,2,1,P|264:147|273:190,1,70.4,10|0,0:3|0:0,0:0:0:0:
162,253,143905,2,1,P|169:218|180:185,1,70.4,2|0,3:0|0:0,0:0:0:0:
276,276,144198,1,10,0:3:0:0:
276,276,144344,1,0,0:0:0:0:
495,223,144490,5,0,3:0:0:0:
420,359,144637,1,0,0:0:0:0:
345,216,144783,2,1,P|379:207|419:222,1,70.4,8|0,0:3|0:0,0:0:0:0:
313,356,145076,2,1,P|279:365|246:356,1,70.4,0|0,3:0|0:0,0:0:0:0:
134,214,145369,5,8,0:3:0:0:
100,299,145515,2,1,P|133:308|166:299,1,70.4,0|0,0:0|3:0,0:0:0:0:
213,173,145808,1,0,0:0:0:0:
6,80,145954,6,1,P|49:62|89:74,1,70.4,10|0,0:3|0:0,0:0:0:0:
134,214,146247,2,1,P|96:185|87:145,1,70.4,2|0,3:0|0:0,0:0:0:0:
187,37,146539,2,1,P|181:83|150:111,1,70.4,10|0,0:3|0:0,0:0:0:0:
25,325,146832,6,1,P|108:314|175:309,1,118.8,4|0,3:0|0:0,0:0:0:0:
159,302,147125,2,1,P|198:309|242:316,1,79.2000000000001,10|0,0:3|0:0,0:0:0:0:
436,312,147417,2,1,P|397:305|353:298,1,79.2000000000001,2|0,3:0|0:0,0:0:0:0:
243,192,147710,5,10,0:3:0:0:
326,115,147856,2,1,P|353:151|353:202,1,79.2000000000001,0|2,3:0|0:0,0:0:0:0:
243,192,148149,1,0,3:0:0:0:
71,65,148295,6,1,P|36:63|5:79,1,70.4,10|0,0:3|0:0,0:0:0:0:
167,101,148588,2,1,P|185:71|186:36,1,70.4,2|0,3:0|0:0,0:0:0:0:
88,164,148881,2,1,P|103:194|133:213,1,70.4,10|0,0:3|0:0,0:0:0:0:
365,213,149173,6,1,P|332:175|265:186,1,118.8,2|0,3:0|0:0,0:0:0:0:
263,172,149466,6,1,P|267:132|279:95,1,79.2000000000001,10|0,0:3|0:0,0:0:0:0:
127,303,149759,2,1,P|140:341|144:380,1,79.2000000000001,2|0,3:0|0:0,0:0:0:0:
263,172,150051,5,10,0:3:0:0:
323,349,150198,2,1,P|279:333|240:332,1,79.2000000000001,0|2,3:0|0:0,0:0:0:0:
358,210,150490,1,0,3:0:0:0:
496,314,150637,6,1,P|480:363|473:399,1,70.4,10|0,0:3|0:0,0:0:0:0:
358,210,150930,2,1,P|374:259|381:295,1,70.4,2|0,3:0|0:0,0:0:0:0:
512,136,151222,2,1,P|496:185|489:221,1,70.4,10|0,0:3|0:0,0:0:0:0:
353,16,151515,6,1,P|384:64|322:107,1,118.8,2|0,3:0|0:0,0:0:0:0:
312,119,151808,6,1,P|269:116|230:104,1,79.2000000000001,10|0,0:3|0:0,0:0:0:0:
105,217,152100,2,1,P|143:206|182:203,1,79.2000000000001,2|0,3:0|0:0,0:0:0:0:
289,326,152393,5,10,0:3:0:0:
199,375,152539,2,1,P|186:334|197:287,1,79.2000000000001,0|2,3:0|0:0,0:0:0:0:
379,373,152832,1,0,3:0:0:0:
491,203,152978,6,1,P|500:169|512:136,1,70.4,10|0,0:3|0:0,0:0:0:0:
378,277,153271,2,1,P|369:243|358:210,1,70.4,2|0,3:0|0:0,0:0:0:0:
475,381,153564,2,1,P|484:347|496:314,1,70.4,10|0,0:3|0:0,0:0:0:0:
422,134,153856,6,1,P|368:107|299:134,1,118.8,2|0,3:0|0:0,0:0:0:0:
297,139,154149,6,1,P|252:149|218:135,1,79.2000000000001,10|0,0:3|0:0,0:0:0:0:
118,13,154442,2,1,P|149:46|154:83,1,79.2000000000001,2|0,3:0|0:0,0:0:0:0:
179,234,154734,1,10,0:3:0:0:
21,162,154881,6,1,P|67:137|103:143,1,79.2000000000001,0|2,3:0|0:0,0:0:0:0:
188,320,155173,1,0,3:0:0:0:
250,256,155320,6,1,P|204:231|168:237,1,79.2000000000001,8|0,0:3|0:0,0:0:0:0:
0,347,155612,6,1,P|9:310|11:264,1,79.2000000000001,0|0,3:0|0:0,0:0:0:0:
107,281,155905,2,1,P|98:318|96:364,1,79.2000000000001,8|0,0:3|0:0,0:0:0:0:
324,298,156198,6,1,L|413:313,1,88,6|0,3:0|0:0,0:0:0:0:
487,160,156490,2,1,L|400:145,1,88,10|0,0:3|0:0,0:0:0:0:
228,97,156783,5,2,3:0:0:0:
339,0,156930,1,2,0:0:0:0:
275,202,157076,1,10,0:3:0:0:
158,25,157222,6,1,P|205:-4|246:3,1,88,2|0,0:0|3:0,0:0:0:0:
148,167,157515,1,2,0:0:0:0:
47,6,157661,2,1,P|70:48|76:94,1,88,10|0,0:3|0:0,0:0:0:0:
0,261,157954,5,2,3:0:0:0:
148,167,158100,1,2,0:0:0:0:
222,305,158247,1,10,0:3:0:0:
54,176,158393,1,2,0:0:0:0:
238,60,158539,6,1,L|250:153,1,88,2|0,3:0|0:0,0:0:0:0:
303,357,158832,2,1,L|314:269,1,88,10|0,0:3|0:0,0:0:0:0:
410,85,159125,5,2,3:0:0:0:
501,199,159271,1,2,0:0:0:0:
446,0,159417,1,10,0:3:0:0:
339,166,159564,2,1,P|292:158|251:155,1,88,2|0,0:0|3:0,0:0:0:0:
46,87,159856,5,2,0:0:0:0:
123,9,160003,2,1,P|151:53|154:95,1,88,10|0,0:3|0:0,0:0:0:0:
50,193,160295,2,1,P|94:187|137:204,1,88,2|0,3:0|0:0,0:0:0:0:
287,331,160588,5,10,0:3:0:0:
383,157,160734,1,2,0:0:0:0:
465,348,160881,6,1,P|422:337|378:337,1,88,0|2,3:0|0:0,0:0:0:0:
197,350,161173,1,10,0:3:0:0:
297,167,161320,1,2,0:0:0:0:
383,249,161466,1,2,3:0:0:0:
285,69,161612,1,2,0:0:0:0:
228,269,161759,1,10,0:3:0:0:
65,59,161905,6,1,P|43:51|17:48,2,44,2|2|0,0:0|0:0|3:0,0:0:0:0:
169,123,162198,6,1,P|191:115|217:112,2,44,2|2|10,0:0|0:0|0:3,0:0:0:0:
39,206,162490,5,2,0:0:0:0:
36,190,162564,1,2,0:0:0:0:
31,175,162637,1,2,3:0:0:0:
199,281,162783,5,2,0:0:0:0:
200,262,162856,1,2,0:0:0:0:
207,244,162930,1,10,0:3:0:0:
11,370,163076,5,2,0:0:0:0:
8,348,163149,1,2,0:0:0:0:
0,327,163222,1,14,3:0:0:0:
319,384,163369,1,10,3:0:0:0:
497,224,163661,5,10,3:0:0:0:
263,323,163808,1,10,3:0:0:0:
237,38,164100,5,10,3:0:0:0:
345,303,164247,1,10,3:0:0:0:
355,310,164539,5,10,3:0:0:0:
420,9,164686,1,10,3:0:0:0:
426,0,164978,5,10,3:0:0:0:
489,135,165271,1,10,3:0:0:0:
126,28,165564,1,4,3:0:0:0:
479,338,174637,5,0,3:0:0:0:
449,351,174710,1,0,3:0:0:0:
416,349,174783,1,0,3:0:0:0:
388,332,174856,1,0,3:0:0:0:
371,305,174930,6,1,P|363:260|382:215,1,88,4|0,3:2|0:0,0:0:0:0:
502,114,175222,2,1,P|510:70|491:24,1,88,10|0,0:1|0:0,0:0:0:0:
282,97,175515,2,1,P|341:122|362:31,1,176,0|10,3:0|0:1,0:0:0:0:
157,17,175954,6,1,P|175:64|189:113,1,88,0|0,0:0|3:0,0:0:0:0:
209,229,176247,1,0,0:0:0:0:
69,99,176393,6,1,P|51:146|37:195,1,88,10|0,0:1|0:0,0:0:0:0:
18,357,176686,2,1,B|35:346|41:322|41:322|53:342|77:348,1,88,0|0,3:0|0:0,0:0:0:0:
209,229,176978,6,1,P|289:245|365:254,1,158.4,10|0,0:1|0:0,0:0:0:0:
385,224,177271,6,1,P|429:215|471:210,1,88,0|0,3:0|0:0,0:0:0:0:
505,135,177564,5,10,0:1:0:0:
282,264,177710,1,0,0:0:0:0:
510,372,177856,2,1,P|500:328|487:287,1,88,0|0,3:0|0:0,0:0:0:0:
224,92,178149,5,10,0:1:0:0:
282,264,178295,2,1,P|320:247|364:253,1,88,0|0,0:0|3:0,0:0:0:0:
266,8,178588,5,0,0:0:0:0:
163,182,178734,2,1,P|125:165|81:171,1,88,10|0,0:1|0:0,0:0:0:0:
103,344,179027,2,1,P|120:306|114:262,1,88,0|0,3:0|0:0,0:0:0:0:
2,60,179320,6,1,P|33:36|87:37,1,88,10|0,0:1|0:0,0:0:0:0:
244,131,179612,6,1,P|275:155|329:154,1,88,0|0,3:0|0:0,0:0:0:0:
472,38,179905,2,1,P|436:53|410:100,1,88,10|0,0:1|0:0,0:0:0:0:
438,281,180198,2,1,P|443:242|415:196,1,88,0|0,3:0|0:0,0:0:0:0:
316,51,180490,5,10,0:1:0:0:
180,221,180637,2,1,P|134:214|72:210,1,88,0|0,0:0|3:0,0:0:0:0:
147,130,180930,5,0,0:0:0:0:
258,304,181076,2,1,P|304:297|366:293,1,88,10|0,0:1|0:0,0:0:0:0:
200,379,181369,2,1,P|164:336|168:299,1,88,0|0,3:0|0:0,0:0:0:0:
228,86,181661,6,1,P|151:102|102:48,1,158.4,10|0,0:1|0:0,0:0:0:0:
103,38,181954,6,1,P|51:34|13:21,1,88,0|0,3:0|0:0,0:0:0:0:
244,177,182247,2,1,P|295:164|332:158,1,88,10|0,0:1|0:0,0:0:0:0:
512,118,182539,2,1,P|467:54|373:86,1,176,0|10,3:0|0:1,0:0:0:0:
327,167,182978,6,1,P|316:209|323:252,1,88,0|0,0:0|3:0,0:0:0:0:
390,358,183271,1,0,0:0:0:0:
233,276,183417,2,1,P|253:314|288:341,1,88,10|0,0:1|0:0,0:0:0:0:
504,278,183710,2,1,L|416:267,1,88,0|0,3:0|0:0,0:0:0:0:
233,118,184003,5,10,3:1:0:0:
254,124,184076,1,0,3:0:0:0:
275,119,184149,1,0,3:0:0:0:
292,105,184222,1,0,3:0:0:0:
301,86,184295,6,1,L|281:-18,1,88,4|0,3:2|0:0,0:0:0:0:
146,225,184588,2,1,L|163:311,1,88,10|0,0:1|0:0,0:0:0:0:
59,152,184881,5,0,3:0:0:0:
172,0,185027,1,0,0:0:0:0:
0,43,185173,1,10,0:1:0:0:
219,107,185320,6,1,P|257:86|311:88,1,88,0|0,3:0|0:0,0:0:0:0:
434,247,185612,1,0,3:0:0:0:
499,180,185759,6,1,P|461:159|407:161,1,88,10|0,0:1|0:0,0:0:0:0:
288,275,186051,2,1,P|287:224|265:153,1,88,0|0,3:0|0:0,0:0:0:0:
185,346,186344,6,1,B|196:328|200:298|200:298|205:319|218:328,1,88,10|0,0:1|0:0,0:0:0:0:
479,351,186637,2,1,P|372:336|332:335,1,132,0|0,3:0|0:0,0:0:0:0:
288,275,186930,1,10,0:1:0:0:
422,153,187076,1,0,0:0:0:0:
279,188,187222,5,0,3:0:0:0:
419,294,187369,1,0,0:0:0:0:
196,151,187515,1,10,0:1:0:0:
444,55,187661,1,0,3:0:0:0:
208,238,187954,5,0,3:0:0:0:
261,17,188100,2,1,P|221:14|168:-4,1,88,10|0,0:1|0:0,0:0:0:0:
422,153,188393,2,1,P|464:139|507:136,1,88,0|0,3:0|0:0,0:0:0:0:
328,346,188686,2,1,P|286:332|243:329,1,88,10|0,0:1|0:0,0:0:0:0:
151,360,188978,5,0,3:0:0:0:
49,102,189271,6,1,B|32:194|32:194|90:204,1,149.6,10|0,0:1|0:0,0:0:0:0:
258,6,189564,1,0,3:0:0:0:
239,178,189856,6,1,P|215:223|226:167,1,149.6,10|0,0:1|0:0,0:0:0:0:
320,354,190149,1,0,3:0:0:0:
306,101,190442,6,1,B|334:118|349:160|349:160|351:115|374:91,1,149.6,10|0,0:1|0:0,0:0:0:0:
483,5,190734,1,0,3:0:0:0:
485,161,191027,6,1,B|497:159|509:163|509:163|495:124|441:138|446:203|483:214|507:202,1,149.6,10|0,0:1|0:0,0:0:0:0:
30,97,191320,5,14,3:0:0:0:
398,6,191612,1,10,3:0:0:0:
207,223,191905,5,10,3:0:0:0:
310,26,192051,1,10,3:0:0:0:
338,240,192198,1,10,3:0:0:0:
199,75,192344,1,10,3:0:0:0:
494,162,192490,5,14,3:0:0:0:
117,70,192783,1,10,3:0:0:0:
313,292,193076,5,10,3:0:0:0:
199,75,193222,1,10,3:0:0:0:
168,310,193369,1,10,3:0:0:0:
321,129,193515,1,10,3:0:0:0:
11,237,193661,5,14,3:0:0:0:
401,137,193954,1,14,3:0:0:0:
199,363,194247,5,14,3:0:0:0:
321,129,194393,1,10,3:0:0:0:
354,381,194539,1,10,3:0:0:0:
190,186,194686,1,14,3:0:0:0:
489,90,196003,6,1,P|454:64|397:73,1,88,4|0,3:2|0:0,0:0:0:0:
247,206,196295,2,1,P|282:180|339:189,1,88,10|0,0:1|0:0,0:0:0:0:
470,362,196588,5,0,3:2:0:0:
424,159,196734,1,0,0:0:0:0:
272,323,196881,1,10,0:1:0:0:
228,101,197027,6,1,P|271:91|320:83,1,88,0|0,0:0|3:2,0:0:0:0:
169,280,197320,2,1,P|125:273|82:263,1,88,0|10,0:0|0:1,0:0:0:0:
225,90,197612,2,1,P|268:80|317:72,1,88,0|0,0:0|3:2,0:0:0:0:
184,288,197905,5,0,0:0:0:0:
135,42,198051,1,10,0:1:0:0:
1,242,198198,1,0,0:0:0:0:
240,186,198344,6,1,L|223:100,1,88,0|0,3:2|0:0,0:0:0:0:
30,56,198637,2,1,L|48:143,1,88,10|0,0:1|0:0,0:0:0:0:
149,371,198930,5,0,3:2:0:0:
250,184,199076,1,0,0:0:0:0:
38,328,199222,1,10,0:1:0:0:
262,350,199369,6,1,P|290:318|297:271,1,88,0|0,0:0|3:2,0:0:0:0:
335,138,199661,1,0,0:0:0:0:
297,274,199808,1,10,0:1:0:0:
485,305,199954,2,1,P|443:297|398:314,1,88,0|0,0:0|3:2,0:0:0:0:
198,269,200247,1,0,0:0:0:0:
409,85,200393,6,1,P|339:94|297:56,1,132,10|0,0:1|0:0,0:0:0:0:
286,31,200686,6,1,P|241:14|203:21,1,88,0|0,3:2|0:0,0:0:0:0:
20,194,200978,2,1,P|63:201|104:185,1,88,10|0,0:1|0:0,0:0:0:0:
223,206,201271,5,0,3:2:0:0:
81,323,201417,1,0,0:0:0:0:
187,115,201564,1,10,0:1:0:0:
270,337,201710,6,1,P|310:326|358:321,1,88,0|0,0:0|3:2,0:0:0:0:
501,239,202003,2,1,P|457:234|414:223,1,88,0|10,0:0|0:1,0:0:0:0:
269,349,202295,2,1,P|309:338|357:333,1,88,0|0,0:0|3:2,0:0:0:0:
471,344,202588,5,0,0:0:0:0:
324,145,202734,1,10,0:1:0:0:
322,60,203027,5,12,3:0:0:0:
225,261,203173,1,8,3:0:0:0:
130,10,203466,5,8,3:0:0:0:
238,266,203612,1,8,3:0:0:0:
70,332,203905,5,8,3:0:0:0:
213,55,204051,1,8,3:0:0:0:
255,366,204344,5,8,3:0:0:0:
204,56,204490,1,8,3:0:0:0:
15,234,204783,5,8,3:0:0:0:
477,302,205076,1,8,3:0:0:0:
62,131,205369,5,12,3:0:0:0:
308,41,205515,1,8,0:3:0:0:
57,125,205808,5,8,3:0:0:0:
339,284,205954,1,8,0:3:0:0:
459,139,206247,5,8,3:0:0:0:
161,215,206393,1,8,0:3:0:0:
497,306,206686,5,8,3:0:0:0:
167,204,206832,1,8,0:3:0:0:
470,11,207125,5,8,0:3:0:0:
345,378,207417,1,8,0:3:0:0:
167,204,207710,5,12,3:0:0:0:
19,384,207856,2,1,P|15:343|1:296,1,88,8|0,0:3|0:0,0:0:0:0:
118,128,208149,5,8,3:0:0:0:
266,317,208295,2,1,P|270:276|284:229,1,88,8|0,0:3|0:0,0:0:0:0:
174,69,208588,5,8,3:0:0:0:
24,261,208734,2,1,P|20:220|6:173,1,88,8|0,0:3|0:0,0:0:0:0:
126,7,209027,5,8,3:0:0:0:
209,202,209173,1,8,3:0:0:0:
40,100,209320,1,0,3:0:0:0:
282,11,209466,2,1,P|292:54|295:98,1,88,8|0,3:0|3:0,0:0:0:0:
104,214,209759,2,1,P|107:170|117:127,1,88,8|0,3:0|3:0,0:0:0:0:
473,69,210051,5,8,3:0:0:0:
363,299,210198,1,8,0:3:0:0:
386,22,210490,5,8,3:0:0:0:
440,351,210637,1,8,0:3:0:0:
112,257,210930,5,8,3:0:0:0:
495,167,211076,2,1,P|448:200|444:264,1,123.2,12|0,0:3|0:0,0:0:0:0:
