osu file format v14

[General]
AudioFilename: audio.ogg
AudioLeadIn: 0
PreviewTime: 3489
Countdown: 0
SampleSet: Normal
StackLeniency: 0.7
Mode: 1
LetterboxInBreaks: 0
WidescreenStoryboard: 1

[Editor]
DistanceSpacing: 0.3
BeatDivisor: 8
GridSize: 32
TimelineZoom: 3.299999

[Metadata]
Title:my dad after hearing my mom was pregnant:
TitleUnicode:my dad after hearing my mom was pregnant:
Artist:Shittypedia
ArtistUnicode:응과사전
Creator:Irone OSU
Version:oni
Source:
Tags:Irone_OSU IroneOSU sampling sample dictionary Free shit encyclopedia iRedi baba booey meme awolnation run cartoon running sound effect goofy electronic instrumental novelty
BeatmapID:3910663
BeatmapSetID:1897404

[Difficulty]
HPDrainRate:6
CircleSize:2
OverallDifficulty:6
ApproachRate:2
SliderMultiplier:1.4
SliderTickRate:1

[Events]
//Background and Video events
0,0,"bg.jpg",0,40
//Break Periods
//Storyboard Layer 0 (Background)
//Storyboard Layer 1 (Fail)
//Storyboard Layer 2 (Pass)
//Storyboard Layer 3 (Foreground)
//Storyboard Layer 4 (Overlay)
//Storyboard Sound Samples

[TimingPoints]
500,217.391304347826,4,1,0,60,1,0
500,-200,4,1,0,60,0,0
3923,-83.3333333333333,4,1,1,90,0,0
4032,-100,4,1,1,90,0,0
7453,-100,4,1,1,90,0,0
7525,-101.11662,4,1,1,90,0,0
7598,-102.27451,4,1,1,90,0,0
7670,-103.4428,4,1,1,90,0,0
7743,-104.65489,4,1,1,90,0,0
7815,-105.87854,4,1,1,90,0,0
7888,-107.148735,4,1,1,90,0,0
7960,-108.43173,4,1,1,90,0,0
8033,-109.76431,4,1,1,90,0,0
8105,-111.111115,4,1,1,90,0,0
8323,-100,4,1,1,90,0,0
10931,-95.2380952380952,4,1,1,90,0,0
11040,-96.1538461538461,4,1,1,90,0,0
11131,-97.0873786407767,4,1,1,90,0,0
11221,-98.0392156862745,4,1,1,90,0,0
11312,-99.08854,4,1,1,90,0,0
11777,-100,4,1,1,90,0,0
14409,-100,4,1,1,90,0,0
14481,-101.11662,4,1,1,90,0,0
14554,-102.27451,4,1,1,90,0,0
14626,-103.4428,4,1,1,90,0,0
14699,-104.65489,4,1,1,90,0,0
14771,-105.87854,4,1,1,90,0,0
14844,-107.148735,4,1,1,90,0,0
14916,-108.43173,4,1,1,90,0,0
14989,-109.76431,4,1,1,90,0,0
15061,-111.111115,4,1,1,90,0,0
15279,-100,4,1,1,90,0,0
17130,-66.6666666666667,4,1,1,90,0,0
17184,-133.333333333333,4,1,1,40,0,0
18706,-100,4,1,1,90,0,0
21366,-100,4,1,1,90,0,0
21438,-101.11662,4,1,1,90,0,0
21511,-102.27451,4,1,1,90,0,0
21583,-103.4428,4,1,1,90,0,0
21656,-104.65489,4,1,1,90,0,0
21728,-105.87854,4,1,1,90,0,0
21801,-107.148735,4,1,1,90,0,0
21873,-108.43173,4,1,1,90,0,0
21946,-109.76431,4,1,1,90,0,0
22018,-111.111115,4,1,1,90,0,0
22236,-100,4,1,1,90,0,0
24844,-98.0392156862745,4,1,1,90,0,0
24917,-96.1538461538461,4,1,1,90,0,0
24989,-94.3396226415094,4,1,1,90,0,0
25279,-94.3396226415094,4,1,1,90,0,0
25352,-96.1538461538461,4,1,1,90,0,0
25424,-98.0392156862745,4,1,1,90,0,0
25662,-100,4,1,1,90,0,0
28323,-100,4,1,1,90,0,0
28395,-101.11662,4,1,1,90,0,0
28468,-102.27451,4,1,1,90,0,0
28540,-103.4428,4,1,1,90,0,0
28613,-104.65489,4,1,1,90,0,0
28685,-105.87854,4,1,1,90,0,0
28758,-107.148735,4,1,1,90,0,0
28830,-108.43173,4,1,1,90,0,0
28903,-109.76431,4,1,1,90,0,0
28975,-111.111115,4,1,1,90,0,0
29192,-100,4,1,1,90,0,0
30989,-66.6666666666667,4,1,1,70,0,0
31097,-133.333333333333,4,1,1,70,0,0

[HitObjects]
255,193,500,5,2,0:0:0:0:
255,193,717,1,0,0:0:0:0:
255,193,934,1,0,0:0:0:0:
255,193,1152,1,0,0:0:0:0:
255,193,1369,1,2,0:0:0:0:
255,193,1586,1,0,0:0:0:0:
255,193,1804,1,0,0:0:0:0:
255,193,2021,1,2,0:0:0:0:
255,193,2239,1,2,0:0:0:0:
255,193,2456,1,0,0:0:0:0:
255,193,2673,1,0,0:0:0:0:
255,193,2891,1,0,0:0:0:0:
255,193,3108,1,2,0:0:0:0:
256,192,3543,12,0,3760,0:0:0:0:
255,193,3978,5,6,0:0:0:0:
255,193,4413,1,0,0:0:0:0:
255,193,4467,1,0,0:0:0:0:
255,193,4521,1,2,0:0:0:0:
255,193,4630,1,0,0:0:0:0:
255,193,4739,1,0,0:0:0:0:
255,193,4847,1,2,0:0:0:0:
255,193,5065,1,2,0:0:0:0:
255,193,5173,1,2,0:0:0:0:
255,193,5282,1,0,0:0:0:0:
255,193,5391,1,2,0:0:0:0:
255,193,5499,1,0,0:0:0:0:
255,193,5717,1,0,0:0:0:0:
255,193,5771,1,0,0:0:0:0:
255,193,5826,1,0,0:0:0:0:
255,193,5934,1,2,0:0:0:0:
255,193,6043,1,0,0:0:0:0:
255,193,6152,1,2,0:0:0:0:
255,193,6206,1,2,0:0:0:0:
255,193,6260,1,2,0:0:0:0:
255,193,6369,1,0,0:0:0:0:
255,193,6478,1,0,0:0:0:0:
255,193,6586,1,2,0:0:0:0:
255,193,6804,1,2,0:0:0:0:
255,193,6912,1,2,0:0:0:0:
255,193,7021,1,0,0:0:0:0:
255,193,7239,1,0,0:0:0:0:
255,193,7347,1,0,0:0:0:0:
255,193,7456,1,2,0:0:0:0:
255,193,7528,1,2,0:0:0:0:
255,193,7601,1,2,0:0:0:0:
255,193,7673,1,2,0:0:0:0:
255,193,7891,1,0,0:0:0:0:
255,193,7963,1,0,0:0:0:0:
255,193,8036,1,0,0:0:0:0:
255,193,8108,1,0,0:0:0:0:
255,193,8326,1,2,0:0:0:0:
255,193,8543,1,2,0:0:0:0:
255,193,8652,1,2,0:0:0:0:
255,193,8760,1,0,0:0:0:0:
255,193,8869,1,2,0:0:0:0:
255,193,8978,1,0,0:0:0:0:
255,193,9195,1,0,0:0:0:0:
255,193,9249,1,0,0:0:0:0:
255,193,9304,1,0,0:0:0:0:
255,193,9412,1,2,0:0:0:0:
255,193,9521,1,0,0:0:0:0:
255,193,9630,1,2,0:0:0:0:
255,193,9684,1,2,0:0:0:0:
255,193,9739,1,2,0:0:0:0:
255,193,9847,1,0,0:0:0:0:
255,193,9956,1,0,0:0:0:0:
255,193,10065,1,2,0:0:0:0:
255,193,10282,1,2,0:0:0:0:
255,193,10391,1,0,0:0:0:0:
255,193,10499,1,2,0:0:0:0:
255,193,10717,1,0,0:0:0:0:
255,193,10826,1,0,0:0:0:0:
255,193,10952,1,2,0:0:0:0:
255,193,11043,1,2,0:0:0:0:
255,193,11134,1,2,0:0:0:0:
255,193,11224,1,2,0:0:0:0:
256,192,11315,12,0,11623,0:0:0:0:
255,193,11804,5,2,0:0:0:0:
255,193,12021,1,2,0:0:0:0:
255,193,12130,1,2,0:0:0:0:
255,193,12239,1,0,0:0:0:0:
255,193,12347,1,2,0:0:0:0:
255,193,12456,1,0,0:0:0:0:
255,193,12673,1,0,0:0:0:0:
255,193,12728,1,0,0:0:0:0:
255,193,12782,1,0,0:0:0:0:
255,193,12891,1,2,0:0:0:0:
255,193,12999,1,0,0:0:0:0:
255,193,13108,1,2,0:0:0:0:
255,193,13162,1,2,0:0:0:0:
255,193,13217,1,2,0:0:0:0:
255,193,13326,1,0,0:0:0:0:
255,193,13434,1,0,0:0:0:0:
255,193,13543,1,2,0:0:0:0:
255,193,13760,1,2,0:0:0:0:
255,193,13869,1,2,0:0:0:0:
255,193,13978,1,0,0:0:0:0:
255,193,14195,1,0,0:0:0:0:
255,193,14304,1,0,0:0:0:0:
255,193,14412,1,2,0:0:0:0:
255,193,14485,1,2,0:0:0:0:
255,193,14557,1,2,0:0:0:0:
255,193,14630,1,2,0:0:0:0:
255,193,14847,1,0,0:0:0:0:
255,193,14920,1,0,0:0:0:0:
255,193,14992,1,0,0:0:0:0:
255,193,15065,1,0,0:0:0:0:
255,193,15282,1,2,0:0:0:0:
255,193,15499,1,2,0:0:0:0:
255,193,15608,1,2,0:0:0:0:
255,193,15717,1,0,0:0:0:0:
255,193,15826,1,2,0:0:0:0:
255,193,15934,1,0,0:0:0:0:
255,193,16152,1,0,0:0:0:0:
255,193,16206,1,0,0:0:0:0:
255,193,16260,1,0,0:0:0:0:
255,193,16369,1,2,0:0:0:0:
255,193,16478,1,0,0:0:0:0:
255,193,16586,1,2,0:0:0:0:
255,193,16641,1,2,0:0:0:0:
255,193,16695,1,2,0:0:0:0:
255,193,16804,1,0,0:0:0:0:
255,193,16912,1,0,0:0:0:0:
255,193,17021,1,2,0:0:0:0:
256,192,17166,12,0,18652,0:0:0:0:
259,195,18760,5,2,0:0:0:0:
259,195,18978,1,2,0:0:0:0:
259,195,19086,1,2,0:0:0:0:
259,195,19195,1,0,0:0:0:0:
259,195,19304,1,2,0:0:0:0:
259,195,19412,1,0,0:0:0:0:
259,195,19630,1,0,0:0:0:0:
259,195,19684,1,0,0:0:0:0:
259,195,19739,1,0,0:0:0:0:
259,195,19847,1,2,0:0:0:0:
259,195,19956,1,0,0:0:0:0:
259,195,20065,1,2,0:0:0:0:
259,195,20119,1,2,0:0:0:0:
259,195,20173,1,2,0:0:0:0:
259,195,20282,1,0,0:0:0:0:
259,195,20391,1,0,0:0:0:0:
259,195,20499,1,2,0:0:0:0:
259,195,20717,1,2,0:0:0:0:
259,195,20826,1,2,0:0:0:0:
259,195,20934,1,0,0:0:0:0:
259,195,21152,1,0,0:0:0:0:
259,195,21260,1,0,0:0:0:0:
259,195,21369,1,2,0:0:0:0:
259,195,21441,1,2,0:0:0:0:
259,195,21514,1,2,0:0:0:0:
259,195,21586,1,2,0:0:0:0:
259,195,21804,1,0,0:0:0:0:
259,195,21876,1,0,0:0:0:0:
259,195,21949,1,0,0:0:0:0:
259,195,22021,1,0,0:0:0:0:
259,195,22239,1,2,0:0:0:0:
259,195,22456,1,2,0:0:0:0:
259,195,22565,1,2,0:0:0:0:
259,195,22673,1,0,0:0:0:0:
259,195,22782,1,2,0:0:0:0:
259,195,22891,1,0,0:0:0:0:
259,195,23108,1,0,0:0:0:0:
259,195,23162,1,0,0:0:0:0:
259,195,23217,1,0,0:0:0:0:
259,195,23326,1,2,0:0:0:0:
259,195,23434,1,0,0:0:0:0:
259,195,23543,1,2,0:0:0:0:
259,195,23597,1,2,0:0:0:0:
259,195,23652,1,2,0:0:0:0:
259,195,23760,1,0,0:0:0:0:
259,195,23869,1,0,0:0:0:0:
259,195,23978,1,2,0:0:0:0:
259,195,24195,1,2,0:0:0:0:
259,195,24304,1,0,0:0:0:0:
259,195,24412,1,2,0:0:0:0:
259,195,24630,1,2,0:0:0:0:
259,195,24739,1,2,0:0:0:0:
259,195,24847,1,0,0:0:0:0:
259,195,24920,1,0,0:0:0:0:
259,195,24992,1,0,0:0:0:0:
259,195,25282,1,2,0:0:0:0:
259,195,25355,1,2,0:0:0:0:
259,195,25427,1,2,0:0:0:0:
259,195,25717,1,2,0:0:0:0:
259,195,25934,1,2,0:0:0:0:
259,195,26043,1,2,0:0:0:0:
259,195,26152,1,0,0:0:0:0:
259,195,26260,1,2,0:0:0:0:
259,195,26369,1,0,0:0:0:0:
259,195,26586,1,0,0:0:0:0:
259,195,26641,1,0,0:0:0:0:
259,195,26695,1,0,0:0:0:0:
259,195,26804,1,2,0:0:0:0:
259,195,26912,1,0,0:0:0:0:
259,195,27021,1,2,0:0:0:0:
259,195,27076,1,2,0:0:0:0:
259,195,27130,1,2,0:0:0:0:
259,195,27239,1,0,0:0:0:0:
259,195,27347,1,0,0:0:0:0:
259,195,27456,1,2,0:0:0:0:
259,195,27673,1,2,0:0:0:0:
259,195,27782,1,2,0:0:0:0:
259,195,27891,1,0,0:0:0:0:
259,195,28108,1,0,0:0:0:0:
259,195,28217,1,0,0:0:0:0:
259,195,28326,1,2,0:0:0:0:
259,195,28398,1,2,0:0:0:0:
259,195,28470,1,2,0:0:0:0:
259,195,28543,1,2,0:0:0:0:
259,195,28760,1,0,0:0:0:0:
259,195,28833,1,0,0:0:0:0:
259,195,28905,1,0,0:0:0:0:
259,195,28978,1,0,0:0:0:0:
259,195,29195,1,2,0:0:0:0:
259,195,29412,1,2,0:0:0:0:
259,195,29521,1,2,0:0:0:0:
259,195,29630,1,0,0:0:0:0:
259,195,29739,1,2,0:0:0:0:
259,195,29847,1,0,0:0:0:0:
259,195,30065,1,0,0:0:0:0:
259,195,30119,1,0,0:0:0:0:
259,195,30173,1,0,0:0:0:0:
259,195,30282,1,2,0:0:0:0:
259,195,30391,1,0,0:0:0:0:
259,195,30499,1,2,0:0:0:0:
259,195,30554,1,2,0:0:0:0:
259,195,30608,1,2,0:0:0:0:
259,195,30717,1,0,0:0:0:0:
259,195,30826,1,0,0:0:0:0:
259,195,30934,1,6,0:0:0:0:
256,192,31043,12,0,32999,0:0:0:0:
