osu file format v14

[General]
AudioFilename: audio.ogg
AudioLeadIn: 0
PreviewTime: 3489
Countdown: 0
SampleSet: Normal
StackLeniency: 0.7
Mode: 1
LetterboxInBreaks: 0
WidescreenStoryboard: 1

[Editor]
DistanceSpacing: 0.4
BeatDivisor: 4
GridSize: 32
TimelineZoom: 0.7999998

[Metadata]
Title:my dad after hearing my mom was pregnant:
TitleUnicode:my dad after hearing my mom was pregnant:
Artist:Shittypedia
ArtistUnicode:응과사전
Creator:Irone OSU
Version:kantan
Source:
Tags:Irone_OSU IroneOSU sampling sample dictionary Free shit encyclopedia iRedi baba booey meme awolnation run cartoon running sound effect goofy electronic instrumental novelty
BeatmapID:3910661
BeatmapSetID:1897404

[Difficulty]
HPDrainRate:9
CircleSize:2
OverallDifficulty:3
ApproachRate:2
SliderMultiplier:1
SliderTickRate:1

[Events]
//Background and Video events
0,0,"bg.jpg",0,40
//Break Periods
//Storyboard Layer 0 (Background)
//Storyboard Layer 1 (Fail)
//Storyboard Layer 2 (Pass)
//Storyboard Layer 3 (Foreground)
//Storyboard Layer 4 (Overlay)
//Storyboard Sound Samples

[TimingPoints]
500,217.391304347826,4,1,0,60,1,0
3923,-100,4,1,1,90,0,0
17130,-100,4,1,1,40,0,0
18652,-100,4,1,1,90,0,0
31152,-100,4,1,1,70,0,0

[HitObjects]
255,193,500,5,2,0:0:0:0:
255,193,1369,1,2,0:0:0:0:
255,193,2021,1,2,0:0:0:0:
255,193,2239,1,2,0:0:0:0:
255,193,3108,1,2,0:0:0:0:
255,193,3978,5,6,0:0:0:0:
255,193,4413,1,4,0:0:0:0:
255,193,4847,1,2,0:0:0:0:
255,193,5717,1,0,0:0:0:0:
255,193,6152,1,0,0:0:0:0:
255,193,6586,1,2,0:0:0:0:
255,193,7021,1,0,0:0:0:0:
255,193,7456,1,6,0:0:0:0:
255,193,7891,1,4,0:0:0:0:
255,193,8326,1,2,0:0:0:0:
255,193,9195,1,0,0:0:0:0:
255,193,9630,1,2,0:0:0:0:
255,193,10065,1,2,0:0:0:0:
255,193,10499,1,0,0:0:0:0:
255,193,10717,1,2,0:0:0:0:
255,193,10934,1,0,0:0:0:0:
255,193,11804,5,2,0:0:0:0:
255,193,12673,1,0,0:0:0:0:
255,193,13108,1,0,0:0:0:0:
255,193,13543,1,2,0:0:0:0:
255,193,13978,1,0,0:0:0:0:
255,193,14412,1,6,0:0:0:0:
255,193,14847,1,4,0:0:0:0:
255,193,15282,1,2,0:0:0:0:
255,193,16152,1,0,0:0:0:0:
255,193,16586,1,2,0:0:0:0:
257,186,16804,1,0,0:0:0:0:
255,193,17021,1,2,0:0:0:0:
259,195,18760,5,2,0:0:0:0:
259,195,19630,1,0,0:0:0:0:
259,195,20065,1,0,0:0:0:0:
259,195,20499,1,2,0:0:0:0:
259,195,20934,1,0,0:0:0:0:
259,195,21369,1,6,0:0:0:0:
259,195,21804,1,4,0:0:0:0:
259,195,22239,1,2,0:0:0:0:
259,195,23108,1,0,0:0:0:0:
259,195,23543,1,2,0:0:0:0:
259,195,23978,1,2,0:0:0:0:
259,195,24195,1,0,0:0:0:0:
259,195,24413,1,2,0:0:0:0:
259,195,24847,1,0,0:0:0:0:
259,195,25282,1,2,0:0:0:0:
259,195,25717,1,2,0:0:0:0:
259,195,26586,1,0,0:0:0:0:
259,195,27021,1,0,0:0:0:0:
259,195,27456,1,2,0:0:0:0:
259,195,27891,1,0,0:0:0:0:
259,195,28326,1,6,0:0:0:0:
259,195,28760,1,4,0:0:0:0:
259,195,29195,1,2,0:0:0:0:
259,195,30065,1,0,0:0:0:0:
259,195,30499,1,2,0:0:0:0:
259,195,30934,1,6,0:0:0:0:
256,192,31369,12,0,32999,0:0:0:0:
