osu file format v14

[General]
AudioFilename: Koishi Circulation.mp3
AudioLeadIn: 0
PreviewTime: 80114
Countdown: 0
SampleSet: Normal
StackLeniency: 0.7
Mode: 1
LetterboxInBreaks: 0
WidescreenStoryboard: 0

[Editor]
DistanceSpacing: 0.8
BeatDivisor: 4
GridSize: 32
TimelineZoom: 3.199999

[Metadata]
Title:Koishi Circulation
TitleUnicode:Koishi Circulation
Artist:Shissou arrange
ArtistUnicode:疾走アレンジ
Creator:[Izayoi Sakura]
Version:Ts8aiko
Source:東方地霊殿 ~ Subterranean Animism.
Tags:東方地霊殿 ~ Subterranean Animism. 東方Project zun Touhou Chireiden Th11 Komeji Koishi 古明地恋 Arctic C88 ハルトマンの妖怪少女 さわわ Hartmann's Youkai Girl 上海アリス幻樂団 Team Shanghai Alice video game sawawa
BeatmapID:823658
BeatmapSetID:210985

[Difficulty]
HPDrainRate:5
CircleSize:4
OverallDifficulty:5
ApproachRate:9
SliderMultiplier:1.4
SliderTickRate:2

[Events]
//Background and Video events
0,0,"BG.jpg",0,0
//Break Periods
//Storyboard Layer 0 (Background)
//Storyboard Layer 1 (Fail)
//Storyboard Layer 2 (Pass)
//Storyboard Layer 3 (Foreground)
//Storyboard Layer 4 (Overlay)
//Storyboard Sound Samples

[TimingPoints]
693,315.789473684211,4,1,0,100,1,0
79956,-100,4,1,0,100,0,1
120377,-100,4,1,0,100,0,0
167429,-100,4,1,0,100,0,1
168693,-100,4,1,0,100,0,0
190166,-100,4,1,0,100,0,1
230271,-100,4,1,0,100,0,0

[HitObjects]
160,32,1956,5,0,0:0:0:0:
160,32,2114,1,8,0:0:0:0:
160,32,2271,1,8,0:0:0:0:
160,32,2429,1,0,0:0:0:0:
160,32,2666,1,8,0:0:0:0:
160,32,2903,1,8,0:0:0:0:
160,32,3061,1,0,0:0:0:0:
160,32,3219,1,8,0:0:0:0:
160,32,3377,1,8,0:0:0:0:
160,32,3535,1,0,0:0:0:0:
160,32,3693,1,8,0:0:0:0:
160,32,3850,1,8,0:0:0:0:
160,32,4008,1,8,0:0:0:0:
160,32,4166,1,0,0:0:0:0:
160,32,4324,1,8,0:0:0:0:
160,32,4482,1,8,0:0:0:0:
160,32,4640,1,0,0:0:0:0:
160,32,4877,1,8,0:0:0:0:
160,32,5114,1,8,0:0:0:0:
160,32,5271,1,0,0:0:0:0:
160,32,5429,1,8,0:0:0:0:
160,32,5587,1,8,0:0:0:0:
160,32,5745,1,0,0:0:0:0:
160,32,5903,1,8,0:0:0:0:
160,32,6061,1,8,0:0:0:0:
160,32,6219,1,8,0:0:0:0:
160,32,6298,1,8,0:0:0:0:
160,32,6377,1,0,0:0:0:0:
160,32,6535,1,8,0:0:0:0:
160,32,6693,1,8,0:0:0:0:
160,32,6850,1,0,0:0:0:0:
160,32,7087,1,8,0:0:0:0:
160,32,7324,1,8,0:0:0:0:
160,32,7482,1,0,0:0:0:0:
160,32,7640,1,8,0:0:0:0:
160,32,7798,1,8,0:0:0:0:
160,32,7956,1,0,0:0:0:0:
160,32,8114,1,8,0:0:0:0:
160,32,8271,1,0,0:0:0:0:
160,32,8429,1,8,0:0:0:0:
160,32,8587,1,0,0:0:0:0:
160,32,8745,1,8,0:0:0:0:
160,32,8903,1,8,0:0:0:0:
160,32,9061,1,0,0:0:0:0:
160,32,9298,1,8,0:0:0:0:
160,32,9535,1,8,0:0:0:0:
160,32,9693,1,0,0:0:0:0:
160,32,9850,1,8,0:0:0:0:
160,32,10008,1,8,0:0:0:0:
160,32,10166,1,0,0:0:0:0:
160,32,10324,1,8,0:0:0:0:
160,32,10482,1,8,0:0:0:0:
160,32,10798,5,0,0:0:0:0:
160,32,10956,1,8,0:0:0:0:
160,32,11113,1,8,0:0:0:0:
160,32,11271,1,0,0:0:0:0:
160,32,11508,1,8,0:0:0:0:
160,32,11745,1,8,0:0:0:0:
160,32,11903,1,0,0:0:0:0:
160,32,12061,1,8,0:0:0:0:
160,32,12219,1,8,0:0:0:0:
160,32,12377,1,0,0:0:0:0:
160,32,12535,1,8,0:0:0:0:
160,32,12692,1,8,0:0:0:0:
160,32,12850,1,8,0:0:0:0:
160,32,13008,1,0,0:0:0:0:
160,32,13166,1,8,0:0:0:0:
160,32,13324,1,8,0:0:0:0:
160,32,13482,1,0,0:0:0:0:
160,32,13719,1,8,0:0:0:0:
160,32,13798,1,0,0:0:0:0:
160,32,13877,1,0,0:0:0:0:
160,32,13956,1,8,0:0:0:0:
160,32,14035,1,0,0:0:0:0:
160,32,14113,1,0,0:0:0:0:
160,32,14193,1,0,0:0:0:0:
160,32,14271,1,8,0:0:0:0:
160,32,14350,1,0,0:0:0:0:
160,32,14429,1,8,0:0:0:0:
160,32,14508,1,0,0:0:0:0:
160,32,14587,1,0,0:0:0:0:
160,32,14666,1,0,0:0:0:0:
160,32,14745,1,8,0:0:0:0:
160,32,14824,1,0,0:0:0:0:
160,32,14903,1,8,0:0:0:0:
160,32,14982,1,0,0:0:0:0:
160,32,15061,1,8,0:0:0:0:
160,32,15140,1,8,0:0:0:0:
160,32,15219,5,0,0:0:0:0:
160,32,15271,1,0,0:0:0:0:
160,32,15324,1,0,0:0:0:0:
160,32,15377,1,8,0:0:0:0:
160,32,15456,1,0,0:0:0:0:
160,32,15534,1,8,0:0:0:0:
160,32,15614,1,0,0:0:0:0:
160,32,15692,1,0,0:0:0:0:
160,32,15771,1,0,0:0:0:0:
160,32,15850,1,0,0:0:0:0:
160,32,15929,1,8,0:0:0:0:
160,32,16008,1,0,0:0:0:0:
160,32,16087,1,0,0:0:0:0:
160,32,16166,1,8,0:0:0:0:
160,32,16245,1,0,0:0:0:0:
160,32,16324,1,0,0:0:0:0:
160,32,16403,1,0,0:0:0:0:
160,32,16482,1,8,0:0:0:0:
160,32,16561,1,0,0:0:0:0:
160,32,16640,1,8,0:0:0:0:
160,32,16719,1,0,0:0:0:0:
160,32,16798,1,0,0:0:0:0:
160,32,16877,1,0,0:0:0:0:
160,32,16956,1,8,0:0:0:0:
160,32,17035,1,0,0:0:0:0:
160,32,17113,1,8,0:0:0:0:
160,32,17193,1,0,0:0:0:0:
160,32,17271,1,8,0:0:0:0:
160,32,17350,1,0,0:0:0:0:
160,32,17429,5,0,0:0:0:0:
160,32,17482,1,0,0:0:0:0:
160,32,17535,1,0,0:0:0:0:
160,32,17587,1,8,0:0:0:0:
160,32,17666,1,0,0:0:0:0:
160,32,17744,1,8,0:0:0:0:
160,32,17824,1,0,0:0:0:0:
160,32,17902,1,0,0:0:0:0:
160,32,17982,1,0,0:0:0:0:
160,32,18061,1,0,0:0:0:0:
160,32,18139,1,8,0:0:0:0:
160,32,18219,1,0,0:0:0:0:
160,32,18298,1,0,0:0:0:0:
160,32,18377,1,8,0:0:0:0:
160,32,18456,1,8,0:0:0:0:
160,32,18535,1,8,0:0:0:0:
160,32,18587,1,8,0:0:0:0:
160,32,18640,1,8,0:0:0:0:
160,32,18693,1,8,0:0:0:0:
160,32,18745,1,8,0:0:0:0:
160,32,18798,1,8,0:0:0:0:
160,32,18850,1,8,0:0:0:0:
160,32,18903,1,8,0:0:0:0:
160,32,18956,1,8,0:0:0:0:
160,32,19008,1,8,0:0:0:0:
160,32,19061,1,8,0:0:0:0:
160,32,19114,1,8,0:0:0:0:
160,32,19166,5,8,0:0:0:0:
160,32,19219,1,8,0:0:0:0:
160,32,19271,1,8,0:0:0:0:
160,32,19324,1,8,0:0:0:0:
160,32,19403,1,8,0:0:0:0:
160,32,19482,1,8,0:0:0:0:
160,32,19561,1,8,0:0:0:0:
160,32,19640,1,0,0:0:0:0:
160,32,19798,1,8,0:0:0:0:
160,32,19956,1,0,0:0:0:0:
160,32,20035,1,0,0:0:0:0:
160,32,20114,1,8,0:0:0:0:
160,32,20271,1,8,0:0:0:0:
160,32,20429,1,0,0:0:0:0:
160,32,20508,1,8,0:0:0:0:
160,32,20666,1,0,0:0:0:0:
160,32,20745,1,8,0:0:0:0:
160,32,20903,1,0,0:0:0:0:
160,32,20982,1,0,0:0:0:0:
160,32,21061,1,8,0:0:0:0:
160,32,21219,1,8,0:0:0:0:
160,32,21377,1,0,0:0:0:0:
160,32,21456,1,0,0:0:0:0:
160,32,21535,1,8,0:0:0:0:
160,32,21693,1,8,0:0:0:0:
160,32,21850,1,0,0:0:0:0:
160,32,22008,1,8,0:0:0:0:
160,32,22166,1,0,0:0:0:0:
160,32,22245,1,8,0:0:0:0:
160,32,22324,1,8,0:0:0:0:
160,32,22482,1,0,0:0:0:0:
160,32,22640,1,8,0:0:0:0:
160,32,22798,1,0,0:0:0:0:
160,32,22956,1,0,0:0:0:0:
160,32,23035,1,8,0:0:0:0:
160,32,23193,1,8,0:0:0:0:
160,32,23271,1,8,0:0:0:0:
160,32,23429,1,0,0:0:0:0:
160,32,23508,1,0,0:0:0:0:
160,32,23587,1,8,0:0:0:0:
160,32,23745,1,8,0:0:0:0:
160,32,23903,1,0,0:0:0:0:
160,32,23982,1,0,0:0:0:0:
160,32,24061,1,8,0:0:0:0:
160,32,24219,1,0,0:0:0:0:
160,32,24377,1,8,0:0:0:0:
160,32,24535,1,8,0:0:0:0:
160,32,24693,1,0,0:0:0:0:
160,32,24771,1,0,0:0:0:0:
160,32,24850,1,8,0:0:0:0:
160,32,25008,1,0,0:0:0:0:
160,32,25166,1,8,0:0:0:0:
160,32,25324,1,0,0:0:0:0:
160,32,25482,1,8,0:0:0:0:
160,32,25561,1,8,0:0:0:0:
160,32,25719,1,0,0:0:0:0:
160,32,25798,1,8,0:0:0:0:
160,32,25956,1,0,0:0:0:0:
160,32,26035,1,0,0:0:0:0:
160,32,26114,1,8,0:0:0:0:
160,32,26271,1,0,0:0:0:0:
160,32,26429,1,8,0:0:0:0:
160,32,26508,1,0,0:0:0:0:
160,32,26587,1,0,0:0:0:0:
160,32,26745,1,8,0:0:0:0:
160,32,26903,1,0,0:0:0:0:
160,32,27061,1,8,0:0:0:0:
160,32,27219,1,0,0:0:0:0:
160,32,27298,1,8,0:0:0:0:
160,32,27377,1,8,0:0:0:0:
160,32,27535,1,0,0:0:0:0:
160,32,27693,1,0,0:0:0:0:
160,32,27850,1,8,0:0:0:0:
160,32,28008,1,0,0:0:0:0:
160,32,28087,1,8,0:0:0:0:
160,32,28245,1,8,0:0:0:0:
160,32,28324,1,8,0:0:0:0:
160,32,28482,1,0,0:0:0:0:
160,32,28561,1,0,0:0:0:0:
160,32,28640,1,8,0:0:0:0:
160,32,28798,1,0,0:0:0:0:
160,32,28956,1,0,0:0:0:0:
160,32,29035,1,8,0:0:0:0:
160,32,29114,1,8,0:0:0:0:
160,32,29271,1,8,0:0:0:0:
160,32,29429,1,4,0:0:0:0:
160,32,29745,1,0,0:0:0:0:
160,32,29824,1,0,0:0:0:0:
160,32,29903,1,8,0:0:0:0:
160,32,30061,1,0,0:0:0:0:
160,32,30219,1,8,0:0:0:0:
160,32,30377,1,0,0:0:0:0:
160,32,30535,1,8,0:0:0:0:
160,32,30614,1,8,0:0:0:0:
160,32,30771,1,0,0:0:0:0:
160,32,30850,1,8,0:0:0:0:
160,32,31008,1,0,0:0:0:0:
160,32,31087,1,0,0:0:0:0:
160,32,31166,1,8,0:0:0:0:
160,32,31324,1,8,0:0:0:0:
160,32,31482,1,0,0:0:0:0:
160,32,31561,1,0,0:0:0:0:
160,32,31640,1,8,0:0:0:0:
160,32,31798,1,0,0:0:0:0:
160,32,31956,1,0,0:0:0:0:
160,32,32114,1,8,0:0:0:0:
160,32,32271,1,0,0:0:0:0:
160,32,32350,1,0,0:0:0:0:
160,32,32429,1,0,0:0:0:0:
160,32,32587,1,8,0:0:0:0:
160,32,32745,1,8,0:0:0:0:
160,32,32903,1,8,0:0:0:0:
160,32,33061,1,0,0:0:0:0:
160,32,33140,1,8,0:0:0:0:
160,32,33298,1,0,0:0:0:0:
160,32,33377,1,8,0:0:0:0:
160,32,33535,1,0,0:0:0:0:
160,32,33614,1,0,0:0:0:0:
160,32,33693,1,8,0:0:0:0:
160,32,33850,1,8,0:0:0:0:
160,32,34008,1,0,0:0:0:0:
160,32,34087,1,0,0:0:0:0:
160,32,34166,1,8,0:0:0:0:
160,32,34324,1,0,0:0:0:0:
160,32,34482,1,8,0:0:0:0:
160,32,34640,1,8,0:0:0:0:
160,32,34798,1,0,0:0:0:0:
160,32,34850,1,0,0:0:0:0:
160,32,34903,1,0,0:0:0:0:
160,32,34956,1,8,0:0:0:0:
160,32,35035,1,0,0:0:0:0:
160,32,35114,1,0,0:0:0:0:
160,32,35193,1,0,0:0:0:0:
160,32,35271,1,8,0:0:0:0:
160,32,35350,1,8,0:0:0:0:
160,32,35429,1,8,0:0:0:0:
160,32,35508,1,0,0:0:0:0:
160,32,35586,1,8,0:0:0:0:
160,32,35665,1,0,0:0:0:0:
160,32,35745,1,0,0:0:0:0:
160,32,35824,1,0,0:0:0:0:
160,32,35902,1,8,0:0:0:0:
160,32,35981,1,8,0:0:0:0:
160,32,36061,1,0,0:0:0:0:
160,32,36113,1,0,0:0:0:0:
160,32,36166,1,0,0:0:0:0:
160,32,36219,1,0,0:0:0:0:
160,32,36298,1,0,0:0:0:0:
160,32,36377,1,8,0:0:0:0:
160,32,36456,1,0,0:0:0:0:
160,32,36534,1,8,0:0:0:0:
160,32,36613,1,8,0:0:0:0:
160,32,36693,1,0,0:0:0:0:
160,32,36772,1,0,0:0:0:0:
160,32,36850,1,8,0:0:0:0:
160,32,36929,1,8,0:0:0:0:
160,32,37008,1,0,0:0:0:0:
160,32,37087,1,0,0:0:0:0:
160,32,37165,1,8,0:0:0:0:
160,32,37244,1,8,0:0:0:0:
160,32,37324,5,0,0:0:0:0:
160,32,37376,1,0,0:0:0:0:
160,32,37429,1,0,0:0:0:0:
160,32,37482,1,8,0:0:0:0:
160,32,37561,1,8,0:0:0:0:
160,32,37640,1,0,0:0:0:0:
160,32,37719,1,0,0:0:0:0:
160,32,37797,1,8,0:0:0:0:
160,32,37876,1,8,0:0:0:0:
160,32,37956,1,0,0:0:0:0:
160,32,38008,1,0,0:0:0:0:
160,32,38061,1,0,0:0:0:0:
160,32,38114,1,8,0:0:0:0:
160,32,38193,1,8,0:0:0:0:
160,32,38271,1,8,0:0:0:0:
160,32,38350,1,0,0:0:0:0:
160,32,38428,1,0,0:0:0:0:
160,32,38507,1,8,0:0:0:0:
160,32,38587,5,0,0:0:0:0:
160,32,38666,1,0,0:0:0:0:
160,32,38745,1,8,0:0:0:0:
160,32,38903,1,8,0:0:0:0:
160,32,39061,1,0,0:0:0:0:
160,32,39140,1,8,0:0:0:0:
160,32,39219,1,8,0:0:0:0:
160,32,39377,1,8,0:0:0:0:
160,32,39535,1,0,0:0:0:0:
160,32,39614,1,0,0:0:0:0:
160,32,39693,1,0,0:0:0:0:
160,32,39771,1,8,0:0:0:0:
160,32,39850,1,0,0:0:0:0:
160,32,40008,1,0,0:0:0:0:
160,32,40166,1,8,0:0:0:0:
160,32,40324,1,0,0:0:0:0:
160,32,40482,1,0,0:0:0:0:
160,32,40640,1,0,0:0:0:0:
160,32,40798,1,8,0:0:0:0:
160,32,40956,1,8,0:0:0:0:
160,32,41114,1,0,0:0:0:0:
160,32,41271,1,0,0:0:0:0:
160,32,41429,1,8,0:0:0:0:
160,32,41587,1,0,0:0:0:0:
160,32,41745,1,0,0:0:0:0:
160,32,41903,1,0,0:0:0:0:
160,32,42061,1,8,0:0:0:0:
160,32,42219,1,8,0:0:0:0:
160,32,42377,1,0,0:0:0:0:
160,32,42535,1,0,0:0:0:0:
160,32,42693,1,8,0:0:0:0:
160,32,42850,1,0,0:0:0:0:
160,32,43008,1,0,0:0:0:0:
160,32,43166,1,0,0:0:0:0:
160,32,43324,1,8,0:0:0:0:
160,32,43482,1,8,0:0:0:0:
160,32,43640,1,0,0:0:0:0:
160,32,43798,1,0,0:0:0:0:
160,32,43956,1,8,0:0:0:0:
160,32,44114,1,0,0:0:0:0:
160,32,44271,1,8,0:0:0:0:
160,32,44429,1,0,0:0:0:0:
160,32,44508,1,0,0:0:0:0:
160,32,44587,1,8,0:0:0:0:
160,32,44745,1,0,0:0:0:0:
160,32,44824,1,0,0:0:0:0:
160,32,44903,1,8,0:0:0:0:
160,32,45061,1,0,0:0:0:0:
160,32,45219,1,8,0:0:0:0:
160,32,45377,1,0,0:0:0:0:
160,32,45535,1,0,0:0:0:0:
160,32,45693,1,0,0:0:0:0:
160,32,45850,1,8,0:0:0:0:
160,32,46008,1,8,0:0:0:0:
160,32,46166,1,0,0:0:0:0:
160,32,46324,1,0,0:0:0:0:
160,32,46482,1,8,0:0:0:0:
160,32,46640,1,0,0:0:0:0:
160,32,46798,1,0,0:0:0:0:
160,32,46956,1,0,0:0:0:0:
160,32,47114,1,8,0:0:0:0:
160,32,47271,1,8,0:0:0:0:
160,32,47429,1,0,0:0:0:0:
160,32,47587,1,0,0:0:0:0:
160,32,47745,1,8,0:0:0:0:
160,32,47903,1,0,0:0:0:0:
160,32,48061,1,0,0:0:0:0:
160,32,48219,1,0,0:0:0:0:
160,32,48377,1,8,0:0:0:0:
160,32,48535,1,8,0:0:0:0:
160,32,48693,1,0,0:0:0:0:
160,32,48771,1,0,0:0:0:0:
160,32,48850,1,8,0:0:0:0:
160,32,49008,1,0,0:0:0:0:
160,32,49087,1,0,0:0:0:0:
160,32,49166,1,8,0:0:0:0:
160,32,49324,1,0,0:0:0:0:
160,32,49403,1,8,0:0:0:0:
160,32,49482,1,8,0:0:0:0:
160,32,49640,1,8,0:0:0:0:
160,32,49956,1,0,0:0:0:0:
160,32,50114,1,0,0:0:0:0:
160,32,50271,1,8,0:0:0:0:
160,32,50429,1,0,0:0:0:0:
160,32,50587,1,0,0:0:0:0:
160,32,50745,1,0,0:0:0:0:
160,32,50903,1,8,0:0:0:0:
160,32,51061,1,8,0:0:0:0:
160,32,51219,1,0,0:0:0:0:
160,32,51377,1,0,0:0:0:0:
160,32,51535,1,8,0:0:0:0:
160,32,51693,1,0,0:0:0:0:
160,32,51850,1,0,0:0:0:0:
160,32,52008,1,0,0:0:0:0:
160,32,52166,1,8,0:0:0:0:
160,32,52324,1,8,0:0:0:0:
160,32,52482,1,0,0:0:0:0:
160,32,52640,1,0,0:0:0:0:
160,32,52798,1,8,0:0:0:0:
160,32,52956,1,0,0:0:0:0:
160,32,53114,1,0,0:0:0:0:
160,32,53271,1,0,0:0:0:0:
160,32,53429,1,8,0:0:0:0:
160,32,53587,1,8,0:0:0:0:
160,32,53745,1,0,0:0:0:0:
160,32,53824,1,0,0:0:0:0:
160,32,53903,1,8,0:0:0:0:
160,32,54061,1,0,0:0:0:0:
160,32,54140,1,0,0:0:0:0:
160,32,54219,1,8,0:0:0:0:
160,32,54377,1,0,0:0:0:0:
160,32,54456,1,0,0:0:0:0:
160,32,54535,1,8,0:0:0:0:
160,32,54693,1,8,0:0:0:0:
160,32,55008,1,0,0:0:0:0:
160,32,55166,1,0,0:0:0:0:
160,32,55324,1,8,0:0:0:0:
160,32,55482,1,8,0:0:0:0:
160,32,55640,1,0,0:0:0:0:
160,32,55719,1,0,0:0:0:0:
160,32,55798,1,8,0:0:0:0:
160,32,55956,1,0,0:0:0:0:
160,32,56035,1,0,0:0:0:0:
160,32,56114,1,8,0:0:0:0:
160,32,56271,1,0,0:0:0:0:
160,32,56429,1,0,0:0:0:0:
160,32,56587,1,8,0:0:0:0:
160,32,56745,1,8,0:0:0:0:
160,32,56903,1,0,0:0:0:0:
160,32,56982,1,0,0:0:0:0:
160,32,57061,1,8,0:0:0:0:
160,32,57219,1,0,0:0:0:0:
160,32,57298,1,0,0:0:0:0:
160,32,57377,1,8,0:0:0:0:
160,32,57535,1,0,0:0:0:0:
160,32,57614,1,0,0:0:0:0:
160,32,57693,1,8,0:0:0:0:
160,32,57850,1,0,0:0:0:0:
160,32,57929,1,8,0:0:0:0:
160,32,58008,1,8,0:0:0:0:
160,32,58166,1,0,0:0:0:0:
160,32,58245,1,8,0:0:0:0:
160,32,58324,1,8,0:0:0:0:
160,32,58482,1,0,0:0:0:0:
160,32,58561,1,8,0:0:0:0:
160,32,58640,1,8,0:0:0:0:
160,32,58798,1,0,0:0:0:0:
160,32,58877,1,0,0:0:0:0:
160,32,58956,1,8,0:0:0:0:
160,32,59035,1,8,0:0:0:0:
160,32,59114,1,8,0:0:0:0:
160,32,59271,1,0,0:0:0:0:
160,32,59350,1,0,0:0:0:0:
160,32,59429,1,8,0:0:0:0:
160,32,59508,1,8,0:0:0:0:
160,32,59587,1,8,0:0:0:0:
160,32,59666,1,0,0:0:0:0:
160,32,59745,1,8,0:0:0:0:
160,32,59903,1,8,0:0:0:0:
160,32,60061,1,0,0:0:0:0:
160,32,60219,1,0,0:0:0:0:
160,32,60298,1,0,0:0:0:0:
160,32,60377,1,8,0:0:0:0:
160,32,60535,1,8,0:0:0:0:
160,32,60693,1,0,0:0:0:0:
160,32,60850,1,0,0:0:0:0:
160,32,61008,1,8,0:0:0:0:
160,32,61166,1,8,0:0:0:0:
160,32,61245,1,0,0:0:0:0:
160,32,61324,1,0,0:0:0:0:
160,32,61640,1,0,0:0:0:0:
160,32,61956,1,8,0:0:0:0:
160,32,62271,1,0,0:0:0:0:
160,32,62587,1,0,0:0:0:0:
160,32,62745,1,0,0:0:0:0:
160,32,62903,1,8,0:0:0:0:
160,32,63061,1,8,0:0:0:0:
160,32,63219,1,0,0:0:0:0:
160,32,63377,1,0,0:0:0:0:
160,32,63535,1,8,0:0:0:0:
160,32,63693,1,0,0:0:0:0:
160,32,63850,1,0,0:0:0:0:
160,32,64166,1,0,0:0:0:0:
160,32,64482,1,8,0:0:0:0:
160,32,64798,1,8,0:0:0:0:
160,32,64956,1,0,0:0:0:0:
160,32,65035,1,0,0:0:0:0:
160,32,65114,1,0,0:0:0:0:
160,32,65271,1,8,0:0:0:0:
160,32,65429,1,0,0:0:0:0:
160,32,65587,1,8,0:0:0:0:
160,32,65745,1,8,0:0:0:0:
160,32,65903,1,0,0:0:0:0:
160,32,66061,1,8,0:0:0:0:
160,32,66219,1,0,0:0:0:0:
160,32,66377,1,0,0:0:0:0:
160,32,66535,1,0,0:0:0:0:
160,32,66693,1,8,0:0:0:0:
160,32,66850,1,8,0:0:0:0:
160,32,67008,1,0,0:0:0:0:
160,32,67324,1,0,0:0:0:0:
160,32,67640,1,0,0:0:0:0:
160,32,67798,1,0,0:0:0:0:
160,32,67956,1,8,0:0:0:0:
160,32,68114,1,8,0:0:0:0:
160,32,68271,1,0,0:0:0:0:
160,32,68429,1,0,0:0:0:0:
160,32,68587,1,8,0:0:0:0:
160,32,68745,1,8,0:0:0:0:
160,32,68903,1,0,0:0:0:0:
160,32,69061,1,8,0:0:0:0:
160,32,69219,1,0,0:0:0:0:
160,32,69377,1,0,0:0:0:0:
160,32,69535,1,8,0:0:0:0:
160,32,69850,1,8,0:0:0:0:
160,32,70166,1,0,0:0:0:0:
160,32,70324,1,8,0:0:0:0:
160,32,70482,1,8,0:0:0:0:
160,32,70640,1,0,0:0:0:0:
160,32,70798,1,0,0:0:0:0:
160,32,70956,1,8,0:0:0:0:
160,32,71114,1,8,0:0:0:0:
160,32,71271,1,0,0:0:0:0:
160,32,71350,1,0,0:0:0:0:
160,32,71429,1,0,0:0:0:0:
160,32,71745,1,8,0:0:0:0:
160,32,72061,1,8,0:0:0:0:
160,32,72377,1,0,0:0:0:0:
160,32,72693,1,0,0:0:0:0:
160,32,72850,1,0,0:0:0:0:
160,32,73008,1,8,0:0:0:0:
160,32,73166,1,8,0:0:0:0:
160,32,73324,1,0,0:0:0:0:
160,32,73482,1,0,0:0:0:0:
160,32,73640,1,8,0:0:0:0:
160,32,73798,1,0,0:0:0:0:
160,32,73956,1,0,0:0:0:0:
160,32,74271,1,0,0:0:0:0:
160,32,74587,1,8,0:0:0:0:
160,32,74903,1,8,0:0:0:0:
160,32,75061,1,0,0:0:0:0:
160,32,75140,1,0,0:0:0:0:
160,32,75219,1,0,0:0:0:0:
160,32,75377,1,8,0:0:0:0:
160,32,75535,1,0,0:0:0:0:
160,32,75693,1,8,0:0:0:0:
160,32,75850,1,0,0:0:0:0:
160,32,76008,1,8,0:0:0:0:
160,32,76166,1,0,0:0:0:0:
160,32,76324,1,8,0:0:0:0:
160,32,76482,1,0,0:0:0:0:
160,32,76640,1,8,0:0:0:0:
160,32,76798,1,0,0:0:0:0:
160,32,76956,1,8,0:0:0:0:
160,32,77114,1,0,0:0:0:0:
160,32,77429,1,0,0:0:0:0:
160,32,77745,1,0,0:0:0:0:
160,32,77903,1,0,0:0:0:0:
160,32,78061,1,0,0:0:0:0:
160,32,78219,1,8,0:0:0:0:
160,32,78377,1,0,0:0:0:0:
160,32,78535,1,0,0:0:0:0:
160,32,78693,1,8,0:0:0:0:
160,32,78850,1,8,0:0:0:0:
160,32,79008,1,0,0:0:0:0:
160,32,79087,1,0,0:0:0:0:
160,32,79166,1,0,0:0:0:0:
160,32,79245,1,8,0:0:0:0:
160,32,79324,1,0,0:0:0:0:
160,32,79403,1,0,0:0:0:0:
160,32,79482,1,0,0:0:0:0:
160,32,79561,1,8,0:0:0:0:
160,32,79640,1,0,0:0:0:0:
160,32,79798,1,0,0:0:0:0:
160,32,79850,1,0,0:0:0:0:
160,32,79903,1,0,0:0:0:0:
160,32,79956,1,0,0:0:0:0:
160,32,80114,1,0,0:0:0:0:
160,32,80193,1,0,0:0:0:0:
160,32,80271,1,8,0:0:0:0:
160,32,80429,1,0,0:0:0:0:
160,32,80587,1,8,0:0:0:0:
160,32,80745,1,0,0:0:0:0:
160,32,80824,1,0,0:0:0:0:
160,32,80903,1,0,0:0:0:0:
160,32,81061,1,8,0:0:0:0:
160,32,81219,1,0,0:0:0:0:
160,32,81377,1,8,0:0:0:0:
160,32,81456,1,0,0:0:0:0:
160,32,81535,1,0,0:0:0:0:
160,32,81693,1,0,0:0:0:0:
160,32,81850,1,8,0:0:0:0:
160,32,82008,1,8,0:0:0:0:
160,32,82166,1,0,0:0:0:0:
160,32,82324,1,0,0:0:0:0:
160,32,82482,1,8,0:0:0:0:
160,32,82640,1,0,0:0:0:0:
160,32,82798,1,0,0:0:0:0:
160,32,82877,1,0,0:0:0:0:
160,32,82956,1,8,0:0:0:0:
160,32,83114,1,0,0:0:0:0:
160,32,83271,1,8,0:0:0:0:
160,32,83429,1,0,0:0:0:0:
160,32,83508,1,0,0:0:0:0:
160,32,83587,1,8,0:0:0:0:
160,32,83745,1,8,0:0:0:0:
160,32,83903,1,8,0:0:0:0:
160,32,84061,1,0,0:0:0:0:
160,32,84219,1,0,0:0:0:0:
160,32,84377,1,8,0:0:0:0:
160,32,84535,1,0,0:0:0:0:
160,32,84693,1,8,0:0:0:0:
160,32,84850,1,0,0:0:0:0:
160,32,84929,1,8,0:0:0:0:
160,32,85008,1,8,0:0:0:0:
160,32,85166,1,0,0:0:0:0:
160,32,85245,1,8,0:0:0:0:
160,32,85324,1,8,0:0:0:0:
160,32,85482,1,0,0:0:0:0:
160,32,85640,1,8,0:0:0:0:
160,32,85798,1,0,0:0:0:0:
160,32,85877,1,0,0:0:0:0:
160,32,85956,1,8,0:0:0:0:
160,32,86114,1,8,0:0:0:0:
160,32,86271,1,0,0:0:0:0:
160,32,86429,1,8,0:0:0:0:
160,32,86587,1,0,0:0:0:0:
160,32,86666,1,0,0:0:0:0:
160,32,86745,1,8,0:0:0:0:
160,32,86903,1,8,0:0:0:0:
160,32,87061,1,0,0:0:0:0:
160,32,87219,1,8,0:0:0:0:
160,32,87377,1,0,0:0:0:0:
160,32,87535,1,8,0:0:0:0:
160,32,87693,1,0,0:0:0:0:
160,32,87850,1,0,0:0:0:0:
160,32,87929,1,0,0:0:0:0:
160,32,88008,1,8,0:0:0:0:
160,32,88166,1,8,0:0:0:0:
160,32,88324,1,8,0:0:0:0:
160,32,88482,1,0,0:0:0:0:
160,32,88561,1,0,0:0:0:0:
160,32,88640,1,8,0:0:0:0:
160,32,88798,1,8,0:0:0:0:
160,32,88956,1,0,0:0:0:0:
160,32,89114,1,8,0:0:0:0:
160,32,89429,1,8,0:0:0:0:
160,32,89745,1,4,0:0:0:0:
160,32,90061,1,8,0:0:0:0:
160,32,90219,1,0,0:0:0:0:
160,32,90298,1,0,0:0:0:0:
160,32,90377,1,8,0:0:0:0:
160,32,90535,1,8,0:0:0:0:
160,32,90693,1,8,0:0:0:0:
160,32,90850,1,8,0:0:0:0:
160,32,90929,1,8,0:0:0:0:
160,32,91008,1,0,0:0:0:0:
160,32,91166,1,0,0:0:0:0:
160,32,91324,1,0,0:0:0:0:
160,32,91482,1,8,0:0:0:0:
160,32,91561,1,0,0:0:0:0:
160,32,91640,1,8,0:0:0:0:
160,32,91798,1,0,0:0:0:0:
160,32,91956,1,8,0:0:0:0:
160,32,92114,1,0,0:0:0:0:
160,32,92271,1,8,0:0:0:0:
160,32,92429,1,0,0:0:0:0:
160,32,92587,1,8,0:0:0:0:
160,32,92745,1,0,0:0:0:0:
160,32,92903,1,0,0:0:0:0:
160,32,92982,1,0,0:0:0:0:
160,32,93061,1,8,0:0:0:0:
160,32,93219,1,8,0:0:0:0:
160,32,93377,1,0,0:0:0:0:
160,32,93535,1,0,0:0:0:0:
160,32,93614,1,8,0:0:0:0:
160,32,93693,1,8,0:0:0:0:
160,32,93850,1,8,0:0:0:0:
160,32,94008,1,0,0:0:0:0:
160,32,94166,1,0,0:0:0:0:
160,32,94324,1,0,0:0:0:0:
160,32,94482,1,8,0:0:0:0:
160,32,94640,1,0,0:0:0:0:
160,32,94798,1,8,0:0:0:0:
160,32,94956,1,0,0:0:0:0:
160,32,95035,1,8,0:0:0:0:
160,32,95114,1,8,0:0:0:0:
160,32,95271,1,0,0:0:0:0:
160,32,95350,1,8,0:0:0:0:
160,32,95429,1,8,0:0:0:0:
160,32,95587,1,0,0:0:0:0:
160,32,95745,1,0,0:0:0:0:
160,32,95903,1,8,0:0:0:0:
160,32,95982,1,0,0:0:0:0:
160,32,96061,1,0,0:0:0:0:
160,32,96219,1,8,0:0:0:0:
160,32,96377,1,0,0:0:0:0:
160,32,96535,1,8,0:0:0:0:
160,32,96693,1,0,0:0:0:0:
160,32,96771,1,0,0:0:0:0:
160,32,96850,1,8,0:0:0:0:
160,32,97008,1,8,0:0:0:0:
160,32,97166,1,0,0:0:0:0:
160,32,97324,1,8,0:0:0:0:
160,32,97482,1,0,0:0:0:0:
160,32,97640,1,8,0:0:0:0:
160,32,97798,1,0,0:0:0:0:
160,32,97956,1,0,0:0:0:0:
160,32,98035,1,0,0:0:0:0:
160,32,98114,1,0,0:0:0:0:
160,32,98271,1,8,0:0:0:0:
160,32,98429,1,8,0:0:0:0:
160,32,98587,1,0,0:0:0:0:
160,32,98666,1,0,0:0:0:0:
160,32,98745,1,0,0:0:0:0:
160,32,98903,1,8,0:0:0:0:
160,32,99061,1,8,0:0:0:0:
160,32,99219,1,8,0:0:0:0:
160,32,99377,1,0,0:0:0:0:
160,32,99456,1,8,0:0:0:0:
160,32,99535,1,0,0:0:0:0:
160,32,99693,1,8,0:0:0:0:
160,32,99850,1,8,0:0:0:0:
160,32,100166,1,12,0:0:0:0:
160,32,100482,1,0,0:0:0:0:
160,32,100640,1,8,0:0:0:0:
160,32,100798,1,0,0:0:0:0:
160,32,100956,1,8,0:0:0:0:
160,32,101035,1,0,0:0:0:0:
160,32,101114,1,0,0:0:0:0:
160,32,101271,1,8,0:0:0:0:
160,32,101429,1,0,0:0:0:0:
160,32,101587,1,8,0:0:0:0:
160,32,101666,1,8,0:0:0:0:
160,32,101745,1,0,0:0:0:0:
160,32,101903,1,0,0:0:0:0:
160,32,102061,1,8,0:0:0:0:
160,32,102219,1,0,0:0:0:0:
160,32,102377,1,8,0:0:0:0:
160,32,102535,1,8,0:0:0:0:
160,32,102693,1,0,0:0:0:0:
160,32,102850,1,8,0:0:0:0:
160,32,103008,1,0,0:0:0:0:
160,32,103087,1,0,0:0:0:0:
160,32,103166,1,8,0:0:0:0:
160,32,103324,1,0,0:0:0:0:
160,32,103482,1,8,0:0:0:0:
160,32,103640,1,8,0:0:0:0:
160,32,103719,1,0,0:0:0:0:
160,32,103798,1,0,0:0:0:0:
160,32,103956,1,8,0:0:0:0:
160,32,104114,1,0,0:0:0:0:
160,32,104271,1,0,0:0:0:0:
160,32,104429,1,0,0:0:0:0:
160,32,104587,1,8,0:0:0:0:
160,32,104745,1,0,0:0:0:0:
160,32,104903,1,8,0:0:0:0:
160,32,105061,1,0,0:0:0:0:
160,32,105140,1,8,0:0:0:0:
160,32,105219,1,8,0:0:0:0:
160,32,105377,1,0,0:0:0:0:
160,32,105456,1,8,0:0:0:0:
160,32,105535,1,8,0:0:0:0:
160,32,105693,1,0,0:0:0:0:
160,32,105850,1,8,0:0:0:0:
160,32,106008,1,8,0:0:0:0:
160,32,106087,1,8,0:0:0:0:
160,32,106166,1,0,0:0:0:0:
160,32,106324,1,8,0:0:0:0:
160,32,106482,1,0,0:0:0:0:
160,32,106640,1,8,0:0:0:0:
160,32,106798,1,0,0:0:0:0:
160,32,106877,1,0,0:0:0:0:
160,32,106956,1,8,0:0:0:0:
160,32,107114,1,0,0:0:0:0:
160,32,107271,1,8,0:0:0:0:
160,32,107429,1,0,0:0:0:0:
160,32,107587,1,0,0:0:0:0:
160,32,107745,1,8,0:0:0:0:
160,32,107903,1,8,0:0:0:0:
160,32,108061,1,0,0:0:0:0:
160,32,108140,1,0,0:0:0:0:
160,32,108219,1,0,0:0:0:0:
160,32,108377,1,8,0:0:0:0:
160,32,108535,1,8,0:0:0:0:
160,32,108693,1,0,0:0:0:0:
160,32,108771,1,0,0:0:0:0:
160,32,108850,1,0,0:0:0:0:
160,32,109008,1,8,0:0:0:0:
160,32,109166,1,8,0:0:0:0:
160,32,109324,1,4,0:0:0:0:
160,32,109640,1,12,0:0:0:0:
160,32,109956,1,12,0:0:0:0:
160,32,110271,1,8,0:0:0:0:
160,32,110429,1,8,0:0:0:0:
160,32,110508,1,0,0:0:0:0:
160,32,110587,1,0,0:0:0:0:
160,32,110745,1,8,0:0:0:0:
160,32,110903,1,0,0:0:0:0:
160,32,111061,1,8,0:0:0:0:
160,32,111140,1,8,0:0:0:0:
160,32,111219,1,0,0:0:0:0:
160,32,111377,1,8,0:0:0:0:
160,32,111535,1,0,0:0:0:0:
160,32,111693,1,8,0:0:0:0:
160,32,111771,1,8,0:0:0:0:
160,32,111850,1,0,0:0:0:0:
160,32,112008,1,0,0:0:0:0:
160,32,112166,1,8,0:0:0:0:
160,32,112324,1,0,0:0:0:0:
160,32,112482,1,0,0:0:0:0:
160,32,112561,1,8,0:0:0:0:
160,32,112640,1,8,0:0:0:0:
160,32,112798,1,0,0:0:0:0:
160,32,112877,1,8,0:0:0:0:
160,32,112956,1,8,0:0:0:0:
160,32,113114,1,0,0:0:0:0:
160,32,113193,1,0,0:0:0:0:
160,32,113271,1,0,0:0:0:0:
160,32,113429,1,8,0:0:0:0:
160,32,113587,1,8,0:0:0:0:
160,32,113745,1,0,0:0:0:0:
160,32,113824,1,0,0:0:0:0:
160,32,113903,1,0,0:0:0:0:
160,32,114061,1,8,0:0:0:0:
160,32,114219,1,8,0:0:0:0:
160,32,114377,1,0,0:0:0:0:
160,32,114535,1,0,0:0:0:0:
160,32,114693,1,8,0:0:0:0:
160,32,114850,1,0,0:0:0:0:
160,32,115008,1,8,0:0:0:0:
160,32,115166,1,0,0:0:0:0:
160,32,115324,1,8,0:0:0:0:
160,32,115482,1,0,0:0:0:0:
160,32,115561,1,0,0:0:0:0:
160,32,115640,1,0,0:0:0:0:
160,32,115693,1,0,0:0:0:0:
160,32,115745,1,0,0:0:0:0:
160,32,115798,1,0,0:0:0:0:
160,32,115850,1,0,0:0:0:0:
160,32,115903,1,0,0:0:0:0:
160,32,115956,1,0,0:0:0:0:
160,32,116035,1,0,0:0:0:0:
160,32,116114,1,0,0:0:0:0:
160,32,116193,1,0,0:0:0:0:
160,32,116271,1,0,0:0:0:0:
160,32,116350,1,8,0:0:0:0:
160,32,116429,1,8,0:0:0:0:
160,32,116508,1,0,0:0:0:0:
160,32,116587,1,0,0:0:0:0:
160,32,116666,1,8,0:0:0:0:
160,32,116745,1,8,0:0:0:0:
160,32,116824,1,0,0:0:0:0:
160,32,116903,1,0,0:0:0:0:
160,32,116956,1,0,0:0:0:0:
160,32,117008,1,0,0:0:0:0:
160,32,117061,1,0,0:0:0:0:
160,32,117140,1,0,0:0:0:0:
160,32,117219,1,0,0:0:0:0:
160,32,117298,1,0,0:0:0:0:
160,32,117377,1,0,0:0:0:0:
160,32,117456,1,0,0:0:0:0:
160,32,117535,1,0,0:0:0:0:
160,32,117587,1,0,0:0:0:0:
160,32,117640,1,0,0:0:0:0:
160,32,117693,1,0,0:0:0:0:
160,32,117771,1,0,0:0:0:0:
160,32,117850,1,8,0:0:0:0:
160,32,117929,1,8,0:0:0:0:
160,32,118008,1,8,0:0:0:0:
160,32,118087,1,0,0:0:0:0:
160,32,118166,1,0,0:0:0:0:
160,32,118324,1,0,0:0:0:0:
160,32,118482,1,0,0:0:0:0:
160,32,118561,1,0,0:0:0:0:
160,32,118640,1,0,0:0:0:0:
160,32,118693,1,0,0:0:0:0:
160,32,118745,1,0,0:0:0:0:
160,32,118798,1,0,0:0:0:0:
160,32,118956,1,8,0:0:0:0:
160,32,119114,1,8,0:0:0:0:
160,32,119193,1,8,0:0:0:0:
160,32,119271,1,8,0:0:0:0:
160,32,119324,1,8,0:0:0:0:
160,32,119377,1,8,0:0:0:0:
160,32,119429,1,8,0:0:0:0:
160,32,119482,1,8,0:0:0:0:
160,32,119535,1,8,0:0:0:0:
160,32,119587,1,8,0:0:0:0:
160,32,119640,1,8,0:0:0:0:
160,32,119693,1,8,0:0:0:0:
160,32,119745,1,8,0:0:0:0:
160,32,119798,1,8,0:0:0:0:
160,32,119850,1,8,0:0:0:0:
160,32,119903,1,8,0:0:0:0:
160,32,119956,1,8,0:0:0:0:
160,32,120008,1,8,0:0:0:0:
160,32,120061,1,8,0:0:0:0:
160,32,120114,1,8,0:0:0:0:
160,32,120166,1,8,0:0:0:0:
160,32,120219,1,8,0:0:0:0:
160,32,120271,1,8,0:0:0:0:
160,32,120324,1,8,0:0:0:0:
160,32,120377,1,8,0:0:0:0:
160,32,120429,1,8,0:0:0:0:
160,32,120482,1,8,0:0:0:0:
160,32,120535,1,8,0:0:0:0:
160,32,120693,5,0,0:0:0:0:
160,32,120850,1,8,0:0:0:0:
160,32,121008,1,8,0:0:0:0:
160,32,121166,1,0,0:0:0:0:
160,32,121403,1,8,0:0:0:0:
160,32,121640,1,8,0:0:0:0:
160,32,121798,1,0,0:0:0:0:
160,32,121956,1,8,0:0:0:0:
160,32,122114,1,8,0:0:0:0:
160,32,122271,1,0,0:0:0:0:
160,32,122429,1,8,0:0:0:0:
160,32,122587,1,8,0:0:0:0:
160,32,122745,1,8,0:0:0:0:
160,32,122903,1,0,0:0:0:0:
160,32,123061,1,8,0:0:0:0:
160,32,123219,1,8,0:0:0:0:
160,32,123377,1,0,0:0:0:0:
160,32,123614,1,8,0:0:0:0:
160,32,123850,1,8,0:0:0:0:
160,32,124008,1,0,0:0:0:0:
160,32,124166,1,8,0:0:0:0:
160,32,124324,1,8,0:0:0:0:
160,32,124482,1,0,0:0:0:0:
160,32,124640,1,8,0:0:0:0:
160,32,124798,1,8,0:0:0:0:
160,32,124956,1,8,0:0:0:0:
160,32,125035,1,8,0:0:0:0:
160,32,125114,1,0,0:0:0:0:
160,32,125271,1,8,0:0:0:0:
160,32,125429,1,8,0:0:0:0:
160,32,125587,1,0,0:0:0:0:
160,32,125824,1,8,0:0:0:0:
160,32,126061,1,8,0:0:0:0:
160,32,126219,1,0,0:0:0:0:
160,32,126377,1,8,0:0:0:0:
160,32,126535,1,8,0:0:0:0:
160,32,126693,1,0,0:0:0:0:
160,32,126850,1,8,0:0:0:0:
160,32,127008,1,0,0:0:0:0:
160,32,127166,1,8,0:0:0:0:
160,32,127324,1,0,0:0:0:0:
160,32,127482,1,8,0:0:0:0:
160,32,127640,1,8,0:0:0:0:
160,32,127798,1,0,0:0:0:0:
160,32,128035,1,8,0:0:0:0:
160,32,128271,1,8,0:0:0:0:
160,32,128429,1,0,0:0:0:0:
160,32,128587,1,8,0:0:0:0:
160,32,128745,1,8,0:0:0:0:
160,32,128903,1,0,0:0:0:0:
160,32,129061,1,8,0:0:0:0:
160,32,129219,1,8,0:0:0:0:
160,32,129535,5,0,0:0:0:0:
160,32,129693,1,8,0:0:0:0:
160,32,129850,1,8,0:0:0:0:
160,32,130008,1,0,0:0:0:0:
160,32,130245,1,8,0:0:0:0:
160,32,130482,1,8,0:0:0:0:
160,32,130640,1,0,0:0:0:0:
160,32,130798,1,8,0:0:0:0:
160,32,130956,1,8,0:0:0:0:
160,32,131114,1,0,0:0:0:0:
160,32,131272,1,8,0:0:0:0:
160,32,131429,1,8,0:0:0:0:
160,32,131587,1,8,0:0:0:0:
160,32,131745,1,0,0:0:0:0:
160,32,131903,1,8,0:0:0:0:
160,32,132061,1,8,0:0:0:0:
160,32,132219,1,0,0:0:0:0:
160,32,132298,1,0,0:0:0:0:
160,32,132377,1,0,0:0:0:0:
160,32,132456,1,8,0:0:0:0:
160,32,132535,1,0,0:0:0:0:
160,32,132614,1,0,0:0:0:0:
160,32,132693,1,8,0:0:0:0:
160,32,132772,1,0,0:0:0:0:
160,32,132850,1,0,0:0:0:0:
160,32,132930,1,0,0:0:0:0:
160,32,133008,1,8,0:0:0:0:
160,32,133087,1,0,0:0:0:0:
160,32,133166,1,8,0:0:0:0:
160,32,133245,1,0,0:0:0:0:
160,32,133324,1,0,0:0:0:0:
160,32,133403,1,0,0:0:0:0:
160,32,133482,1,8,0:0:0:0:
160,32,133561,1,0,0:0:0:0:
160,32,133640,1,8,0:0:0:0:
160,32,133719,1,0,0:0:0:0:
160,32,133798,1,8,0:0:0:0:
160,32,133877,1,8,0:0:0:0:
160,32,133956,5,0,0:0:0:0:
160,32,134035,1,0,0:0:0:0:
160,32,134114,1,8,0:0:0:0:
160,32,134193,1,0,0:0:0:0:
160,32,134271,1,8,0:0:0:0:
160,32,134351,1,0,0:0:0:0:
160,32,134429,1,0,0:0:0:0:
160,32,134508,1,0,0:0:0:0:
160,32,134587,1,0,0:0:0:0:
160,32,134666,1,8,0:0:0:0:
160,32,134745,1,0,0:0:0:0:
160,32,134824,1,0,0:0:0:0:
160,32,134903,1,8,0:0:0:0:
160,32,134982,1,0,0:0:0:0:
160,32,135061,1,0,0:0:0:0:
160,32,135140,1,0,0:0:0:0:
160,32,135219,1,8,0:0:0:0:
160,32,135298,1,0,0:0:0:0:
160,32,135377,1,8,0:0:0:0:
160,32,135456,1,0,0:0:0:0:
160,32,135535,1,0,0:0:0:0:
160,32,135614,1,0,0:0:0:0:
160,32,135693,1,8,0:0:0:0:
160,32,135772,1,0,0:0:0:0:
160,32,135850,1,8,0:0:0:0:
160,32,135930,1,0,0:0:0:0:
160,32,136008,1,8,0:0:0:0:
160,32,136087,1,0,0:0:0:0:
160,32,136166,5,0,0:0:0:0:
160,32,136219,1,0,0:0:0:0:
160,32,136272,1,0,0:0:0:0:
160,32,136324,1,8,0:0:0:0:
160,32,136403,1,0,0:0:0:0:
160,32,136481,1,8,0:0:0:0:
160,32,136561,1,0,0:0:0:0:
160,32,136639,1,0,0:0:0:0:
160,32,136719,5,0,0:0:0:0:
160,32,136798,1,0,0:0:0:0:
160,32,136876,1,8,0:0:0:0:
160,32,136956,1,0,0:0:0:0:
160,32,137035,1,0,0:0:0:0:
160,32,137114,1,8,0:0:0:0:
160,32,137193,1,8,0:0:0:0:
160,32,137272,1,8,0:0:0:0:
160,32,137324,1,8,0:0:0:0:
160,32,137377,1,8,0:0:0:0:
160,32,137430,1,8,0:0:0:0:
160,32,137482,1,8,0:0:0:0:
160,32,137535,1,8,0:0:0:0:
160,32,137587,5,8,0:0:0:0:
160,32,137640,1,8,0:0:0:0:
160,32,137693,1,8,0:0:0:0:
160,32,137745,1,8,0:0:0:0:
160,32,137798,1,8,0:0:0:0:
160,32,137851,1,8,0:0:0:0:
160,32,137903,5,8,0:0:0:0:
160,32,137956,1,8,0:0:0:0:
160,32,138008,1,8,0:0:0:0:
160,32,138061,1,8,0:0:0:0:
160,32,138140,5,8,0:0:0:0:
160,32,138219,1,8,0:0:0:0:
160,32,138298,1,8,0:0:0:0:
160,32,138377,5,0,0:0:0:0:
160,32,138535,1,8,0:0:0:0:
160,32,138693,1,0,0:0:0:0:
160,32,138771,1,0,0:0:0:0:
160,32,138850,1,8,0:0:0:0:
160,32,139008,1,8,0:0:0:0:
160,32,139166,1,0,0:0:0:0:
160,32,139245,1,8,0:0:0:0:
160,32,139403,1,8,0:0:0:0:
160,32,139482,1,8,0:0:0:0:
160,32,139640,1,0,0:0:0:0:
160,32,139719,1,0,0:0:0:0:
160,32,139798,1,8,0:0:0:0:
160,32,139956,1,8,0:0:0:0:
160,32,140114,1,0,0:0:0:0:
160,32,140193,1,0,0:0:0:0:
160,32,140271,1,8,0:0:0:0:
160,32,140429,1,8,0:0:0:0:
160,32,140587,1,0,0:0:0:0:
160,32,140745,1,8,0:0:0:0:
160,32,140903,1,0,0:0:0:0:
160,32,140982,1,8,0:0:0:0:
160,32,141061,1,8,0:0:0:0:
160,32,141219,1,0,0:0:0:0:
160,32,141377,1,8,0:0:0:0:
160,32,141535,1,0,0:0:0:0:
160,32,141693,1,0,0:0:0:0:
160,32,141771,1,8,0:0:0:0:
160,32,141929,1,8,0:0:0:0:
160,32,142008,1,8,0:0:0:0:
160,32,142166,1,0,0:0:0:0:
160,32,142245,1,0,0:0:0:0:
160,32,142324,1,8,0:0:0:0:
160,32,142482,1,8,0:0:0:0:
160,32,142640,1,0,0:0:0:0:
160,32,142719,1,0,0:0:0:0:
160,32,142798,1,8,0:0:0:0:
160,32,142956,1,0,0:0:0:0:
160,32,143114,1,8,0:0:0:0:
160,32,143271,1,8,0:0:0:0:
160,32,143429,1,0,0:0:0:0:
160,32,143508,1,0,0:0:0:0:
160,32,143587,1,8,0:0:0:0:
160,32,143745,1,0,0:0:0:0:
160,32,143903,1,8,0:0:0:0:
160,32,144061,1,0,0:0:0:0:
160,32,144219,1,8,0:0:0:0:
160,32,144298,1,8,0:0:0:0:
160,32,144456,1,0,0:0:0:0:
160,32,144535,1,8,0:0:0:0:
160,32,144693,1,0,0:0:0:0:
160,32,144771,1,0,0:0:0:0:
160,32,144850,1,8,0:0:0:0:
160,32,145008,1,0,0:0:0:0:
160,32,145166,1,8,0:0:0:0:
160,32,145245,1,0,0:0:0:0:
160,32,145324,1,0,0:0:0:0:
160,32,145482,1,8,0:0:0:0:
160,32,145640,1,0,0:0:0:0:
160,32,145798,1,8,0:0:0:0:
160,32,145956,1,0,0:0:0:0:
160,32,146035,1,0,0:0:0:0:
160,32,146114,1,8,0:0:0:0:
160,32,146193,1,8,0:0:0:0:
160,32,146271,1,0,0:0:0:0:
160,32,146350,1,0,0:0:0:0:
160,32,146429,1,8,0:0:0:0:
160,32,146508,1,8,0:0:0:0:
160,32,146587,1,0,0:0:0:0:
160,32,146666,1,8,0:0:0:0:
160,32,146745,1,0,0:0:0:0:
160,32,146824,1,8,0:0:0:0:
160,32,146903,1,0,0:0:0:0:
160,32,146982,1,0,0:0:0:0:
160,32,147061,1,8,0:0:0:0:
160,32,147140,1,8,0:0:0:0:
160,32,147219,1,0,0:0:0:0:
160,32,147377,1,0,0:0:0:0:
160,32,147535,1,8,0:0:0:0:
160,32,147693,1,8,0:0:0:0:
160,32,147771,1,8,0:0:0:0:
160,32,147850,1,0,0:0:0:0:
160,32,148008,1,0,0:0:0:0:
160,32,148061,1,0,0:0:0:0:
160,32,148114,1,0,0:0:0:0:
160,32,148166,1,0,0:0:0:0:
160,32,148245,1,0,0:0:0:0:
160,32,148324,1,0,0:0:0:0:
160,32,148403,1,0,0:0:0:0:
160,32,148482,5,0,0:0:0:0:
160,32,148640,1,8,0:0:0:0:
160,32,148798,1,0,0:0:0:0:
160,32,148956,1,8,0:0:0:0:
160,32,149114,1,0,0:0:0:0:
160,32,149271,1,8,0:0:0:0:
160,32,149350,1,8,0:0:0:0:
160,32,149429,1,0,0:0:0:0:
160,32,149508,1,0,0:0:0:0:
160,32,149587,1,8,0:0:0:0:
160,32,149745,1,0,0:0:0:0:
160,32,149824,1,0,0:0:0:0:
160,32,149903,1,8,0:0:0:0:
160,32,150061,1,8,0:0:0:0:
160,32,150219,1,0,0:0:0:0:
160,32,150298,1,0,0:0:0:0:
160,32,150377,1,8,0:0:0:0:
160,32,150535,1,0,0:0:0:0:
160,32,150693,1,0,0:0:0:0:
160,32,150850,1,8,0:0:0:0:
160,32,151008,1,0,0:0:0:0:
160,32,151087,1,0,0:0:0:0:
160,32,151166,1,0,0:0:0:0:
160,32,151324,1,8,0:0:0:0:
160,32,151482,1,8,0:0:0:0:
160,32,151640,1,8,0:0:0:0:
160,32,151798,1,0,0:0:0:0:
160,32,151877,1,8,0:0:0:0:
160,32,151956,1,8,0:0:0:0:
160,32,152035,1,0,0:0:0:0:
160,32,152114,1,8,0:0:0:0:
160,32,152271,1,0,0:0:0:0:
160,32,152350,1,0,0:0:0:0:
160,32,152429,1,8,0:0:0:0:
160,32,152587,1,8,0:0:0:0:
160,32,152745,1,0,0:0:0:0:
160,32,152824,1,0,0:0:0:0:
160,32,152903,1,8,0:0:0:0:
160,32,153061,1,0,0:0:0:0:
160,32,153219,1,8,0:0:0:0:
160,32,153377,1,8,0:0:0:0:
160,32,153535,1,0,0:0:0:0:
160,32,153587,1,0,0:0:0:0:
160,32,153640,1,0,0:0:0:0:
160,32,153693,1,8,0:0:0:0:
160,32,153772,1,0,0:0:0:0:
160,32,153851,1,0,0:0:0:0:
160,32,153930,1,0,0:0:0:0:
160,32,154008,1,8,0:0:0:0:
160,32,154087,1,8,0:0:0:0:
160,32,154166,1,8,0:0:0:0:
160,32,154245,1,0,0:0:0:0:
160,32,154323,1,8,0:0:0:0:
160,32,154402,1,0,0:0:0:0:
160,32,154482,1,0,0:0:0:0:
160,32,154561,1,0,0:0:0:0:
160,32,154639,1,8,0:0:0:0:
160,32,154718,1,8,0:0:0:0:
160,32,154798,1,0,0:0:0:0:
160,32,154850,1,0,0:0:0:0:
160,32,154903,1,0,0:0:0:0:
160,32,154956,1,0,0:0:0:0:
160,32,155035,1,0,0:0:0:0:
160,32,155114,1,8,0:0:0:0:
160,32,155193,1,0,0:0:0:0:
160,32,155271,1,8,0:0:0:0:
160,32,155350,1,8,0:0:0:0:
160,32,155430,1,0,0:0:0:0:
160,32,155509,1,0,0:0:0:0:
160,32,155587,1,8,0:0:0:0:
160,32,155666,1,8,0:0:0:0:
160,32,155745,1,0,0:0:0:0:
160,32,155824,1,0,0:0:0:0:
160,32,155902,1,8,0:0:0:0:
160,32,155981,1,8,0:0:0:0:
160,32,156061,5,0,0:0:0:0:
160,32,156113,1,0,0:0:0:0:
160,32,156166,1,0,0:0:0:0:
160,32,156219,1,8,0:0:0:0:
160,32,156298,1,8,0:0:0:0:
160,32,156377,1,0,0:0:0:0:
160,32,156456,1,0,0:0:0:0:
160,32,156534,1,8,0:0:0:0:
160,32,156613,1,8,0:0:0:0:
160,32,156693,1,0,0:0:0:0:
160,32,156745,5,0,0:0:0:0:
160,32,156798,1,0,0:0:0:0:
160,32,156851,1,8,0:0:0:0:
160,32,156930,1,8,0:0:0:0:
160,32,157008,1,8,0:0:0:0:
160,32,157087,1,0,0:0:0:0:
160,32,157165,1,0,0:0:0:0:
160,32,157244,1,8,0:0:0:0:
160,32,157324,5,0,0:0:0:0:
160,32,157403,1,0,0:0:0:0:
160,32,157482,1,8,0:0:0:0:
160,32,157640,1,0,0:0:0:0:
160,32,157719,1,0,0:0:0:0:
160,32,157798,1,8,0:0:0:0:
160,32,157956,1,0,0:0:0:0:
160,32,158114,1,0,0:0:0:0:
160,32,158271,1,8,0:0:0:0:
160,32,158350,1,8,0:0:0:0:
160,32,158429,1,0,0:0:0:0:
160,32,158508,1,0,0:0:0:0:
160,32,158587,1,8,0:0:0:0:
160,32,158745,1,0,0:0:0:0:
160,32,158903,1,8,0:0:0:0:
160,32,159061,1,0,0:0:0:0:
160,32,159219,1,0,0:0:0:0:
160,32,159377,1,0,0:0:0:0:
160,32,159535,1,8,0:0:0:0:
160,32,159693,1,8,0:0:0:0:
160,32,159850,1,0,0:0:0:0:
160,32,160008,1,0,0:0:0:0:
160,32,160166,1,8,0:0:0:0:
160,32,160324,1,0,0:0:0:0:
160,32,160482,1,0,0:0:0:0:
160,32,160640,1,0,0:0:0:0:
160,32,160798,1,8,0:0:0:0:
160,32,160956,1,8,0:0:0:0:
160,32,161114,1,0,0:0:0:0:
160,32,161271,1,0,0:0:0:0:
160,32,161429,1,8,0:0:0:0:
160,32,161587,1,0,0:0:0:0:
160,32,161745,1,0,0:0:0:0:
160,32,161903,1,0,0:0:0:0:
160,32,162061,1,8,0:0:0:0:
160,32,162219,1,8,0:0:0:0:
160,32,162377,1,0,0:0:0:0:
160,32,162456,1,0,0:0:0:0:
160,32,162535,1,8,0:0:0:0:
160,32,162693,1,0,0:0:0:0:
160,32,162771,1,0,0:0:0:0:
160,32,162850,1,8,0:0:0:0:
160,32,163008,1,0,0:0:0:0:
160,32,163087,1,0,0:0:0:0:
160,32,163166,1,0,0:0:0:0:
160,32,163245,1,0,0:0:0:0:
160,32,163324,1,8,0:0:0:0:
160,32,163482,1,8,0:0:0:0:
160,32,163640,1,0,0:0:0:0:
160,32,163798,1,0,0:0:0:0:
160,32,163956,1,8,0:0:0:0:
160,32,164114,1,0,0:0:0:0:
160,32,164271,1,0,0:0:0:0:
160,32,164429,1,0,0:0:0:0:
160,32,164508,1,0,0:0:0:0:
160,32,164587,1,8,0:0:0:0:
160,32,164745,1,0,0:0:0:0:
160,32,164824,1,0,0:0:0:0:
160,32,164903,1,8,0:0:0:0:
160,32,165061,1,0,0:0:0:0:
160,32,165219,1,8,0:0:0:0:
160,32,165377,1,0,0:0:0:0:
160,32,165535,1,0,0:0:0:0:
160,32,165614,1,0,0:0:0:0:
160,32,165693,1,8,0:0:0:0:
160,32,165850,1,0,0:0:0:0:
160,32,165929,1,0,0:0:0:0:
160,32,166008,1,8,0:0:0:0:
160,32,166166,1,0,0:0:0:0:
160,32,166245,1,0,0:0:0:0:
160,32,166324,1,0,0:0:0:0:
160,32,166403,1,0,0:0:0:0:
160,32,166482,1,8,0:0:0:0:
160,32,166561,1,0,0:0:0:0:
160,32,166640,1,0,0:0:0:0:
160,32,166719,1,0,0:0:0:0:
160,32,166798,1,8,0:0:0:0:
160,32,166877,1,0,0:0:0:0:
160,32,166956,1,0,0:0:0:0:
160,32,167035,1,0,0:0:0:0:
160,32,167114,1,8,0:0:0:0:
160,32,167193,1,0,0:0:0:0:
160,32,167271,1,8,0:0:0:0:
160,32,167350,1,8,0:0:0:0:
160,32,167429,1,0,0:0:0:0:
160,32,167508,1,0,0:0:0:0:
160,32,167587,1,8,0:0:0:0:
160,32,167666,1,0,0:0:0:0:
160,32,167745,1,0,0:0:0:0:
160,32,167824,1,0,0:0:0:0:
160,32,167903,1,8,0:0:0:0:
160,32,167982,1,0,0:0:0:0:
160,32,168061,1,0,0:0:0:0:
160,32,168140,1,8,0:0:0:0:
160,32,168219,1,8,0:0:0:0:
160,32,168298,1,0,0:0:0:0:
160,32,168377,1,8,0:0:0:0:
160,32,168456,1,8,0:0:0:0:
160,32,168535,1,8,0:0:0:0:
160,32,168587,1,8,0:0:0:0:
160,32,168640,1,8,0:0:0:0:
160,32,168693,5,8,0:0:0:0:
160,32,168850,1,0,0:0:0:0:
160,32,168929,1,0,0:0:0:0:
160,32,169008,1,8,0:0:0:0:
160,32,169166,1,8,0:0:0:0:
160,32,169324,1,0,0:0:0:0:
160,32,169482,1,0,0:0:0:0:
160,32,169640,1,8,0:0:0:0:
160,32,169798,1,8,0:0:0:0:
160,32,169877,1,0,0:0:0:0:
160,32,169956,1,0,0:0:0:0:
160,32,170271,1,0,0:0:0:0:
160,32,170587,1,8,0:0:0:0:
160,32,170903,1,0,0:0:0:0:
160,32,171219,1,0,0:0:0:0:
160,32,171377,1,0,0:0:0:0:
160,32,171535,1,8,0:0:0:0:
160,32,171693,1,8,0:0:0:0:
160,32,171850,1,0,0:0:0:0:
160,32,172008,1,0,0:0:0:0:
160,32,172166,1,8,0:0:0:0:
160,32,172324,1,0,0:0:0:0:
160,32,172482,1,0,0:0:0:0:
160,32,172798,1,0,0:0:0:0:
160,32,173114,1,8,0:0:0:0:
160,32,173429,1,8,0:0:0:0:
160,32,173587,1,0,0:0:0:0:
160,32,173666,1,0,0:0:0:0:
160,32,173745,1,0,0:0:0:0:
160,32,173903,1,8,0:0:0:0:
160,32,174061,1,0,0:0:0:0:
160,32,174219,1,8,0:0:0:0:
160,32,174377,1,8,0:0:0:0:
160,32,174535,1,0,0:0:0:0:
160,32,174693,1,8,0:0:0:0:
160,32,174850,1,0,0:0:0:0:
160,32,175008,1,0,0:0:0:0:
160,32,175166,1,0,0:0:0:0:
160,32,175324,1,8,0:0:0:0:
160,32,175482,1,8,0:0:0:0:
160,32,175640,1,0,0:0:0:0:
160,32,175956,1,0,0:0:0:0:
160,32,176271,1,0,0:0:0:0:
160,32,176429,1,0,0:0:0:0:
160,32,176587,1,8,0:0:0:0:
160,32,176745,1,8,0:0:0:0:
160,32,176903,1,0,0:0:0:0:
160,32,177061,1,0,0:0:0:0:
160,32,177219,1,8,0:0:0:0:
160,32,177377,1,8,0:0:0:0:
160,32,177535,1,0,0:0:0:0:
160,32,177693,1,8,0:0:0:0:
160,32,177850,1,0,0:0:0:0:
160,32,178008,1,0,0:0:0:0:
160,32,178166,1,8,0:0:0:0:
160,32,178482,1,8,0:0:0:0:
160,32,178798,1,0,0:0:0:0:
160,32,178956,1,8,0:0:0:0:
160,32,179114,1,8,0:0:0:0:
160,32,179271,1,0,0:0:0:0:
160,32,179429,1,0,0:0:0:0:
160,32,179587,1,8,0:0:0:0:
160,32,179745,1,8,0:0:0:0:
160,32,179903,1,0,0:0:0:0:
160,32,179982,1,0,0:0:0:0:
160,32,180061,1,0,0:0:0:0:
160,32,180377,1,8,0:0:0:0:
160,32,180693,1,8,0:0:0:0:
160,32,181008,1,0,0:0:0:0:
160,32,181166,1,0,0:0:0:0:
160,32,181324,1,0,0:0:0:0:
160,32,181482,1,0,0:0:0:0:
160,32,181640,1,8,0:0:0:0:
160,32,181798,1,8,0:0:0:0:
160,32,181956,1,0,0:0:0:0:
160,32,182114,1,0,0:0:0:0:
160,32,182271,1,8,0:0:0:0:
160,32,182429,1,0,0:0:0:0:
160,32,182587,1,0,0:0:0:0:
160,32,182903,1,0,0:0:0:0:
160,32,183219,1,8,0:0:0:0:
160,32,183377,1,0,0:0:0:0:
160,32,183456,1,0,0:0:0:0:
160,32,183535,1,8,0:0:0:0:
160,32,183693,1,0,0:0:0:0:
160,32,183771,1,0,0:0:0:0:
160,32,183850,1,0,0:0:0:0:
160,32,184008,1,8,0:0:0:0:
160,32,184166,1,0,0:0:0:0:
160,32,184324,1,8,0:0:0:0:
160,32,184482,1,0,0:0:0:0:
160,32,184640,1,8,0:0:0:0:
160,32,184798,1,0,0:0:0:0:
160,32,184956,1,8,0:0:0:0:
160,32,185114,1,0,0:0:0:0:
160,32,185271,1,8,0:0:0:0:
160,32,185429,1,0,0:0:0:0:
160,32,185587,1,8,0:0:0:0:
160,32,185745,1,0,0:0:0:0:
160,32,186061,1,0,0:0:0:0:
160,32,186377,1,0,0:0:0:0:
160,32,186535,1,0,0:0:0:0:
160,32,186693,1,0,0:0:0:0:
160,32,186850,1,8,0:0:0:0:
160,32,187008,1,0,0:0:0:0:
160,32,187166,1,0,0:0:0:0:
160,32,187324,1,8,0:0:0:0:
160,32,187482,1,8,0:0:0:0:
160,32,187640,1,0,0:0:0:0:
160,32,187719,1,0,0:0:0:0:
160,32,187798,1,0,0:0:0:0:
160,32,187877,1,8,0:0:0:0:
160,32,187956,1,0,0:0:0:0:
160,32,188035,1,0,0:0:0:0:
160,32,188114,1,0,0:0:0:0:
160,32,188193,1,8,0:0:0:0:
160,32,188271,1,0,0:0:0:0:
160,32,188429,1,0,0:0:0:0:
160,32,188482,1,0,0:0:0:0:
160,32,188535,1,0,0:0:0:0:
160,32,188587,1,0,0:0:0:0:
160,32,188903,1,4,0:0:0:0:
160,32,189219,1,12,0:0:0:0:
160,32,189535,1,12,0:0:0:0:
160,32,189850,1,12,0:0:0:0:
160,32,190166,1,8,0:0:0:0:
160,32,190324,1,0,0:0:0:0:
160,32,190482,1,8,0:0:0:0:
160,32,190640,1,0,0:0:0:0:
160,32,190719,1,0,0:0:0:0:
160,32,190798,1,0,0:0:0:0:
160,32,190956,1,8,0:0:0:0:
160,32,191114,1,0,0:0:0:0:
160,32,191271,1,8,0:0:0:0:
160,32,191350,1,0,0:0:0:0:
160,32,191429,1,0,0:0:0:0:
160,32,191587,1,0,0:0:0:0:
160,32,191745,1,8,0:0:0:0:
160,32,191903,1,8,0:0:0:0:
160,32,192061,1,0,0:0:0:0:
160,32,192219,1,0,0:0:0:0:
160,32,192377,1,8,0:0:0:0:
160,32,192535,1,0,0:0:0:0:
160,32,192693,1,0,0:0:0:0:
160,32,192771,1,0,0:0:0:0:
160,32,192850,1,8,0:0:0:0:
160,32,193008,1,8,0:0:0:0:
160,32,193166,1,8,0:0:0:0:
160,32,193324,1,8,0:0:0:0:
160,32,193403,1,8,0:0:0:0:
160,32,193482,1,0,0:0:0:0:
160,32,193640,1,0,0:0:0:0:
160,32,193798,1,8,0:0:0:0:
160,32,193956,1,0,0:0:0:0:
160,32,194114,1,0,0:0:0:0:
160,32,194271,1,8,0:0:0:0:
160,32,194429,1,0,0:0:0:0:
160,32,194587,1,8,0:0:0:0:
160,32,194745,1,0,0:0:0:0:
160,32,194824,1,8,0:0:0:0:
160,32,194903,1,8,0:0:0:0:
160,32,195061,1,0,0:0:0:0:
160,32,195140,1,8,0:0:0:0:
160,32,195219,1,8,0:0:0:0:
160,32,195377,1,0,0:0:0:0:
160,32,195535,1,8,0:0:0:0:
160,32,195693,1,0,0:0:0:0:
160,32,195771,1,0,0:0:0:0:
160,32,195850,1,8,0:0:0:0:
160,32,196008,1,8,0:0:0:0:
160,32,196166,1,0,0:0:0:0:
160,32,196324,1,8,0:0:0:0:
160,32,196482,1,0,0:0:0:0:
160,32,196561,1,0,0:0:0:0:
160,32,196640,1,8,0:0:0:0:
160,32,196798,1,8,0:0:0:0:
160,32,196956,1,0,0:0:0:0:
160,32,197114,1,8,0:0:0:0:
160,32,197271,1,0,0:0:0:0:
160,32,197429,1,8,0:0:0:0:
160,32,197587,1,0,0:0:0:0:
160,32,197745,1,0,0:0:0:0:
160,32,197824,1,0,0:0:0:0:
160,32,197903,1,8,0:0:0:0:
160,32,198061,1,8,0:0:0:0:
160,32,198219,1,8,0:0:0:0:
160,32,198377,1,0,0:0:0:0:
160,32,198456,1,0,0:0:0:0:
160,32,198535,1,8,0:0:0:0:
160,32,198693,1,8,0:0:0:0:
160,32,198850,1,0,0:0:0:0:
160,32,199008,1,8,0:0:0:0:
160,32,199324,1,8,0:0:0:0:
160,32,199640,1,4,0:0:0:0:
160,32,199956,1,8,0:0:0:0:
160,32,200114,1,0,0:0:0:0:
160,32,200193,1,0,0:0:0:0:
160,32,200271,1,8,0:0:0:0:
160,32,200429,1,8,0:0:0:0:
160,32,200587,1,0,0:0:0:0:
160,32,200745,1,0,0:0:0:0:
160,32,200824,1,0,0:0:0:0:
160,32,200903,1,8,0:0:0:0:
160,32,201061,1,8,0:0:0:0:
160,32,201219,1,0,0:0:0:0:
160,32,201377,1,0,0:0:0:0:
160,32,201456,1,0,0:0:0:0:
160,32,201535,1,8,0:0:0:0:
160,32,201693,1,0,0:0:0:0:
160,32,201850,1,8,0:0:0:0:
160,32,202008,1,0,0:0:0:0:
160,32,202166,1,8,0:0:0:0:
160,32,202324,1,0,0:0:0:0:
160,32,202482,1,8,0:0:0:0:
160,32,202640,1,0,0:0:0:0:
160,32,202798,1,0,0:0:0:0:
160,32,202877,1,0,0:0:0:0:
160,32,202956,1,8,0:0:0:0:
160,32,203114,1,8,0:0:0:0:
160,32,203271,1,0,0:0:0:0:
160,32,203429,1,0,0:0:0:0:
160,32,203508,1,8,0:0:0:0:
160,32,203587,1,8,0:0:0:0:
160,32,203745,1,8,0:0:0:0:
160,32,203903,1,0,0:0:0:0:
160,32,204061,1,0,0:0:0:0:
160,32,204219,1,0,0:0:0:0:
160,32,204377,1,8,0:0:0:0:
160,32,204535,1,0,0:0:0:0:
160,32,204693,1,8,0:0:0:0:
160,32,204850,1,0,0:0:0:0:
160,32,204929,1,8,0:0:0:0:
160,32,205008,1,8,0:0:0:0:
160,32,205166,1,0,0:0:0:0:
160,32,205245,1,8,0:0:0:0:
160,32,205324,1,8,0:0:0:0:
160,32,205482,1,0,0:0:0:0:
160,32,205640,1,0,0:0:0:0:
160,32,205798,1,8,0:0:0:0:
160,32,205877,1,0,0:0:0:0:
160,32,205956,1,0,0:0:0:0:
160,32,206114,1,8,0:0:0:0:
160,32,206271,1,0,0:0:0:0:
160,32,206429,1,8,0:0:0:0:
160,32,206587,1,0,0:0:0:0:
160,32,206666,1,0,0:0:0:0:
160,32,206745,1,8,0:0:0:0:
160,32,206903,1,8,0:0:0:0:
160,32,207061,1,0,0:0:0:0:
160,32,207219,1,8,0:0:0:0:
160,32,207377,1,0,0:0:0:0:
160,32,207535,1,8,0:0:0:0:
160,32,207693,1,0,0:0:0:0:
160,32,207850,1,8,0:0:0:0:
160,32,208008,1,0,0:0:0:0:
160,32,208087,1,8,0:0:0:0:
160,32,208166,1,0,0:0:0:0:
160,32,208324,1,8,0:0:0:0:
160,32,208482,1,8,0:0:0:0:
160,32,208640,1,0,0:0:0:0:
160,32,208719,1,0,0:0:0:0:
160,32,208798,1,8,0:0:0:0:
160,32,208956,1,8,0:0:0:0:
160,32,209114,5,0,0:0:0:0:
160,32,209193,1,0,0:0:0:0:
160,32,209271,1,8,0:0:0:0:
160,32,209350,1,8,0:0:0:0:
160,32,209429,1,0,0:0:0:0:
160,32,209508,1,0,0:0:0:0:
160,32,209587,1,8,0:0:0:0:
160,32,209666,1,8,0:0:0:0:
160,32,209745,1,0,0:0:0:0:
160,32,209824,1,0,0:0:0:0:
160,32,209903,1,8,0:0:0:0:
160,32,209982,1,8,0:0:0:0:
160,32,210061,1,8,0:0:0:0:
160,32,210140,1,8,0:0:0:0:
160,32,210219,1,8,0:0:0:0:
160,32,210271,1,8,0:0:0:0:
160,32,210324,1,8,0:0:0:0:
160,32,210377,5,8,0:0:0:0:
160,32,210535,1,8,0:0:0:0:
160,32,210693,1,0,0:0:0:0:
160,32,210850,1,8,0:0:0:0:
160,32,210929,1,0,0:0:0:0:
160,32,211008,1,0,0:0:0:0:
160,32,211166,1,8,0:0:0:0:
160,32,211324,1,0,0:0:0:0:
160,32,211482,1,8,0:0:0:0:
160,32,211561,1,8,0:0:0:0:
160,32,211640,1,0,0:0:0:0:
160,32,211798,1,0,0:0:0:0:
160,32,211956,1,8,0:0:0:0:
160,32,212114,1,0,0:0:0:0:
160,32,212271,1,8,0:0:0:0:
160,32,212429,1,8,0:0:0:0:
160,32,212587,1,0,0:0:0:0:
160,32,212745,1,8,0:0:0:0:
160,32,212903,1,0,0:0:0:0:
160,32,212982,1,0,0:0:0:0:
160,32,213061,1,8,0:0:0:0:
160,32,213219,1,0,0:0:0:0:
160,32,213377,1,8,0:0:0:0:
160,32,213535,1,8,0:0:0:0:
160,32,213614,1,0,0:0:0:0:
160,32,213693,1,0,0:0:0:0:
160,32,213850,1,8,0:0:0:0:
160,32,214008,1,0,0:0:0:0:
160,32,214166,1,0,0:0:0:0:
160,32,214324,1,0,0:0:0:0:
160,32,214482,1,8,0:0:0:0:
160,32,214640,1,0,0:0:0:0:
160,32,214798,1,8,0:0:0:0:
160,32,214956,1,0,0:0:0:0:
160,32,215035,1,8,0:0:0:0:
160,32,215114,1,8,0:0:0:0:
160,32,215271,1,0,0:0:0:0:
160,32,215350,1,8,0:0:0:0:
160,32,215429,1,8,0:0:0:0:
160,32,215587,1,0,0:0:0:0:
160,32,215745,1,8,0:0:0:0:
160,32,215903,1,8,0:0:0:0:
160,32,215982,1,8,0:0:0:0:
160,32,216061,1,0,0:0:0:0:
160,32,216219,1,8,0:0:0:0:
160,32,216377,1,0,0:0:0:0:
160,32,216535,1,8,0:0:0:0:
160,32,216693,1,0,0:0:0:0:
160,32,216771,1,0,0:0:0:0:
160,32,216850,1,8,0:0:0:0:
160,32,217008,1,0,0:0:0:0:
160,32,217166,1,8,0:0:0:0:
160,32,217324,1,0,0:0:0:0:
160,32,217482,1,0,0:0:0:0:
160,32,217640,1,8,0:0:0:0:
160,32,217798,1,8,0:0:0:0:
160,32,217956,1,0,0:0:0:0:
160,32,218035,1,0,0:0:0:0:
160,32,218114,1,0,0:0:0:0:
160,32,218271,1,8,0:0:0:0:
160,32,218429,1,8,0:0:0:0:
160,32,218587,1,0,0:0:0:0:
160,32,218666,1,0,0:0:0:0:
160,32,218745,1,0,0:0:0:0:
160,32,218903,1,8,0:0:0:0:
160,32,219061,1,8,0:0:0:0:
160,32,219219,1,4,0:0:0:0:
160,32,219535,1,12,0:0:0:0:
160,32,219850,1,12,0:0:0:0:
160,32,220166,1,8,0:0:0:0:
160,32,220324,1,8,0:0:0:0:
160,32,220403,1,0,0:0:0:0:
160,32,220482,1,0,0:0:0:0:
160,32,220640,1,8,0:0:0:0:
160,32,220798,1,0,0:0:0:0:
160,32,220956,1,8,0:0:0:0:
160,32,221035,1,8,0:0:0:0:
160,32,221114,1,0,0:0:0:0:
160,32,221271,1,8,0:0:0:0:
160,32,221429,1,0,0:0:0:0:
160,32,221587,1,8,0:0:0:0:
160,32,221666,1,8,0:0:0:0:
160,32,221745,1,0,0:0:0:0:
160,32,221903,1,0,0:0:0:0:
160,32,222061,1,8,0:0:0:0:
160,32,222219,1,0,0:0:0:0:
160,32,222377,1,0,0:0:0:0:
160,32,222456,1,8,0:0:0:0:
160,32,222535,1,8,0:0:0:0:
160,32,222693,1,0,0:0:0:0:
160,32,222771,1,8,0:0:0:0:
160,32,222850,1,8,0:0:0:0:
160,32,223008,1,0,0:0:0:0:
160,32,223087,1,0,0:0:0:0:
160,32,223166,1,0,0:0:0:0:
160,32,223324,1,8,0:0:0:0:
160,32,223482,1,8,0:0:0:0:
160,32,223640,1,0,0:0:0:0:
160,32,223719,1,0,0:0:0:0:
160,32,223798,1,0,0:0:0:0:
160,32,223956,1,8,0:0:0:0:
160,32,224114,1,8,0:0:0:0:
160,32,224271,1,0,0:0:0:0:
160,32,224429,1,0,0:0:0:0:
160,32,224587,1,8,0:0:0:0:
160,32,224745,1,0,0:0:0:0:
160,32,224903,1,8,0:0:0:0:
160,32,225061,1,0,0:0:0:0:
160,32,225219,1,8,0:0:0:0:
160,32,225377,5,0,0:0:0:0:
160,32,225456,1,0,0:0:0:0:
160,32,225535,1,0,0:0:0:0:
160,32,225587,1,0,0:0:0:0:
160,32,225640,1,0,0:0:0:0:
160,32,225693,1,0,0:0:0:0:
160,32,225745,1,0,0:0:0:0:
160,32,225798,1,0,0:0:0:0:
160,32,225850,1,0,0:0:0:0:
160,32,225929,1,0,0:0:0:0:
160,32,226008,1,0,0:0:0:0:
160,32,226087,1,0,0:0:0:0:
160,32,226166,1,0,0:0:0:0:
160,32,226245,1,8,0:0:0:0:
160,32,226324,1,8,0:0:0:0:
160,32,226403,1,0,0:0:0:0:
160,32,226482,1,0,0:0:0:0:
160,32,226561,1,8,0:0:0:0:
160,32,226640,1,8,0:0:0:0:
160,32,226719,1,0,0:0:0:0:
160,32,226798,1,0,0:0:0:0:
160,32,226850,1,0,0:0:0:0:
160,32,226903,1,0,0:0:0:0:
160,32,226956,1,0,0:0:0:0:
160,32,227035,1,0,0:0:0:0:
160,32,227114,1,0,0:0:0:0:
160,32,227193,1,0,0:0:0:0:
160,32,227271,1,0,0:0:0:0:
160,32,227350,1,0,0:0:0:0:
160,32,227429,1,0,0:0:0:0:
160,32,227482,1,0,0:0:0:0:
160,32,227535,1,0,0:0:0:0:
160,32,227587,1,0,0:0:0:0:
160,32,227666,1,0,0:0:0:0:
160,32,227745,1,8,0:0:0:0:
160,32,227824,1,8,0:0:0:0:
160,32,227903,1,8,0:0:0:0:
160,32,227982,1,0,0:0:0:0:
160,32,228061,1,0,0:0:0:0:
160,32,228219,1,0,0:0:0:0:
160,32,228377,1,0,0:0:0:0:
160,32,228456,1,0,0:0:0:0:
160,32,228535,1,0,0:0:0:0:
160,32,228587,1,0,0:0:0:0:
160,32,228640,1,0,0:0:0:0:
160,32,228693,1,0,0:0:0:0:
160,32,228850,1,8,0:0:0:0:
160,32,229008,1,8,0:0:0:0:
160,32,229087,1,8,0:0:0:0:
160,32,229166,1,8,0:0:0:0:
160,32,229219,1,8,0:0:0:0:
160,32,229271,1,8,0:0:0:0:
160,32,229324,1,8,0:0:0:0:
160,32,229377,1,8,0:0:0:0:
160,32,229429,1,8,0:0:0:0:
160,32,229482,1,8,0:0:0:0:
160,32,229535,1,8,0:0:0:0:
160,32,229587,1,8,0:0:0:0:
160,32,229640,1,8,0:0:0:0:
160,32,229693,1,8,0:0:0:0:
160,32,229745,1,8,0:0:0:0:
160,32,229798,1,8,0:0:0:0:
160,32,229850,1,8,0:0:0:0:
160,32,229903,1,8,0:0:0:0:
160,32,229956,1,8,0:0:0:0:
160,32,230008,1,8,0:0:0:0:
160,32,230061,1,8,0:0:0:0:
160,32,230114,1,8,0:0:0:0:
160,32,230166,1,8,0:0:0:0:
160,32,230219,1,8,0:0:0:0:
160,32,230271,1,8,0:0:0:0:
160,32,230324,1,8,0:0:0:0:
160,32,230377,1,8,0:0:0:0:
160,32,230429,1,8,0:0:0:0:
160,32,230482,1,8,0:0:0:0:
160,32,230535,1,8,0:0:0:0:
160,32,230587,1,0,0:0:0:0:
