osu file format v14

[General]
AudioFilename: Koishi Circulation.mp3
AudioLeadIn: 0
PreviewTime: 79956
Countdown: 0
SampleSet: Normal
StackLeniency: 0.7
Mode: 1
LetterboxInBreaks: 0
WidescreenStoryboard: 0

[Editor]
DistanceSpacing: 0.9
BeatDivisor: 4
GridSize: 4
TimelineZoom: 1

[Metadata]
Title:Koishi Circulation
TitleUnicode:Koishi Circulation
Artist:Shissou arrange
ArtistUnicode:疾走アレンジ
Creator:[Izayoi Sakura]
Version:Oni
Source:東方地霊殿 ~ Subterranean Animism.
Tags:東方地霊殿 ~ Subterranean Animism. 東方Project zun Touhou Chireiden Th11 Komeji Koishi 古明地恋 Arctic C88 ハルトマンの妖怪少女 さわわ Hartmann's Youkai Girl 上海アリス幻樂団 Team Shanghai Alice video game sawawa
BeatmapID:823657
BeatmapSetID:210985

[Difficulty]
HPDrainRate:6
CircleSize:5
OverallDifficulty:4
ApproachRate:6
SliderMultiplier:1.4
SliderTickRate:2

[Events]
//Background and Video events
0,0,"BG.jpg",0,0
//Break Periods
//Storyboard Layer 0 (Background)
//Storyboard Layer 1 (Fail)
//Storyboard Layer 2 (Pass)
//Storyboard Layer 3 (Foreground)
//Storyboard Layer 4 (Overlay)
//Storyboard Sound Samples

[TimingPoints]
693,315.789473684211,4,1,0,100,1,0
49798,-95.2380952380952,4,1,0,100,0,0
55482,-100,4,1,0,100,0,0
79956,-100,4,1,0,100,0,1
120693,-100,4,1,0,100,0,0
190008,-100,4,1,0,100,0,1
230114,-100,4,1,0,100,0,0
230429,-66.6666666666667,4,1,0,100,0,0
230745,-100,4,1,0,100,0,0

[HitObjects]
256,192,693,12,0,1640,0:0:0:0:
256,192,1956,5,4,0:0:0:0:
256,192,2271,1,8,0:0:0:0:
256,192,2429,1,4,0:0:0:0:
256,192,2666,1,0,0:0:0:0:
256,192,2903,1,8,0:0:0:0:
256,192,3061,1,4,0:0:0:0:
256,192,3535,1,4,0:0:0:0:
256,192,3850,1,8,0:0:0:0:
256,192,4008,1,8,0:0:0:0:
256,192,4166,1,4,0:0:0:0:
256,192,4640,1,4,0:0:0:0:
256,192,4877,1,8,0:0:0:0:
256,192,5114,1,8,0:0:0:0:
256,192,5271,1,4,0:0:0:0:
256,192,5587,1,0,0:0:0:0:
256,192,5745,1,4,0:0:0:0:
256,192,5903,1,8,0:0:0:0:
256,192,6061,1,0,0:0:0:0:
256,192,6219,1,8,0:0:0:0:
256,192,6298,1,8,0:0:0:0:
256,192,6377,1,0,0:0:0:0:
256,192,6535,1,0,0:0:0:0:
256,192,6693,1,8,0:0:0:0:
256,192,6850,1,4,0:0:0:0:
256,192,7087,1,0,0:0:0:0:
256,192,7324,1,8,0:0:0:0:
256,192,7482,1,4,0:0:0:0:
256,192,7640,1,8,0:0:0:0:
256,192,7798,1,8,0:0:0:0:
256,192,7956,1,4,0:0:0:0:
256,192,8271,1,4,0:0:0:0:
256,192,8587,1,4,0:0:0:0:
256,192,8745,1,0,0:0:0:0:
256,192,8903,1,8,0:0:0:0:
256,192,9061,1,4,0:0:0:0:
256,192,9298,1,0,0:0:0:0:
256,192,9535,1,8,0:0:0:0:
256,192,9693,1,4,0:0:0:0:
256,192,10166,1,4,0:0:0:0:
256,192,10482,1,8,0:0:0:0:
256,192,10798,1,4,0:0:0:0:
256,192,11271,1,4,0:0:0:0:
256,192,11508,1,0,0:0:0:0:
256,192,11745,1,8,0:0:0:0:
256,192,11903,1,4,0:0:0:0:
256,192,12061,1,8,0:0:0:0:
256,192,12219,1,8,0:0:0:0:
256,192,12377,1,4,0:0:0:0:
256,192,12535,1,0,0:0:0:0:
256,192,12693,1,8,0:0:0:0:
256,192,12850,1,8,0:0:0:0:
256,192,13008,1,4,0:0:0:0:
256,192,13324,1,0,0:0:0:0:
256,192,13482,1,4,0:0:0:0:
256,192,13719,1,0,0:0:0:0:
256,192,13956,1,8,0:0:0:0:
256,192,14114,1,4,0:0:0:0:
256,192,14429,1,8,0:0:0:0:
256,192,14587,1,4,0:0:0:0:
256,192,14903,1,0,0:0:0:0:
256,192,15061,1,8,0:0:0:0:
256,192,15140,1,8,0:0:0:0:
256,192,15219,1,0,0:0:0:0:
256,192,15377,1,8,0:0:0:0:
256,192,15535,1,8,0:0:0:0:
256,192,15693,1,4,0:0:0:0:
256,192,15929,1,8,0:0:0:0:
256,192,16166,1,0,0:0:0:0:
256,192,16324,1,4,0:0:0:0:
256,192,16482,1,8,0:0:0:0:
256,192,16640,1,8,0:0:0:0:
256,192,16798,1,4,0:0:0:0:
256,192,17114,1,4,0:0:0:0:
256,192,17429,1,4,0:0:0:0:
256,192,17587,1,8,0:0:0:0:
256,192,17745,1,8,0:0:0:0:
256,192,17903,1,4,0:0:0:0:
256,192,18140,1,8,0:0:0:0:
256,192,18377,1,0,0:0:0:0:
256,192,18535,1,8,0:0:0:0:
256,192,18693,1,8,0:0:0:0:
256,192,18850,1,8,0:0:0:0:
256,192,19008,1,4,0:0:0:0:
256,192,19166,1,8,0:0:0:0:
256,192,19245,1,8,0:0:0:0:
256,192,19324,1,0,0:0:0:0:
256,192,19403,1,8,0:0:0:0:
256,192,19482,1,8,0:0:0:0:
256,196,19640,1,0,0:0:0:0:
256,192,19798,1,0,0:0:0:0:
256,192,19956,1,8,0:0:0:0:
256,192,20114,1,8,0:0:0:0:
256,192,20271,1,0,0:0:0:0:
256,192,20429,1,0,0:0:0:0:
256,192,20508,1,0,0:0:0:0:
256,192,20587,1,8,0:0:0:0:
256,192,20745,1,0,0:0:0:0:
256,192,20903,1,8,0:0:0:0:
256,192,20982,1,0,0:0:0:0:
256,192,21061,1,0,0:0:0:0:
256,192,21219,1,8,0:0:0:0:
256,192,21377,1,0,0:0:0:0:
256,192,21456,1,0,0:0:0:0:
256,192,21535,1,8,0:0:0:0:
256,192,21693,1,0,0:0:0:0:
256,192,21850,1,8,0:0:0:0:
256,192,22008,1,0,0:0:0:0:
256,196,22166,1,0,0:0:0:0:
256,192,22324,1,0,0:0:0:0:
256,192,22482,1,8,0:0:0:0:
256,192,22640,1,0,0:0:0:0:
256,192,22798,1,8,0:0:0:0:
260,196,22877,1,0,0:0:0:0:
260,196,23035,1,0,0:0:0:0:
260,196,23114,1,8,0:0:0:0:
256,192,23271,1,0,0:0:0:0:
256,192,23429,1,0,0:0:0:0:
256,192,23587,1,0,0:0:0:0:
256,192,23666,1,0,0:0:0:0:
260,192,23745,1,8,0:0:0:0:
256,192,23903,1,0,0:0:0:0:
256,192,24061,1,0,0:0:0:0:
256,192,24219,1,8,0:0:0:0:
256,192,24377,1,0,0:0:0:0:
256,192,24535,1,8,0:0:0:0:
256,192,24693,1,0,0:0:0:0:
256,192,24771,1,0,0:0:0:0:
256,192,24850,1,0,0:0:0:0:
256,192,25008,1,8,0:0:0:0:
256,196,25166,1,0,0:0:0:0:
256,192,25324,1,8,0:0:0:0:
256,192,25403,1,8,0:0:0:0:
256,192,25482,1,0,0:0:0:0:
256,192,25561,1,0,0:0:0:0:
256,192,25640,1,8,0:0:0:0:
256,192,25798,1,0,0:0:0:0:
256,192,25956,1,0,0:0:0:0:
256,192,26035,1,8,0:0:0:0:
256,192,26114,1,0,0:0:0:0:
256,192,26271,1,8,0:0:0:0:
256,192,26429,1,8,0:0:0:0:
256,192,26587,1,0,0:0:0:0:
256,192,26666,1,8,0:0:0:0:
256,192,26745,1,8,0:0:0:0:
256,192,26903,1,8,0:0:0:0:
256,192,26982,1,0,0:0:0:0:
256,192,27061,1,8,0:0:0:0:
256,192,27140,1,0,0:0:0:0:
256,192,27219,1,0,0:0:0:0:
256,192,27377,1,0,0:0:0:0:
256,192,27535,1,8,0:0:0:0:
256,192,27614,1,0,0:0:0:0:
256,192,27693,1,8,0:0:0:0:
256,192,27850,1,0,0:0:0:0:
256,192,28008,1,0,0:0:0:0:
256,192,28166,1,8,0:0:0:0:
256,192,28245,1,0,0:0:0:0:
256,192,28324,1,0,0:0:0:0:
256,192,28482,1,8,0:0:0:0:
256,192,28561,1,0,0:0:0:0:
256,192,28719,1,0,0:0:0:0:
256,192,28798,1,8,0:0:0:0:
256,192,28956,1,0,0:0:0:0:
256,192,29114,1,8,0:0:0:0:
256,192,29271,1,0,0:0:0:0:
256,192,29429,1,12,0:0:0:0:
256,192,29745,1,0,0:0:0:0:
256,192,29903,1,8,0:0:0:0:
256,192,30061,1,0,0:0:0:0:
256,192,30219,1,0,0:0:0:0:
256,192,30377,1,8,0:0:0:0:
256,192,30535,1,0,0:0:0:0:
256,192,30693,1,8,0:0:0:0:
256,192,30771,1,8,0:0:0:0:
256,192,30850,1,0,0:0:0:0:
256,192,31008,1,0,0:0:0:0:
256,192,31087,1,0,0:0:0:0:
256,192,31245,1,0,0:0:0:0:
256,192,31324,1,8,0:0:0:0:
256,192,31482,1,0,0:0:0:0:
256,192,31640,1,0,0:0:0:0:
256,192,31798,1,8,0:0:0:0:
256,192,31877,1,0,0:0:0:0:
256,192,31956,1,8,0:0:0:0:
256,192,32114,1,0,0:0:0:0:
256,192,32271,1,0,0:0:0:0:
256,192,32429,1,8,0:0:0:0:
256,192,32587,1,0,0:0:0:0:
256,192,32745,1,0,0:0:0:0:
256,192,32903,1,8,0:0:0:0:
256,192,32982,1,8,0:0:0:0:
256,192,33061,1,0,0:0:0:0:
256,192,33140,1,0,0:0:0:0:
256,192,33219,1,8,0:0:0:0:
256,192,33377,1,0,0:0:0:0:
256,192,33535,1,0,0:0:0:0:
256,192,33614,1,8,0:0:0:0:
256,192,33693,1,0,0:0:0:0:
256,192,33850,1,8,0:0:0:0:
256,192,34008,1,0,0:0:0:0:
256,192,34166,1,8,0:0:0:0:
256,192,34245,1,8,0:0:0:0:
256,192,34324,1,0,0:0:0:0:
256,192,34482,1,0,0:0:0:0:
256,192,34640,1,0,0:0:0:0:
256,192,34798,1,8,0:0:0:0:
256,192,34956,1,0,0:0:0:0:
256,192,35114,1,8,0:0:0:0:
256,192,35271,1,0,0:0:0:0:
256,192,35350,1,0,0:0:0:0:
256,192,35429,1,8,0:0:0:0:
256,192,35508,1,0,0:0:0:0:
256,192,35666,1,0,0:0:0:0:
256,192,35745,1,8,0:0:0:0:
256,192,35824,1,0,0:0:0:0:
256,192,35903,1,0,0:0:0:0:
256,192,36061,1,0,0:0:0:0:
256,192,36140,1,0,0:0:0:0:
256,192,36219,1,8,0:0:0:0:
256,192,36377,1,0,0:0:0:0:
256,192,36535,1,8,0:0:0:0:
256,192,36693,1,0,0:0:0:0:
256,192,36850,1,8,0:0:0:0:
256,192,37008,1,0,0:0:0:0:
256,192,37166,1,8,0:0:0:0:
256,192,37324,1,8,0:0:0:0:
256,192,37482,1,0,0:0:0:0:
256,192,37640,1,8,0:0:0:0:
256,192,37719,1,0,0:0:0:0:
256,192,37798,1,0,0:0:0:0:
256,192,37956,1,8,0:0:0:0:
256,192,38035,1,0,0:0:0:0:
256,192,38193,1,0,0:0:0:0:
256,192,38271,1,8,0:0:0:0:
256,192,38429,1,0,0:0:0:0:
256,192,38587,1,8,0:0:0:0:
256,192,38745,1,0,0:0:0:0:
256,192,38903,1,8,0:0:0:0:
256,192,39061,1,4,0:0:0:0:
256,192,39377,1,8,0:0:0:0:
256,192,39535,1,4,0:0:0:0:
256,192,39850,1,0,0:0:0:0:
256,192,39929,1,0,0:0:0:0:
256,192,40008,1,0,0:0:0:0:
256,192,40166,1,8,0:0:0:0:
256,192,40324,1,0,0:0:0:0:
256,192,40482,1,8,0:0:0:0:
256,192,40640,1,0,0:0:0:0:
256,192,40798,1,8,0:0:0:0:
256,192,41114,1,8,0:0:0:0:
256,192,41193,1,8,0:0:0:0:
256,192,41271,1,0,0:0:0:0:
256,192,41429,1,8,0:0:0:0:
256,192,41587,1,0,0:0:0:0:
256,192,41745,1,0,0:0:0:0:
256,192,41903,1,8,0:0:0:0:
256,192,42061,1,8,0:0:0:0:
256,192,42377,1,8,0:0:0:0:
256,192,42535,1,0,0:0:0:0:
256,192,42614,1,0,0:0:0:0:
256,192,42693,1,8,0:0:0:0:
256,192,42850,1,0,0:0:0:0:
256,192,43008,1,0,0:0:0:0:
256,192,43166,1,0,0:0:0:0:
256,192,43324,1,8,0:0:0:0:
256,192,43640,1,0,0:0:0:0:
256,192,43798,1,0,0:0:0:0:
256,192,43956,1,8,0:0:0:0:
256,192,44114,1,0,0:0:0:0:
256,192,44271,1,0,0:0:0:0:
256,192,44350,1,0,0:0:0:0:
256,192,44429,1,8,0:0:0:0:
256,192,44666,1,0,0:0:0:0:
256,192,44745,1,8,0:0:0:0:
256,192,44903,1,0,0:0:0:0:
256,192,45061,1,0,0:0:0:0:
256,192,45140,1,0,0:0:0:0:
256,192,45219,1,8,0:0:0:0:
256,192,45377,1,0,0:0:0:0:
256,192,45535,1,0,0:0:0:0:
256,192,45693,1,8,0:0:0:0:
256,192,45771,1,0,0:0:0:0:
256,192,45850,1,8,0:0:0:0:
256,192,46008,1,0,0:0:0:0:
256,192,46166,1,0,0:0:0:0:
256,192,46245,1,0,0:0:0:0:
256,192,46324,1,0,0:0:0:0:
256,192,46482,1,8,0:0:0:0:
256,192,46640,1,0,0:0:0:0:
256,192,46798,1,8,0:0:0:0:
256,192,46877,1,0,0:0:0:0:
256,192,46956,1,0,0:0:0:0:
256,192,47035,1,0,0:0:0:0:
256,192,47114,1,8,0:0:0:0:
256,192,47271,1,0,0:0:0:0:
256,192,47429,1,0,0:0:0:0:
256,192,47587,1,8,0:0:0:0:
256,192,47666,1,0,0:0:0:0:
256,192,47745,1,8,0:0:0:0:
256,192,47903,1,0,0:0:0:0:
256,192,48061,1,0,0:0:0:0:
256,192,48219,1,8,0:0:0:0:
256,192,48298,1,8,0:0:0:0:
256,192,48377,1,8,0:0:0:0:
256,192,48535,1,0,0:0:0:0:
256,192,48693,1,8,0:0:0:0:
256,192,48771,1,0,0:0:0:0:
256,192,48849,1,0,0:0:0:0:
256,192,49008,1,8,0:0:0:0:
256,192,49166,1,0,0:0:0:0:
256,192,49324,1,0,0:0:0:0:
256,192,49482,1,8,0:0:0:0:
256,192,49640,1,12,0:0:0:0:
256,192,49956,1,0,0:0:0:0:
256,192,50114,1,0,0:0:0:0:
256,192,50271,1,8,0:0:0:0:
256,192,50429,1,0,0:0:0:0:
256,192,50587,1,8,0:0:0:0:
256,192,50745,1,0,0:0:0:0:
256,192,50903,1,8,0:0:0:0:
256,192,51061,1,0,0:0:0:0:
256,192,51219,1,8,0:0:0:0:
256,192,51377,1,0,0:0:0:0:
256,192,51535,1,8,0:0:0:0:
256,192,51693,1,0,0:0:0:0:
256,192,51850,1,0,0:0:0:0:
256,192,52008,1,0,0:0:0:0:
256,192,52166,1,8,0:0:0:0:
256,192,52324,1,0,0:0:0:0:
256,192,52482,1,0,0:0:0:0:
256,192,52640,1,8,0:0:0:0:
256,192,52798,1,8,0:0:0:0:
256,192,52956,1,0,0:0:0:0:
256,192,53114,1,8,0:0:0:0:
256,192,53271,1,0,0:0:0:0:
256,192,53429,1,8,0:0:0:0:
256,192,53587,1,0,0:0:0:0:
256,192,53745,1,8,0:0:0:0:
256,192,53903,1,8,0:0:0:0:
256,192,53982,1,0,0:0:0:0:
256,192,54061,1,8,0:0:0:0:
256,192,54219,1,0,0:0:0:0:
256,192,54377,1,8,0:0:0:0:
256,192,54535,1,0,0:0:0:0:
256,192,54693,1,8,0:0:0:0:
256,192,55008,1,0,0:0:0:0:
256,192,55166,1,0,0:0:0:0:
256,192,55324,1,8,0:0:0:0:
256,192,55640,1,0,0:0:0:0:
256,192,55798,1,8,0:0:0:0:
256,192,55956,1,0,0:0:0:0:
256,192,56114,1,8,0:0:0:0:
256,192,56271,1,0,0:0:0:0:
256,192,56429,1,0,0:0:0:0:
256,192,56587,1,8,0:0:0:0:
256,192,56745,1,0,0:0:0:0:
256,192,56903,1,0,0:0:0:0:
256,192,57061,1,8,0:0:0:0:
256,192,57219,1,0,0:0:0:0:
256,192,57377,1,8,0:0:0:0:
256,192,57535,1,0,0:0:0:0:
256,192,57693,1,0,0:0:0:0:
256,192,57850,1,8,0:0:0:0:
256,192,58008,1,0,0:0:0:0:
256,192,58166,1,0,0:0:0:0:
256,192,58324,1,8,0:0:0:0:
256,192,58482,1,0,0:0:0:0:
256,192,58640,1,8,0:0:0:0:
256,192,58798,1,0,0:0:0:0:
256,192,58956,1,8,0:0:0:0:
256,192,59008,1,8,0:0:0:0:
256,192,59061,1,8,0:0:0:0:
256,192,59114,1,8,0:0:0:0:
256,192,59271,1,8,0:0:0:0:
256,192,59429,1,0,0:0:0:0:
256,192,59587,1,0,0:0:0:0:
260,196,59745,1,8,0:0:0:0:
260,196,60061,1,4,0:0:0:0:
256,192,60219,1,0,0:0:0:0:
260,196,60377,1,8,0:0:0:0:
256,192,60535,1,0,0:0:0:0:
260,196,60693,1,0,0:0:0:0:
256,192,60850,1,0,0:0:0:0:
260,196,61008,1,8,0:0:0:0:
256,192,61166,1,0,0:0:0:0:
260,196,61324,1,0,0:0:0:0:
260,196,61640,1,8,0:0:0:0:
260,196,61956,1,0,0:0:0:0:
260,196,62271,1,8,0:0:0:0:
260,196,62587,1,0,0:0:0:0:
260,196,62745,1,0,0:0:0:0:
260,196,62903,1,8,0:0:0:0:
260,196,63061,1,0,0:0:0:0:
260,196,63219,1,0,0:0:0:0:
260,196,63377,1,0,0:0:0:0:
260,196,63535,1,8,0:0:0:0:
260,196,63693,1,0,0:0:0:0:
260,196,63850,1,0,0:0:0:0:
260,196,64166,1,0,0:0:0:0:
260,196,64482,1,8,0:0:0:0:
260,196,64956,1,0,0:0:0:0:
260,196,65035,1,0,0:0:0:0:
260,196,65114,1,8,0:0:0:0:
260,196,65271,1,0,0:0:0:0:
260,196,65429,1,8,0:0:0:0:
260,196,65587,1,0,0:0:0:0:
260,196,65745,1,0,0:0:0:0:
260,196,65903,1,0,0:0:0:0:
260,196,66061,1,8,0:0:0:0:
260,196,66219,1,8,0:0:0:0:
260,196,66377,1,0,0:0:0:0:
260,196,66535,1,0,0:0:0:0:
260,196,66693,1,8,0:0:0:0:
260,196,66850,1,0,0:0:0:0:
260,196,67008,1,0,0:0:0:0:
260,196,67324,1,8,0:0:0:0:
260,196,67640,1,0,0:0:0:0:
260,196,67798,1,0,0:0:0:0:
260,196,67956,1,8,0:0:0:0:
260,196,68114,1,8,0:0:0:0:
260,196,68271,1,0,0:0:0:0:
260,196,68429,1,0,0:0:0:0:
260,196,68587,1,8,0:0:0:0:
260,196,68745,1,8,0:0:0:0:
260,196,68903,1,0,0:0:0:0:
260,196,69061,1,0,0:0:0:0:
260,196,69219,1,8,0:0:0:0:
260,196,69377,1,0,0:0:0:0:
260,196,69535,1,8,0:0:0:0:
260,196,69850,1,0,0:0:0:0:
256,192,70166,1,12,0:0:0:0:
256,196,70324,1,0,0:0:0:0:
256,192,70482,1,8,0:0:0:0:
256,192,70640,1,0,0:0:0:0:
256,192,70798,1,0,0:0:0:0:
256,192,70956,1,0,0:0:0:0:
256,192,71114,1,8,0:0:0:0:
256,192,71271,1,8,0:0:0:0:
256,192,71350,1,8,0:0:0:0:
256,192,71429,1,0,0:0:0:0:
256,192,71745,1,8,0:0:0:0:
256,192,72061,1,0,0:0:0:0:
256,192,72377,1,8,0:0:0:0:
256,192,72693,1,0,0:0:0:0:
256,192,72850,1,0,0:0:0:0:
256,192,73008,1,8,0:0:0:0:
256,192,73166,1,0,0:0:0:0:
256,192,73324,1,0,0:0:0:0:
256,192,73482,1,0,0:0:0:0:
256,192,73640,1,8,0:0:0:0:
260,196,73798,1,0,0:0:0:0:
256,192,73956,1,0,0:0:0:0:
256,192,74271,1,8,0:0:0:0:
256,192,74587,1,8,0:0:0:0:
256,192,74903,1,4,0:0:0:0:
256,192,75061,1,0,0:0:0:0:
256,192,75140,1,0,0:0:0:0:
256,192,75219,1,8,0:0:0:0:
256,192,75377,1,0,0:0:0:0:
256,192,75535,1,0,0:0:0:0:
256,192,75614,1,0,0:0:0:0:
260,196,75693,1,8,0:0:0:0:
256,192,75850,1,0,0:0:0:0:
260,196,76008,1,8,0:0:0:0:
260,196,76087,1,8,0:0:0:0:
256,192,76166,1,0,0:0:0:0:
260,196,76324,1,8,0:0:0:0:
256,192,76403,1,0,0:0:0:0:
260,196,76561,1,0,0:0:0:0:
260,196,76640,1,8,0:0:0:0:
260,196,76719,1,0,0:0:0:0:
256,192,76798,1,0,0:0:0:0:
260,196,76956,1,8,0:0:0:0:
256,192,77114,1,4,0:0:0:0:
256,192,77429,1,4,0:0:0:0:
256,192,77745,1,0,0:0:0:0:
256,192,77903,1,0,0:0:0:0:
256,192,78061,1,8,0:0:0:0:
256,192,78219,1,8,0:0:0:0:
256,192,78377,1,0,0:0:0:0:
256,192,78535,1,0,0:0:0:0:
256,192,78693,1,8,0:0:0:0:
256,192,78850,1,0,0:0:0:0:
256,192,79008,1,0,0:0:0:0:
256,192,79087,1,0,0:0:0:0:
256,192,79166,1,0,0:0:0:0:
256,192,79245,1,0,0:0:0:0:
256,192,79324,1,8,0:0:0:0:
256,192,79403,1,0,0:0:0:0:
256,192,79482,1,8,0:0:0:0:
256,192,79561,1,0,0:0:0:0:
256,192,79640,1,8,0:0:0:0:
256,192,79798,1,0,0:0:0:0:
256,192,79877,1,0,0:0:0:0:
256,192,79956,1,0,0:0:0:0:
256,192,80114,1,0,0:0:0:0:
256,192,80193,1,8,0:0:0:0:
256,192,80271,1,8,0:0:0:0:
256,192,80429,1,0,0:0:0:0:
256,192,80587,1,8,0:0:0:0:
256,192,80745,1,0,0:0:0:0:
256,192,80903,1,8,0:0:0:0:
256,192,80982,1,0,0:0:0:0:
256,192,81061,1,0,0:0:0:0:
256,192,81219,1,8,0:0:0:0:
256,192,81298,1,8,0:0:0:0:
256,192,81377,1,0,0:0:0:0:
256,192,81535,1,4,0:0:0:0:
256,192,81850,1,12,0:0:0:0:
256,192,82166,1,4,0:0:0:0:
256,192,82482,1,12,0:0:0:0:
256,192,82798,1,0,0:0:0:0:
256,192,82877,1,0,0:0:0:0:
256,192,82956,1,8,0:0:0:0:
256,192,83114,1,8,0:0:0:0:
256,192,83271,1,0,0:0:0:0:
256,192,83350,1,0,0:0:0:0:
256,192,83429,1,8,0:0:0:0:
256,192,83508,1,0,0:0:0:0:
256,192,83587,1,0,0:0:0:0:
256,192,83745,1,8,0:0:0:0:
256,192,83824,1,8,0:0:0:0:
256,192,83903,1,0,0:0:0:0:
256,192,84061,1,0,0:0:0:0:
256,192,84219,1,0,0:0:0:0:
256,192,84298,1,0,0:0:0:0:
256,192,84377,1,8,0:0:0:0:
256,192,84535,1,0,0:0:0:0:
256,192,84693,1,8,0:0:0:0:
256,192,85008,1,0,0:0:0:0:
256,192,85245,1,0,0:0:0:0:
256,192,85324,1,8,0:0:0:0:
256,192,85482,1,0,0:0:0:0:
256,192,85640,1,8,0:0:0:0:
256,192,85798,1,0,0:0:0:0:
256,192,85956,1,8,0:0:0:0:
256,192,86114,1,0,0:0:0:0:
256,192,86271,1,8,0:0:0:0:
256,192,86350,1,0,0:0:0:0:
256,192,86429,1,8,0:0:0:0:
256,192,86587,1,0,0:0:0:0:
256,192,86745,1,0,0:0:0:0:
256,192,86903,1,8,0:0:0:0:
256,192,86982,1,8,0:0:0:0:
256,192,87061,1,0,0:0:0:0:
256,192,87219,1,0,0:0:0:0:
256,192,87535,1,0,0:0:0:0:
256,192,87850,1,0,0:0:0:0:
256,192,87929,1,0,0:0:0:0:
256,192,88008,1,8,0:0:0:0:
256,192,88166,1,8,0:0:0:0:
256,192,88324,1,0,0:0:0:0:
256,192,88482,1,0,0:0:0:0:
256,192,88561,1,8,0:0:0:0:
256,192,88640,1,8,0:0:0:0:
256,192,88798,1,0,0:0:0:0:
256,192,88956,1,8,0:0:0:0:
256,192,89114,1,8,0:0:0:0:
256,192,89271,1,0,0:0:0:0:
256,192,89429,1,8,0:0:0:0:
256,192,89508,1,8,0:0:0:0:
256,192,89587,1,0,0:0:0:0:
256,192,89745,1,8,0:0:0:0:
256,192,90061,1,0,0:0:0:0:
256,192,90219,1,0,0:0:0:0:
256,192,90377,1,8,0:0:0:0:
256,192,90456,1,0,0:0:0:0:
256,192,90535,1,0,0:0:0:0:
256,192,90693,1,8,0:0:0:0:
256,192,90771,1,0,0:0:0:0:
256,192,90850,1,8,0:0:0:0:
256,192,91008,1,8,0:0:0:0:
256,192,91166,1,0,0:0:0:0:
256,192,91324,1,8,0:0:0:0:
256,192,91482,1,0,0:0:0:0:
256,192,91561,1,0,0:0:0:0:
256,192,91640,1,8,0:0:0:0:
256,192,91798,1,0,0:0:0:0:
256,192,91956,1,8,0:0:0:0:
256,192,92114,1,0,0:0:0:0:
256,192,92271,1,8,0:0:0:0:
256,192,92587,1,0,0:0:0:0:
256,192,92824,1,0,0:0:0:0:
256,192,92903,1,8,0:0:0:0:
256,192,93061,1,0,0:0:0:0:
256,192,93219,1,8,0:0:0:0:
256,192,93377,1,0,0:0:0:0:
256,192,93456,1,0,0:0:0:0:
256,192,93614,1,0,0:0:0:0:
256,192,93693,1,0,0:0:0:0:
256,192,93850,1,8,0:0:0:0:
256,192,94008,1,0,0:0:0:0:
256,192,94087,1,0,0:0:0:0:
256,192,94166,1,8,0:0:0:0:
256,192,94324,1,0,0:0:0:0:
256,192,94482,1,0,0:0:0:0:
256,192,94561,1,0,0:0:0:0:
256,192,94640,1,8,0:0:0:0:
256,192,94719,1,0,0:0:0:0:
256,192,94798,1,8,0:0:0:0:
256,192,95114,1,0,0:0:0:0:
256,192,95271,1,0,0:0:0:0:
256,192,95350,1,0,0:0:0:0:
256,192,95429,1,8,0:0:0:0:
256,192,95587,1,0,0:0:0:0:
256,192,95745,1,0,0:0:0:0:
256,192,95903,1,0,0:0:0:0:
256,192,96061,1,8,0:0:0:0:
256,192,96219,1,0,0:0:0:0:
256,192,96377,1,8,0:0:0:0:
256,192,96535,1,8,0:0:0:0:
256,192,96693,1,0,0:0:0:0:
256,192,96771,1,0,0:0:0:0:
256,192,96850,1,0,0:0:0:0:
256,192,97008,1,8,0:0:0:0:
256,192,97087,1,0,0:0:0:0:
256,192,97166,1,0,0:0:0:0:
256,192,97245,1,0,0:0:0:0:
256,192,97324,1,8,0:0:0:0:
256,192,97640,1,0,0:0:0:0:
256,192,97956,1,0,0:0:0:0:
256,192,98035,1,0,0:0:0:0:
256,192,98114,1,0,0:0:0:0:
256,192,98271,1,8,0:0:0:0:
256,192,98350,1,8,0:0:0:0:
256,192,98429,1,8,0:0:0:0:
256,192,98587,1,0,0:0:0:0:
256,192,98745,1,0,0:0:0:0:
256,192,98903,1,8,0:0:0:0:
256,192,99061,1,0,0:0:0:0:
256,192,99219,1,8,0:0:0:0:
256,192,99377,1,8,0:0:0:0:
256,192,99456,1,8,0:0:0:0:
256,192,99535,1,0,0:0:0:0:
256,192,99693,1,0,0:0:0:0:
256,192,99771,1,0,0:0:0:0:
256,192,99850,1,8,0:0:0:0:
256,192,100166,1,4,0:0:0:0:
256,192,100482,1,8,0:0:0:0:
256,192,100561,1,0,0:0:0:0:
256,192,100640,1,0,0:0:0:0:
256,192,100798,1,8,0:0:0:0:
256,192,100956,1,0,0:0:0:0:
256,192,101114,1,0,0:0:0:0:
256,192,101271,1,0,0:0:0:0:
256,192,101350,1,0,0:0:0:0:
256,192,101429,1,8,0:0:0:0:
256,192,101508,1,0,0:0:0:0:
256,192,101587,1,0,0:0:0:0:
256,192,101745,1,0,0:0:0:0:
256,192,101903,1,0,0:0:0:0:
256,192,102061,1,8,0:0:0:0:
256,192,102219,1,0,0:0:0:0:
256,192,102377,1,0,0:0:0:0:
256,192,102693,1,8,0:0:0:0:
256,192,102929,1,0,0:0:0:0:
256,192,103008,1,8,0:0:0:0:
256,192,103166,1,0,0:0:0:0:
256,192,103324,1,8,0:0:0:0:
256,192,103403,1,8,0:0:0:0:
256,192,103482,1,8,0:0:0:0:
256,192,103640,1,8,0:0:0:0:
256,192,103719,1,0,0:0:0:0:
256,192,103798,1,0,0:0:0:0:
256,192,103956,1,0,0:0:0:0:
256,192,104035,1,0,0:0:0:0:
256,192,104114,1,8,0:0:0:0:
256,192,104271,1,0,0:0:0:0:
256,192,104429,1,8,0:0:0:0:
256,192,104587,1,0,0:0:0:0:
256,192,104745,1,8,0:0:0:0:
256,192,104824,1,0,0:0:0:0:
256,192,104903,1,8,0:0:0:0:
256,192,105219,1,0,0:0:0:0:
256,192,105456,1,0,0:0:0:0:
256,192,105535,1,8,0:0:0:0:
256,192,105693,1,8,0:0:0:0:
256,192,105850,1,0,0:0:0:0:
256,192,106008,1,0,0:0:0:0:
256,192,106087,1,0,0:0:0:0:
256,192,106166,1,8,0:0:0:0:
256,192,106324,1,0,0:0:0:0:
256,192,106482,1,8,0:0:0:0:
256,192,106640,1,0,0:0:0:0:
256,192,106798,1,8,0:0:0:0:
256,192,106877,1,0,0:0:0:0:
256,192,106956,1,8,0:0:0:0:
256,192,107114,1,0,0:0:0:0:
256,192,107271,1,8,0:0:0:0:
256,192,107429,1,0,0:0:0:0:
256,192,107745,1,0,0:0:0:0:
256,192,108061,1,0,0:0:0:0:
256,192,108140,1,0,0:0:0:0:
256,192,108219,1,0,0:0:0:0:
256,192,108377,1,8,0:0:0:0:
256,192,108456,1,0,0:0:0:0:
256,192,108535,1,0,0:0:0:0:
256,192,108693,1,0,0:0:0:0:
256,192,108771,1,0,0:0:0:0:
256,192,108850,1,0,0:0:0:0:
256,192,109008,1,8,0:0:0:0:
256,192,109087,1,8,0:0:0:0:
256,192,109166,1,8,0:0:0:0:
256,192,109324,1,4,0:0:0:0:
256,192,109640,1,4,0:0:0:0:
256,192,109956,1,12,0:0:0:0:
256,192,110114,1,8,0:0:0:0:
256,192,110193,1,8,0:0:0:0:
256,192,110271,1,0,0:0:0:0:
256,192,110429,1,0,0:0:0:0:
256,192,110508,1,0,0:0:0:0:
256,192,110587,1,8,0:0:0:0:
256,192,110745,1,0,0:0:0:0:
256,192,110903,1,8,0:0:0:0:
256,192,111061,1,0,0:0:0:0:
256,192,111219,1,0,0:0:0:0:
256,192,111298,1,0,0:0:0:0:
256,192,111377,1,8,0:0:0:0:
256,192,111456,1,0,0:0:0:0:
256,192,111535,1,8,0:0:0:0:
256,192,111693,1,0,0:0:0:0:
256,192,111850,1,0,0:0:0:0:
256,192,111929,1,0,0:0:0:0:
256,192,112008,1,8,0:0:0:0:
256,192,112166,1,8,0:0:0:0:
256,192,112324,1,0,0:0:0:0:
256,192,112482,1,8,0:0:0:0:
256,192,112561,1,0,0:0:0:0:
256,192,112640,1,8,0:0:0:0:
256,192,112798,1,0,0:0:0:0:
256,192,113114,1,8,0:0:0:0:
256,192,113193,1,0,0:0:0:0:
256,192,113271,1,0,0:0:0:0:
256,192,113429,1,8,0:0:0:0:
256,192,113508,1,0,0:0:0:0:
256,192,113587,1,8,0:0:0:0:
256,192,113745,1,0,0:0:0:0:
256,192,113824,1,0,0:0:0:0:
256,192,113903,1,0,0:0:0:0:
256,192,114061,1,8,0:0:0:0:
256,192,114219,1,0,0:0:0:0:
256,192,114298,1,0,0:0:0:0:
256,192,114377,1,0,0:0:0:0:
256,192,114535,1,8,0:0:0:0:
256,192,114693,1,0,0:0:0:0:
256,192,114850,1,8,0:0:0:0:
256,192,114929,1,0,0:0:0:0:
256,192,115008,1,8,0:0:0:0:
256,192,115324,1,0,0:0:0:0:
256,192,115482,1,0,0:0:0:0:
256,192,115561,1,0,0:0:0:0:
256,192,115640,1,8,0:0:0:0:
256,192,115798,1,0,0:0:0:0:
256,192,115956,1,8,0:0:0:0:
256,192,116114,1,0,0:0:0:0:
256,192,116193,1,0,0:0:0:0:
256,192,116271,1,8,0:0:0:0:
256,192,116429,1,0,0:0:0:0:
256,192,116508,1,8,0:0:0:0:
256,192,116587,1,8,0:0:0:0:
256,192,116745,1,0,0:0:0:0:
256,192,116824,1,0,0:0:0:0:
256,192,116903,1,8,0:0:0:0:
256,192,117061,1,0,0:0:0:0:
256,192,117219,1,8,0:0:0:0:
256,192,117377,1,8,0:0:0:0:
256,192,117535,1,0,0:0:0:0:
256,192,117614,1,0,0:0:0:0:
256,192,117693,1,0,0:0:0:0:
256,192,117771,1,0,0:0:0:0:
256,192,117850,1,8,0:0:0:0:
256,192,118166,1,0,0:0:0:0:
256,192,118245,1,0,0:0:0:0:
256,192,118324,1,0,0:0:0:0:
256,192,118482,1,8,0:0:0:0:
256,192,118561,1,0,0:0:0:0:
256,192,118640,1,8,0:0:0:0:
256,192,118798,1,0,0:0:0:0:
256,192,118956,1,0,0:0:0:0:
256,192,119114,1,8,0:0:0:0:
256,192,119271,1,8,0:0:0:0:
256,192,119350,1,0,0:0:0:0:
256,192,119429,1,0,0:0:0:0:
256,192,119508,1,0,0:0:0:0:
256,192,119587,1,0,0:0:0:0:
256,192,119666,1,0,0:0:0:0:
256,192,119745,1,8,0:0:0:0:
256,192,119824,1,0,0:0:0:0:
256,192,119903,1,0,0:0:0:0:
256,192,119982,1,0,0:0:0:0:
256,192,120061,1,8,0:0:0:0:
256,192,120219,1,0,0:0:0:0:
256,192,120298,1,0,0:0:0:0:
256,192,120377,1,8,0:0:0:0:
256,192,120456,1,0,0:0:0:0:
256,192,120535,1,0,0:0:0:0:
256,192,120693,1,4,0:0:0:0:
256,192,121008,1,8,0:0:0:0:
256,192,121166,1,4,0:0:0:0:
256,192,121403,1,8,0:0:0:0:
256,192,121640,1,8,0:0:0:0:
256,192,121798,1,4,0:0:0:0:
256,192,122114,1,8,0:0:0:0:
256,192,122271,1,4,0:0:0:0:
256,192,122429,1,8,0:0:0:0:
256,192,122587,1,8,0:0:0:0:
256,192,122903,1,4,0:0:0:0:
256,192,123219,1,8,0:0:0:0:
256,192,123377,1,4,0:0:0:0:
256,192,123614,1,8,0:0:0:0:
256,192,123850,1,8,0:0:0:0:
256,192,124008,1,4,0:0:0:0:
256,192,124324,1,8,0:0:0:0:
256,192,124482,1,4,0:0:0:0:
256,192,124798,1,8,0:0:0:0:
256,192,124956,1,0,0:0:0:0:
256,192,125035,1,0,0:0:0:0:
256,192,125114,1,0,0:0:0:0:
256,192,125429,1,8,0:0:0:0:
256,192,125587,1,4,0:0:0:0:
256,192,125824,1,8,0:0:0:0:
256,192,126061,1,8,0:0:0:0:
256,192,126219,1,4,0:0:0:0:
256,192,126693,1,4,0:0:0:0:
256,192,127008,1,4,0:0:0:0:
256,192,127324,1,4,0:0:0:0:
256,192,127640,1,4,0:0:0:0:
256,192,127798,1,8,0:0:0:0:
256,192,128035,1,8,0:0:0:0:
256,192,128271,1,8,0:0:0:0:
256,192,128429,1,4,0:0:0:0:
256,192,128587,1,8,0:0:0:0:
256,192,128745,1,8,0:0:0:0:
256,192,128903,1,4,0:0:0:0:
256,192,129219,1,4,0:0:0:0:
256,192,129535,1,4,0:0:0:0:
256,192,129850,1,8,0:0:0:0:
256,192,130008,1,4,0:0:0:0:
256,192,130245,1,8,0:0:0:0:
256,192,130482,1,8,0:0:0:0:
256,192,130640,1,4,0:0:0:0:
256,192,130956,1,8,0:0:0:0:
256,192,131114,1,4,0:0:0:0:
256,192,131271,1,8,0:0:0:0:
256,192,131429,1,8,0:0:0:0:
256,192,131745,1,4,0:0:0:0:
256,192,132061,1,8,0:0:0:0:
256,192,132219,1,4,0:0:0:0:
256,192,132456,1,8,0:0:0:0:
256,192,132693,1,8,0:0:0:0:
256,192,132850,1,4,0:0:0:0:
256,192,133324,1,4,0:0:0:0:
256,192,133640,1,0,0:0:0:0:
256,192,133798,1,8,0:0:0:0:
256,192,133877,1,8,0:0:0:0:
256,192,133956,1,0,0:0:0:0:
256,192,134271,1,8,0:0:0:0:
256,192,134429,1,4,0:0:0:0:
256,192,134666,1,8,0:0:0:0:
256,192,134903,1,8,0:0:0:0:
256,192,135061,1,4,0:0:0:0:
256,192,135535,1,4,0:0:0:0:
256,192,135850,1,4,0:0:0:0:
256,192,136166,1,4,0:0:0:0:
256,192,136482,1,8,0:0:0:0:
256,192,136640,1,4,0:0:0:0:
256,192,136877,1,8,0:0:0:0:
256,192,137114,1,8,0:0:0:0:
256,192,137271,1,4,0:0:0:0:
256,192,137429,1,8,0:0:0:0:
256,192,137587,1,8,0:0:0:0:
256,192,137745,1,4,0:0:0:0:
256,192,138061,1,4,0:0:0:0:
256,192,138377,1,0,0:0:0:0:
256,192,138535,1,0,0:0:0:0:
256,192,138693,1,8,0:0:0:0:
256,192,138850,1,0,0:0:0:0:
256,192,139008,1,8,0:0:0:0:
256,192,139087,1,0,0:0:0:0:
256,192,139245,1,0,0:0:0:0:
256,192,139324,1,8,0:0:0:0:
256,192,139482,1,0,0:0:0:0:
256,192,139640,1,0,0:0:0:0:
256,192,139719,1,0,0:0:0:0:
256,192,139798,1,0,0:0:0:0:
256,192,139956,1,8,0:0:0:0:
256,192,140114,1,0,0:0:0:0:
256,192,140193,1,0,0:0:0:0:
256,192,140272,1,8,0:0:0:0:
256,192,140430,1,0,0:0:0:0:
256,192,140587,1,8,0:0:0:0:
256,192,140745,1,0,0:0:0:0:
256,196,140903,1,0,0:0:0:0:
256,192,141061,1,8,0:0:0:0:
256,192,141219,1,0,0:0:0:0:
256,192,141377,1,0,0:0:0:0:
256,192,141535,1,8,0:0:0:0:
260,196,141693,1,0,0:0:0:0:
260,196,141772,1,0,0:0:0:0:
260,196,141851,1,8,0:0:0:0:
256,192,141930,1,0,0:0:0:0:
256,192,142008,1,0,0:0:0:0:
256,192,142166,1,0,0:0:0:0:
256,192,142324,1,0,0:0:0:0:
260,192,142482,1,8,0:0:0:0:
256,192,142640,1,8,0:0:0:0:
260,196,142798,1,0,0:0:0:0:
256,192,142956,1,0,0:0:0:0:
256,192,143114,1,8,0:0:0:0:
256,192,143272,1,0,0:0:0:0:
256,192,143430,1,0,0:0:0:0:
256,192,143508,1,0,0:0:0:0:
256,192,143666,1,0,0:0:0:0:
256,192,143745,1,8,0:0:0:0:
256,196,143903,1,0,0:0:0:0:
256,192,144061,1,0,0:0:0:0:
256,192,144140,1,0,0:0:0:0:
256,192,144219,1,8,0:0:0:0:
256,192,144377,1,8,0:0:0:0:
256,192,144535,1,0,0:0:0:0:
256,192,144614,1,0,0:0:0:0:
256,192,144693,1,0,0:0:0:0:
256,192,144851,1,0,0:0:0:0:
256,192,145008,1,8,0:0:0:0:
256,192,145166,1,8,0:0:0:0:
256,192,145324,1,0,0:0:0:0:
256,192,145403,1,0,0:0:0:0:
256,192,145482,1,0,0:0:0:0:
256,192,145640,1,8,0:0:0:0:
256,192,145719,1,0,0:0:0:0:
256,192,145798,1,0,0:0:0:0:
256,192,145877,1,0,0:0:0:0:
256,192,145956,1,8,0:0:0:0:
256,192,146114,1,8,0:0:0:0:
256,192,146350,1,0,0:0:0:0:
256,192,146430,1,8,0:0:0:0:
256,192,146587,1,8,0:0:0:0:
256,192,146666,1,0,0:0:0:0:
256,192,146903,1,8,0:0:0:0:
256,192,147061,1,8,0:0:0:0:
256,192,147219,1,0,0:0:0:0:
256,192,147377,1,8,0:0:0:0:
256,192,147535,1,0,0:0:0:0:
256,192,147693,1,8,0:0:0:0:
256,192,147850,1,0,0:0:0:0:
256,192,148008,1,8,0:0:0:0:
256,192,148087,1,8,0:0:0:0:
256,192,148166,1,8,0:0:0:0:
256,192,148245,1,8,0:0:0:0:
256,192,148324,1,8,0:0:0:0:
256,192,148482,1,0,0:0:0:0:
256,192,148640,1,0,0:0:0:0:
256,192,148798,1,8,0:0:0:0:
256,192,148956,1,0,0:0:0:0:
256,192,149114,1,8,0:0:0:0:
256,192,149193,1,0,0:0:0:0:
256,192,149351,1,8,0:0:0:0:
256,192,149429,1,0,0:0:0:0:
256,192,149587,1,0,0:0:0:0:
256,192,149666,1,0,0:0:0:0:
256,192,149745,1,0,0:0:0:0:
256,192,149903,1,8,0:0:0:0:
256,192,150061,1,0,0:0:0:0:
256,192,150219,1,0,0:0:0:0:
256,192,150377,1,0,0:0:0:0:
256,192,150535,1,8,0:0:0:0:
256,192,150614,1,0,0:0:0:0:
256,192,150693,1,8,0:0:0:0:
256,192,150851,1,0,0:0:0:0:
256,192,150929,1,0,0:0:0:0:
256,192,151008,1,0,0:0:0:0:
260,196,151166,1,0,0:0:0:0:
256,192,151324,1,8,0:0:0:0:
256,192,151482,1,0,0:0:0:0:
256,192,151640,1,8,0:0:0:0:
256,192,151719,1,8,0:0:0:0:
256,192,151798,1,0,0:0:0:0:
256,192,151877,1,0,0:0:0:0:
256,192,151956,1,8,0:0:0:0:
256,192,152114,1,0,0:0:0:0:
256,192,152272,1,8,0:0:0:0:
256,192,152351,1,0,0:0:0:0:
256,192,152430,1,0,0:0:0:0:
256,192,152508,1,0,0:0:0:0:
256,192,152587,1,8,0:0:0:0:
256,192,152745,1,0,0:0:0:0:
256,192,152903,1,8,0:0:0:0:
256,192,152982,1,8,0:0:0:0:
256,192,153061,1,0,0:0:0:0:
256,192,153219,1,8,0:0:0:0:
256,192,153377,1,8,0:0:0:0:
256,192,153535,1,0,0:0:0:0:
256,192,153693,1,0,0:0:0:0:
256,192,153851,1,8,0:0:0:0:
256,192,154008,1,0,0:0:0:0:
256,192,154087,1,0,0:0:0:0:
256,192,154166,1,8,0:0:0:0:
256,192,154245,1,0,0:0:0:0:
256,192,154324,1,0,0:0:0:0:
256,192,154482,1,8,0:0:0:0:
256,192,154561,1,0,0:0:0:0:
256,192,154640,1,0,0:0:0:0:
256,192,154798,1,0,0:0:0:0:
256,192,154877,1,0,0:0:0:0:
256,192,154956,1,8,0:0:0:0:
256,192,155114,1,0,0:0:0:0:
256,192,155272,1,8,0:0:0:0:
256,192,155430,1,0,0:0:0:0:
256,192,155508,1,0,0:0:0:0:
256,192,155587,1,0,0:0:0:0:
256,192,155666,1,0,0:0:0:0:
256,192,155745,1,0,0:0:0:0:
256,192,155903,1,8,0:0:0:0:
256,192,156061,1,8,0:0:0:0:
256,192,156219,1,0,0:0:0:0:
256,192,156377,1,8,0:0:0:0:
256,192,156456,1,0,0:0:0:0:
256,192,156535,1,0,0:0:0:0:
256,192,156614,1,0,0:0:0:0:
256,192,156693,1,8,0:0:0:0:
256,192,156772,1,0,0:0:0:0:
256,192,156851,1,0,0:0:0:0:
256,192,156930,1,0,0:0:0:0:
256,192,157008,1,8,0:0:0:0:
256,192,157166,1,0,0:0:0:0:
256,192,157324,1,8,0:0:0:0:
256,192,157403,1,0,0:0:0:0:
256,192,157482,1,8,0:0:0:0:
256,192,157640,1,8,0:0:0:0:
256,192,157719,1,0,0:0:0:0:
256,192,157798,1,0,0:0:0:0:
256,192,157956,1,8,0:0:0:0:
256,192,158114,1,0,0:0:0:0:
256,192,158271,1,8,0:0:0:0:
256,192,158350,1,8,0:0:0:0:
256,192,158429,1,8,0:0:0:0:
256,192,158508,1,8,0:0:0:0:
256,192,158587,1,0,0:0:0:0:
256,192,158745,1,0,0:0:0:0:
256,192,158903,1,8,0:0:0:0:
256,192,159219,1,0,0:0:0:0:
256,192,159377,1,0,0:0:0:0:
256,192,159456,1,0,0:0:0:0:
256,192,159535,1,8,0:0:0:0:
256,192,159693,1,0,0:0:0:0:
256,192,159850,1,8,0:0:0:0:
256,192,159929,1,0,0:0:0:0:
256,192,160008,1,0,0:0:0:0:
256,192,160087,1,0,0:0:0:0:
256,192,160166,1,8,0:0:0:0:
256,192,160324,1,0,0:0:0:0:
256,192,160482,1,0,0:0:0:0:
256,192,160640,1,8,0:0:0:0:
256,192,160719,1,0,0:0:0:0:
256,192,160798,1,8,0:0:0:0:
256,192,160956,1,0,0:0:0:0:
256,192,161114,1,0,0:0:0:0:
256,192,161271,1,8,0:0:0:0:
256,192,161429,1,8,0:0:0:0:
256,192,161587,1,0,0:0:0:0:
256,192,161745,1,8,0:0:0:0:
256,192,161824,1,0,0:0:0:0:
256,192,161903,1,0,0:0:0:0:
256,192,162061,1,8,0:0:0:0:
256,192,162219,1,0,0:0:0:0:
256,192,162377,1,8,0:0:0:0:
256,192,162535,1,0,0:0:0:0:
256,192,162693,1,8,0:0:0:0:
256,192,162850,1,0,0:0:0:0:
256,192,163008,1,0,0:0:0:0:
256,192,163087,1,8,0:0:0:0:
256,192,163166,1,8,0:0:0:0:
256,192,163324,1,8,0:0:0:0:
256,192,163640,1,0,0:0:0:0:
256,192,163798,1,0,0:0:0:0:
256,192,163956,1,8,0:0:0:0:
256,192,164114,1,8,0:0:0:0:
256,192,164271,1,0,0:0:0:0:
256,192,164429,1,0,0:0:0:0:
256,192,164587,1,8,0:0:0:0:
256,192,164745,1,8,0:0:0:0:
256,192,164903,1,0,0:0:0:0:
256,192,164982,1,0,0:0:0:0:
256,192,165061,1,0,0:0:0:0:
256,192,165219,1,8,0:0:0:0:
256,192,165298,1,8,0:0:0:0:
256,192,165377,1,8,0:0:0:0:
256,192,165535,1,0,0:0:0:0:
256,192,165693,1,0,0:0:0:0:
256,192,165850,1,8,0:0:0:0:
256,192,166008,1,0,0:0:0:0:
256,192,166166,1,0,0:0:0:0:
256,192,166245,1,0,0:0:0:0:
256,192,166324,1,0,0:0:0:0:
256,192,166403,1,0,0:0:0:0:
256,192,166482,1,8,0:0:0:0:
256,192,166561,1,0,0:0:0:0:
256,192,166640,1,0,0:0:0:0:
256,192,166719,1,0,0:0:0:0:
256,192,166798,1,0,0:0:0:0:
256,192,166877,1,0,0:0:0:0:
256,192,166956,1,0,0:0:0:0:
256,192,167035,1,0,0:0:0:0:
256,192,167114,1,8,0:0:0:0:
256,192,167193,1,0,0:0:0:0:
256,192,167271,1,0,0:0:0:0:
256,192,167350,1,0,0:0:0:0:
256,192,167429,1,0,0:0:0:0:
256,192,167587,1,8,0:0:0:0:
256,192,167745,1,8,0:0:0:0:
256,192,167824,1,0,0:0:0:0:
256,192,167903,1,8,0:0:0:0:
256,192,168061,1,8,0:0:0:0:
256,192,168140,1,8,0:0:0:0:
256,192,168219,1,8,0:0:0:0:
256,192,168298,1,8,0:0:0:0:
256,192,168377,1,8,0:0:0:0:
256,192,168456,1,8,0:0:0:0:
256,192,168535,1,8,0:0:0:0:
256,192,168614,1,8,0:0:0:0:
256,192,168693,1,0,0:0:0:0:
260,192,169008,1,0,0:0:0:0:
260,192,169166,1,0,0:0:0:0:
260,192,169324,1,8,0:0:0:0:
256,188,169798,1,8,0:0:0:0:
256,188,169956,1,0,0:0:0:0:
256,188,170271,1,0,0:0:0:0:
256,188,170587,1,8,0:0:0:0:
256,192,171219,1,0,0:0:0:0:
256,192,171377,1,0,0:0:0:0:
256,192,171535,1,0,0:0:0:0:
256,192,171693,1,0,0:0:0:0:
256,192,171850,1,8,0:0:0:0:
256,192,172166,1,0,0:0:0:0:
256,192,172324,1,0,0:0:0:0:
256,192,172482,1,0,0:0:0:0:
256,192,172798,1,0,0:0:0:0:
256,192,173114,1,8,0:0:0:0:
256,192,173429,1,0,0:0:0:0:
256,192,173587,1,0,0:0:0:0:
256,192,173745,1,0,0:0:0:0:
256,192,174061,1,0,0:0:0:0:
256,192,174377,1,8,0:0:0:0:
256,192,174693,1,0,0:0:0:0:
256,192,175008,1,0,0:0:0:0:
256,192,175166,1,8,0:0:0:0:
256,192,175324,1,0,0:0:0:0:
256,192,175482,1,0,0:0:0:0:
256,192,175640,1,8,0:0:0:0:
256,192,175956,1,0,0:0:0:0:
256,192,176271,1,0,0:0:0:0:
256,192,176429,1,0,0:0:0:0:
256,192,176587,1,0,0:0:0:0:
256,192,176745,1,0,0:0:0:0:
256,192,176903,1,8,0:0:0:0:
256,192,177219,1,0,0:0:0:0:
256,192,177535,1,0,0:0:0:0:
256,192,177850,1,0,0:0:0:0:
256,192,178008,1,0,0:0:0:0:
256,192,178166,1,8,0:0:0:0:
256,192,178482,1,4,0:0:0:0:
256,192,178798,1,0,0:0:0:0:
256,192,178956,1,8,0:0:0:0:
256,192,179035,1,0,0:0:0:0:
256,192,179114,1,0,0:0:0:0:
256,192,179271,1,8,0:0:0:0:
256,192,179429,1,0,0:0:0:0:
256,192,179587,1,8,0:0:0:0:
256,192,179666,1,8,0:0:0:0:
256,192,179745,1,0,0:0:0:0:
256,192,179903,1,8,0:0:0:0:
256,192,180061,1,0,0:0:0:0:
256,192,180377,1,8,0:0:0:0:
256,192,180693,1,8,0:0:0:0:
256,192,181008,1,0,0:0:0:0:
256,192,181324,1,4,0:0:0:0:
256,192,181482,1,8,0:0:0:0:
256,192,181640,1,4,0:0:0:0:
256,192,181798,1,8,0:0:0:0:
256,192,181956,1,4,0:0:0:0:
256,192,182114,1,8,0:0:0:0:
256,192,182271,1,4,0:0:0:0:
256,192,182429,1,8,0:0:0:0:
256,192,182587,1,4,0:0:0:0:
256,192,182903,1,4,0:0:0:0:
256,192,183219,1,12,0:0:0:0:
256,192,183377,1,0,0:0:0:0:
256,192,183456,1,0,0:0:0:0:
256,192,183535,1,0,0:0:0:0:
256,192,183693,1,8,0:0:0:0:
256,192,183850,1,4,0:0:0:0:
256,192,184166,1,4,0:0:0:0:
256,192,184324,1,8,0:0:0:0:
256,192,184482,1,4,0:0:0:0:
256,192,184640,1,8,0:0:0:0:
256,192,184798,1,4,0:0:0:0:
256,192,184956,1,8,0:0:0:0:
256,192,185114,1,4,0:0:0:0:
256,192,185271,1,8,0:0:0:0:
256,192,185429,1,4,0:0:0:0:
256,192,185587,1,8,0:0:0:0:
256,192,185745,1,4,0:0:0:0:
256,192,186061,1,4,0:0:0:0:
256,192,186377,1,4,0:0:0:0:
256,192,186535,1,4,0:0:0:0:
256,192,186693,1,12,0:0:0:0:
256,192,186850,1,12,0:0:0:0:
256,192,187008,1,4,0:0:0:0:
256,192,187166,1,4,0:0:0:0:
256,192,187324,1,12,0:0:0:0:
256,192,187482,1,4,0:0:0:0:
256,192,187640,1,0,0:0:0:0:
256,192,187719,1,0,0:0:0:0:
256,192,187798,1,0,0:0:0:0:
256,192,187877,1,0,0:0:0:0:
256,192,187956,1,0,0:0:0:0:
256,192,188035,1,0,0:0:0:0:
256,192,188114,1,0,0:0:0:0:
256,192,188193,1,0,0:0:0:0:
256,192,188271,1,0,0:0:0:0:
256,192,188429,1,8,0:0:0:0:
256,192,188508,1,8,0:0:0:0:
256,192,188587,1,0,0:0:0:0:
256,192,188745,1,0,0:0:0:0:
256,192,188903,1,4,0:0:0:0:
256,192,189219,1,4,0:0:0:0:
256,192,189535,1,12,0:0:0:0:
256,192,189850,1,4,0:0:0:0:
256,192,190166,1,8,0:0:0:0:
256,192,190245,1,0,0:0:0:0:
256,192,190324,1,0,0:0:0:0:
256,192,190482,1,8,0:0:0:0:
256,192,190560,1,0,0:0:0:0:
256,192,190639,1,8,0:0:0:0:
256,192,190797,1,8,0:0:0:0:
256,192,190955,1,0,0:0:0:0:
256,192,191113,1,8,0:0:0:0:
256,192,191271,1,8,0:0:0:0:
256,192,191350,1,8,0:0:0:0:
256,192,191429,1,0,0:0:0:0:
256,192,191745,1,12,0:0:0:0:
256,192,192060,1,12,0:0:0:0:
256,192,192376,1,4,0:0:0:0:
256,192,192692,1,0,0:0:0:0:
256,192,192771,1,0,0:0:0:0:
256,192,192850,1,8,0:0:0:0:
256,192,193008,1,8,0:0:0:0:
256,192,193166,1,0,0:0:0:0:
256,192,193245,1,8,0:0:0:0:
256,192,193324,1,0,0:0:0:0:
256,192,193482,1,0,0:0:0:0:
256,192,193561,1,0,0:0:0:0:
256,192,193639,1,8,0:0:0:0:
256,192,193797,1,0,0:0:0:0:
256,192,193956,1,4,0:0:0:0:
256,192,194271,1,4,0:0:0:0:
256,192,194587,1,12,0:0:0:0:
256,192,194903,1,0,0:0:0:0:
256,192,195060,1,0,0:0:0:0:
256,192,195139,1,0,0:0:0:0:
256,192,195218,1,8,0:0:0:0:
256,192,195376,1,0,0:0:0:0:
256,192,195534,1,0,0:0:0:0:
256,192,195614,1,0,0:0:0:0:
256,192,195692,1,8,0:0:0:0:
256,192,195850,1,8,0:0:0:0:
256,192,196008,1,0,0:0:0:0:
256,192,196166,1,8,0:0:0:0:
256,192,196245,1,8,0:0:0:0:
256,192,196324,1,8,0:0:0:0:
256,192,196482,1,0,0:0:0:0:
256,192,196560,1,0,0:0:0:0:
256,192,196639,1,0,0:0:0:0:
256,192,196797,1,8,0:0:0:0:
256,192,196955,1,0,0:0:0:0:
256,192,197113,1,4,0:0:0:0:
256,192,197429,1,4,0:0:0:0:
256,192,197745,1,0,0:0:0:0:
256,192,197824,1,0,0:0:0:0:
256,192,197903,1,0,0:0:0:0:
256,192,198060,1,8,0:0:0:0:
256,192,198139,1,8,0:0:0:0:
256,192,198218,1,8,0:0:0:0:
256,192,198376,1,0,0:0:0:0:
256,192,198534,1,0,0:0:0:0:
256,192,198692,1,8,0:0:0:0:
256,192,198850,1,0,0:0:0:0:
256,192,199008,1,8,0:0:0:0:
256,192,199166,1,8,0:0:0:0:
256,192,199245,1,8,0:0:0:0:
256,192,199324,1,0,0:0:0:0:
256,192,199482,1,0,0:0:0:0:
256,192,199639,1,8,0:0:0:0:
256,192,199956,1,4,0:0:0:0:
256,192,200271,1,8,0:0:0:0:
256,192,200350,1,0,0:0:0:0:
256,192,200429,1,0,0:0:0:0:
256,192,200587,1,8,0:0:0:0:
256,192,200666,1,0,0:0:0:0:
256,192,200745,1,8,0:0:0:0:
256,192,200824,1,0,0:0:0:0:
256,192,200903,1,0,0:0:0:0:
256,192,201060,1,0,0:0:0:0:
256,192,201139,1,0,0:0:0:0:
256,192,201218,1,8,0:0:0:0:
256,192,201376,1,0,0:0:0:0:
256,192,201534,1,4,0:0:0:0:
256,192,201850,1,12,0:0:0:0:
256,192,202166,1,4,0:0:0:0:
256,192,202482,1,12,0:0:0:0:
256,192,202718,1,0,0:0:0:0:
256,192,202797,1,8,0:0:0:0:
256,192,202955,1,0,0:0:0:0:
256,192,203113,1,8,0:0:0:0:
256,192,203271,1,8,0:0:0:0:
256,192,203429,1,8,0:0:0:0:
256,192,203508,1,8,0:0:0:0:
256,192,203587,1,0,0:0:0:0:
256,192,203745,1,0,0:0:0:0:
256,192,203824,1,0,0:0:0:0:
256,192,203903,1,8,0:0:0:0:
256,192,204060,1,4,0:0:0:0:
256,192,204377,1,4,0:0:0:0:
256,192,204692,1,12,0:0:0:0:
256,192,205008,1,4,0:0:0:0:
256,192,205245,1,0,0:0:0:0:
256,192,205324,1,8,0:0:0:0:
256,192,205482,1,8,0:0:0:0:
256,192,205639,1,0,0:0:0:0:
256,192,205797,1,0,0:0:0:0:
256,192,205876,1,0,0:0:0:0:
256,192,205955,1,8,0:0:0:0:
256,192,206113,1,0,0:0:0:0:
256,192,206271,1,8,0:0:0:0:
256,192,206429,1,0,0:0:0:0:
256,192,206587,1,8,0:0:0:0:
256,192,206666,1,0,0:0:0:0:
256,192,206745,1,8,0:0:0:0:
256,192,206903,1,0,0:0:0:0:
256,192,207060,1,8,0:0:0:0:
256,192,207218,1,4,0:0:0:0:
256,192,207534,1,4,0:0:0:0:
256,192,207850,1,0,0:0:0:0:
256,192,207929,1,0,0:0:0:0:
256,192,208008,1,0,0:0:0:0:
256,192,208166,1,8,0:0:0:0:
256,192,208245,1,0,0:0:0:0:
256,192,208324,1,0,0:0:0:0:
256,192,208482,1,0,0:0:0:0:
256,192,208639,1,0,0:0:0:0:
256,192,208797,1,8,0:0:0:0:
256,192,208955,1,8,0:0:0:0:
256,192,209114,1,8,0:0:0:0:
256,192,209193,1,8,0:0:0:0:
256,192,209271,1,0,0:0:0:0:
256,192,209429,1,8,0:0:0:0:
256,192,209508,1,8,0:0:0:0:
256,192,209587,1,0,0:0:0:0:
256,192,209745,1,8,0:0:0:0:
256,192,209824,1,8,0:0:0:0:
256,192,209903,1,8,0:0:0:0:
256,192,209982,1,8,0:0:0:0:
256,192,210060,1,8,0:0:0:0:
256,192,210140,1,8,0:0:0:0:
256,192,210218,1,8,0:0:0:0:
256,192,210297,1,8,0:0:0:0:
256,192,210376,1,0,0:0:0:0:
256,192,210534,1,0,0:0:0:0:
256,192,210692,1,8,0:0:0:0:
256,192,210850,1,0,0:0:0:0:
256,192,211008,1,0,0:0:0:0:
256,192,211087,1,0,0:0:0:0:
256,192,211166,1,0,0:0:0:0:
256,192,211245,1,0,0:0:0:0:
256,192,211324,1,8,0:0:0:0:
256,192,211482,1,0,0:0:0:0:
256,192,211639,1,4,0:0:0:0:
256,192,211955,1,12,0:0:0:0:
256,192,212271,1,4,0:0:0:0:
256,192,212587,1,12,0:0:0:0:
256,192,212903,1,0,0:0:0:0:
256,192,212982,1,0,0:0:0:0:
256,192,213060,1,0,0:0:0:0:
256,192,213218,1,8,0:0:0:0:
256,192,213376,1,8,0:0:0:0:
256,192,213534,1,0,0:0:0:0:
256,192,213692,1,0,0:0:0:0:
256,192,213850,1,8,0:0:0:0:
256,192,214008,1,0,0:0:0:0:
256,192,214166,1,4,0:0:0:0:
256,192,214482,1,4,0:0:0:0:
256,192,214797,1,12,0:0:0:0:
256,192,215113,1,0,0:0:0:0:
256,192,215271,1,0,0:0:0:0:
256,192,215350,1,0,0:0:0:0:
256,192,215429,1,8,0:0:0:0:
256,192,215587,1,0,0:0:0:0:
256,192,215745,1,8,0:0:0:0:
256,192,215903,1,0,0:0:0:0:
256,192,215982,1,0,0:0:0:0:
256,192,216060,1,8,0:0:0:0:
256,192,216218,1,8,0:0:0:0:
256,192,216297,1,0,0:0:0:0:
256,192,216376,1,8,0:0:0:0:
256,192,216534,1,0,0:0:0:0:
256,192,216613,1,0,0:0:0:0:
256,192,216692,1,8,0:0:0:0:
256,192,216850,1,0,0:0:0:0:
256,192,217008,1,8,0:0:0:0:
256,192,217087,1,0,0:0:0:0:
256,192,217166,1,8,0:0:0:0:
256,192,217324,1,4,0:0:0:0:
256,192,217639,1,4,0:0:0:0:
256,192,217955,1,0,0:0:0:0:
256,192,218034,1,0,0:0:0:0:
256,192,218113,1,0,0:0:0:0:
256,192,218271,1,8,0:0:0:0:
256,192,218350,1,8,0:0:0:0:
256,192,218429,1,8,0:0:0:0:
256,192,218587,1,0,0:0:0:0:
256,192,218666,1,0,0:0:0:0:
256,192,218745,1,0,0:0:0:0:
256,192,218903,1,8,0:0:0:0:
256,192,218982,1,0,0:0:0:0:
256,192,219060,1,8,0:0:0:0:
256,192,219218,1,0,0:0:0:0:
256,192,219297,1,0,0:0:0:0:
256,192,219376,1,0,0:0:0:0:
256,192,219455,1,0,0:0:0:0:
256,192,219534,1,8,0:0:0:0:
256,192,219693,1,0,0:0:0:0:
256,192,219850,1,8,0:0:0:0:
256,192,220166,1,4,0:0:0:0:
256,192,220482,1,8,0:0:0:0:
256,192,220561,1,0,0:0:0:0:
256,192,220640,1,0,0:0:0:0:
256,192,220798,1,8,0:0:0:0:
256,192,220876,1,0,0:0:0:0:
256,192,220955,1,8,0:0:0:0:
256,192,221113,1,8,0:0:0:0:
256,192,221193,1,0,0:0:0:0:
256,192,221271,1,0,0:0:0:0:
256,192,221350,1,0,0:0:0:0:
256,192,221429,1,8,0:0:0:0:
256,192,221587,1,8,0:0:0:0:
256,192,221745,1,4,0:0:0:0:
256,192,222061,1,12,0:0:0:0:
256,192,222376,1,12,0:0:0:0:
256,192,222692,1,4,0:0:0:0:
256,192,222850,1,0,0:0:0:0:
256,192,222929,1,0,0:0:0:0:
256,192,223008,1,8,0:0:0:0:
256,192,223166,1,0,0:0:0:0:
256,192,223324,1,8,0:0:0:0:
256,192,223482,1,0,0:0:0:0:
256,192,223561,1,8,0:0:0:0:
256,192,223640,1,0,0:0:0:0:
256,192,223798,1,0,0:0:0:0:
256,192,223955,1,8,0:0:0:0:
256,192,224113,1,0,0:0:0:0:
256,192,224271,1,4,0:0:0:0:
256,192,224587,1,4,0:0:0:0:
256,192,224903,1,12,0:0:0:0:
256,192,225219,1,0,0:0:0:0:
256,192,225376,1,0,0:0:0:0:
256,192,225455,1,0,0:0:0:0:
256,192,225534,1,8,0:0:0:0:
256,192,225692,1,0,0:0:0:0:
256,192,225850,1,0,0:0:0:0:
256,192,225929,1,0,0:0:0:0:
256,192,226008,1,0,0:0:0:0:
256,192,226166,1,8,0:0:0:0:
256,192,226324,1,0,0:0:0:0:
256,192,226482,1,8,0:0:0:0:
256,192,226561,1,8,0:0:0:0:
256,192,226640,1,0,0:0:0:0:
256,192,226798,1,8,0:0:0:0:
256,192,226876,1,8,0:0:0:0:
256,192,226955,1,0,0:0:0:0:
256,192,227113,1,8,0:0:0:0:
256,192,227193,1,0,0:0:0:0:
256,192,227271,1,0,0:0:0:0:
256,192,227350,1,0,0:0:0:0:
256,192,227429,1,8,0:0:0:0:
256,192,227745,1,4,0:0:0:0:
256,192,228061,1,0,0:0:0:0:
256,192,228140,1,0,0:0:0:0:
256,192,228219,1,0,0:0:0:0:
256,192,228376,1,8,0:0:0:0:
256,192,228455,1,8,0:0:0:0:
256,192,228534,1,8,0:0:0:0:
256,192,228692,1,0,0:0:0:0:
256,192,228771,1,0,0:0:0:0:
256,192,228850,1,0,0:0:0:0:
256,192,228929,1,0,0:0:0:0:
256,192,229008,1,8,0:0:0:0:
256,192,229087,1,0,0:0:0:0:
256,192,229166,1,0,0:0:0:0:
256,192,229245,1,0,0:0:0:0:
256,192,229324,1,8,0:0:0:0:
256,192,229403,1,0,0:0:0:0:
256,192,229482,1,0,0:0:0:0:
256,192,229561,1,0,0:0:0:0:
256,192,229640,1,0,0:0:0:0:
256,192,229798,1,0,0:0:0:0:
256,192,229955,1,8,0:0:0:0:
256,192,230587,1,4,0:0:0:0:
