osu file format v14

[General]
AudioFilename: Koishi Circulation.mp3
AudioLeadIn: 0
PreviewTime: 79956
Countdown: 0
SampleSet: Normal
StackLeniency: 0.7
Mode: 1
LetterboxInBreaks: 0
WidescreenStoryboard: 1

[Editor]
DistanceSpacing: 0.8
BeatDivisor: 2
GridSize: 4
TimelineZoom: 1

[Metadata]
Title:Koishi Circulation
TitleUnicode:Koishi Circulation
Artist:Shissou arrange
ArtistUnicode:疾走アレンジ
Creator:[Izayoi Sakura]
Version:Futsuu
Source:東方地霊殿 ~ Subterranean Animism.
Tags:東方地霊殿 ~ Subterranean Animism. 東方Project zun Touhou Chireiden Th11 Komeji Koishi 古明地恋 Arctic C88 ハルトマンの妖怪少女 さわわ Hartmann's Youkai Girl 上海アリス幻樂団 Team Shanghai Alice video game sawawa
BeatmapID:823654
BeatmapSetID:210985

[Difficulty]
HPDrainRate:3
CircleSize:5
OverallDifficulty:3
ApproachRate:4
SliderMultiplier:1.4
SliderTickRate:2

[Events]
//Background and Video events
0,0,"BG.jpg",0,0
//Break Periods
//Storyboard Layer 0 (Background)
//Storyboard Layer 1 (Fail)
//Storyboard Layer 2 (Pass)
//Storyboard Layer 3 (Foreground)
//Storyboard Layer 4 (Overlay)
//Storyboard Sound Samples

[TimingPoints]
693,315.789473684211,4,1,0,100,1,0
79956,-100,4,1,0,100,0,1
120693,-100,4,1,0,100,0,0
190008,-100,4,1,0,100,0,1
230114,-100,4,1,0,100,0,0

[HitObjects]
256,192,1956,5,0,0:0:0:0:
256,192,2429,1,0,0:0:0:0:
256,192,3061,1,0,0:0:0:0:
256,192,3535,1,8,0:0:0:0:
256,192,4166,1,0,0:0:0:0:
256,192,4640,1,0,0:0:0:0:
256,192,5271,1,0,0:0:0:0:
256,192,5745,1,8,0:0:0:0:
256,192,6377,1,0,0:0:0:0:
256,192,6850,1,0,0:0:0:0:
256,192,7482,1,0,0:0:0:0:
256,192,7956,1,0,0:0:0:0:
256,192,8587,1,0,0:0:0:0:
256,192,9061,1,0,0:0:0:0:
256,192,9693,1,0,0:0:0:0:
256,192,10166,1,8,0:0:0:0:
256,192,10482,1,0,0:0:0:0:
256,192,10798,1,0,0:0:0:0:
256,192,11271,1,0,0:0:0:0:
256,192,11903,1,0,0:0:0:0:
256,192,12377,1,8,0:0:0:0:
256,192,13008,1,0,0:0:0:0:
256,192,13482,1,0,0:0:0:0:
256,192,14114,1,0,0:0:0:0:
256,192,14587,1,8,0:0:0:0:
256,192,15219,1,0,0:0:0:0:
256,192,15693,1,0,0:0:0:0:
256,192,16324,1,0,0:0:0:0:
256,192,16798,1,0,0:0:0:0:
256,192,17429,1,0,0:0:0:0:
256,192,17903,1,0,0:0:0:0:
256,192,18535,1,0,0:0:0:0:
256,192,19008,1,8,0:0:0:0:
256,192,19640,1,8,0:0:0:0:
256,192,19956,1,0,0:0:0:0:
256,192,20271,1,8,0:0:0:0:
256,192,20903,1,8,0:0:0:0:
256,192,21219,1,0,0:0:0:0:
256,192,21535,1,8,0:0:0:0:
256,192,22166,1,0,0:0:0:0:
256,192,22798,1,8,0:0:0:0:
256,192,23114,1,0,0:0:0:0:
256,192,23429,1,8,0:0:0:0:
256,192,23745,1,0,0:0:0:0:
256,192,24061,1,8,0:0:0:0:
256,192,24693,1,8,0:0:0:0:
256,192,25008,1,0,0:0:0:0:
256,192,25324,1,8,0:0:0:0:
256,192,25640,1,0,0:0:0:0:
256,192,25956,1,8,0:0:0:0:
256,192,26271,1,0,0:0:0:0:
256,192,26587,1,8,0:0:0:0:
256,192,27219,1,8,0:0:0:0:
256,192,27535,1,0,0:0:0:0:
256,192,27850,1,8,0:0:0:0:
256,192,28166,1,0,0:0:0:0:
256,192,28482,1,8,0:0:0:0:
256,192,29114,1,0,0:0:0:0:
256,192,29429,1,0,0:0:0:0:
256,192,29745,1,8,0:0:0:0:
256,192,30061,1,0,0:0:0:0:
256,192,30377,1,8,0:0:0:0:
256,192,31008,1,0,0:0:0:0:
256,192,31640,1,8,0:0:0:0:
256,192,31956,1,0,0:0:0:0:
256,192,32271,1,8,0:0:0:0:
256,192,32587,1,0,0:0:0:0:
256,192,32903,1,0,0:0:0:0:
256,192,33219,1,8,0:0:0:0:
256,192,33535,1,0,0:0:0:0:
256,192,33850,1,0,0:0:0:0:
256,192,34166,1,8,0:0:0:0:
256,192,34798,1,8,0:0:0:0:
256,192,35114,1,0,0:0:0:0:
256,192,35429,1,8,0:0:0:0:
256,192,35745,1,0,0:0:0:0:
256,192,36061,1,8,0:0:0:0:
256,192,36377,1,8,0:0:0:0:
256,192,36693,1,0,0:0:0:0:
256,192,37324,1,8,0:0:0:0:
256,192,37640,1,0,0:0:0:0:
256,192,37956,1,0,0:0:0:0:
256,192,38271,1,0,0:0:0:0:
256,192,38587,1,8,0:0:0:0:
256,192,39061,1,4,0:0:0:0:
256,192,39377,1,0,0:0:0:0:
256,192,39535,1,0,0:0:0:0:
256,192,39850,1,0,0:0:0:0:
256,192,40166,1,8,0:0:0:0:
256,192,40482,1,0,0:0:0:0:
256,192,40798,1,8,0:0:0:0:
256,192,41429,1,8,0:0:0:0:
256,192,41745,1,0,0:0:0:0:
256,192,42061,1,8,0:0:0:0:
256,192,42693,1,8,0:0:0:0:
256,192,43008,1,0,0:0:0:0:
256,192,43324,1,8,0:0:0:0:
256,192,43640,1,0,0:0:0:0:
256,192,43956,1,8,0:0:0:0:
256,192,44271,1,0,0:0:0:0:
256,192,44429,1,0,0:0:0:0:
256,192,44745,1,0,0:0:0:0:
256,192,44903,1,0,0:0:0:0:
256,192,45219,1,8,0:0:0:0:
256,192,45850,1,8,0:0:0:0:
256,192,46166,1,0,0:0:0:0:
256,192,46482,1,8,0:0:0:0:
256,192,46798,1,0,0:0:0:0:
256,192,47114,1,8,0:0:0:0:
256,192,47429,1,8,0:0:0:0:
256,192,47745,1,0,0:0:0:0:
256,192,48377,1,8,0:0:0:0:
256,192,48693,1,4,0:0:0:0:
256,192,49008,1,4,0:0:0:0:
256,192,49324,1,4,0:0:0:0:
256,192,49640,1,4,0:0:0:0:
256,192,50271,1,8,0:0:0:0:
256,192,50587,1,0,0:0:0:0:
256,192,50903,1,8,0:0:0:0:
256,192,51219,1,0,0:0:0:0:
256,192,51535,1,8,0:0:0:0:
256,192,51850,1,0,0:0:0:0:
256,192,52166,1,8,0:0:0:0:
256,192,52798,1,8,0:0:0:0:
256,192,53429,1,8,0:0:0:0:
256,192,53745,1,0,0:0:0:0:
256,192,54061,1,8,0:0:0:0:
256,192,54377,1,0,0:0:0:0:
256,192,54693,1,8,0:0:0:0:
256,192,55324,1,8,0:0:0:0:
256,192,55640,1,0,0:0:0:0:
256,192,55956,1,8,0:0:0:0:
256,192,56271,1,0,0:0:0:0:
256,192,56587,1,8,0:0:0:0:
256,192,57219,1,0,0:0:0:0:
256,192,57850,1,8,0:0:0:0:
256,192,58166,1,0,0:0:0:0:
256,192,58482,1,8,0:0:0:0:
256,192,58798,1,0,0:0:0:0:
256,192,59114,1,8,0:0:0:0:
256,192,59429,1,0,0:0:0:0:
256,192,59745,1,8,0:0:0:0:
256,192,60377,1,0,0:0:0:0:
256,192,60693,1,0,0:0:0:0:
256,192,61008,1,8,0:0:0:0:
256,192,61640,1,8,0:0:0:0:
256,192,61956,1,0,0:0:0:0:
256,192,62271,1,0,0:0:0:0:
256,192,62903,1,0,0:0:0:0:
256,192,63219,1,8,0:0:0:0:
256,192,63850,1,0,0:0:0:0:
256,192,64166,1,0,0:0:0:0:
256,192,64482,1,8,0:0:0:0:
256,192,65114,1,0,0:0:0:0:
256,192,65429,1,0,0:0:0:0:
256,192,65745,1,8,0:0:0:0:
256,192,66377,1,0,0:0:0:0:
256,192,66693,1,0,0:0:0:0:
256,192,67008,1,0,0:0:0:0:
256,192,67640,1,0,0:0:0:0:
256,192,68271,1,0,0:0:0:0:
256,192,68587,1,8,0:0:0:0:
256,192,68903,1,0,0:0:0:0:
256,192,69219,1,0,0:0:0:0:
256,192,69535,1,8,0:0:0:0:
256,192,70166,1,4,0:0:0:0:
256,192,70798,1,8,0:0:0:0:
256,192,71429,1,0,0:0:0:0:
256,192,71745,1,0,0:0:0:0:
256,192,72061,1,8,0:0:0:0:
256,192,72693,1,0,0:0:0:0:
256,192,73008,1,8,0:0:0:0:
256,192,73324,1,0,0:0:0:0:
256,192,73956,1,0,0:0:0:0:
256,192,74271,1,0,0:0:0:0:
256,192,74587,1,8,0:0:0:0:
256,192,75219,1,0,0:0:0:0:
256,192,75535,1,0,0:0:0:0:
256,192,75850,1,8,0:0:0:0:
256,192,76166,1,0,0:0:0:0:
256,192,76482,1,0,0:0:0:0:
256,192,76798,1,0,0:0:0:0:
256,192,77114,1,8,0:0:0:0:
256,192,77745,1,0,0:0:0:0:
256,192,78061,1,0,0:0:0:0:
256,192,78377,1,8,0:0:0:0:
256,192,78693,1,0,0:0:0:0:
256,192,79324,1,0,0:0:0:0:
256,192,79640,1,8,0:0:0:0:
256,192,80271,1,0,0:0:0:0:
256,192,80587,1,8,0:0:0:0:
256,192,80903,1,0,0:0:0:0:
256,192,81219,1,8,0:0:0:0:
256,192,81535,1,4,0:0:0:0:
256,192,81850,1,12,0:0:0:0:
256,192,82166,1,4,0:0:0:0:
256,192,82482,1,12,0:0:0:0:
256,192,83114,1,8,0:0:0:0:
256,192,83429,1,0,0:0:0:0:
256,192,83745,1,8,0:0:0:0:
256,192,84061,1,0,0:0:0:0:
256,192,84377,1,0,0:0:0:0:
256,192,84693,1,12,0:0:0:0:
256,192,85324,1,0,0:0:0:0:
256,192,85640,1,8,0:0:0:0:
256,192,85956,1,0,0:0:0:0:
256,192,86271,1,8,0:0:0:0:
256,192,86903,1,0,0:0:0:0:
256,192,87219,1,0,0:0:0:0:
256,192,87535,1,8,0:0:0:0:
256,192,87850,1,0,0:0:0:0:
256,192,88166,1,8,0:0:0:0:
256,192,88798,1,8,0:0:0:0:
256,192,89114,1,4,0:0:0:0:
256,192,89429,1,4,0:0:0:0:
256,192,89745,1,12,0:0:0:0:
256,192,90377,1,0,0:0:0:0:
256,192,90693,1,8,0:0:0:0:
256,192,91009,1,0,0:0:0:0:
256,192,91325,1,0,0:0:0:0:
256,192,91641,1,0,0:0:0:0:
256,192,91956,1,8,0:0:0:0:
256,192,92272,1,0,0:0:0:0:
256,192,92588,1,8,0:0:0:0:
256,192,93219,1,8,0:0:0:0:
256,192,93535,1,0,0:0:0:0:
256,192,93851,1,8,0:0:0:0:
256,192,94167,1,4,0:0:0:0:
256,192,94483,1,12,0:0:0:0:
256,192,94799,1,4,0:0:0:0:
256,192,95430,1,0,0:0:0:0:
256,192,95746,1,8,0:0:0:0:
256,192,96062,1,0,0:0:0:0:
256,192,96377,1,8,0:0:0:0:
256,192,96693,1,0,0:0:0:0:
256,192,97325,1,0,0:0:0:0:
256,192,97641,1,8,0:0:0:0:
256,192,97956,1,0,0:0:0:0:
256,192,98588,1,0,0:0:0:0:
256,192,98903,1,8,0:0:0:0:
256,192,99220,1,8,0:0:0:0:
256,192,99535,1,8,0:0:0:0:
256,192,99851,1,0,0:0:0:0:
256,192,100482,1,0,0:0:0:0:
256,192,100798,1,8,0:0:0:0:
256,192,101114,1,0,0:0:0:0:
256,192,101430,1,8,0:0:0:0:
256,192,101746,1,4,0:0:0:0:
256,192,102061,1,12,0:0:0:0:
256,192,102377,1,12,0:0:0:0:
256,192,102693,1,4,0:0:0:0:
256,192,103325,1,8,0:0:0:0:
256,192,103640,1,0,0:0:0:0:
256,192,103956,1,8,0:0:0:0:
256,192,104272,1,0,0:0:0:0:
256,192,104588,1,0,0:0:0:0:
256,192,104904,1,12,0:0:0:0:
256,192,105535,1,0,0:0:0:0:
256,192,105851,1,0,0:0:0:0:
256,192,106167,1,8,0:0:0:0:
256,192,106482,1,8,0:0:0:0:
256,192,106798,1,0,0:0:0:0:
256,192,107114,1,0,0:0:0:0:
256,192,107745,1,8,0:0:0:0:
256,192,108061,1,0,0:0:0:0:
256,192,108377,1,8,0:0:0:0:
256,192,109009,1,8,0:0:0:0:
256,192,109325,1,4,0:0:0:0:
256,192,109640,1,4,0:0:0:0:
256,192,109956,1,12,0:0:0:0:
256,192,110587,1,0,0:0:0:0:
256,192,110903,1,8,0:0:0:0:
256,192,111219,1,0,0:0:0:0:
256,192,111535,1,0,0:0:0:0:
256,192,111851,1,0,0:0:0:0:
256,192,112166,1,8,0:0:0:0:
256,192,112482,1,0,0:0:0:0:
256,192,112798,1,8,0:0:0:0:
256,192,113430,1,8,0:0:0:0:
256,192,113745,1,0,0:0:0:0:
256,192,114061,1,0,0:0:0:0:
256,192,114377,1,0,0:0:0:0:
256,192,114693,1,0,0:0:0:0:
256,192,115009,1,8,0:0:0:0:
256,192,115640,1,0,0:0:0:0:
256,192,115956,1,8,0:0:0:0:
256,192,116272,1,0,0:0:0:0:
256,192,116587,1,8,0:0:0:0:
256,192,116903,1,0,0:0:0:0:
256,192,117219,1,8,0:0:0:0:
256,192,117535,1,0,0:0:0:0:
256,192,118166,1,0,0:0:0:0:
256,192,118482,1,8,0:0:0:0:
256,192,118798,1,0,0:0:0:0:
256,192,119114,1,8,0:0:0:0:
256,192,119430,1,0,0:0:0:0:
256,192,119745,1,0,0:0:0:0:
256,192,120061,1,8,0:0:0:0:
256,192,120693,1,0,0:0:0:0:
256,192,121166,1,0,0:0:0:0:
256,192,121798,1,0,0:0:0:0:
256,192,122272,1,0,0:0:0:0:
256,192,122903,1,0,0:0:0:0:
256,192,123377,1,0,0:0:0:0:
256,192,124008,1,0,0:0:0:0:
256,192,124482,1,0,0:0:0:0:
256,192,125114,1,0,0:0:0:0:
256,192,125587,1,0,0:0:0:0:
256,192,126219,1,0,0:0:0:0:
256,192,126693,1,0,0:0:0:0:
256,192,127324,1,0,0:0:0:0:
256,192,127798,1,0,0:0:0:0:
256,192,128430,1,0,0:0:0:0:
256,192,128903,1,0,0:0:0:0:
256,192,129535,1,0,0:0:0:0:
256,192,130008,1,0,0:0:0:0:
256,192,130640,1,0,0:0:0:0:
256,192,131114,1,0,0:0:0:0:
256,192,131745,1,0,0:0:0:0:
256,192,132219,1,0,0:0:0:0:
256,192,132851,1,0,0:0:0:0:
256,192,133324,1,0,0:0:0:0:
256,192,133956,1,0,0:0:0:0:
256,192,134430,1,0,0:0:0:0:
256,192,135061,1,0,0:0:0:0:
256,192,135535,1,0,0:0:0:0:
256,192,136166,1,0,0:0:0:0:
256,192,136640,1,0,0:0:0:0:
256,192,137272,1,0,0:0:0:0:
256,192,137745,1,0,0:0:0:0:
256,192,138061,1,8,0:0:0:0:
256,192,138377,1,12,0:0:0:0:
256,192,138693,1,0,0:0:0:0:
256,192,139008,1,0,0:0:0:0:
256,192,139324,1,0,0:0:0:0:
256,192,139640,1,0,0:0:0:0:
256,192,139956,1,0,0:0:0:0:
256,192,140271,1,8,0:0:0:0:
256,192,140903,1,0,0:0:0:0:
256,192,141219,1,0,0:0:0:0:
256,192,141535,1,8,0:0:0:0:
256,192,141850,1,0,0:0:0:0:
256,192,142166,1,8,0:0:0:0:
256,192,142482,1,0,0:0:0:0:
256,192,142798,1,0,0:0:0:0:
256,192,143114,1,0,0:0:0:0:
256,192,143429,1,0,0:0:0:0:
256,192,143745,1,8,0:0:0:0:
256,192,144061,1,0,0:0:0:0:
256,192,144377,1,8,0:0:0:0:
256,192,144693,1,0,0:0:0:0:
256,192,145008,1,0,0:0:0:0:
256,192,145324,1,0,0:0:0:0:
256,192,145640,1,0,0:0:0:0:
56,72,145956,2,0,L|480:68,1,420
256,192,147219,1,0,0:0:0:0:
256,192,147535,1,8,0:0:0:0:
256,192,147850,1,0,0:0:0:0:
256,192,148166,1,12,0:0:0:0:
256,192,148798,1,0,0:0:0:0:
256,192,149114,1,8,0:0:0:0:
256,192,149429,1,0,0:0:0:0:
256,192,149745,1,8,0:0:0:0:
256,192,150061,1,0,0:0:0:0:
256,192,150377,1,0,0:0:0:0:
256,192,150693,1,0,0:0:0:0:
256,192,151008,1,0,0:0:0:0:
256,192,151640,1,8,0:0:0:0:
256,192,151956,1,0,0:0:0:0:
256,192,152271,1,0,0:0:0:0:
256,192,152587,1,8,0:0:0:0:
256,192,152903,1,0,0:0:0:0:
256,192,153535,1,0,0:0:0:0:
256,192,153850,1,8,0:0:0:0:
256,192,154166,1,0,0:0:0:0:
256,192,154482,1,8,0:0:0:0:
256,192,154798,1,0,0:0:0:0:
256,192,155114,1,0,0:0:0:0:
256,192,155429,1,0,0:0:0:0:
256,192,155745,1,8,0:0:0:0:
256,192,156061,1,0,0:0:0:0:
256,192,156377,1,8,0:0:0:0:
256,192,156693,1,0,0:0:0:0:
48,48,157324,2,0,L|472:48,1,420
256,192,158903,1,8,0:0:0:0:
256,192,159219,1,0,0:0:0:0:
256,192,159535,1,8,0:0:0:0:
256,192,160166,1,8,0:0:0:0:
256,192,160482,1,0,0:0:0:0:
256,192,160798,1,8,0:0:0:0:
256,192,161429,1,8,0:0:0:0:
256,192,161745,1,0,0:0:0:0:
256,192,162061,1,8,0:0:0:0:
256,192,162377,1,0,0:0:0:0:
256,192,162693,1,0,0:0:0:0:
256,192,163008,1,0,0:0:0:0:
256,192,163324,1,0,0:0:0:0:
256,192,163640,1,8,0:0:0:0:
256,192,163956,1,8,0:0:0:0:
256,192,164587,1,8,0:0:0:0:
256,192,164903,1,0,0:0:0:0:
256,192,165219,1,0,0:0:0:0:
256,192,165535,1,0,0:0:0:0:
256,192,165850,1,8,0:0:0:0:
256,192,166166,1,0,0:0:0:0:
256,192,166482,1,8,0:0:0:0:
256,192,167114,1,8,0:0:0:0:
188,88,167429,2,0,L|360:88|100:88,1,420
256,192,168693,1,0,0:0:0:0:
256,192,169324,1,8,0:0:0:0:
256,192,169956,1,0,0:0:0:0:
256,192,170271,1,0,0:0:0:0:
256,192,170587,1,8,0:0:0:0:
256,192,171219,1,0,0:0:0:0:
256,192,171535,1,0,0:0:0:0:
256,192,171850,1,8,0:0:0:0:
256,192,172482,1,0,0:0:0:0:
256,192,172798,1,0,0:0:0:0:
256,192,173114,1,8,0:0:0:0:
256,192,173745,1,0,0:0:0:0:
256,192,174061,1,0,0:0:0:0:
256,192,174377,1,8,0:0:0:0:
256,192,174693,1,0,0:0:0:0:
256,192,175324,1,0,0:0:0:0:
256,192,175640,1,8,0:0:0:0:
256,192,175956,1,0,0:0:0:0:
256,192,176587,1,0,0:0:0:0:
256,192,176903,1,8,0:0:0:0:
256,192,177535,1,0,0:0:0:0:
256,192,177850,1,0,0:0:0:0:
256,192,178166,1,8,0:0:0:0:
256,192,178798,1,0,0:0:0:0:
256,192,179114,1,0,0:0:0:0:
256,192,179429,1,0,0:0:0:0:
256,192,179745,1,0,0:0:0:0:
256,192,180377,1,0,0:0:0:0:
256,192,180693,1,0,0:0:0:0:
256,192,181008,1,0,0:0:0:0:
256,192,181640,1,0,0:0:0:0:
256,192,181956,1,0,0:0:0:0:
256,192,182271,1,0,0:0:0:0:
256,192,182587,1,0,0:0:0:0:
256,192,182903,1,0,0:0:0:0:
256,192,183219,1,0,0:0:0:0:
256,192,183850,1,8,0:0:0:0:
256,192,184166,1,0,0:0:0:0:
256,192,184482,1,8,0:0:0:0:
256,192,184798,1,0,0:0:0:0:
256,192,185114,1,8,0:0:0:0:
256,192,185429,1,8,0:0:0:0:
256,192,185745,1,0,0:0:0:0:
256,192,186061,1,0,0:0:0:0:
256,192,186693,1,0,0:0:0:0:
256,192,187008,1,8,0:0:0:0:
256,192,187324,1,0,0:0:0:0:
256,192,187640,1,8,0:0:0:0:
256,192,187956,1,0,0:0:0:0:
256,192,188271,1,8,0:0:0:0:
256,192,188903,1,4,0:0:0:0:
256,192,189219,1,4,0:0:0:0:
256,192,189535,1,4,0:0:0:0:
256,192,190166,1,0,0:0:0:0:
256,192,190482,1,8,0:0:0:0:
256,192,190798,1,0,0:0:0:0:
256,192,191114,1,8,0:0:0:0:
256,192,191430,1,4,0:0:0:0:
256,192,191745,1,12,0:0:0:0:
256,192,192061,1,4,0:0:0:0:
256,192,192377,1,12,0:0:0:0:
256,192,193008,1,8,0:0:0:0:
256,192,193324,1,0,0:0:0:0:
256,192,193640,1,0,0:0:0:0:
256,192,193956,1,0,0:0:0:0:
256,192,194272,1,0,0:0:0:0:
256,192,194588,1,12,0:0:0:0:
256,192,195219,1,0,0:0:0:0:
256,192,195535,1,8,0:0:0:0:
256,192,195851,1,0,0:0:0:0:
256,192,196166,1,0,0:0:0:0:
256,192,196798,1,0,0:0:0:0:
256,192,197114,1,0,0:0:0:0:
256,192,197430,1,8,0:0:0:0:
256,192,197745,1,0,0:0:0:0:
256,192,198061,1,0,0:0:0:0:
256,192,198377,1,0,0:0:0:0:
256,192,198693,1,8,0:0:0:0:
256,192,199009,1,8,0:0:0:0:
256,192,199324,1,0,0:0:0:0:
256,192,199640,1,8,0:0:0:0:
256,192,200271,1,0,0:0:0:0:
256,192,200587,1,8,0:0:0:0:
256,192,200903,1,0,0:0:0:0:
256,192,201219,1,0,0:0:0:0:
256,192,201535,1,4,0:0:0:0:
256,192,201850,1,12,0:0:0:0:
256,192,202166,1,12,0:0:0:0:
256,192,202482,1,4,0:0:0:0:
256,192,203114,1,8,0:0:0:0:
256,192,203429,1,0,0:0:0:0:
256,192,203745,1,0,0:0:0:0:
256,192,204061,1,0,0:0:0:0:
256,192,204377,1,8,0:0:0:0:
256,192,204693,1,8,0:0:0:0:
256,192,205324,1,0,0:0:0:0:
256,192,205640,1,8,0:0:0:0:
256,192,205956,1,8,0:0:0:0:
256,192,206271,1,8,0:0:0:0:
256,192,206587,1,0,0:0:0:0:
256,192,206903,1,0,0:0:0:0:
256,192,207219,1,0,0:0:0:0:
256,192,207535,1,8,0:0:0:0:
256,192,207850,1,0,0:0:0:0:
256,192,208166,1,0,0:0:0:0:
256,192,208482,1,0,0:0:0:0:
256,192,208798,1,8,0:0:0:0:
28,56,209114,2,0,L|464:56,1,420
256,192,210376,1,0,0:0:0:0:
256,192,210692,1,8,0:0:0:0:
256,192,211008,1,0,0:0:0:0:
256,192,211324,1,8,0:0:0:0:
256,192,211955,1,8,0:0:0:0:
256,192,212271,1,0,0:0:0:0:
256,192,212587,1,8,0:0:0:0:
256,192,213219,1,8,0:0:0:0:
256,192,213534,1,8,0:0:0:0:
256,192,213850,1,0,0:0:0:0:
256,192,214166,1,4,0:0:0:0:
256,192,214482,1,12,0:0:0:0:
256,192,214798,1,12,0:0:0:0:
256,192,215429,1,0,0:0:0:0:
256,192,215745,1,8,0:0:0:0:
256,192,216061,1,0,0:0:0:0:
256,192,216376,1,0,0:0:0:0:
256,192,217008,1,0,0:0:0:0:
256,192,217324,1,0,0:0:0:0:
256,192,217640,1,8,0:0:0:0:
256,192,218271,1,8,0:0:0:0:
256,192,218587,1,0,0:0:0:0:
256,192,218903,1,0,0:0:0:0:
256,192,219219,1,12,0:0:0:0:
256,192,219534,1,4,0:0:0:0:
256,192,219850,1,12,0:0:0:0:
256,192,220482,1,8,0:0:0:0:
256,192,220798,1,8,0:0:0:0:
256,192,221114,1,0,0:0:0:0:
256,192,221430,1,0,0:0:0:0:
256,192,221745,1,4,0:0:0:0:
256,192,222061,1,12,0:0:0:0:
256,192,222377,1,12,0:0:0:0:
256,192,222693,1,12,0:0:0:0:
256,192,223009,1,0,0:0:0:0:
256,192,223324,1,0,0:0:0:0:
256,192,223640,1,0,0:0:0:0:
256,192,223956,1,8,0:0:0:0:
256,192,224272,1,0,0:0:0:0:
256,192,224588,1,0,0:0:0:0:
256,192,224904,1,12,0:0:0:0:
256,192,225535,1,0,0:0:0:0:
256,192,225851,1,8,0:0:0:0:
256,192,226167,1,0,0:0:0:0:
256,192,226482,1,0,0:0:0:0:
256,192,227114,1,8,0:0:0:0:
256,192,227430,1,0,0:0:0:0:
256,192,227746,1,0,0:0:0:0:
256,192,228061,1,8,0:0:0:0:
256,192,228377,1,0,0:0:0:0:
256,192,228693,1,0,0:0:0:0:
256,192,229009,1,8,0:0:0:0:
256,192,229325,1,0,0:0:0:0:
256,192,229640,1,0,0:0:0:0:
256,192,229956,1,8,0:0:0:0:
256,192,230587,1,4,0:0:0:0:
