osu file format v14

[General]
AudioFilename: audio.mp3
AudioLeadIn: 0
PreviewTime: 5547
Countdown: 0
SampleSet: Soft
StackLeniency: 0.3
Mode: 0
LetterboxInBreaks: 0
WidescreenStoryboard: 1

[Editor]
Bookmarks: 338,6086,17583,29080,40577,52052,60510,66445,72193,83690,95187,106677,115115,126806,138303,144044,158413,169900,178359,184289,194888
DistanceSpacing: 1.5
BeatDivisor: 4
GridSize: 32
TimelineZoom: 2.699999

[Metadata]
Title:Ashita o Narase
TitleUnicode:明日を鳴らせ
Artist:Shishido Kavka
ArtistUnicode:シシド・カフカ
Creator:elicz1
Version:Zelq's Expert
Source:FAIRY TAIL
Tags:zelq AirinCat FuJu japanese wo rock jp j-pop pop jpop j-rock jrock avex single anime ft fairy tail ZERO 0 ゼロ 2014 フェアリーテイル tale opening 22 season eight 8 s8 natsu ナツ dragneel ドラグニル zeref ゼレフ mavis メイビス vermillion ヴァーミリオン
BeatmapID:2995623
BeatmapSetID:1457607

[Difficulty]
HPDrainRate:6
CircleSize:4
OverallDifficulty:8
ApproachRate:8
SliderMultiplier:1.8
SliderTickRate:1

[Events]
//Background and Video events
0,0,"zeref2.jpg",0,0
//Break Periods
//Storyboard Layer 0 (Background)
//Storyboard Layer 1 (Fail)
//Storyboard Layer 2 (Pass)
//Storyboard Layer 3 (Foreground)
//Storyboard Layer 4 (Overlay)
//Storyboard Sound Samples

[TimingPoints]
338,359.281437125748,4,2,1,50,1,0
338,-125,4,2,1,50,0,0
5727,-250,4,2,4,40,0,0
6041,-250,4,2,4,5,0,0
6086,-100,4,2,1,70,0,0
16820,-100,4,2,1,5,0,0
16864,-250,4,2,1,70,0,0
17044,-250,4,2,2,60,0,0
17224,-250,4,2,1,50,0,0
17583,-142.857142857143,4,2,1,45,0,0
29080,-125,4,2,1,50,0,0
39140,-125,4,2,1,60,0,0
39858,-200,4,2,1,60,0,0
40577,358.208955223881,4,2,1,80,1,0
40577,-100,4,2,1,80,0,1
47741,359.281437125748,4,2,1,80,1,1
47741,-100,4,2,1,80,0,1
59238,363.636363636364,4,2,1,80,1,1
62328,359.281437125748,4,2,1,80,1,1
63585,359.281437125748,4,2,1,80,1,1
64932,-100,4,2,2,75,0,0
65022,-100,4,2,1,70,0,0
65202,-100,4,2,2,60,0,0
65381,-100,4,2,1,50,0,0
65651,-100,4,2,2,40,0,0
66089,356.083086053412,4,2,4,70,1,0
66089,-250,4,2,4,70,0,1
66400,-250,4,2,4,5,0,0
66445,359.281437125748,4,2,1,70,1,0
66445,-100,4,2,1,70,0,0
71430,-100,4,2,1,5,0,0
71474,-250,4,2,1,70,0,0
71654,-250,4,2,2,60,0,0
71834,-250,4,2,1,50,0,0
72193,-142.857142857143,4,2,1,50,0,0
83690,-125,4,2,1,55,0,0
92852,-125,4,2,3,55,0,0
93031,-125,4,2,1,55,0,0
93211,-125,4,2,1,60,0,0
93391,-125,4,2,1,65,0,0
93570,-125,4,2,1,70,0,0
93750,-200,4,2,1,55,0,0
95187,359.066427289048,4,2,1,80,1,0
95187,-100,4,2,1,80,0,1
115115,363.636363636364,4,2,1,70,1,0
115115,-142.857142857143,4,2,1,70,0,0
116024,361.44578313253,4,2,1,70,1,0
116024,-125,4,2,1,70,0,0
116566,-250,4,2,1,70,0,0
116656,-250,4,2,2,60,0,0
116746,-250,4,2,1,50,0,0
116837,-250,4,2,2,40,0,0
117108,-250,4,2,1,30,0,0
117469,-250,4,2,2,20,0,0
117831,-250,4,2,1,60,0,0
118184,359.281437125748,4,2,1,60,1,0
118184,-111.111111111111,4,2,1,60,0,0
125369,-111.111111111111,4,2,1,80,0,0
125728,-111.111111111111,4,2,1,75,0,0
126088,-111.111111111111,4,2,1,70,0,0
126447,-111.111111111111,4,2,1,65,0,0
135429,-166.666666666666,4,2,1,65,0,0
135669,-166.666666666666,4,2,1,50,0,0
138303,358.851674641148,4,2,1,40,1,0
143685,-100,4,2,1,70,0,0
143865,-100,4,2,1,80,0,1
145480,359.281437125748,4,2,1,80,1,0
145480,-100,4,2,1,80,0,1
149791,360.36036036036,4,2,1,80,1,1
155556,357.142857142857,4,2,1,80,1,1
158413,359.281437125748,4,2,1,80,1,1
168472,357.142857142857,4,2,1,80,1,1
169900,361.44578313253,4,2,1,80,1,1
172791,359.281437125748,4,2,1,80,1,1
178539,360.36036036036,4,2,1,80,1,1
182683,-100,4,2,1,80,0,0
182773,-100,4,2,2,75,0,0
182863,-100,4,2,1,70,0,0
183043,-100,4,2,2,60,0,0
183223,-100,4,2,1,50,0,0
183493,-100,4,2,2,40,0,0
183930,359.281437125748,4,2,4,70,1,0
183930,-250,4,2,4,70,0,1
184244,-250,4,2,4,5,0,0
184289,359.281437125748,4,2,1,70,1,0
184289,-100,4,2,1,70,0,0
184290,-100,4,2,1,70,0,0
194977,-100,4,2,2,65,0,0
195067,-250,4,2,1,60,0,0
195157,-250,4,2,2,50,0,0
195247,-250,4,2,1,35,0,0
195426,-250,4,2,2,20,0,0
195606,-250,4,2,1,5,0,0
195786,-142.857142857143,4,2,2,20,0,0
196145,-142.857142857143,4,2,1,10,0,0
196863,-142.857142857143,4,2,2,5,0,0

[Colours]
Combo1 : 167,101,239
Combo2 : 186,180,177
Combo3 : 139,132,129
Combo4 : 216,82,67

[HitObjects]
317,66,338,6,0,L|387:49,1,72,2|0,1:3|3:2,0:0:0:0:
401,47,577,2,0,L|443:56,2,24,0|0|0,3:2|3:2|3:2,0:0:0:0:
490,310,1056,6,2,P|501:255|518:202,2,96,2|2|2,1:3|1:3|1:3,2:1:0:0:
421,372,1775,2,0,P|366:378|338:362,1,72,2|0,1:3|3:2,0:0:0:0:
340,363,2014,2,0,L|333:333,2,24,0|0|0,3:2|3:2|3:2,0:0:0:0:
90,58,2493,38,2,P|45:41|0:27,2,96,2|2|2,1:3|1:3|1:3,2:1:0:0:
169,113,3212,2,0,P|173:77|181:42,1,72,2|0,1:3|3:2,0:0:0:0:
187,30,3451,2,0,L|163:34,2,24,0|0|0,3:2|3:2|3:2,0:0:0:0:
61,273,3930,6,2,P|73:319|78:367,2,96,2|2|2,1:3|1:3|1:3,2:1:0:0:
115,195,4649,2,0,L|205:217,1,72,2|0,1:3|3:2,0:0:0:0:
200,212,4888,2,0,L|231:202,2,24,0|0|0,3:2|3:2|3:2,0:0:0:0:
488,60,5727,38,0,P|461:46|431:34,1,63,2|0,2:2|0:0,2:2:0:0:
358,43,6086,22,2,P|401:33|445:23,1,90,6|0,1:2|0:0,2:1:0:0:
422,119,6355,1,0,2:2:0:0:
422,119,6445,2,0,P|405:161|396:219,1,90,0|0,3:2|2:2,2:2:0:0:
445,373,6805,1,10,3:2:0:0:
477,271,7074,1,10,3:2:0:0:
477,271,7164,1,0,3:2:0:0:
357,364,7343,1,10,3:2:0:0:
218,347,7523,22,0,P|196:307|201:253,1,90,14|0,1:2|2:2,0:0:0:0:
141,380,7793,2,0,P|100:361|57:348,1,90,0|0,2:2|2:2,0:0:0:0:
2,294,8062,1,2,2:2:0:0:
167,190,8242,1,10,3:2:0:0:
79,120,8511,1,10,3:2:0:0:
79,120,8601,1,0,3:2:0:0:
79,248,8781,1,10,3:2:0:0:
197,263,8960,22,2,P|283:239|368:208,1,180,14|0,1:2|3:2,2:1:0:0:
512,335,9499,2,0,P|468:316|411:300,1,90,0|10,2:2|3:2,2:0:0:0:
307,269,9948,1,10,3:2:0:0:
307,269,10038,1,0,3:2:0:0:
466,209,10218,1,10,3:2:0:0:
296,13,10397,22,0,P|303:57|325:96,1,90,14|0,1:2|2:2,0:0:0:0:
399,134,10667,2,0,P|439:111|482:96,1,90,0|0,2:2|2:2,0:0:0:0:
408,28,10936,1,2,2:2:0:0:
269,158,11116,1,10,3:2:0:0:
172,105,11385,1,10,3:2:0:0:
172,105,11475,1,0,3:2:0:0:
368,208,11655,1,10,3:2:0:0:
241,376,11835,22,0,P|198:364|154:354,1,90,14|0,1:2|0:0,0:0:0:0:
29,384,12104,1,2,2:2:0:0:
29,384,12194,2,0,P|42:342|51:297,1,90,0|2,3:2|2:2,0:0:0:0:
0,118,12553,22,2,P|41:134|84:149,1,90,10|0,3:2|2:2,2:1:0:0:
84,149,12823,1,10,3:2:0:0:
123,221,12912,2,2,P|83:243|46:268,1,90,0|10,3:2|3:2,2:1:0:0:
75,56,13272,21,14,1:2:0:0:
168,36,13451,1,0,0:0:0:0:
168,36,13541,1,2,2:2:0:0:
259,15,13721,1,2,2:2:0:0:
259,15,13811,1,0,2:2:0:0:
281,262,13990,22,2,P|252:228|254:184,1,90,10|0,3:2|2:2,2:1:0:0:
254,184,14260,1,10,3:2:0:0:
326,154,14349,2,2,L|434:177,1,90,0|10,3:2|3:2,2:1:0:0:
274,357,14709,22,0,L|453:320,1,180,14|0,1:2|3:2,0:0:0:0:
498,229,15248,1,0,2:2:0:0:
343,59,15427,1,10,3:2:0:0:
290,169,15697,1,10,3:2:0:0:
290,169,15787,1,0,3:2:0:0:
439,90,15966,1,10,3:2:0:0:
360,249,16146,22,0,P|317:263|273:280,1,90,14|0,1:2|2:2,0:0:0:0:
192,233,16415,2,0,P|175:275|143:309,1,90,2|0,2:2|2:2,0:0:0:0:
81,376,16685,2,0,L|3:358,1,67.5,2|0,2:2|0:0,0:0:0:0:
1,279,16864,22,2,P|47:262|98:230,1,108,6|0,3:2|0:0,2:1:0:0:
180,77,17583,5,6,1:2:0:0:
180,77,17942,1,2,3:2:0:0:
180,77,18302,1,0,3:2:0:0:
34,193,18661,5,2,3:2:0:0:
73,112,18840,1,2,2:2:0:0:
44,25,19020,1,2,1:2:0:0:
44,25,19379,1,2,3:2:0:0:
234,151,19739,37,0,3:2:0:0:
321,129,19918,1,2,2:2:0:0:
366,51,20098,1,2,3:2:0:0:
454,32,20278,1,2,2:2:0:0:
478,118,20457,1,2,1:2:0:0:
478,118,20817,1,2,3:2:0:0:
478,118,21176,1,0,3:2:0:0:
313,256,21535,5,2,3:2:0:0:
397,223,21715,1,2,2:2:0:0:
474,268,21894,1,2,1:2:0:0:
474,268,22254,1,2,3:2:0:0:
267,336,22613,37,0,3:2:0:0:
313,256,22793,1,2,2:2:0:0:
190,299,22972,1,2,3:2:0:0:
71,334,23152,1,2,2:2:0:0:
115,258,23332,1,0,1:2:0:0:
115,258,23691,1,2,3:2:0:0:
115,258,24050,1,2,3:2:0:0:
115,258,24409,1,2,3:2:0:0:
67,15,24769,5,2,1:2:0:0:
132,76,24948,1,2,2:2:0:0:
110,163,25128,1,2,3:2:0:0:
25,193,25308,1,0,0:0:0:0:
67,15,25667,37,2,2:2:0:0:
132,76,25846,1,2,3:2:0:0:
218,102,26026,1,2,2:2:0:0:
307,91,26206,1,2,1:2:0:0:
385,48,26385,1,2,2:2:0:0:
482,134,26565,1,2,3:2:0:0:
482,134,26924,1,0,3:2:0:0:
482,134,27284,1,2,3:2:0:0:
482,134,27643,1,0,1:2:0:0:
482,134,28002,1,2,3:2:0:0:
216,379,28361,5,0,3:2:0:0:
290,325,28541,1,2,2:2:0:0:
417,378,28721,1,2,3:2:0:0:
512,275,28900,1,2,2:2:0:0:
435,227,29080,38,0,P|364:212|296:188,1,144,6|2,1:2|3:2,0:0:0:0:
296,188,29799,1,0,3:2:0:0:
296,188,30158,1,2,3:2:0:0:
176,296,30337,5,10,3:3:0:0:
176,296,30427,1,10,3:3:0:0:
176,296,30517,1,10,1:3:0:0:
176,296,30876,1,2,3:2:0:0:
23,384,31236,37,0,3:2:0:0:
0,289,31415,1,2,2:2:0:0:
94,336,31595,1,2,3:2:0:0:
72,241,31775,1,2,2:2:0:0:
2,177,31954,6,0,P|39:163|84:139,1,72,2|0,1:2|2:2,2:2:0:0:
161,186,32314,2,0,P|172:116|195:47,1,144,2|0,3:2|3:2,2:2:0:0:
195,47,33032,1,2,3:2:0:0:
53,39,33212,37,10,3:3:0:0:
53,39,33302,1,10,3:3:0:0:
53,39,33391,1,10,1:3:0:0:
53,39,33751,1,2,3:2:0:0:
344,73,34110,5,0,3:2:0:0:
268,145,34290,1,2,2:2:0:0:
369,162,34469,1,2,3:2:0:0:
440,91,34649,1,2,2:2:0:0:
344,73,34829,1,0,1:2:0:0:
221,384,35188,37,2,3:2:0:0:
305,346,35367,1,2,2:2:0:0:
390,384,35547,2,0,P|448:343|512:309,1,144,2|2,3:2|3:2,2:2:0:0:
366,276,36086,5,10,3:3:0:0:
366,276,36176,1,10,3:3:0:0:
366,276,36266,1,10,1:3:0:0:
366,276,36625,1,2,3:2:0:0:
512,59,36984,37,2,3:2:0:0:
442,119,37164,1,2,2:2:0:0:
354,142,37343,1,2,3:2:0:0:
257,131,37523,1,2,2:2:0:0:
185,70,37703,2,0,L|197:0,1,72,2|2,1:2|2:2,0:0:0:0:
257,131,38062,2,0,P|207:163|178:260,1,144,2|0,3:2|3:2,2:2:0:0:
176,239,38781,1,6,3:2:0:0:
79,384,38960,5,2,3:2:0:0:
171,355,39140,1,14,1:2:0:0:
116,102,39320,37,10,3:2:0:0:
3,203,39499,1,10,3:2:0:0:
104,300,39679,1,8,3:2:0:0:
176,239,39858,2,0,L|240:250,2,45,2|2|2,0:0|0:0|0:0,0:0:0:0:
325,349,40577,38,0,L|422:367,1,90,6|0,1:2|3:2,0:0:0:0:
493,318,40935,1,8,3:2:0:0:
376,263,41114,2,0,P|356:175|331:84,1,180,2|2,2:2|3:2,2:2:0:0:
394,15,41651,1,10,3:2:0:0:
507,128,41830,1,2,2:2:0:0:
286,214,42009,5,2,1:2:0:0:
239,129,42188,1,2,3:2:0:0:
332,88,42368,2,0,P|417:114|506:128,1,180,10|0,3:2|3:2,0:0:0:0:
447,208,42905,1,2,3:2:0:0:
325,349,43084,1,10,3:2:0:0:
389,277,43263,1,2,2:2:0:0:
176,239,43442,37,0,1:2:0:0:
216,327,43621,1,2,3:2:0:0:
141,150,43800,1,8,3:2:0:0:
52,225,43979,2,0,P|77:260|96:304,1,90,2|0,2:2|3:2,2:2:0:0:
148,62,44338,2,0,P|172:148|176:238,1,180,2|2,3:2|2:2,2:2:0:0:
24,366,44875,1,0,1:2:0:0:
0,149,45054,5,2,3:2:0:0:
148,62,45233,1,10,3:2:0:0:
46,40,45412,1,2,2:2:0:0:
52,225,45591,37,2,3:2:0:0:
46,40,45771,1,2,3:2:0:0:
0,149,45950,1,10,3:2:0:0:
148,62,46129,1,0,0:0:0:0:
261,5,46308,6,0,L|245:93,1,90,2|0,1:2|3:2,0:0:0:0:
339,183,46666,2,0,P|409:134|394:48,1,180,10|2,3:2|3:2,2:2:0:0:
395,49,47203,1,0,3:2:0:0:
244,93,47382,2,0,L|228:181,1,90,8|2,3:2|2:2,0:0:0:0:
149,233,47741,1,2,1:2:0:0:
439,384,48010,37,2,2:2:0:0:
439,384,48100,1,8,3:2:0:0:
508,328,48279,2,0,L|489:239,1,90,2|0,2:2|3:2,2:2:0:0:
489,239,48639,1,0,3:2:0:0:
383,309,48818,2,0,L|296:284,1,90,8|2,3:2|2:2,0:0:0:0:
47,372,49178,5,0,1:2:0:0:
138,352,49357,1,2,3:2:0:0:
218,237,49537,1,10,3:2:0:0:
123,221,49717,1,2,2:2:0:0:
138,352,49896,1,2,3:2:0:0:
123,221,50076,1,2,3:2:0:0:
23,251,50255,2,0,P|30:207|36:163,1,90,10|0,3:2|2:2,2:2:0:0:
0,68,50615,37,6,1:2:0:0:
167,30,50794,1,0,3:2:0:0:
84,49,50974,1,8,3:2:0:0:
246,12,51154,1,0,2:2:0:0:
167,30,51333,5,6,3:2:0:0:
335,59,51513,1,0,3:2:0:0:
300,266,51693,1,8,3:2:0:0:
123,221,51872,1,0,2:2:0:0:
194,174,52052,38,0,P|243:100|245:11,1,180,6|8,1:2|3:2,0:0:0:0:
481,133,52591,2,0,P|392:126|314:169,1,180,2|2,2:2|3:2,2:2:0:0:
188,278,53130,2,0,P|202:320|209:365,1,90,10|2,3:2|2:2,0:0:0:0:
300,266,53489,5,2,1:2:0:0:
393,281,53669,1,2,3:2:0:0:
486,298,53848,2,0,P|472:340|462:384,1,90,8|0,3:2|2:2,0:0:0:0:
314,168,54208,1,0,3:2:0:0:
393,281,54387,1,2,3:2:0:0:
300,266,54567,1,10,3:2:0:0:
84,354,54746,38,0,P|127:342|171:331,1,90,2|0,2:2|1:2,2:2:0:0:
34,203,55106,1,2,3:2:0:0:
4,290,55285,1,8,3:2:0:0:
102,121,55465,2,0,P|58:110|14:98,1,90,2|0,2:2|3:2,2:2:0:0:
169,239,55824,2,0,P|179:195|191:151,1,90,2|8,3:2|3:2,2:2:0:0:
306,63,56184,2,0,P|215:50|124:25,1,180,2|2,2:2|3:2,2:2:0:0:
294,173,56723,5,10,3:2:0:0:
421,139,56902,1,2,2:2:0:0:
512,111,57082,1,2,3:2:0:0:
383,17,57261,1,2,3:2:0:0:
456,257,57441,1,10,3:2:0:0:
421,139,57621,1,0,0:0:0:0:
287,335,57800,37,2,1:2:0:0:
382,384,57980,1,0,3:2:0:0:
287,335,58160,2,0,P|308:296|315:252,1,90,10|0,3:2|0:0,2:2:0:0:
235,196,58519,2,0,P|153:233|65:250,1,180,2|8,3:2|3:2,2:2:0:0:
14,329,59058,1,2,2:2:0:0:
93,380,59238,1,0,1:2:0:0:
65,250,59419,6,0,L|72:160,1,90,2|8,3:2|3:2,2:2:0:0:
7,16,59783,1,2,2:2:0:0:
150,58,59965,1,0,3:2:0:0:
205,77,60056,1,0,3:0:0:0:
150,95,60147,1,4,3:3:0:0:
184,46,60238,1,4,3:3:0:0:
184,107,60328,1,6,3:3:0:0:
197,214,60510,38,2,P|251:204|396:224,1,180,6|2,1:2|3:2,2:1:0:0:
433,305,61056,1,10,3:2:0:0:
357,368,61238,1,2,2:2:0:0:
503,253,61419,2,0,P|485:213|466:157,1,90,2|0,3:2|3:2,0:0:0:0:
469,170,61783,1,8,3:2:0:0:
512,46,61965,6,2,P|424:65|335:82,1,180,6|2,1:2|3:2,2:1:0:0:
140,129,62506,1,10,3:2:0:0:
269,15,62687,1,2,2:2:0:0:
313,174,62866,2,0,P|296:262|276:350,1,180,2|10,3:2|3:2,0:0:0:0:
357,384,63404,1,6,1:2:0:0:
45,0,63765,37,2,3:2:0:0:
3,88,63944,2,0,P|89:90|132:164,1,180,10|0,3:2|3:2,0:0:0:0:
24,236,64483,1,0,3:3:0:0:
132,164,64663,1,0,3:3:0:0:
52,348,64842,1,14,1:2:0:0:
512,384,66089,22,0,P|507:352|497:323,1,63,10|0,3:2|0:0,0:0:0:0:
426,337,66445,22,2,P|454:302|461:258,1,90,6|0,1:2|0:0,2:1:0:0:
512,208,66714,1,0,2:2:0:0:
448,246,66804,2,0,L|359:232,1,90,0|0,3:2|2:2,2:2:0:0:
228,209,67163,1,10,3:2:0:0:
344,319,67433,1,10,3:2:0:0:
344,319,67522,1,0,3:2:0:0:
250,127,67702,1,10,3:2:0:0:
210,287,67882,22,0,P|154:317|108:326,1,90,14|0,1:2|2:2,0:0:0:0:
31,375,68151,2,0,P|38:330|37:285,1,90,0|0,2:2|2:2,0:0:0:0:
0,201,68421,1,2,2:2:0:0:
186,61,68600,1,10,3:2:0:0:
135,177,68870,1,10,3:2:0:0:
135,177,68959,1,0,3:2:0:0:
62,87,69139,1,10,3:2:0:0:
247,1,69319,22,0,P|289:15|333:24,1,90,14|0,1:2|0:0,0:0:0:0:
410,11,69588,1,2,2:2:0:0:
339,44,69678,2,0,P|324:86|315:130,1,90,0|0,3:2|2:2,0:0:0:0:
428,301,70037,2,2,P|413:258|404:214,1,90,10|0,3:2|2:2,2:1:0:0:
417,137,70307,1,10,3:2:0:0:
385,209,70397,2,2,P|342:223|298:232,1,90,0|10,3:2|3:2,2:1:0:0:
135,177,70756,21,14,1:2:0:0:
202,384,70936,1,0,0:0:0:0:
202,384,71025,1,2,2:2:0:0:
261,223,71205,1,2,2:2:0:0:
261,223,71295,2,0,L|181:247,1,67.5,2|0,2:2|0:0,0:0:0:0:
118,187,71474,22,2,P|106:250|94:295,1,108,6|0,3:2|0:0,2:1:0:0:
0,384,72193,5,6,1:2:0:0:
295,306,72552,1,10,3:2:0:0:
0,384,72912,1,0,3:2:0:0:
295,306,73271,1,8,3:2:0:0:
377,378,73450,1,2,2:2:0:0:
468,337,73630,2,0,L|491:211,1,125.999996154785,2|8,1:2|3:2,0:0:0:0:
264,0,74349,1,4,3:2:0:0:
370,98,74528,1,2,3:3:0:0:
370,98,74618,1,2,3:3:0:0:
370,98,74708,2,0,P|380:129|388:169,1,62.9999980773926,2|2,3:3|2:2,2:2:0:0:
466,121,75067,5,2,1:2:0:0:
177,37,75427,1,10,3:2:0:0:
466,121,75786,1,2,3:2:0:0:
177,37,76145,1,10,3:2:0:0:
100,81,76325,2,0,L|116:157,1,62.9999980773926,2|0,2:2|1:2,2:2:0:0:
40,201,76684,2,0,L|28:276,1,62.9999980773926,2|8,2:2|3:2,0:0:0:0:
257,384,77223,1,4,3:2:0:0:
140,324,77403,1,2,3:3:0:0:
140,324,77492,1,2,3:3:0:0:
139,324,77582,2,0,P|171:278|207:244,1,94.499997116089,2|0,3:3|0:0,2:2:0:0:
283,214,77942,37,0,1:2:0:0:
0,384,78301,1,10,3:2:0:0:
38,316,78480,1,2,2:2:0:0:
22,240,78660,1,2,3:2:0:0:
283,214,79019,1,8,3:2:0:0:
22,240,79379,1,2,1:2:0:0:
68,178,79558,1,2,2:2:0:0:
39,106,79738,1,10,3:2:0:0:
283,214,80097,1,6,3:2:0:0:
363,161,80277,1,2,3:3:0:0:
363,161,80367,1,2,3:3:0:0:
363,161,80456,1,2,3:3:0:0:
512,384,80816,5,2,1:2:0:0:
340,358,80995,1,2,2:2:0:0:
423,371,81175,2,0,P|445:312|441:249,1,125.999996154785,10|0,3:2|3:2,0:0:0:0:
308,21,81894,1,8,3:2:0:0:
441,249,82253,1,0,1:2:0:0:
308,21,82612,1,8,3:2:0:0:
399,0,82792,1,2,2:2:0:0:
469,61,82971,1,6,3:2:0:0:
439,153,83151,1,2,2:2:0:0:
298,211,83331,37,2,3:3:0:0:
298,211,83421,1,2,3:3:0:0:
276,283,83510,5,2,3:3:0:0:
276,283,83600,1,2,3:3:0:0:
204,310,83690,38,0,P|164:252|186:186,1,144,6|10,1:2|3:2,2:2:0:0:
410,342,84409,1,0,3:2:0:0:
185,186,84768,1,8,3:2:0:0:
243,117,84947,1,2,2:2:0:0:
208,32,85127,1,2,1:2:0:0:
115,10,85307,2,0,L|129:82,1,72,0|10,0:0|3:2,0:0:0:0:
0,357,85846,1,4,3:2:0:0:
87,290,86025,1,2,3:3:0:0:
87,290,86115,1,2,3:3:0:0:
87,290,86205,1,2,3:3:0:0:
24,202,86385,1,2,2:2:0:0:
168,380,86564,6,0,P|178:308|199:239,1,144,2|10,1:2|3:2,2:2:0:0:
361,111,87283,1,0,3:2:0:0:
199,239,87642,1,10,3:2:0:0:
361,111,88001,1,2,1:2:0:0:
445,150,88181,1,0,0:0:0:0:
512,83,88361,2,0,P|446:54|386:14,1,144,10|4,3:2|3:2,0:0:0:0:
258,47,88900,1,2,3:3:0:0:
258,47,88989,1,2,3:3:0:0:
258,47,89079,2,0,L|247:120,1,72,2|2,3:3|2:2,2:2:0:0:
162,159,89439,37,0,1:2:0:0:
305,384,89798,1,10,3:2:0:0:
162,159,90157,1,2,3:2:0:0:
305,384,90516,1,8,3:2:0:0:
395,347,90696,2,0,L|406:272,1,72,2|0,2:2|1:2,2:2:0:0:
305,211,91055,2,0,L|316:286,1,72,2|8,2:2|3:2,0:0:0:0:
209,329,91415,5,2,2:2:0:0:
137,264,91594,1,6,3:2:0:0:
52,311,91774,1,2,3:3:0:0:
52,311,91864,1,2,3:3:0:0:
52,311,91953,1,2,3:3:0:0:
114,384,92133,1,2,2:2:0:0:
209,329,92313,6,0,P|240:301|271:281,1,72,2|2,1:2|2:2,0:0:0:0:
136,263,92672,2,0,P|114:195|110:124,1,144,10|0,3:2|3:2,2:2:0:0:
205,98,93211,1,0,2:2:0:0:
278,158,93391,1,0,3:2:0:0:
409,109,93570,1,2,3:2:0:0:
294,0,93750,37,10,1:2:0:0:
278,158,93930,1,2,2:2:0:0:
364,179,94109,1,2,2:2:0:0:
341,345,94468,6,0,L|386:352,2,45,2|2|2,2:2|2:2|2:2,0:0:0:0:
0,0,95187,22,0,L|13:89,1,90,6|0,1:2|3:2,0:0:0:0:
83,181,95546,1,8,3:2:0:0:
197,123,95725,2,0,P|178:40|94:25,1,180,2|2,2:2|3:2,2:2:0:0:
83,181,96264,1,10,3:2:0:0:
13,89,96443,1,2,2:2:0:0:
162,270,96623,5,2,1:2:0:0:
83,181,96802,1,2,3:2:0:0:
2,335,96982,2,0,P|89:354|173:386,1,180,8|0,3:2|3:2,0:0:0:0:
379,299,97520,1,2,3:2:0:0:
162,270,97700,1,10,3:2:0:0:
263,346,97879,1,2,2:2:0:0:
334,189,98059,37,0,1:2:0:0:
162,270,98239,1,2,3:2:0:0:
379,299,98418,1,8,3:2:0:0:
216,179,98598,2,0,L|229:80,1,90,2|0,2:2|3:2,2:2:0:0:
439,224,98957,2,0,L|427:134,1,90,2|8,3:2|3:2,2:2:0:0:
354,18,99316,6,0,P|312:93|227:89,1,180,2|2,2:2|3:2,2:2:0:0:
150,30,99854,1,10,3:2:0:0:
32,97,100034,1,2,2:2:0:0:
162,270,100213,37,2,3:2:0:0:
216,179,100393,1,2,3:2:0:0:
52,282,100572,1,10,3:2:0:0:
162,270,100752,1,0,2:2:0:0:
32,97,100932,6,0,L|16:185,1,90,2|0,1:2|3:2,0:0:0:0:
91,383,101291,2,0,P|176:355|264:337,1,180,10|2,3:2|3:2,2:2:0:0:
264,337,101829,1,0,3:2:0:0:
394,384,102009,2,0,L|410:296,1,90,8|2,3:2|2:2,0:0:0:0:
341,229,102368,1,2,1:2:0:0:
512,0,102637,37,2,2:2:0:0:
512,0,102727,1,8,3:2:0:0:
432,61,102906,2,0,P|391:41|349:25,1,90,2|0,2:2|3:2,2:2:0:0:
349,25,103265,1,0,3:2:0:0:
491,132,103445,1,8,3:2:0:0:
341,229,103625,6,0,P|349:183|361:140,1,90,2|0,2:2|1:2,2:2:0:0:
286,80,103984,1,2,3:2:0:0:
169,220,104163,1,10,3:2:0:0:
263,262,104343,1,0,2:2:0:0:
349,25,104522,1,2,3:2:0:0:
286,80,104702,1,2,3:2:0:0:
33,2,104881,2,0,P|122:35|199:73,1,180,10|6,3:2|1:2,2:2:0:0:
158,309,105420,37,0,3:2:0:0:
48,244,105599,1,8,3:2:0:0:
119,135,105779,1,0,2:2:0:0:
194,174,105958,5,6,3:2:0:0:
60,364,106138,1,0,3:2:0:0:
5,163,106318,1,8,3:2:0:0:
144,10,106497,1,0,2:2:0:0:
194,173,106677,38,0,L|378:206,1,180,6|8,1:2|3:2,0:0:0:0:
455,371,107215,2,0,P|499:296|460:219,1,180,2|2,2:2|3:2,2:2:0:0:
329,307,107754,2,0,L|229:333,1,90,10|2,3:2|2:2,0:0:0:0:
371,204,108113,5,2,1:2:0:0:
421,16,108292,1,2,3:2:0:0:
309,68,108472,2,0,P|265:58|222:43,1,90,8|0,3:2|2:2,0:0:0:0:
145,92,108831,1,0,3:2:0:0:
158,330,109011,1,2,3:2:0:0:
233,248,109190,1,10,3:2:0:0:
51,171,109370,38,0,P|32:83|0:0,1,180,2|2,2:2|3:2,2:2:0:0:
145,92,109908,1,8,3:2:0:0:
51,171,110088,2,0,P|94:182|138:193,1,90,2|0,2:2|3:2,2:2:0:0:
50,363,110447,2,0,P|60:319|72:275,1,90,2|8,3:2|3:2,2:2:0:0:
333,365,110806,2,0,P|242:352|151:327,1,180,2|2,2:2|3:2,2:2:0:0:
314,214,111344,5,10,3:2:0:0:
504,222,111524,1,2,2:2:0:0:
453,296,111704,1,2,3:2:0:0:
356,141,111883,37,2,3:2:0:0:
402,375,112063,1,10,3:2:0:0:
504,222,112242,1,0,0:0:0:0:
314,214,112422,5,2,1:2:0:0:
453,296,112601,1,0,3:2:0:0:
395,66,112781,2,0,L|500:42,1,90,10|0,3:2|0:0,2:2:0:0:
269,5,113140,2,0,P|283:90|228:157,1,180,2|8,3:2|3:2,2:2:0:0:
80,34,113678,37,10,3:3:0:0:
80,34,113768,1,10,3:3:0:0:
6,56,113858,1,10,3:3:0:0:
228,157,114037,1,10,3:3:0:0:
151,121,114217,1,8,3:3:0:0:
23,375,114397,1,10,3:3:0:0:
0,287,114576,5,4,3:3:0:0:
87,269,114756,1,6,3:3:0:0:
157,336,114935,1,6,3:3:0:0:
249,314,115115,2,0,P|314:333|377:345,1,125.999996154785,6|2,3:2|2:2,2:2:0:0:
371,344,115660,1,2,3:2:0:0:
512,176,116024,5,0,3:2:0:0:
512,176,116204,2,0,P|502:213|494:249,1,72,2|2,2:2|3:2,0:0:0:0:
453,103,116566,6,2,P|329:129|205:151,1,252,2|0,2:2|3:2,2:1:0:0:
460,0,118184,37,2,1:2:0:0:
367,24,118423,1,0,2:2:0:0:
367,24,118543,1,2,3:2:0:0:
192,23,118902,5,2,3:2:0:0:
119,87,119142,1,0,2:2:0:0:
119,87,119261,1,2,3:2:0:0:
12,214,119621,37,2,1:2:0:0:
4,310,119861,1,0,2:2:0:0:
4,310,119980,1,2,3:2:0:0:
192,23,120339,5,2,3:2:0:0:
192,23,120698,1,0,3:2:0:0:
347,157,120938,37,0,2:2:0:0:
347,157,121058,1,2,1:2:0:0:
329,287,121297,1,0,2:2:0:0:
329,287,121417,1,2,3:2:0:0:
432,355,121657,5,0,2:2:0:0:
432,355,121777,1,2,3:2:0:0:
414,225,122016,1,0,2:2:0:0:
414,225,122136,1,2,3:2:0:0:
239,240,122375,37,0,2:2:0:0:
239,240,122495,1,2,1:2:0:0:
257,370,122734,1,0,2:2:0:0:
257,370,122854,1,2,3:2:0:0:
487,16,123213,5,2,3:2:0:0:
487,16,123573,1,0,3:2:0:0:
99,0,123932,37,2,1:2:0:0:
185,51,124172,1,0,2:2:0:0:
185,51,124291,1,2,3:2:0:0:
349,58,124651,5,2,3:2:0:0:
347,157,124891,1,0,2:2:0:0:
347,157,125010,1,2,3:2:0:0:
506,284,125369,5,14,1:2:0:0:
431,299,125489,1,8,3:3:0:0:
356,314,125609,1,8,3:3:0:0:
431,299,125728,37,10,3:3:0:0:
356,314,125848,1,8,3:3:0:0:
281,329,125968,1,8,3:3:0:0:
356,314,126088,5,6,3:3:0:0:
281,329,126208,1,4,3:3:0:0:
206,344,126328,1,4,3:3:0:0:
281,329,126447,37,6,3:3:0:0:
206,344,126567,1,4,3:3:0:0:
131,359,126687,1,4,3:3:0:0:
57,375,126806,22,0,P|38:297|84:210,1,161.999995056153,6|8,1:2|3:2,2:2:0:0:
80,79,127405,21,2,2:2:0:0:
10,44,127525,2,0,P|62:30|113:13,1,107.999996704102,2|2,3:2|2:2,2:2:0:0:
278,118,127884,2,0,P|230:92|180:71,1,107.999996704102,8|2,3:2|2:2,0:0:0:0:
316,18,128243,1,4,1:2:0:0:
278,118,128483,21,2,2:2:0:0:
316,18,128603,1,8,3:2:0:0:
278,118,128962,21,2,3:2:0:0:
316,18,129321,1,10,3:2:0:0:
488,92,129681,22,0,P|463:169|448:248,1,161.999995056153,6|8,1:2|3:2,2:2:0:0:
324,375,130279,21,2,2:2:0:0:
391,335,130399,2,0,P|338:321|288:302,1,107.999996704102,2|2,3:2|2:2,2:2:0:0:
159,366,130758,2,0,P|178:315|191:263,1,107.999996704102,8|2,3:2|2:2,0:0:0:0:
316,211,131118,1,4,1:2:0:0:
288,302,131357,21,2,2:2:0:0:
191,263,131477,1,8,3:2:0:0:
45,384,131716,2,0,P|24:319|22:215,1,161.999995056153,2|2,2:2|2:2,0:0:0:0:
115,198,132195,1,10,3:2:0:0:
264,31,132555,22,0,P|185:50|105:65,1,161.999995056153,6|8,1:2|3:2,2:2:0:0:
198,81,133154,21,2,2:2:0:0:
9,23,133273,2,0,P|22:75|32:128,1,107.999996704102,2|2,3:2|2:2,0:0:0:0:
20,225,133633,1,8,3:2:0:0:
201,364,133872,21,2,2:2:0:0:
114,311,133992,2,0,P|164:291|206:257,1,107.999996704102,4|2,1:2|2:2,0:0:0:0:
263,149,134351,1,8,3:2:0:0:
512,193,134710,21,10,3:3:0:0:
478,130,134830,1,8,3:3:0:0:
495,200,134950,1,8,3:3:0:0:
418,179,135070,21,10,3:3:0:0:
389,244,135190,1,8,3:3:0:0:
401,172,135310,1,8,3:3:0:0:
357,106,135429,21,6,1:2:0:0:
227,77,135669,1,2,2:2:0:0:
104,45,135908,1,2,2:2:0:0:
404,0,136148,21,2,2:2:0:0:
227,77,136388,1,2,2:2:0:0:
50,154,136627,1,2,2:2:0:0:
0,86,136866,21,2,2:2:0:0:
512,18,137585,2,0,P|487:95|472:174,1,161.999995056153,2|2,2:2|2:2,2:2:0:0:
337,317,138303,5,0,2:2:0:0:
349,316,138482,1,0,2:2:0:0:
358,316,138661,1,0,2:2:0:0:
366,315,138841,1,2,2:2:0:0:
492,368,139020,5,0,0:0:0:0:
480,367,139199,1,2,2:2:0:0:
471,367,139378,1,2,2:2:0:0:
463,366,139558,1,2,2:2:0:0:
243,202,139738,37,0,0:0:0:0:
313,217,139917,1,2,2:2:0:0:
385,234,140097,1,0,2:2:0:0:
472,174,140276,5,0,2:2:0:0:
512,266,140456,1,0,2:2:0:0:
288,384,140635,38,0,L|197:365,1,90,2|2,2:2|2:2,0:0:0:0:
111,384,140994,2,0,L|20:365,1,90,2|0,2:2|2:2,2:2:0:0:
324,287,141353,6,0,L|233:268,1,90,2|0,2:2|2:2,2:2:0:0:
96,283,141712,2,0,L|7:264,1,90,2|0,2:2|2:2,2:2:0:0:
359,173,142070,38,0,L|268:154,1,90,2|0,2:2|2:2,2:2:0:0:
88,177,142429,2,0,L|-3:158,1,90,2|0,2:2|0:0,2:2:0:0:
344,73,142788,6,0,L|253:54,1,90,2|2,2:2|2:2,0:0:0:0:
154,82,143147,2,0,L|63:63,1,90,2|2,2:2|2:2,0:0:0:0:
512,144,143685,5,10,3:2:0:0:
256,21,143865,2,0,P|227:106|208:194,1,180,6|2,1:2|3:2,2:2:0:0:
335,383,144403,2,0,P|340:338|351:294,1,90,10|0,2:2|0:0,2:2:0:0:
170,320,144762,2,0,P|85:289|0:261,1,180,2|8,3:2|3:2,2:2:0:0:
98,203,145300,1,2,2:2:0:0:
0,51,145480,1,2,1:2:0:0:
341,0,145749,5,2,2:2:0:0:
341,0,145839,1,8,3:2:0:0:
226,112,146018,2,0,L|243:19,1,90,2|0,2:2|3:2,2:2:0:0:
145,48,146378,1,0,3:2:0:0:
312,150,146557,2,0,L|373:78,1,90,8|2,3:2|2:2,0:0:0:0:
508,35,146917,37,0,1:2:0:0:
467,119,147096,1,2,3:2:0:0:
512,355,147276,5,10,3:2:0:0:
408,317,147456,1,2,2:2:0:0:
438,220,147635,1,2,3:2:0:0:
467,119,147815,1,2,3:2:0:0:
408,317,147994,2,0,P|365:329|323:346,1,90,10|0,3:2|2:2,2:2:0:0:
120,384,148354,37,6,1:2:0:0:
92,293,148533,1,0,3:2:0:0:
173,168,148713,1,8,3:2:0:0:
187,319,148893,1,0,2:2:0:0:
92,293,149072,5,6,3:2:0:0:
248,254,149252,1,0,3:2:0:0:
194,77,149432,1,8,3:2:0:0:
70,207,149611,1,0,2:2:0:0:
173,168,149791,37,6,1:2:0:0:
110,48,149971,1,0,3:2:0:0:
29,78,150151,1,8,3:2:0:0:
258,140,150331,2,0,P|345:119|435:113,1,180,2|2,2:2|3:2,2:2:0:0:
512,239,150872,1,10,3:2:0:0:
406,309,151052,6,0,P|409:264|406:219,1,90,2|2,2:2|1:2,0:0:0:0:
406,219,151412,1,2,3:2:0:0:
188,275,151592,2,0,P|268:312|322:383,1,180,8|0,3:2|3:2,0:0:0:0:
322,383,152133,1,2,3:2:0:0:
482,349,152313,1,10,3:2:0:0:
326,254,152493,38,0,L|297:149,1,90,2|0,2:2|1:2,2:2:0:0:
168,362,152854,2,0,L|187:274,1,90,2|8,3:2|3:2,2:2:0:0:
0,222,153214,2,0,L|19:309,1,90,2|0,2:2|3:2,2:2:0:0:
102,249,153574,1,2,3:2:0:0:
51,146,153754,1,8,3:2:0:0:
126,19,153935,6,0,P|182:83|152:163,1,180,2|2,2:2|3:2,2:2:0:0:
0,222,154475,1,10,3:2:0:0:
51,146,154655,1,2,2:2:0:0:
102,249,154836,2,0,P|155:268|209:278,1,90,2|2,3:2|3:2,0:0:0:0:
311,375,155196,2,0,P|326:332|337:289,1,90,10|0,3:2|0:0,2:2:0:0:
261,107,155556,37,2,1:2:0:0:
301,198,155734,1,0,3:2:0:0:
261,107,155913,2,0,P|348:81|434:47,1,180,10|2,3:2|3:2,2:2:0:0:
430,48,156448,1,0,3:2:0:0:
501,176,156627,1,10,3:2:0:0:
397,148,156806,1,2,2:2:0:0:
301,198,156984,5,0,1:2:0:0:
501,176,157163,1,2,3:2:0:0:
337,289,157341,1,10,3:2:0:0:
397,148,157520,1,2,2:2:0:0:
501,369,157698,37,10,3:2:0:0:
301,198,157877,1,10,3:2:0:0:
0,310,158234,5,2,1:2:0:0:
180,367,158413,1,4,1:2:0:0:
220,282,158592,1,0,2:2:0:0:
180,367,158772,1,8,3:2:0:0:
149,224,158951,2,0,P|99:299|71:384,1,180,2|2,2:2|3:2,2:2:0:0:
25,222,159490,37,10,3:2:0:0:
0,139,159670,2,0,P|44:134|86:119,1,90,2|2,2:2|1:2,0:0:0:0:
232,75,160029,1,2,3:2:0:0:
149,224,160209,2,0,P|166:180|168:134,1,90,8|0,3:2|2:2,0:0:0:0:
111,11,160568,1,0,3:2:0:0:
232,75,160748,1,2,3:2:0:0:
86,119,160927,1,10,3:2:0:0:
337,38,161107,6,0,P|327:82|323:126,1,90,2|0,2:2|1:2,2:2:0:0:
459,315,161466,2,0,P|414:305|370:301,1,90,2|8,3:2|3:2,2:2:0:0:
226,370,161826,2,0,P|252:284|258:194,1,180,2|2,2:2|3:2,2:2:0:0:
232,75,162365,1,8,3:2:0:0:
386,213,162544,38,0,P|403:170|432:123,1,90,2|0,2:2|1:2,2:2:0:0:
512,23,162904,1,2,3:2:0:0:
337,38,163083,1,10,3:2:0:0:
427,31,163263,1,2,2:2:0:0:
200,0,163442,5,2,3:2:0:0:
322,126,163622,1,2,3:2:0:0:
258,194,163802,2,0,P|176:155|90:129,1,180,10|2,3:2|1:2,2:2:0:0:
90,129,164341,1,0,3:2:0:0:
18,384,164520,38,0,P|32:341|38:296,1,90,10|0,3:2|0:0,2:2:0:0:
245,348,164880,2,0,P|163:317|133:234,1,180,2|8,3:2|3:2,2:2:0:0:
3,114,165418,1,2,2:2:0:0:
20,208,165598,1,2,1:2:0:0:
223,18,165868,5,2,2:2:0:0:
223,18,165957,1,8,3:2:0:0:
297,72,166137,2,0,P|283:114|275:158,1,90,2|0,2:2|3:2,2:2:0:0:
168,100,166496,1,0,3:2:0:0:
413,45,166676,2,0,P|455:59|499:67,1,90,8|2,3:2|2:2,0:0:0:0:
388,213,167035,37,0,1:2:0:0:
481,184,167215,1,2,3:2:0:0:
499,67,167395,1,10,3:2:0:0:
413,45,167574,1,0,2:2:0:0:
481,184,167754,1,2,3:2:0:0:
388,213,167933,1,2,3:2:0:0:
468,370,168113,2,0,P|460:325|457:280,1,90,10|0,3:2|2:2,2:2:0:0:
369,128,168472,5,6,1:2:0:0:
481,184,168650,1,0,3:2:0:0:
388,213,168829,1,8,3:2:0:0:
295,239,169007,1,0,2:2:0:0:
239,372,169186,37,6,3:2:0:0:
325,326,169364,1,0,3:2:0:0:
168,292,169543,1,8,3:2:0:0:
17,261,169722,1,0,2:2:0:0:
105,218,169900,6,0,P|122:176|126:132,1,90,6|0,1:2|3:0,2:2:0:0:
233,22,170261,2,0,P|143:27|58:0,1,180,10|2,3:2|3:2,2:2:0:0:
58,0,170803,1,0,3:2:0:0:
126,132,170984,2,0,P|122:176|105:218,1,90,8|0,3:2|2:2,2:2:0:0:
0,372,171345,37,2,1:2:0:0:
75,315,171526,1,2,3:2:0:0:
0,240,171707,1,10,3:2:0:0:
126,132,171887,2,0,L|214:113,1,90,2|0,2:2|3:2,2:2:0:0:
21,95,172249,1,0,3:2:0:0:
105,218,172430,2,0,L|191:242,1,90,8|0,3:2|2:2,0:0:0:0:
323,291,172791,5,2,1:2:0:0:
232,367,172970,1,0,3:0:0:0:
191,242,173150,1,10,3:2:0:0:
453,341,173329,1,2,2:2:0:0:
323,291,173509,2,0,P|337:204|361:116,1,180,2|10,3:2|3:2,2:2:0:0:
407,32,174048,1,2,2:2:0:0:
187,64,174228,38,0,P|230:76|274:86,1,90,2|2,1:2|3:2,2:2:0:0:
407,32,174587,1,8,3:2:0:0:
359,115,174767,1,2,2:2:0:0:
509,174,174946,1,0,3:2:0:0:
489,84,175126,1,0,3:2:0:0:
372,209,175305,2,0,P|330:192|286:180,1,90,8|0,3:2|2:2,0:0:0:0:
489,84,175665,5,2,1:2:0:0:
509,174,175844,1,0,3:2:0:0:
460,250,176024,2,0,P|473:292|477:337,1,90,10|0,3:2|0:0,2:2:0:0:
219,300,176383,2,0,P|301:264|371:208,1,180,2|8,3:2|3:2,2:2:0:0:
398,384,176922,1,2,2:2:0:0:
219,300,177102,37,2,1:2:0:0:
312,346,177282,1,2,3:2:0:0:
144,370,177461,2,0,P|100:357|57:346,1,90,8|2,3:2|2:2,0:0:0:0:
7,162,177820,1,0,3:2:0:0:
65,147,177910,1,0,3:0:0:0:
28,192,178000,1,2,3:2:0:0:
31,134,178090,1,2,3:2:0:0:
64,183,178180,1,2,3:2:0:0:
129,277,178359,6,2,P|154:190|184:106,1,180,6|2,1:2|3:2,2:1:0:0:
124,21,178899,2,0,P|81:35|37:44,1,90,10|2,3:2|2:2,0:0:0:0:
285,141,179259,1,2,3:2:0:0:
184,106,179439,1,0,3:2:0:0:
377,172,179620,1,8,3:2:0:0:
457,139,179800,38,2,L|475:318,1,180,6|2,1:2|3:2,2:1:0:0:
387,384,180340,1,10,3:2:0:0:
475,318,180520,1,2,2:2:0:0:
331,266,180701,2,0,P|289:249|246:235,1,90,2|0,3:2|3:2,0:0:0:0:
74,357,181061,5,10,3:2:0:0:
173,384,181241,2,2,P|167:294|149:205,1,180,6|2,1:2|3:2,2:1:0:0:
247,59,181782,2,0,P|158:76|68:82,1,180,8|0,3:2|3:2,0:0:0:0:
0,220,182322,1,10,3:3:0:0:
74,357,182502,1,10,3:3:0:0:
149,205,182683,1,14,1:2:0:0:
306,383,183930,6,0,P|332:373|372:363,1,63,10|0,3:2|0:0,0:0:0:0:
445,361,184289,22,2,P|401:351|358:341,1,90,6|0,1:2|0:0,2:1:0:0:
422,265,184558,1,0,2:2:0:0:
422,265,184648,2,0,P|405:223|396:165,1,90,0|0,3:2|2:2,2:2:0:0:
445,11,185008,1,10,3:2:0:0:
477,113,185277,1,10,3:2:0:0:
477,113,185367,1,0,3:2:0:0:
357,20,185546,1,10,3:2:0:0:
230,71,185726,22,0,P|271:87|314:100,1,90,14|0,1:2|2:2,0:0:0:0:
328,189,185996,2,0,P|287:208|244:221,1,90,0|0,2:2|2:2,0:0:0:0:
152,187,186265,1,2,2:2:0:0:
4,278,186445,1,10,3:2:0:0:
93,321,186714,1,10,3:2:0:0:
93,321,186804,1,0,3:2:0:0:
68,150,186984,1,10,3:2:0:0:
173,278,187163,22,2,P|257:308|344:333,1,180,14|0,1:2|3:2,2:1:0:0:
512,350,187702,2,0,P|470:367|427:381,1,90,0|10,2:2|3:2,2:2:0:0:
328,189,188151,1,10,3:2:0:0:
328,189,188241,1,0,3:2:0:0:
407,244,188421,1,10,3:2:0:0:
512,144,188600,22,0,P|500:100|501:55,1,90,14|0,1:2|2:2,0:0:0:0:
502,56,188869,1,0,2:2:0:0:
427,5,188959,2,0,P|397:38|358:60,1,90,0|2,0:0|2:2,0:0:0:0:
130,14,189319,1,10,3:2:0:0:
250,43,189588,1,10,3:2:0:0:
250,43,189678,1,0,3:2:0:0:
358,60,189858,1,10,3:2:0:0:
237,126,190038,22,0,P|194:138|150:148,1,90,14|0,1:2|0:0,0:0:0:0:
22,16,190307,1,2,2:2:0:0:
22,16,190397,2,0,P|35:58|44:103,1,90,0|0,3:2|2:2,0:0:0:0:
5,341,190756,22,2,P|46:325|89:310,1,90,10|0,3:2|2:2,2:1:0:0:
89,310,191026,1,10,3:2:0:0:
138,233,191115,2,2,P|98:211|61:186,1,90,0|10,3:2|3:2,2:1:0:0:
333,309,191475,21,14,1:2:0:0:
168,348,191654,1,0,0:0:0:0:
168,348,191744,1,2,2:2:0:0:
259,369,191924,1,2,2:2:0:0:
259,369,192014,1,0,2:2:0:0:
231,240,192193,22,2,P|246:198|249:153,1,90,10|0,3:2|2:2,2:1:0:0:
248,151,192463,1,10,3:2:0:0:
328,207,192552,2,2,P|378:187|437:174,1,90,0|10,3:2|3:2,2:1:0:0:
512,284,192911,21,14,1:2:0:0:
438,345,193090,1,0,0:0:0:0:
439,345,193180,1,2,2:2:0:0:
343,305,193360,1,2,2:2:0:0:
343,305,193450,1,0,2:2:0:0:
72,380,193630,21,10,3:2:0:0:
2,273,193809,1,0,2:2:0:0:
3,273,193899,1,10,3:2:0:0:
184,318,194079,1,0,2:2:0:0:
184,318,194169,1,10,3:2:0:0:
77,106,194348,5,14,1:2:0:0:
77,106,194438,1,8,3:3:0:0:
160,91,194528,5,8,3:3:0:0:
160,91,194618,1,8,3:3:0:0:
238,75,194708,21,8,3:3:0:0:
459,46,194887,21,6,3:2:0:0:
459,45,195067,2,2,P|435:93|422:145,1,108,0|0,0:0|0:0,0:0:0:0:
