osu file format v14

[General]
AudioFilename: audio.mp3
AudioLeadIn: 0
PreviewTime: 5547
Countdown: 0
SampleSet: Soft
StackLeniency: 0.6
Mode: 0
LetterboxInBreaks: 0
WidescreenStoryboard: 1

[Editor]
Bookmarks: 338,6086,17583,29080,40577,52052,60510,66445,72193,83690,95187,106677,115115,126806,138303,144044,158413,169900,178359,184289,194887
DistanceSpacing: 1.5
BeatDivisor: 4
GridSize: 8
TimelineZoom: 2.699999

[Metadata]
Title:Ashita o Narase
TitleUnicode:明日を鳴らせ
Artist:Shishido Kavka
ArtistUnicode:シシド・カフカ
Creator:elicz1
Version:Pretender
Source:FAIRY TAIL
Tags:zelq AirinCat FuJu japanese wo rock jp j-pop pop jpop j-rock jrock avex single anime ft fairy tail ZERO 0 ゼロ 2014 フェアリーテイル tale opening 22 season eight 8 s8 natsu ナツ dragneel ドラグニル zeref ゼレフ mavis メイビス vermillion ヴァーミリオン
BeatmapID:2995622
BeatmapSetID:1457607

[Difficulty]
HPDrainRate:6
CircleSize:4
OverallDifficulty:8.5
ApproachRate:9.3
SliderMultiplier:2
SliderTickRate:1

[Events]
//Background and Video events
0,0,"zeref2.jpg",0,0
//Break Periods
//Storyboard Layer 0 (Background)
//Storyboard Layer 1 (Fail)
//Storyboard Layer 2 (Pass)
//Storyboard Layer 3 (Foreground)
//Storyboard Layer 4 (Overlay)
//Storyboard Sound Samples

[TimingPoints]
338,359.281437125748,4,2,1,50,1,0
338,-66.6666666666667,4,2,1,50,0,0
1236,-66.6666666666667,4,2,1,5,0,0
1296,-66.6666666666667,4,2,1,50,0,0
1475,-66.6666666666667,4,2,1,5,0,0
1535,-66.6666666666667,4,2,1,50,0,0
1715,-66.6666666666667,4,2,1,5,0,0
1775,-66.6666666666667,4,2,1,50,0,0
2673,-66.6666666666667,4,2,1,5,0,0
2733,-66.6666666666667,4,2,1,50,0,0
2912,-66.6666666666667,4,2,1,5,0,0
2972,-66.6666666666667,4,2,1,50,0,0
3152,-66.6666666666667,4,2,1,5,0,0
3212,-66.6666666666667,4,2,1,50,0,0
4110,-66.6666666666667,4,2,1,5,0,0
4170,-66.6666666666667,4,2,1,50,0,0
4349,-66.6666666666667,4,2,1,5,0,0
4409,-66.6666666666667,4,2,1,50,0,0
4589,-66.6666666666667,4,2,1,5,0,0
4649,-66.6666666666667,4,2,1,50,0,0
5727,-200,4,2,4,40,0,0
6086,-66.6666666666667,4,2,1,70,0,0
6445,-100,4,2,1,70,0,0
6805,-66.6666666666667,4,2,1,70,0,0
9320,-100,4,2,1,70,0,0
9679,-66.6666666666667,4,2,1,70,0,0
12104,-100,4,2,1,70,0,0
12553,-66.6666666666667,4,2,1,70,0,0
13541,-100,4,2,1,70,0,0
13990,-66.6666666666667,4,2,1,70,0,0
14978,-100,4,2,1,70,0,0
15427,-66.6666666666667,4,2,1,70,0,0
16864,-200,4,2,1,70,0,0
17044,-200,4,2,2,60,0,0
17224,-200,4,2,1,50,0,0
17583,-200,4,2,1,45,0,0
29080,-200,4,2,1,50,0,0
39140,-200,4,2,1,60,0,0
40577,358.208955223881,4,2,1,80,1,0
40577,-80,4,2,1,80,0,1
47741,359.281437125748,4,2,1,80,1,0
47741,-80,4,2,1,80,0,1
48190,-80,4,2,1,5,0,1
48279,-80,4,2,1,80,0,1
59238,363.636363636364,4,2,1,80,1,0
59238,-80,4,2,1,80,0,1
60510,-100,4,2,1,80,0,1
62328,359.281437125748,4,2,1,80,1,0
62328,-100,4,2,1,80,0,1
63585,359.281437125748,4,2,1,80,1,1
64842,-500,4,2,1,80,0,0
64932,-500,4,2,2,75,0,0
65022,-500,4,2,1,70,0,0
65202,-500,4,2,2,60,0,0
65381,-500,4,2,1,50,0,0
65651,-500,4,2,2,40,0,0
66089,356.083086053412,4,2,1,70,1,0
66089,-100,4,2,4,70,0,1
66445,359.281437125748,4,2,1,70,1,0
66445,-66.6666666666667,4,2,1,70,0,0
66804,-100,4,2,1,70,0,0
67163,-66.6666666666667,4,2,1,70,0,0
69588,-100,4,2,1,70,0,0
70037,-66.6666666666667,4,2,1,70,0,0
71025,-100,4,2,1,70,0,0
71474,-200,4,2,1,70,0,0
71654,-200,4,2,2,60,0,0
71834,-200,4,2,1,50,0,0
72193,-166.666666666667,4,2,1,50,0,0
83690,-166.666666666667,4,2,1,55,0,0
92852,-166.666666666667,4,2,3,55,0,0
93031,-166.666666666667,4,2,1,55,0,0
93211,-166.666666666667,4,2,1,60,0,0
93391,-166.666666666667,4,2,1,65,0,0
93570,-166.666666666667,4,2,1,70,0,0
93750,-166.666666666667,4,2,1,55,0,0
95187,359.066427289048,4,2,1,70,1,0
95187,-80,4,2,1,80,0,1
102817,-80,4,2,1,5,0,1
102906,-80,4,2,1,80,0,1
115115,363.636363636364,4,2,1,70,1,0
115115,-100,4,2,1,70,0,0
116024,361.44578313253,4,2,1,70,1,0
116566,-500,4,2,1,70,0,0
116656,-500,4,2,2,60,0,0
116746,-500,4,2,1,50,0,0
116837,-500,4,2,2,40,0,0
117108,-500,4,2,1,30,0,0
117469,-500,4,2,2,20,0,0
117831,-500,4,2,1,60,0,0
118184,359.281437125748,4,2,1,60,1,0
118184,-200,4,2,1,60,0,0
125369,-200,4,2,1,80,0,0
125728,-200,4,2,1,75,0,0
126088,-200,4,2,1,70,0,0
126447,-200,4,2,1,65,0,0
126806,-133.333333333333,4,2,1,65,0,0
135669,-133.333333333333,4,2,1,50,0,0
137585,-333.333333333333,4,2,1,50,0,0
138303,358.851674641148,4,2,1,40,1,0
138303,-200,4,2,1,40,0,0
143685,-200,4,2,1,70,0,0
143865,-80,4,2,1,80,0,1
145480,359.281437125748,4,2,1,80,1,0
145480,-80,4,2,1,80,0,1
145929,-80,4,2,1,5,0,1
146018,-80,4,2,1,80,0,1
149791,360.36036036036,4,2,1,80,1,0
149791,-80,4,2,1,80,0,1
155556,357.142857142857,4,2,1,80,1,0
155556,-80,4,2,1,80,0,1
158413,359.281437125748,4,2,1,80,1,0
158413,-80,4,2,1,80,0,1
166047,-80,4,2,1,5,0,1
166137,-80,4,2,1,80,0,1
168472,357.142857142857,4,2,1,80,1,0
168472,-80,4,2,1,80,0,1
169900,361.44578313253,4,2,1,80,1,0
169900,-80,4,2,1,80,0,1
172791,359.281437125748,4,2,1,80,1,0
172791,-80,4,2,1,80,0,1
174677,-80,4,2,1,5,0,1
174767,-80,4,2,1,80,0,1
178359,-100,4,2,1,80,0,1
178539,360.36036036036,4,2,1,80,1,1
182683,-500,4,2,1,80,0,0
182773,-500,4,2,2,75,0,0
182863,-500,4,2,1,70,0,0
183043,-500,4,2,2,60,0,0
183223,-500,4,2,1,50,0,0
183493,-500,4,2,2,40,0,0
183930,359.281437125748,4,2,4,70,1,0
183930,-100,4,2,4,70,0,1
184289,359.281437125748,4,2,1,70,1,0
184289,-66.6666666666667,4,2,1,70,0,0
184648,-100,4,2,1,70,0,0
185007,-66.6666666666667,4,2,1,70,0,0
187522,-100,4,2,1,70,0,0
187881,-66.6666666666667,4,2,1,70,0,0
190306,-100,4,2,1,70,0,0
190756,-66.6666666666667,4,2,1,70,0,0
191744,-100,4,2,1,70,0,0
192193,-66.6666666666667,4,2,1,70,0,0
193181,-100,4,2,1,70,0,0
193630,-66.6666666666667,4,2,1,70,0,0
194887,-333.333333333333,4,2,1,70,0,0
194977,-333.333333333333,4,2,2,65,0,0
195067,-333.333333333333,4,2,1,60,0,0
195157,-333.333333333333,4,2,2,55,0,0
195247,-333.333333333333,4,2,1,50,0,0
195426,-333.333333333333,4,2,2,40,0,0
195606,-333.333333333333,4,2,1,30,0,0
195786,-333.333333333333,4,2,2,20,0,0
196145,-333.333333333333,4,2,1,10,0,0
196863,-333.333333333333,4,2,2,5,0,0

[Colours]
Combo1 : 167,101,239
Combo2 : 186,180,177
Combo3 : 139,132,129
Combo4 : 216,82,67

[HitObjects]
407,81,338,5,2,1:3:0:0:
479,114,517,1,0,3:2:0:0:
490,110,577,1,0,3:2:0:0:
501,106,637,1,0,3:2:0:0:
512,102,697,1,0,3:2:0:0:
205,367,1056,6,2,B|193:359|160:366|160:366|174:348|174:348|217:348|253:369,1,150.000005722046,2|0,1:3|2:2,2:1:0:0:
342,287,1296,2,2,B|341:301|363:326|363:326|341:323|341:323|319:286|319:244,1,150.000005722046,2|0,1:3|2:2,2:1:0:0:
200,208,1535,2,2,B|212:201|223:169|223:169|231:190|231:190|210:227|174:248,1,150.000005722046,2|0,1:3|2:2,2:1:0:0:
248,285,1775,1,2,1:3:0:0:
199,345,1954,1,0,3:2:0:0:
203,356,2014,1,0,3:2:0:0:
207,367,2074,1,0,3:2:0:0:
211,378,2134,1,0,3:2:0:0:
0,104,2493,38,2,B|-4:105|2:73|2:73|33:104|46:142|21:180,1,150.000005722046,2|0,1:3|2:2,2:1:0:0:
150,211,2733,2,2,B|153:214|122:224|122:224|133:181|159:151|204:154,1,150.000005722046,2|0,1:3|2:2,2:1:0:0:
177,25,2972,2,2,B|178:20|202:42|202:42|160:53|120:46|100:6,1,150.000005722046,2|0,1:3|2:2,2:1:0:0:
108,110,3212,1,2,1:3:0:0:
183,134,3391,1,0,3:2:0:0:
194,130,3451,1,0,3:2:0:0:
205,126,3511,1,0,3:2:0:0:
216,122,3571,1,0,3:2:0:0:
483,56,3930,6,2,B|487:35|508:22|508:22|531:44|531:44|492:53|463:90,1,150.000005722046,2|0,1:3|2:2,2:1:0:0:
332,158,4170,2,2,B|311:165|290:152|290:152|297:121|297:121|325:150|371:157,1,150.000005722046,2|0,1:3|2:2,2:1:0:0:
496,236,4409,2,2,B|512:249|512:274|512:274|481:283|481:283|493:245|475:201,1,150.000005722046,2|0,1:3|2:2,2:1:0:0:
437,149,4649,1,2,1:3:0:0:
406,218,4829,1,0,3:2:0:0:
402,229,4889,1,0,3:2:0:0:
398,240,4949,1,0,3:2:0:0:
394,251,5009,1,0,3:2:0:0:
394,251,5727,38,0,P|408:288|420:324,1,75,2|0,2:2|2:2,2:2:0:0:
119,352,6086,22,2,B|106:273|106:273|173:236|173:236|205:151,1,225.000008583069,6|0,1:2|2:2,2:1:0:0:
67,135,6445,2,0,L|150:159,1,50,0|0,3:2|2:2,2:2:0:0:
241,279,6625,2,0,L|158:255,1,50,0|0,2:2|2:2,2:2:0:0:
162,51,6805,22,2,P|230:63|261:0,1,150.000005722046,10|0,3:2|2:2,2:1:0:0:
447,122,7074,1,10,3:2:0:0:
378,153,7164,2,2,P|342:156|317:124,1,75.0000028610231,0|0,3:2|2:2,2:1:0:0:
368,0,7343,2,2,P|403:-4|429:29,1,75.0000028610231,10|0,3:2|2:2,2:1:0:0:
205,186,7523,21,14,1:2:0:0:
226,113,7703,1,0,2:2:0:0:
226,113,7793,1,0,2:2:0:0:
304,132,7972,1,0,2:2:0:0:
304,132,8062,1,2,2:2:0:0:
183,331,8242,22,2,P|253:347|337:380,1,150.000005722046,10|0,3:2|2:2,2:1:0:0:
424,193,8511,1,10,3:2:0:0:
352,216,8601,2,2,P|336:256|318:314,1,75.0000028610231,0|0,3:2|2:2,2:1:0:0:
470,340,8781,2,2,P|486:300|504:242,1,75.0000028610231,10|0,3:2|2:2,2:1:0:0:
232,245,8960,22,2,B|179:255|179:255|118:153|118:153|53:165,1,225.000008583069,14|0,1:2|2:2,2:1:0:0:
9,285,9320,2,0,L|25:224,1,50,0|0,3:2|2:2,2:0:0:0:
135,83,9499,2,0,L|119:144,1,50,0|0,2:2|2:2,2:0:0:0:
175,350,9679,22,2,B|266:301|199:296|287:245,1,150.000005722046,10|0,3:2|2:2,2:1:0:0:
483,260,9948,1,10,3:2:0:0:
432,201,10038,2,2,P|390:196|360:238,1,75.0000028610231,0|0,3:2|2:2,2:1:0:0:
397,365,10218,2,2,P|439:370|469:328,1,75.0000028610231,10|0,3:2|2:2,2:1:0:0:
295,162,10397,21,14,1:2:0:0:
225,139,10577,1,0,2:2:0:0:
225,139,10667,1,0,2:2:0:0:
201,215,10846,1,0,2:2:0:0:
201,215,10936,1,2,2:2:0:0:
483,12,11116,22,2,P|411:35|340:59,1,150.000005722046,10|0,3:2|2:2,2:1:0:0:
270,269,11385,1,10,3:2:0:0:
333,227,11475,2,2,P|336:186|349:144,1,75.0000028610231,0|0,3:2|2:2,2:1:0:0:
186,126,11655,2,2,P|183:164|173:200,1,75.0000028610231,10|0,3:2|2:2,2:1:0:0:
410,267,11835,21,14,1:2:0:0:
410,267,11924,1,2,2:2:0:0:
369,333,12104,2,0,L|380:384,1,50,2|0,2:2|3:2,2:2:0:0:
491,358,12284,2,0,L|480:307,2,50,0|2|2,2:2|2:2|2:2,2:2:0:0:
251,357,12553,22,2,P|157:346|149:297,1,150.000005722046,10|0,3:2|2:2,2:1:0:0:
82,103,12823,1,10,3:2:0:0:
148,146,12912,2,2,P|154:187|166:240,1,75.0000028610231,0|0,3:2|2:2,2:1:0:0:
20,244,13092,2,2,P|15:199|3:147,1,75.0000028610231,10|0,3:2|2:2,2:1:0:0:
222,78,13272,21,14,1:2:0:0:
222,78,13361,1,2,2:2:0:0:
292,114,13541,2,0,L|340:104,1,50,2|0,2:2|3:2,2:2:0:0:
316,4,13721,2,0,L|267:15,2,50,2|0|0,2:2|2:2|2:2,2:2:0:0:
512,160,13990,22,2,B|418:135|490:82|386:57,1,150.000005722046,10|0,3:2|2:2,2:1:0:0:
229,203,14260,1,10,3:2:0:0:
272,268,14349,2,2,P|315:266|342:302,1,75.0000028610231,0|0,3:2|2:2,2:1:0:0:
374,135,14529,2,2,P|331:137|304:101,1,75.0000028610231,10|0,3:2|2:2,2:1:0:0:
118,248,14709,21,14,1:2:0:0:
118,248,14799,1,2,2:2:0:0:
153,178,14978,2,0,L|129:100,1,50,2|0,2:2|3:2,2:2:0:0:
29,165,15158,2,0,L|43:212,2,50,2|0|0,2:2|2:2|2:2,2:2:0:0:
186,37,15427,22,2,P|258:19|353:2,1,150.000005722046,10|0,3:2|2:2,2:1:0:0:
413,197,15697,1,10,3:2:0:0:
367,136,15787,2,2,P|361:97|392:61,1,75.0000028610231,0|0,3:2|2:2,2:1:0:0:
512,99,15966,2,2,P|517:137|486:173,1,75.0000028610231,10|0,3:2|2:2,2:1:0:0:
321,316,16146,21,14,1:2:0:0:
394,298,16326,1,0,2:2:0:0:
394,298,16415,1,0,2:2:0:0:
412,372,16595,1,0,2:2:0:0:
412,372,16685,1,2,2:2:0:0:
148,354,16864,22,2,B|173:276|173:276|168:271|168:271|201:169,1,175,6|0,3:2|2:2,2:1:0:0:
210,22,17583,37,6,1:2:0:0:
210,22,17763,1,2,2:2:0:0:
275,60,17942,2,0,P|255:110|195:105,2,100,2|0|2,3:2|3:2|3:2,2:2:0:0:
49,52,18840,1,2,2:2:0:0:
13,122,19020,1,2,1:2:0:0:
13,122,19200,1,2,2:2:0:0:
43,194,19379,2,0,P|87:182|145:173,1,100,2|0,3:2|3:2,2:2:0:0:
342,31,19918,5,2,2:2:0:0:
332,44,20008,1,2,2:2:0:0:
336,59,20098,1,2,3:2:0:0:
326,72,20188,1,2,2:2:0:0:
330,87,20278,1,2,2:2:0:0:
320,100,20367,1,2,2:2:0:0:
349,135,20457,38,0,P|362:161|375:191,1,50,2|0,1:2|2:2,2:2:0:0:
306,311,20817,2,0,P|324:267|380:267,2,100,2|0|2,3:2|3:2|3:2,2:2:0:0:
444,357,21715,1,2,2:2:0:0:
444,357,21894,2,0,P|449:324|463:275,1,75,2|2,1:2|2:2,2:2:0:0:
493,259,22254,2,0,P|468:208|441:159,1,100,2|0,3:2|3:2,2:2:0:0:
163,241,22793,5,2,2:2:0:0:
175,252,22882,1,2,2:2:0:0:
191,247,22973,1,2,3:2:0:0:
203,258,23063,1,2,2:2:0:0:
219,253,23153,1,2,2:2:0:0:
231,264,23242,1,2,2:2:0:0:
267,234,23332,38,0,P|293:221|323:208,1,50,0|0,1:2|2:2,2:2:0:0:
383,48,23691,2,0,P|353:57|343:92,1,50,2|0,3:2|2:2,2:2:0:0:
79,10,24050,2,0,P|138:12|169:61,1,100,2|2,3:2|3:2,2:2:0:0:
310,172,24589,1,2,2:2:0:0:
277,105,24769,1,2,1:2:0:0:
277,105,24948,1,2,2:2:0:0:
507,221,25128,2,0,P|448:223|417:272,1,100,2|2,3:2|3:2,2:2:0:0:
223,362,25667,5,2,2:2:0:0:
233,347,25757,1,2,2:2:0:0:
229,334,25846,1,2,3:2:0:0:
239,319,25936,1,2,2:2:0:0:
235,306,26026,1,2,2:2:0:0:
245,291,26116,1,2,2:2:0:0:
216,258,26206,38,0,P|203:232|190:202,1,50,2|2,1:2|2:2,2:2:0:0:
47,259,26565,2,0,P|88:253|123:295,2,100,2|0|2,3:2|3:2|3:2,2:2:0:0:
126,131,27463,2,0,P|114:153|104:176,1,50,0|0,2:2|1:2,2:2:0:0:
0,29,28002,2,0,P|23:87|35:128,1,100,2|0,3:2|3:2,2:2:0:0:
296,42,28541,1,2,2:2:0:0:
175,65,28721,1,2,3:2:0:0:
198,186,28900,1,2,2:2:0:0:
396,196,29080,5,6,1:2:0:0:
396,196,29260,1,2,2:2:0:0:
449,139,29439,2,0,P|458:102|523:101,2,100,2|0|2,3:2|3:2|3:2,2:2:0:0:
350,335,30337,1,10,3:3:0:0:
360,289,30427,1,10,3:3:0:0:
409,279,30517,2,0,P|420:303|435:328,1,50,10|0,1:3|2:2,2:2:0:0:
223,196,30876,2,0,P|215:245|203:293,1,100,2|0,3:2|3:2,2:2:0:0:
93,382,31415,1,2,2:2:0:0:
132,229,31595,1,2,3:2:0:0:
285,268,31775,1,2,2:2:0:0:
458,92,31954,38,0,P|434:95|408:100,1,50,2|0,1:2|2:2,2:2:0:0:
255,34,32314,2,0,P|304:32|328:81,2,100,2|0|2,3:2|3:2|3:2,2:2:0:0:
281,226,33212,1,10,3:3:0:0:
255,183,33302,1,10,3:3:0:0:
210,199,33391,2,0,P|178:190|151:185,1,50,10|0,1:3|2:2,2:2:0:0:
36,64,33751,2,0,P|52:98|112:100,1,100,2|0,3:2|3:2,2:2:0:0:
74,360,34290,5,2,2:2:0:0:
83,345,34380,1,2,2:2:0:0:
80,332,34470,1,2,3:2:0:0:
89,317,34560,1,2,2:2:0:0:
86,304,34650,1,2,2:2:0:0:
95,289,34739,1,2,2:2:0:0:
67,256,34829,38,0,P|54:230|41:200,1,50,0|0,1:2|2:2,2:2:0:0:
156,221,35188,1,2,3:2:0:0:
156,221,35367,1,2,2:2:0:0:
285,320,35547,2,0,P|238:312|205:347,1,100,2|2,3:2|3:2,2:2:0:0:
271,153,36086,1,10,3:3:0:0:
282,202,36176,1,10,3:3:0:0:
331,204,36266,2,0,P|342:180|357:155,1,50,10|2,1:3|2:2,2:2:0:0:
194,35,36625,1,2,3:2:0:0:
194,35,36805,1,2,2:2:0:0:
107,134,36984,2,0,P|105:117|91:70,1,50,2|2,3:2|2:2,2:2:0:0:
303,39,37343,2,0,P|311:66|317:91,1,50,2|2,3:2|2:2,2:2:0:0:
352,271,37703,5,2,1:2:0:0:
352,271,37882,1,2,2:2:0:0:
491,121,38062,2,0,P|464:191|453:233,2,100,2|0|6,3:2|3:2|3:2,2:2:0:0:
433,71,38960,1,2,3:2:0:0:
355,288,39140,37,14,1:2:0:0:
84,107,39320,1,10,3:2:0:0:
129,332,39499,1,10,3:2:0:0:
310,62,39679,1,8,3:2:0:0:
310,62,40577,37,6,1:2:0:0:
233,39,40756,1,0,3:2:0:0:
157,17,40935,1,8,3:2:0:0:
91,333,41114,2,0,P|70:272|20:156,1,187.5,2|0,2:2|2:2,2:2:0:0:
267,120,41472,2,0,P|224:140|196:216,1,125,2|10,3:2|3:2,2:2:0:0:
0,359,41830,1,2,2:2:0:0:
78,94,42009,5,0,1:2:0:0:
278,310,42188,2,0,P|221:291|146:275,1,125,2|10,3:2|3:2,2:2:0:0:
255,28,42547,1,0,2:2:0:0:
327,53,42726,1,0,3:2:0:0:
124,192,42905,1,2,3:2:0:0:
51,218,43084,1,10,3:2:0:0:
386,334,43263,38,0,P|457:331|483:274,1,125,2|0,2:2|1:2,2:2:0:0:
216,259,43621,2,0,P|219:330|276:356,1,125,2|8,3:2|3:2,2:2:0:0:
291,89,43979,2,0,P|220:92|194:149,1,125,2|0,2:2|3:2,2:2:0:0:
461,164,44338,2,0,P|458:93|401:67,1,125,2|8,3:2|3:2,2:2:0:0:
83,254,44696,6,0,P|194:273|284:296,1,187.5,2|0,2:2|2:2,2:2:0:0:
512,230,45054,1,2,3:2:0:0:
512,230,45233,1,10,3:2:0:0:
487,302,45412,1,2,2:2:0:0:
227,376,45591,1,2,3:2:0:0:
194,306,45771,1,2,3:2:0:0:
425,47,45950,2,0,P|330:138|337:223,1,187.5,10|0,3:2|2:2,2:2:0:0:
50,355,46308,37,0,1:2:0:0:
123,330,46487,1,0,3:2:0:0:
194,306,46666,2,0,P|68:274|-11:249,1,187.5,10|0,3:2|2:2,2:2:0:0:
152,19,47024,2,0,P|111:27|89:140,1,125,2|0,3:2|3:2,2:2:0:0:
354,120,47382,5,8,3:2:0:0:
354,120,47562,1,2,2:2:0:0:
502,313,47741,2,0,P|456:253|395:288,1,125,2|0,1:2|3:2,2:2:0:0:
209,318,48010,1,2,3:2:0:0:
276,350,48100,2,0,P|315:314|332:318,1,62.5,8|0,3:2|2:2,2:2:0:0:
472,128,48279,2,0,P|451:196|409:363,1,187.5,2|0,2:2|2:2,2:2:0:0:
280,197,48639,1,0,3:2:0:0:
383,378,48818,1,8,3:2:0:0:
12,295,48998,38,0,P|104:289|145:373,1,187.5,2|0,2:2|2:2,2:2:0:0:
280,197,49357,1,2,3:2:0:0:
280,197,49537,1,10,3:2:0:0:
251,270,49717,1,2,2:2:0:0:
24,167,49896,1,2,3:2:0:0:
0,94,50076,1,2,3:2:0:0:
294,0,50255,2,0,P|271:39|240:124,1,125,10|0,3:2|2:2,2:2:0:0:
432,378,50615,5,6,1:2:0:0:
402,291,50794,1,0,3:2:0:0:
318,328,50974,1,8,3:2:0:0:
318,328,51154,1,0,2:2:0:0:
28,288,51333,37,6,3:2:0:0:
60,158,51513,1,0,3:2:0:0:
184,215,51693,1,8,3:2:0:0:
184,215,51872,1,0,2:2:0:0:
472,33,52052,5,6,1:2:0:0:
397,45,52232,1,0,3:2:0:0:
322,57,52411,1,8,3:2:0:0:
391,346,52591,2,0,P|412:277|522:189,1,187.5,2|0,2:2|2:2,2:2:0:0:
232,173,52950,2,0,P|298:193|355:216,1,125,2|10,3:2|3:2,2:2:0:0:
484,355,53309,1,2,2:2:0:0:
410,118,53489,37,0,1:2:0:0:
208,337,53669,2,0,P|265:308|358:274,1,125,2|8,3:2|3:2,2:2:0:0:
224,66,54028,1,0,2:2:0:0:
153,92,54208,1,0,3:2:0:0:
35,337,54387,1,2,3:2:0:0:
0,272,54567,1,10,3:2:0:0:
251,138,54746,6,0,P|234:198|216:300,1,125,2|0,2:2|1:2,2:2:0:0:
451,105,55106,2,0,P|390:88|288:70,1,125,2|8,3:2|3:2,2:2:0:0:
484,305,55465,2,0,P|500:244|518:142,1,125,2|0,2:2|3:2,2:2:0:0:
284,338,55824,2,0,P|344:354|446:372,1,125,2|8,3:2|3:2,2:2:0:0:
493,35,56184,38,0,P|411:32|385:144,1,187.5,2|0,2:2|2:2,2:2:0:0:
236,258,56543,1,2,3:2:0:0:
236,258,56723,1,10,3:2:0:0:
280,197,56902,1,2,2:2:0:0:
43,31,57082,1,2,3:2:0:0:
69,100,57261,1,2,3:2:0:0:
367,60,57441,2,0,P|297:46|175:29,1,187.5,10|0,3:2|2:2,2:2:0:0:
0,279,57800,5,0,1:2:0:0:
73,254,57980,1,0,3:2:0:0:
145,229,58160,2,0,B|258:257|193:306|310:339,1,187.5,10|0,3:2|2:2,2:2:0:0:
456,132,58519,2,0,P|435:189|408:277,1,125,2|0,3:2|3:2,2:2:0:0:
226,384,58878,1,8,3:2:0:0:
19,41,59058,38,0,P|11:112|63:147,1,125,2|0,2:2|1:2,2:2:0:0:
312,60,59419,2,0,P|253:17|198:45,1,125,2|8,3:2|3:2,2:2:0:0:
149,306,59783,2,0,P|215:277|218:214,1,125,2|0,2:2|3:2,2:2:0:0:
158,147,60147,5,6,3:3:0:0:
158,147,60238,1,6,3:3:0:0:
158,147,60328,1,6,3:3:0:0:
500,349,60510,38,2,B|444:340|444:340|413:296|413:296|364:304,1,150,6|0,1:2|2:2,2:1:0:0:
463,97,60874,2,0,P|447:142|430:209,1,100,2|10,3:2|3:2,2:2:0:0:
199,327,61238,1,2,2:2:0:0:
274,348,61419,1,2,3:2:0:0:
350,374,61601,1,0,3:2:0:0:
350,374,61783,1,8,3:2:0:0:
110,46,61965,6,2,B|128:79|128:79|203:43|203:43|227:76,1,150,6|0,1:2|2:2,2:1:0:0:
364,144,62328,2,0,P|319:150|257:168,1,100,2|10,3:2|3:2,2:2:0:0:
82,307,62687,1,2,2:2:0:0:
102,235,62866,1,2,3:2:0:0:
125,160,63046,1,0,3:2:0:0:
125,160,63226,1,10,3:2:0:0:
495,33,63405,38,2,B|517:74|517:74|480:118|480:118|507:178,1,150,6|0,1:2|2:2,2:1:0:0:
388,313,63765,2,0,P|430:287|482:266,2,100,2|10|0,3:2|3:2|2:2,2:2:0:0:
470,358,64304,1,0,3:2:0:0:
127,289,64483,5,10,3:3:0:0:
292,244,64663,1,10,3:3:0:0:
457,197,64842,2,2,B|410:186|410:186|397:158|397:158|356:148,1,120,14|0,1:2|2:2,2:1:0:0:
307,367,66089,5,10,3:2:0:0:
35,40,66445,22,2,B|79:75|79:75|37:161|37:161|81:300,1,225.000008583069,6|0,1:2|2:2,2:1:0:0:
0,327,66804,2,0,L|64:312,1,50,0|0,3:2|2:2,2:2:0:0:
140,179,66983,2,0,L|77:193,1,50,0|0,2:2|2:2,2:2:0:0:
282,364,67163,22,2,P|269:292|185:290,1,150.000005722046,10|0,3:2|2:2,2:1:0:0:
188,85,67433,1,10,3:2:0:0:
257,118,67522,2,2,P|269:152|283:214,1,75.0000028610231,0|0,3:2|2:2,2:1:0:0:
123,231,67702,2,2,P|114:194|101:158,1,75.0000028610231,10|0,3:2|2:2,2:1:0:0:
266,24,67882,21,14,1:2:0:0:
342,41,68061,1,0,2:2:0:0:
342,41,68151,1,0,2:2:0:0:
417,60,68331,1,0,2:2:0:0:
417,60,68421,1,2,2:2:0:0:
320,312,68600,22,2,P|298:240|262:148,1,150.000005722046,10|0,3:2|2:2,2:1:0:0:
104,35,68870,1,10,3:2:0:0:
164,82,68959,2,2,P|165:121|193:169,1,75.0000028610231,0|0,3:2|2:2,2:1:0:0:
43,185,69139,2,2,P|42:146|14:98,1,75.0000028610231,10|0,3:2|2:2,2:1:0:0:
243,42,69319,21,14,1:2:0:0:
243,42,69409,1,2,2:2:0:0:
292,105,69588,2,0,L|341:113,1,50,2|0,2:2|3:2,2:2:0:0:
361,8,69768,2,0,L|311:-1,2,50,2|0|0,2:2|2:2|2:2,2:2:0:0:
492,154,70037,22,2,B|405:178|456:217|357:241,1,150.000005722046,10|0,3:2|2:2,2:1:0:0:
187,161,70307,1,10,3:2:0:0:
265,175,70397,2,2,P|289:201|269:262,1,75.0000028610231,0|0,3:2|2:2,2:1:0:0:
145,292,70576,2,2,P|122:265|142:204,1,75.0000028610231,10|0,3:2|2:2,2:1:0:0:
308,373,70756,21,14,1:2:0:0:
308,373,70846,1,2,2:2:0:0:
262,308,71025,2,0,L|280:242,1,50,2|0,2:2|3:2,2:2:0:0:
394,289,71205,2,0,L|381:337,2,50,2|0|0,2:2|2:2|2:2,2:2:0:0:
462,112,71474,22,2,B|381:133|381:133|371:127|371:127|293:146,1,175,6|0,3:2|2:2,2:1:0:0:
130,184,72193,37,6,1:2:0:0:
130,184,72373,1,2,2:2:0:0:
176,246,72552,1,10,3:2:0:0:
28,228,72912,2,0,P|40:198|53:155,1,59.9999981689454,0|0,3:2|2:2,2:2:0:0:
176,246,73271,1,8,3:2:0:0:
262,163,73450,1,2,2:2:0:0:
262,163,73630,1,2,1:2:0:0:
196,123,73810,1,2,2:2:0:0:
176,246,73989,1,8,3:2:0:0:
460,175,74349,5,4,3:2:0:0:
380,334,74528,1,2,3:3:0:0:
380,285,74618,1,2,3:3:0:0:
427,272,74708,2,0,P|453:278|486:288,1,59.9999981689454,2|2,3:3|2:2,2:2:0:0:
387,69,75067,38,0,P|407:46|404:17,1,59.9999981689454,2|0,1:2|2:2,2:2:0:0:
294,43,75427,1,10,3:2:0:0:
460,176,75786,2,0,P|424:161|359:144,1,89.9999972534181,2|0,3:2|2:2,2:2:0:0:
294,43,76145,1,10,3:2:0:0:
233,150,76325,2,0,P|260:120|291:124,2,59.9999981689454,2|0|2,2:2|1:2|2:2,2:2:0:0:
294,43,76864,1,8,3:2:0:0:
424,279,77223,5,4,3:2:0:0:
236,341,77403,1,2,3:3:0:0:
283,331,77492,1,2,3:3:0:0:
298,284,77582,2,0,P|281:252|270:221,1,59.9999981689454,2|2,3:3|2:2,2:2:0:0:
82,84,77942,38,0,P|63:133|48:191,1,89.9999972534181,0|0,1:2|2:2,2:2:0:0:
9,235,78301,1,10,3:2:0:0:
9,235,78480,1,2,2:2:0:0:
196,193,78660,2,0,P|176:154|130:159,1,89.9999972534181,2|0,3:2|2:2,2:2:0:0:
9,235,79019,1,8,3:2:0:0:
105,356,79199,1,2,2:2:0:0:
105,356,79379,1,2,1:2:0:0:
172,316,79558,1,2,2:2:0:0:
9,235,79738,1,10,3:2:0:0:
287,52,80097,5,6,3:2:0:0:
334,252,80277,1,2,3:3:0:0:
345,202,80367,1,2,3:3:0:0:
299,185,80456,2,0,P|288:154|273:125,1,59.9999981689454,2|2,3:3|2:2,2:2:0:0:
500,51,80816,37,2,1:2:0:0:
500,51,80995,1,2,2:2:0:0:
407,146,81175,1,10,3:2:0:0:
371,74,81534,1,0,3:2:0:0:
407,146,81894,1,8,3:2:0:0:
309,177,82253,1,0,1:2:0:0:
407,146,82612,1,8,3:2:0:0:
178,85,82792,5,2,2:2:0:0:
164,12,82971,1,6,3:2:0:0:
91,25,83151,1,2,2:2:0:0:
104,99,83331,1,2,3:3:0:0:
105,118,83421,1,2,3:3:0:0:
96,131,83510,1,2,3:3:0:0:
100,148,83600,1,2,3:3:0:0:
89,187,83690,38,0,P|100:221|106:252,1,59.9999981689454,6|2,1:2|2:2,2:2:0:0:
41,340,84049,1,10,3:2:0:0:
162,347,84409,2,0,P|138:350|110:377,1,59.9999981689454,0|0,3:2|2:2,2:2:0:0:
41,340,84768,1,8,3:2:0:0:
15,222,84947,1,2,2:2:0:0:
15,222,85127,2,0,P|54:229|75:272,1,89.9999972534181,2|2,1:2|2:2,2:2:0:0:
41,340,85486,1,10,3:2:0:0:
290,205,85846,5,4,3:2:0:0:
432,333,86025,1,2,3:3:0:0:
410,290,86115,1,2,3:3:0:0:
361,300,86205,2,0,P|333:287|298:277,1,59.9999981689454,2|2,3:3|2:2,2:2:0:0:
462,49,86564,38,0,P|446:90|432:145,1,89.9999972534181,2|0,1:2|2:2,2:2:0:0:
280,84,86924,1,10,3:2:0:0:
339,31,87283,1,0,3:2:0:0:
280,84,87642,1,10,3:2:0:0:
392,180,88001,2,0,P|356:186|327:141,1,89.9999972534181,2|2,1:2|2:2,2:2:0:0:
280,84,88361,1,10,3:2:0:0:
159,346,88720,5,4,3:2:0:0:
122,193,88900,1,2,3:3:0:0:
85,225,88989,1,2,3:3:0:0:
37,209,89079,2,0,P|29:179|15:143,1,59.9999981689454,2|2,3:3|2:2,2:2:0:0:
199,30,89439,38,0,P|187:55|175:91,1,59.9999981689454,0|0,1:2|2:2,2:2:0:0:
294,220,89798,1,10,3:2:0:0:
414,194,90157,2,0,P|391:161|333:166,1,89.9999972534181,2|0,3:2|2:2,2:2:0:0:
294,220,90516,1,8,3:2:0:0:
384,319,90696,2,0,P|355:324|324:333,2,59.9999981689454,2|0|2,2:2|1:2|2:2,2:2:0:0:
294,220,91235,1,8,3:2:0:0:
102,320,91415,5,2,2:2:0:0:
102,320,91594,1,6,3:2:0:0:
26,109,91774,1,2,3:3:0:0:
64,138,91864,1,2,3:3:0:0:
41,184,91953,2,0,P|52:215|59:244,1,59.9999981689454,2|2,3:3|2:2,2:2:0:0:
229,365,92313,37,2,1:2:0:0:
229,365,92492,1,2,2:2:0:0:
373,273,92672,2,0,P|362:297|344:342,1,59.9999981689454,10|0,3:2|2:2,2:2:0:0:
209,163,93031,5,0,3:2:0:0:
136,182,93211,1,0,2:2:0:0:
98,85,93391,1,0,3:2:0:0:
277,29,93570,1,2,3:2:0:0:
462,283,93750,37,10,1:2:0:0:
462,283,93930,1,2,2:2:0:0:
398,242,94109,1,2,2:2:0:0:
270,371,94468,1,2,2:2:0:0:
270,371,94648,1,2,2:2:0:0:
341,341,94828,1,2,2:2:0:0:
341,341,95187,37,6,1:2:0:0:
318,264,95366,1,0,3:2:0:0:
296,188,95546,1,8,3:2:0:0:
12,283,95725,2,0,P|93:300|186:380,1,187.5,2|0,2:2|2:2,2:2:0:0:
268,101,96084,2,0,P|223:116|196:197,1,125,2|10,3:2|3:2,2:2:0:0:
35,362,96443,1,2,2:2:0:0:
66,99,96623,5,0,1:2:0:0:
297,288,96802,2,0,P|238:307|182:337,1,125,2|8,3:2|3:2,2:2:0:0:
8,156,97161,1,0,2:2:0:0:
33,228,97341,1,0,3:2:0:0:
311,142,97520,1,2,3:2:0:0:
337,69,97700,1,10,3:2:0:0:
315,364,97879,38,0,P|367:379|392:288,1,125,2|0,2:2|1:2,2:2:0:0:
190,179,98239,2,0,P|175:231|265:256,1,125,2|8,3:2|3:2,2:2:0:0:
388,69,98598,2,0,P|336:54|311:145,1,125,2|0,2:2|3:2,2:2:0:0:
511,251,98957,2,0,P|526:199|435:174,1,125,2|8,3:2|3:2,2:2:0:0:
224,376,99316,6,0,P|246:264|276:178,1,187.5,2|0,2:2|2:2,2:2:0:0:
66,56,99675,1,2,3:2:0:0:
66,56,99854,1,10,3:2:0:0:
122,102,100034,1,2,2:2:0:0:
337,71,100213,1,2,3:2:0:0:
363,0,100393,1,2,3:2:0:0:
203,221,100572,2,0,P|273:218|322:354,1,187.5,10|0,3:2|2:2,2:2:0:0:
512,146,100932,37,0,1:2:0:0:
487,219,101111,1,0,3:2:0:0:
463,290,101291,2,0,P|431:164|406:85,1,187.5,10|0,3:2|2:2,2:2:0:0:
206,200,101650,2,0,P|259:143|312:167,1,125,2|0,3:2|3:2,2:2:0:0:
398,375,102009,5,8,3:2:0:0:
398,375,102188,1,2,2:2:0:0:
97,256,102368,2,0,P|163:280|200:334,1,125,2|0,1:2|3:2,2:2:0:0:
362,217,102637,1,2,3:2:0:0:
340,292,102727,2,0,P|304:302|273:329,1,62.5,8|0,3:2|2:2,2:2:0:0:
134,384,102906,2,0,P|155:316|210:160,1,187.5,2|0,2:2|2:2,2:2:0:0:
26,44,103265,1,0,3:2:0:0:
108,175,103445,1,8,3:2:0:0:
397,15,103625,38,0,B|280:28|349:86|237:103,1,187.5,2|0,2:2|2:2,2:2:0:0:
171,317,103984,1,2,3:2:0:0:
171,317,104163,1,10,3:2:0:0:
140,246,104343,1,0,2:2:0:0:
403,113,104522,1,2,3:2:0:0:
379,186,104702,1,2,3:2:0:0:
426,372,104881,2,0,P|377:345|303:318,1,125,10|0,3:2|2:2,2:2:0:0:
175,32,105240,5,6,1:2:0:0:
148,124,105420,1,0,3:2:0:0:
60,94,105599,1,8,3:2:0:0:
60,94,105779,1,0,2:2:0:0:
162,372,105958,37,6,3:2:0:0:
128,234,106138,1,0,3:2:0:0:
0,278,106318,1,8,3:2:0:0:
0,278,106497,1,0,2:2:0:0:
292,0,106677,5,6,1:2:0:0:
304,75,106856,1,0,3:2:0:0:
316,150,107036,1,8,3:2:0:0:
471,358,107215,2,0,P|373:321|263:301,1,187.5,2|0,2:2|2:2,2:2:0:0:
380,66,107574,2,0,P|416:73|458:155,1,125,2|10,3:2|3:2,2:2:0:0:
293,384,107933,1,2,2:2:0:0:
472,249,108113,37,0,1:2:0:0:
199,304,108292,2,0,P|222:249|264:175,1,125,2|8,3:2|3:2,2:2:0:0:
128,27,108651,1,0,2:2:0:0:
57,53,108831,1,0,3:2:0:0:
13,234,109011,1,2,3:2:0:0:
60,295,109190,1,10,3:2:0:0:
299,60,109370,6,0,P|251:62|196:117,1,125,2|0,2:2|1:2,2:2:0:0:
424,229,109729,2,0,P|422:181|367:126,1,125,2|8,3:2|3:2,2:2:0:0:
255,354,110088,2,0,P|303:352|358:297,1,125,2|0,2:2|3:2,2:2:0:0:
130,184,110447,2,0,P|132:232|187:287,1,125,2|8,3:2|3:2,2:2:0:0:
491,156,110806,38,0,P|375:187|258:227,1,187.5,2|0,2:2|2:2,2:2:0:0:
140,34,111165,1,2,3:2:0:0:
140,34,111344,1,10,3:2:0:0:
182,96,111524,1,2,2:2:0:0:
18,254,111704,1,2,3:2:0:0:
44,185,111883,1,2,3:2:0:0:
225,368,112063,2,0,P|212:314|165:181,1,187.5,10|0,3:2|2:2,2:2:0:0:
434,66,112422,5,0,1:2:0:0:
359,41,112601,1,0,3:2:0:0:
285,16,112781,2,0,P|256:100|153:102,1,187.5,10|0,3:2|2:2,2:2:0:0:
14,242,113140,2,0,P|72:217|132:200,1,125,2|0,3:2|3:2,2:2:0:0:
58,61,113499,1,8,3:2:0:0:
417,292,113678,37,10,3:3:0:0:
447,218,113768,1,10,3:3:0:0:
370,201,113858,1,10,3:3:0:0:
229,376,114037,2,0,P|212:315|196:255,1,125,10|8,3:3|3:3,2:2:0:0:
170,35,114397,2,0,P|187:94|202:155,1,125,10|4,3:3|3:3,2:2:0:0:
66,323,114756,5,6,3:3:0:0:
66,323,114845,1,6,3:3:0:0:
66,323,114935,1,6,3:3:0:0:
461,336,115115,6,0,P|419:280|341:299,1,150,6|0,3:2|2:2,2:2:0:0:
242,126,115478,1,2,2:2:0:0:
282,191,115660,2,0,P|262:247|233:389,1,200,2|0,3:2|3:2,2:2:0:0:
84,280,116204,1,2,2:2:0:0:
84,280,116385,1,2,3:2:0:0:
138,338,116566,2,2,P|198:311|270:287,1,140,2|0,2:2|3:2,2:1:0:0:
495,108,118184,5,2,1:2:0:0:
495,108,118423,1,0,2:2:0:0:
469,182,118543,2,0,P|487:219|503:264,1,66.6666666666667,2|0,3:2|2:2,2:2:0:0:
306,130,118902,1,2,3:2:0:0:
306,130,119141,1,0,2:2:0:0:
383,115,119261,2,0,P|406:80|437:44,1,66.6666666666667,2|0,3:2|2:2,2:2:0:0:
420,283,119621,1,2,1:2:0:0:
420,283,119860,1,0,2:2:0:0:
368,223,119980,2,0,P|326:220|279:211,1,66.6666666666667,2|0,3:2|2:2,2:2:0:0:
120,384,120339,38,2,B|108:347|108:347|181:293|181:293|170:257,1,166.666666666667,2|0,3:2|2:2,2:1:0:0:
64,48,121058,5,2,1:2:0:0:
64,48,121297,1,0,2:2:0:0:
35,118,121417,2,0,P|53:150|94:156,1,66.6666666666667,2|0,3:2|2:2,2:2:0:0:
251,108,121776,1,2,3:2:0:0:
251,108,122015,1,0,2:2:0:0:
204,47,122135,2,0,P|167:46|141:79,1,66.6666666666667,2|0,3:2|2:2,2:2:0:0:
105,239,122495,1,2,1:2:0:0:
105,239,122734,1,0,2:2:0:0:
181,229,122854,2,0,P|199:197|184:158,1,66.6666666666667,2|0,3:2|2:2,2:2:0:0:
423,83,123213,38,0,B|397:60|397:60|348:85,1,66.6666666666667,2|2,3:2|2:2,2:2:0:0:
299,41,123573,1,0,3:2:0:0:
345,358,123932,5,2,1:2:0:0:
345,358,124172,1,0,2:2:0:0:
390,300,124291,2,0,P|378:262|372:225,1,66.6666666666667,2|0,3:2|2:2,2:2:0:0:
224,211,124651,1,2,3:2:0:0:
224,211,124891,1,0,2:2:0:0:
179,269,125010,2,0,P|191:307|197:344,1,66.6666666666667,2|0,3:2|2:2,2:2:0:0:
451,251,125369,5,14,1:2:0:0:
474,170,125488,1,8,3:3:0:0:
388,148,125608,1,8,3:3:0:0:
331,226,125728,37,10,3:3:0:0:
352,301,125848,1,8,3:3:0:0:
280,319,125968,1,8,3:3:0:0:
223,244,126088,5,6,3:3:0:0:
240,178,126207,1,4,3:3:0:0:
175,161,126327,1,4,3:3:0:0:
117,237,126447,37,6,3:3:0:0:
130,282,126566,1,4,3:3:0:0:
84,293,126686,1,4,3:3:0:0:
17,223,126806,22,0,P|22:173|82:155,1,100.000003814697,6|0,1:2|2:2,2:2:0:0:
288,39,127166,1,8,3:2:0:0:
288,39,127405,1,2,2:2:0:0:
274,113,127525,2,0,P|219:121|172:134,1,100.000003814697,2|2,3:2|2:2,2:2:0:0:
36,99,127884,1,8,3:2:0:0:
36,99,128123,1,2,2:2:0:0:
50,24,128243,2,0,P|106:15|153:2,1,100.000003814697,4|2,1:2|2:2,2:2:0:0:
193,209,128603,1,8,3:2:0:0:
193,209,128962,21,2,3:2:0:0:
189,187,129081,1,0,3:2:0:0:
185,165,129202,1,0,3:2:0:0:
180,142,129321,2,0,P|197:89|217:36,1,100.000003814697,10|0,3:2|2:2,2:2:0:0:
496,82,129681,22,0,P|478:14|434:8,1,100.000003814697,6|0,1:2|2:2,2:2:0:0:
280,95,130040,1,8,3:2:0:0:
280,95,130279,1,2,2:2:0:0:
349,131,130399,2,0,P|362:171|378:243,1,100.000003814697,2|2,3:2|2:2,2:2:0:0:
226,384,130758,1,8,3:2:0:0:
226,384,130997,1,2,2:2:0:0:
223,308,131117,2,0,P|252:276|307:227,1,100.000003814697,4|2,1:2|2:2,2:2:0:0:
506,287,131477,1,8,3:2:0:0:
506,287,131716,1,2,2:2:0:0:
441,328,131836,2,0,P|400:318|329:295,1,100.000003814697,0|2,3:2|2:2,2:2:0:0:
185,72,132195,21,10,3:2:0:0:
189,94,132315,1,0,3:2:0:0:
194,116,132435,1,0,3:2:0:0:
197,138,132555,2,0,P|188:187|174:246,1,100.000003814697,6|0,1:2|2:2,2:2:0:0:
474,215,132914,21,8,3:2:0:0:
264,204,133154,1,2,2:2:0:0:
335,183,133273,1,2,3:2:0:0:
287,366,133513,1,2,2:2:0:0:
233,314,133632,1,8,3:2:0:0:
416,265,133872,1,2,2:2:0:0:
398,337,133991,1,4,1:2:0:0:
320,272,134231,1,2,2:2:0:0:
320,272,134351,1,8,3:2:0:0:
105,340,134710,21,10,3:3:0:0:
26,324,134830,1,8,3:3:0:0:
0,249,134950,1,8,3:3:0:0:
70,169,135070,21,10,3:3:0:0:
149,184,135189,1,8,3:3:0:0:
175,260,135309,1,8,3:3:0:0:
289,323,135429,21,6,1:2:0:0:
310,248,135669,1,2,2:2:0:0:
328,175,135908,1,2,2:2:0:0:
372,370,136148,21,2,2:2:0:0:
310,248,136388,1,2,2:2:0:0:
251,125,136627,1,2,2:2:0:0:
512,169,136866,21,2,2:2:0:0:
512,169,137585,2,0,P|469:181|423:207,1,89.9999972534181,2|2,2:2|2:2,2:2:0:0:
466,292,138303,38,0,P|456:317|448:352,2,50,0|0|0,2:2|2:2|2:2,2:2:0:0:
313,246,138841,2,0,P|358:241|375:268,1,75,2|0,2:2|2:2,2:2:0:0:
433,208,139200,1,2,2:2:0:0:
433,208,139379,1,2,2:2:0:0:
310,328,139558,2,0,P|259:313|191:303,1,100,2|2,2:2|2:2,2:2:0:0:
159,360,140097,2,0,P|125:371|92:387,2,50,0|0|0,2:2|2:2|2:2,2:2:0:0:
225,229,140635,1,2,2:2:0:0:
225,229,140814,1,2,2:2:0:0:
10,144,140994,6,0,P|18:174|24:209,1,50,2|0,2:2|2:2,2:2:0:0:
101,62,141353,2,0,P|70:70|35:76,1,50,2|0,2:2|2:2,2:2:0:0:
183,153,141712,2,0,P|174:122|168:87,1,50,2|0,2:2|2:2,2:2:0:0:
92,235,142070,2,0,P|122:226|157:220,1,50,2|0,2:2|2:2,2:2:0:0:
341,67,142429,38,0,P|302:72|282:134,1,100,2|2,2:2|2:2,2:2:0:0:
412,194,142968,2,0,P|389:184|364:179,1,50,2|2,2:2|2:2,2:2:0:0:
417,111,143326,2,0,P|440:99|469:90,1,50,2|2,2:2|2:2,2:2:0:0:
243,2,143685,5,10,3:2:0:0:
256,356,143865,6,0,P|154:306|65:271,1,187.5,6|0,1:2|2:2,2:2:0:0:
3,169,144224,1,2,3:2:0:0:
308,82,144403,2,0,P|269:175|184:159,1,187.5,10|0,2:2|2:2,2:2:0:0:
30,10,144762,2,0,P|63:61|91:125,1,125,2|0,3:2|3:2,2:2:0:0:
301,297,145121,5,8,3:2:0:0:
301,297,145300,1,2,2:2:0:0:
505,207,145480,2,0,P|424:197|414:147,1,125,2|0,1:2|3:2,2:2:0:0:
212,52,145749,1,2,3:2:0:0:
271,105,145839,2,0,P|310:69|327:73,1,62.5,8|0,3:2|2:2,2:2:0:0:
475,42,146018,2,0,P|443:127|399:274,1,187.5,2|0,2:2|2:2,2:2:0:0:
498,353,146378,1,0,3:2:0:0:
337,192,146557,1,8,3:2:0:0:
57,380,146737,38,0,B|170:356|105:293|234:280,1,187.5,2|0,2:2|2:2,2:2:0:0:
414,363,147096,1,2,3:2:0:0:
414,363,147276,1,10,3:2:0:0:
360,305,147456,1,2,2:2:0:0:
512,111,147635,1,2,3:2:0:0:
488,184,147815,1,2,3:2:0:0:
240,0,147994,2,0,P|271:64|294:125,1,125,10|0,3:2|2:2,2:2:0:0:
137,372,148354,5,6,1:2:0:0:
46,342,148533,1,0,3:2:0:0:
85,254,148713,1,8,3:2:0:0:
85,254,148893,1,0,2:2:0:0:
303,156,149072,37,6,3:2:0:0:
420,231,149252,1,0,3:2:0:0:
338,344,149432,1,8,3:2:0:0:
338,344,149611,1,0,2:2:0:0:
64,31,149791,5,6,1:2:0:0:
84,104,149971,1,0,3:2:0:0:
103,177,150151,1,8,3:2:0:0:
371,241,150331,2,0,P|291:236|241:322,1,187.5,2|0,2:2|2:2,2:2:0:0:
15,341,150691,2,0,B|6:338|74:358|133:381,1,125,2|10,3:2|3:2,2:2:0:0:
255,140,151052,1,2,2:2:0:0:
414,360,151232,37,0,1:2:0:0:
184,200,151412,2,0,P|147:263|77:251,1,125,2|8,3:2|3:2,2:2:0:0:
4,67,151772,1,0,2:2:0:0:
75,101,151953,1,0,3:2:0:0:
293,13,152133,1,2,3:2:0:0:
236,59,152313,1,10,3:2:0:0:
296,338,152493,6,0,P|247:277|261:232,1,125,2|0,2:2|1:2,2:2:0:0:
506,306,152854,2,0,P|445:355|400:341,1,125,2|8,3:2|3:2,2:2:0:0:
474,96,153214,2,0,P|523:157|509:202,1,125,2|0,2:2|3:2,2:2:0:0:
264,128,153574,2,0,P|325:79|370:93,1,125,2|8,3:2|3:2,2:2:0:0:
462,384,153935,38,0,P|409:368|224:319,1,187.5,2|0,2:2|2:2,2:2:0:0:
50,381,154295,1,2,3:2:0:0:
50,381,154475,1,10,3:2:0:0:
79,312,154655,1,2,2:2:0:0:
293,214,154836,1,2,3:2:0:0:
344,271,155016,1,2,3:2:0:0:
50,200,155196,2,0,P|118:190|155:85,1,187.5,10|0,3:2|2:2,2:2:0:0:
431,25,155556,5,0,1:2:0:0:
406,98,155734,1,0,3:2:0:0:
381,170,155913,2,0,P|433:241|491:335,1,187.5,10|0,3:2|2:2,2:2:0:0:
274,351,156270,2,0,P|350:353|370:299,1,125,2|0,3:2|3:2,2:2:0:0:
512,201,156627,1,10,3:2:0:0:
232,256,156806,38,0,P|145:221|55:192,1,187.5,2|0,2:2|2:2,2:2:0:0:
17,52,157163,1,2,3:2:0:0:
286,0,157341,1,10,3:2:0:0:
286,0,157520,1,2,2:2:0:0:
243,63,157698,1,10,3:2:0:0:
428,303,157877,5,10,3:2:0:0:
432,307,158234,37,2,1:2:0:0:
432,307,158413,1,4,1:2:0:0:
354,322,158592,1,0,2:2:0:0:
279,338,158772,1,8,3:2:0:0:
62,80,158951,2,0,P|99:165|131:253,1,187.5,2|0,2:2|2:2,2:2:0:0:
315,180,159311,2,0,P|246:184|221:138,1,125,2|10,3:2|3:2,2:2:0:0:
0,271,159670,1,2,2:2:0:0:
155,48,159850,5,0,1:2:0:0:
333,289,160029,2,0,P|276:270|201:254,1,125,2|8,3:2|3:2,2:2:0:0:
275,49,160389,1,0,2:2:0:0:
350,24,160568,1,0,3:2:0:0:
512,204,160748,1,2,3:2:0:0:
439,178,160927,1,10,3:2:0:0:
231,384,161107,38,0,P|295:368|367:357,1,125,2|0,2:2|1:2,2:2:0:0:
128,200,161466,2,0,P|143:264|154:336,1,125,2|8,3:2|3:2,2:2:0:0:
311,97,161826,2,0,P|246:112|174:123,1,125,2|0,2:2|3:2,2:2:0:0:
414,281,162185,2,0,P|398:216|387:144,1,125,2|8,3:2|3:2,2:2:0:0:
59,274,162544,6,0,P|151:273|227:325,1,187.5,2|0,2:2|2:2,2:2:0:0:
426,175,162904,1,2,3:2:0:0:
426,175,163083,1,10,3:2:0:0:
365,220,163263,1,2,2:2:0:0:
123,103,163442,1,2,3:2:0:0:
173,161,163622,1,2,3:2:0:0:
417,25,163802,2,0,P|367:33|304:171,1,187.5,10|0,3:2|2:2,2:2:0:0:
329,379,164161,37,0,1:2:0:0:
402,354,164341,1,0,3:2:0:0:
473,330,164520,2,0,P|347:298|268:273,1,187.5,10|0,3:2|2:2,2:2:0:0:
69,382,164880,2,0,P|122:361|190:341,1,125,2|0,3:2|3:2,2:2:0:0:
390,166,165239,5,8,3:2:0:0:
390,166,165418,1,2,2:2:0:0:
144,79,165598,2,0,P|181:144|247:141,1,125,2|0,1:2|3:2,2:2:0:0:
422,52,165868,1,2,3:2:0:0:
346,36,165957,2,0,P|332:63|302:71,1,62.5,8|0,3:2|2:2,2:2:0:0:
141,213,166137,2,0,P|160:121|191:30,1,187.5,2|0,2:2|2:2,2:2:0:0:
19,5,166496,1,0,3:2:0:0:
82,130,166676,1,8,3:2:0:0:
422,52,166856,38,0,P|438:155|343:181,1,187.5,2|0,2:2|2:2,2:2:0:0:
190,96,167215,1,2,3:2:0:0:
190,96,167395,1,10,3:2:0:0:
222,163,167574,1,0,2:2:0:0:
39,358,167754,1,2,3:2:0:0:
63,285,167933,1,2,3:2:0:0:
333,343,168113,2,0,P|276:322|210:308,1,125,10|0,3:2|2:2,2:2:0:0:
10,125,168472,5,6,1:2:0:0:
39,32,168650,1,0,3:2:0:0:
131,75,168829,1,8,3:2:0:0:
131,75,169007,1,0,2:2:0:0:
448,142,169186,37,6,3:2:0:0:
411,3,169364,1,0,3:2:0:0:
280,56,169543,1,8,3:2:0:0:
280,56,169722,1,0,2:2:0:0:
135,355,169900,6,0,P|221:323|337:295,1,187.5,6|0,1:2|2:2,2:2:0:0:
512,226,170261,2,0,P|389:212|385:227,1,125,10|0,3:2|2:2,2:2:0:0:
332,384,170622,1,2,3:2:0:0:
332,384,170803,1,0,3:2:0:0:
153,129,170984,2,0,P|187:175|234:249,1,125,8|0,3:2|2:2,2:2:0:0:
481,74,171345,37,2,1:2:0:0:
433,305,171526,2,0,P|377:275|319:253,1,125,2|10,3:2|3:2,2:2:0:0:
209,24,171887,2,0,P|306:32|324:127,1,187.5,2|0,2:2|2:2,2:2:0:0:
487,214,172249,1,0,3:2:0:0:
487,214,172430,1,8,3:2:0:0:
255,351,172610,1,0,2:2:0:0:
112,58,172791,6,0,P|91:110|53:249,1,187.5,2|0,1:2|2:2,2:2:0:0:
324,283,173150,2,0,P|284:234|200:248,1,125,10|2,3:2|2:2,2:2:0:0:
0,383,173509,2,0,P|108:337|185:310,1,187.5,2|0,3:2|2:2,2:2:0:0:
250,61,173868,1,10,3:2:0:0:
184,99,174048,1,2,2:2:0:0:
471,225,174228,38,0,P|436:175|375:171,1,125,2|2,1:2|3:2,2:2:0:0:
247,311,174497,1,2,3:2:0:0:
327,320,174587,2,0,P|318:290|288:229,1,62.5,8|0,3:2|2:2,2:2:0:0:
452,68,174767,2,0,P|423:135|381:263,1,187.5,2|0,2:2|2:2,2:2:0:0:
67,314,175126,5,0,3:2:0:0:
42,240,175305,1,8,3:2:0:0:
21,169,175485,1,0,2:2:0:0:
320,28,175665,37,2,1:2:0:0:
320,28,175844,1,0,3:2:0:0:
146,273,176024,2,0,B|267:238|193:190|318:164,1,187.5,10|0,3:2|2:2,2:2:0:0:
449,362,176383,2,0,P|422:300|393:241,1,125,2|0,3:2|3:2,2:2:0:0:
168,97,176743,1,8,3:2:0:0:
121,157,176922,1,2,2:2:0:0:
290,384,177102,5,2,1:2:0:0:
290,384,177282,1,2,3:2:0:0:
352,340,177461,1,8,3:2:0:0:
461,85,177641,1,2,2:2:0:0:
495,153,177820,1,0,3:2:0:0:
193,252,178000,1,10,3:3:0:0:
164,180,178090,1,10,3:3:0:0:
237,158,178180,1,10,3:3:0:0:
512,323,178359,38,2,B|453:298|453:298|439:261|439:261|364:274,1,150,6|0,1:2|2:2,2:1:0:0:
370,51,178719,2,0,P|353:99|337:163,1,100,2|10,3:2|3:2,2:2:0:0:
199,356,179079,1,2,2:2:0:0:
274,377,179259,1,2,3:2:0:0:
292,305,179439,1,0,3:2:0:0:
292,305,179620,1,8,3:2:0:0:
0,32,179800,6,2,B|25:77|25:77|-2:125|-2:125|35:181,1,150,6|0,1:2|2:2,2:1:0:0:
72,350,180160,2,0,P|87:305|115:253,1,100,2|10,3:2|3:2,2:2:0:0:
213,88,180520,1,2,2:2:0:0:
138,67,180700,1,2,3:2:0:0:
120,143,180880,1,0,3:2:0:0:
120,143,181061,1,10,3:2:0:0:
512,64,181241,38,2,B|415:88|415:88|383:148,1,150,6|0,1:2|2:2,2:1:0:0:
253,3,181602,2,0,P|279:45|300:97,2,100,2|8|0,3:2|3:2|2:2,2:2:0:0:
367,25,182142,1,0,3:2:0:0:
414,336,182322,5,10,3:3:0:0:
249,291,182502,1,10,3:3:0:0:
84,244,182683,2,2,B|131:233|131:233|144:205|144:205|185:195,1,120,14|0,1:2|2:2,2:1:0:0:
148,384,183930,5,10,3:2:0:0:
512,327,184289,22,2,B|409:352|409:352|368:291|368:291|315:269,1,225.000008583069,6|0,1:2|2:2,2:1:0:0:
282,161,184648,2,0,L|267:228,1,50,0|0,3:2|2:2,2:2:0:0:
330,361,184827,2,0,L|340:312,1,50,0|0,2:2|2:2,2:2:0:0:
87,312,185007,22,2,P|167:291|245:277,1,150.000005722046,10|0,3:2|2:2,2:1:0:0:
163,78,185277,1,10,3:2:0:0:
192,151,185366,2,2,P|195:187|163:212,1,75.0000028610231,0|0,3:2|2:2,2:1:0:0:
39,161,185546,2,2,P|35:126|68:100,1,75.0000028610231,10|0,3:2|2:2,2:1:0:0:
259,107,185726,21,14,1:2:0:0:
337,91,185905,1,0,2:2:0:0:
337,91,185995,1,0,2:2:0:0:
318,18,186175,1,0,2:2:0:0:
318,18,186265,1,2,2:2:0:0:
488,176,186444,22,2,P|418:181|402:249,1,150.000005722046,10|0,3:2|2:2,2:1:0:0:
208,252,186714,1,10,3:2:0:0:
231,324,186803,2,2,P|271:340|329:358,1,75.0000028610231,0|0,3:2|2:2,2:1:0:0:
355,206,186983,2,2,P|315:190|257:172,1,75.0000028610231,10|0,3:2|2:2,2:1:0:0:
71,292,187163,22,2,B|50:204|50:204|110:179|110:179|129:98,1,225.000008583069,14|0,1:2|2:2,2:1:0:0:
214,49,187522,2,0,L|165:36,1,50,0|0,3:2|2:2,2:2:0:0:
30,125,187702,2,0,L|78:137,1,50,0|0,2:2|2:2,2:2:0:0:
269,292,187881,22,2,P|237:206|210:147,1,150.000005722046,10|0,3:2|2:2,2:1:0:0:
391,17,188151,1,10,3:2:0:0:
322,54,188241,2,2,P|306:98|283:139,1,75.0000028610231,0|0,3:2|2:2,2:1:0:0:
426,170,188420,2,2,P|442:126|465:85,1,75.0000028610231,10|0,3:2|2:2,2:1:0:0:
249,27,188600,21,14,1:2:0:0:
179,4,188780,1,0,2:2:0:0:
179,4,188869,1,0,2:2:0:0:
155,80,189049,1,0,2:2:0:0:
155,80,189139,1,2,2:2:0:0:
377,351,189318,22,2,P|303:361|277:287,1,150.000005722046,10|0,3:2|2:2,2:1:0:0:
53,277,189588,1,10,3:2:0:0:
95,214,189678,2,2,P|127:192|178:205,1,75.0000028610231,0|0,3:2|2:2,2:1:0:0:
191,344,189857,2,2,P|161:365|124:363,1,75.0000028610231,10|0,3:2|2:2,2:1:0:0:
46,152,190037,21,14,1:2:0:0:
46,152,190127,1,2,2:2:0:0:
111,105,190306,2,0,L|122:54,1,50,2|0,2:2|3:2,2:2:0:0:
10,33,190486,2,0,L|-1:84,2,50,2|0|0,2:2|2:2|2:2,2:2:0:0:
197,6,190756,22,2,B|224:102|261:43|287:125,1,150.000005722046,10|0,3:2|2:2,2:1:0:0:
429,272,191025,1,10,3:2:0:0:
479,216,191115,2,2,P|485:175|497:122,1,75.0000028610231,0|0,3:2|2:2,2:1:0:0:
361,115,191294,2,2,P|356:160|344:212,1,75.0000028610231,10|0,3:2|2:2,2:1:0:0:
233,328,191474,21,14,1:2:0:0:
233,328,191564,1,2,2:2:0:0:
188,262,191744,2,0,L|140:252,1,50,2|0,2:2|3:2,2:2:0:0:
116,362,191923,2,0,L|165:373,2,50,2|0|0,2:2|2:2|2:2,2:2:0:0:
8,181,192193,22,2,P|78:158|166:137,1,150.000005722046,10|0,3:2|2:2,2:1:0:0:
298,188,192462,1,10,3:2:0:0:
363,145,192552,2,2,P|361:102|397:75,1,75.0000028610231,0|0,3:2|2:2,2:1:0:0:
249,44,192732,2,2,P|251:87|215:114,1,75.0000028610231,10|0,3:2|2:2,2:1:0:0:
423,210,192911,21,14,1:2:0:0:
423,210,193001,1,2,2:2:0:0:
388,280,193181,2,0,L|412:358,1,50,2|0,2:2|3:2,2:2:0:0:
512,293,193360,2,0,L|498:246,2,50,2|0|0,2:2|2:2|2:2,2:2:0:0:
315,371,193630,22,2,P|234:362|215:287,1,150.000005722046,10|0,3:2|2:2,2:1:0:0:
92,116,193899,1,10,3:2:0:0:
167,141,193989,2,2,P|176:178|191:211,1,75.0000028610231,0|0,3:2|2:2,2:1:0:0:
52,252,194169,2,2,P|44:214|29:180,1,75.0000028610231,10|0,3:2|2:2,2:1:0:0:
161,37,194348,21,14,1:2:0:0:
223,79,194438,1,8,3:3:0:0:
296,57,194528,1,8,3:3:0:0:
338,121,194618,1,8,3:3:0:0:
406,79,194708,1,8,3:3:0:0:
294,336,194887,22,2,B|318:329|318:329|361:280|361:280|204:216|204:216|218:350|218:350|82:384|82:384|142:297,1,629.999980773926,6|0,3:2|2:2,2:1:0:0:
