osu file format v14

[General]
AudioFilename: audio.mp3
AudioLeadIn: 0
PreviewTime: 5547
Countdown: 0
SampleSet: Soft
StackLeniency: 0.3
Mode: 0
LetterboxInBreaks: 0
WidescreenStoryboard: 1

[Editor]
Bookmarks: 338,6086,17583,29080,40577,42905,52052,60510,66445,72193,83690,95187,106677,115115,126806,138303,144044,158413,169900,178359,184289,194887
DistanceSpacing: 1
BeatDivisor: 4
GridSize: 32
TimelineZoom: 2.5

[Metadata]
Title:Ashita o Narase
TitleUnicode:明日を鳴らせ
Artist:Shishido Kavka
ArtistUnicode:シシド・カフカ
Creator:elicz1
Version:FuJu's Normal
Source:FAIRY TAIL
Tags:zelq AirinCat FuJu japanese wo rock jp j-pop pop jpop j-rock jrock avex single anime ft fairy tail ZERO 0 ゼロ 2014 フェアリーテイル tale opening 22 season eight 8 s8 natsu ナツ dragneel ドラグニル zeref ゼレフ mavis メイビス vermillion ヴァーミリオン
BeatmapID:3006110
BeatmapSetID:1457607

[Difficulty]
HPDrainRate:3
CircleSize:3
OverallDifficulty:4.5
ApproachRate:5.5
SliderMultiplier:1
SliderTickRate:1

[Events]
//Background and Video events
0,0,"zeref2.jpg",0,0
//Break Periods
2,66089,71068
2,115315,124244
2,138303,142560
//Storyboard Layer 0 (Background)
//Storyboard Layer 1 (Fail)
//Storyboard Layer 2 (Pass)
//Storyboard Layer 3 (Foreground)
//Storyboard Layer 4 (Overlay)
//Storyboard Sound Samples

[TimingPoints]
338,359.281437125748,4,2,1,50,1,0
5727,-100,4,2,4,40,0,0
6086,-99.9999999999999,4,2,1,70,0,0
17044,-99.9999999999999,4,2,2,60,0,0
17224,-99.9999999999999,4,2,1,50,0,0
17583,-111.111111111111,4,2,1,45,0,0
29080,-111.111111111111,4,2,1,50,0,0
39140,-111.111111111111,4,2,1,60,0,0
40577,358.208955223881,4,2,1,80,1,0
40577,-90.9090909090909,4,2,1,80,0,1
47741,359.281437125748,4,2,1,80,1,0
47741,-90.9090909090909,4,2,1,80,0,1
59238,363.636363636364,4,2,1,80,1,0
59238,-90.9090909090909,4,2,1,80,0,1
62328,359.281437125748,4,2,1,80,1,0
62328,-90.9090909090909,4,2,1,80,0,1
63585,359.281437125748,4,2,1,80,1,1
63585,-90.9090909090909,4,2,1,80,0,1
64842,-90.9090909090909,4,2,1,80,0,0
64932,-90.9090909090909,4,2,2,75,0,0
65022,-90.9090909090909,4,2,1,70,0,0
65202,-90.9090909090909,4,2,2,60,0,0
65381,-90.9090909090909,4,2,1,50,0,0
65651,-90.9090909090909,4,2,2,40,0,0
66089,356.083086053412,4,2,4,70,1,0
66445,359.281437125748,4,2,1,70,1,0
71654,-100,4,2,2,60,0,0
71834,-100,4,2,1,50,0,0
72193,-111.111111111111,4,2,1,50,0,0
83690,-111.111111111111,4,2,1,55,0,0
92852,-111.111111111111,4,2,3,55,0,0
93031,-111.111111111111,4,2,1,55,0,0
93211,-111.111111111111,4,2,1,60,0,0
93391,-111.111111111111,4,2,1,65,0,0
93570,-111.111111111111,4,2,1,70,0,0
93750,-111.111111111111,4,2,1,55,0,0
95187,359.066427289048,4,2,1,80,1,0
95187,-90.9090909090909,4,2,1,80,0,1
115115,363.636363636364,4,2,1,70,1,0
116024,361.44578313253,4,2,1,70,1,0
116656,-100,4,2,2,60,0,0
116746,-100,4,2,1,50,0,0
116837,-100,4,2,2,40,0,0
117108,-100,4,2,1,30,0,0
117469,-100,4,2,2,20,0,0
117831,-100,4,2,1,60,0,0
118184,359.281437125748,4,2,1,60,1,0
125369,-90.9090909090909,4,2,1,80,0,0
125728,-90.9090909090909,4,2,1,75,0,0
126088,-90.9090909090909,4,2,1,70,0,0
126447,-90.9090909090909,4,2,1,65,0,0
126806,-100,4,2,1,65,0,0
135669,-100,4,2,1,50,0,0
138303,358.851674641148,4,2,1,40,1,0
143685,-100,4,2,1,70,0,0
143865,-90.9090909090909,4,2,1,80,0,1
145480,359.281437125748,4,2,1,80,1,0
145480,-90.9090909090909,4,2,1,80,0,1
149791,360.36036036036,4,2,1,80,1,0
149791,-90.9090909090909,4,2,1,80,0,1
155556,357.142857142857,4,2,1,80,1,0
155556,-90.9090909090909,4,2,1,80,0,1
158413,359.281437125748,4,2,1,80,1,0
158413,-90.9090909090909,4,2,1,80,0,1
168472,357.142857142857,4,2,1,80,1,0
168472,-90.9090909090909,4,2,1,80,0,1
169900,361.44578313253,4,2,1,80,1,0
169900,-90.9090909090909,4,2,1,80,0,1
172791,359.281437125748,4,2,1,80,1,0
172791,-90.9090909090909,4,2,1,80,0,1
178539,360.36036036036,4,2,1,80,1,0
178539,-90.9090909090909,4,2,1,80,0,1
182683,-90.9090909090909,4,2,1,80,0,0
182773,-90.9090909090909,4,2,2,75,0,0
182863,-90.9090909090909,4,2,1,70,0,0
183043,-90.9090909090909,4,2,2,60,0,0
183223,-90.9090909090909,4,2,1,50,0,0
183493,-90.9090909090909,4,2,2,40,0,0
183930,359.281437125748,4,2,4,70,1,0
184289,359.281437125748,4,2,1,70,1,0
184289,-100,4,2,1,70,0,0
194977,-100,4,2,2,65,0,0
195067,-100,4,2,1,60,0,0
195157,-100,4,2,2,55,0,0
195247,-100,4,2,1,50,0,0
195426,-100,4,2,2,40,0,0
195606,-100,4,2,1,30,0,0
195786,-100,4,2,2,20,0,0
196145,-100,4,2,1,10,0,0
196863,-100,4,2,2,5,0,0

[Colours]
Combo1 : 167,101,239
Combo2 : 186,180,177
Combo3 : 139,132,129
Combo4 : 216,82,67

[HitObjects]
436,25,6086,38,2,P|420:72|412:121,1,100,6|0,1:2|3:2,2:1:0:0:
392,220,6805,2,2,P|420:243|457:243,2,75,10|10|10,3:2|3:2|3:2,2:1:0:0:
350,191,7523,2,0,P|300:196|251:206,1,100,14|0,1:2|3:0,0:0:0:0:
179,276,8242,2,2,P|182:313|188:350,2,75,10|10|10,3:2|3:2|3:2,2:1:0:0:
129,271,8960,22,2,P|94:237|110:193,1,100,14|0,1:2|3:2,2:1:0:0:
133,95,9679,2,2,P|106:72|69:75,2,75,10|10|10,3:2|3:2|3:2,2:1:0:0:
178,119,10397,2,0,L|277:106,1,100,14|0,1:2|3:0,0:0:0:0:
371,72,11116,2,2,B|393:38|393:38|375:8,2,75,10|10|10,3:2|3:2|3:2,2:1:0:0:
403,110,11835,22,0,P|387:157|378:206,1,100,14|0,1:2|3:2,0:0:0:0:
291,255,12553,2,2,P|302:290|311:327,1,75,10|10,3:2|3:2,2:1:0:0:
245,374,13092,1,10,3:2:0:0:
245,374,13272,2,0,P|196:360|147:353,1,100,14|0,1:2|3:2,0:0:0:0:
81,278,13990,2,2,P|105:250|141:253,1,75,10|10,3:2|3:2,2:1:0:0:
208,204,14529,21,10,3:2:0:0:
208,204,14709,2,0,L|190:98,1,100,14|0,1:2|3:2,0:0:0:0:
269,43,15427,2,2,L|354:64,1,75,10|10,3:2|3:2,2:1:0:0:
398,0,15966,1,10,3:2:0:0:
398,0,16146,2,0,P|432:33|422:80,1,100,14|0,1:2|3:0,0:0:0:0:
395,176,16864,2,2,B|323:161|326:227|254:207,1,150,6|0,3:2|0:0,2:1:0:0:
216,232,17583,38,0,L|172:219,1,44.999998626709,6|2,1:2|2:2,0:0:0:0:
134,243,17942,2,0,P|140:287|150:331,1,89.999997253418,2|0,3:2|3:2,2:2:0:0:
234,365,18661,2,0,L|277:352,1,44.999998626709,2|2,3:2|2:2,0:0:0:0:
301,316,19020,1,2,1:2:0:0:
301,316,19200,2,0,L|344:303,1,44.999998626709,2|2,2:2|3:2,0:0:0:0:
367,173,19918,1,2,2:2:0:0:
367,173,20098,2,0,L|379:129,1,44.999998626709,2|2,3:2|2:2,0:0:0:0:
347,96,20457,6,0,P|318:128|274:128,1,89.999997253418,2|2,1:2|3:2,2:2:0:0:
201,74,21176,1,0,3:2:0:0:
140,196,21715,1,0,0:0:0:0:
140,196,21894,2,0,L|128:239,1,44.999998626709,2|2,1:2|3:2,2:2:0:0:
120,284,22254,1,0,3:0:0:0:
205,330,22613,2,0,L|248:319,1,44.999998626709,0|2,3:2|2:2,0:0:0:0:
281,288,22972,2,0,P|295:247|272:210,1,89.999997253418,2|0,3:2|1:2,0:0:0:0:
216,139,23691,37,2,3:2:0:0:
284,80,24050,2,0,L|384:105,1,89.999997253418,2|2,3:2|3:2,2:2:0:0:
403,134,24589,1,2,2:2:0:0:
403,134,24769,2,0,L|390:177,1,44.999998626709,2|2,1:2|2:2,0:0:0:0:
401,221,25128,1,2,3:2:0:0:
406,310,25487,2,0,L|351:322,1,44.999998626709,2|2,3:2|2:2,0:0:0:0:
325,346,25846,1,2,3:2:0:0:
242,309,26206,6,0,L|230:254,1,44.999998626709,2|2,1:2|2:2,2:2:0:0:
200,232,26565,2,0,L|180:144,1,89.999997253418,2|0,3:2|3:2,2:2:0:0:
106,93,27284,2,0,L|62:105,2,44.999998626709,2|0|0,3:2|2:2|1:2,0:0:0:0:
157,18,28002,2,0,L|244:-1,1,89.999997253418,2|0,3:2|3:2,2:2:0:0:
285,17,28541,1,2,2:2:0:0:
285,17,28721,1,2,3:2:0:0:
311,102,29080,38,0,L|300:145,1,44.999998626709,6|2,1:2|2:2,0:0:0:0:
265,173,29439,2,0,L|247:261,1,89.999997253418,2|0,3:2|3:2,2:2:0:0:
292,338,30158,2,0,L|335:348,1,44.999998626709,0|0,3:0|0:0,0:0:0:0:
376,340,30517,2,0,L|368:384,2,44.999998626709,10|0|2,1:3|2:2|3:2,2:2:0:0:
451,290,31236,2,0,L|458:245,1,44.999998626709,0|2,3:2|2:2,0:0:0:0:
489,206,31595,2,0,L|481:161,1,44.999998626709,2|2,3:2|2:2,0:0:0:0:
460,115,31954,6,0,P|415:124|372:136,1,89.999997253418,2|2,1:2|3:2,2:2:0:0:
322,210,32673,2,0,P|299:214|277:220,1,44.999998626709,0|0,3:2|0:0,0:0:0:0:
242,248,33032,1,2,3:2:0:0:
194,324,33391,2,0,P|149:333|106:345,1,89.999997253418,10|2,1:3|3:2,2:2:0:0:
53,273,34110,2,0,P|49:250|43:229,1,44.999998626709,0|2,3:2|2:2,0:0:0:0:
77,199,34469,2,0,P|84:154|94:110,1,89.999997253418,2|0,3:2|1:2,0:0:0:0:
162,51,35188,38,0,L|206:58,1,44.999998626709,2|2,3:2|2:2,0:0:0:0:
239,87,35547,2,0,P|257:127|241:168,1,89.999997253418,2|2,3:2|3:2,2:2:0:0:
207,198,36086,1,10,3:3:0:0:
187,285,36445,2,0,L|142:290,2,44.999998626709,2|2|2,2:2|3:2|2:2,0:0:0:0:
227,320,36984,1,2,3:2:0:0:
227,320,37164,2,0,L|280:313,1,44.999998626709,2|2,2:2|3:2,2:2:0:0:
363,342,37703,5,2,1:2:0:0:
363,342,37882,2,0,L|407:335,1,44.999998626709,2|2,2:2|3:2,0:0:0:0:
473,274,38421,2,0,L|463:184,1,89.999997253418,0|6,3:2|3:2,0:0:0:0:
428,155,38960,1,2,3:2:0:0:
428,155,39140,2,0,L|418:96,1,44.999998626709,14|10,1:2|3:2,0:0:0:0:
378,94,39499,2,0,L|368:35,1,44.999998626709,10|8,3:2|3:2,0:0:0:0:
69,49,40577,21,6,1:2:0:0:
69,49,40756,1,0,3:2:0:0:
69,49,40935,2,0,L|81:102,1,55.0000016784668,8|2,3:2|2:2,0:0:0:0:
163,175,41472,2,0,L|150:228,1,55.0000016784668,2|10,3:2|3:2,2:2:0:0:
124,276,41830,1,2,2:2:0:0:
208,345,42188,1,2,3:2:0:0:
208,345,42368,2,0,P|260:328|314:323,1,110.000003356934,10|0,3:2|3:2,0:0:0:0:
343,278,42905,1,2,3:2:0:0:
343,278,43084,2,0,P|368:287|395:291,1,55.0000016784668,10|2,3:2|3:2,0:0:0:0:
483,225,43621,5,2,3:2:0:0:
399,153,43979,1,2,3:2:0:0:
472,70,44338,1,2,3:2:0:0:
374,20,44696,2,0,L|247:42,1,110.000003356934,2|2,3:2|3:2,2:2:0:0:
221,72,45233,2,0,L|233:125,1,55.0000016784668,10|2,3:2|2:2,0:0:0:0:
214,177,45591,2,0,L|226:230,1,55.0000016784668,2|2,3:2|3:2,0:0:0:0:
213,284,45950,1,10,3:2:0:0:
114,332,46308,38,0,L|101:278,1,55.0000016784668,0|0,1:2|3:2,0:0:0:0:
115,225,46667,1,10,3:2:0:0:
52,134,47024,2,0,L|0:148,2,55.0000016784668,2|0|8,3:2|3:2|3:2,2:2:0:0:
98,104,47562,1,2,2:2:0:0:
98,104,47741,2,0,P|104:63|81:30,2,82.5000025177003,2|2|2,1:2|3:2|2:2,2:2:0:0:
145,133,48459,1,0,3:2:0:0:
235,205,48818,5,8,3:2:0:0:
235,205,48998,2,0,L|287:188,1,55.0000016784668,2|0,2:2|1:2,2:2:0:0:
337,222,49357,1,2,3:2:0:0:
337,222,49537,2,0,L|389:205,1,55.0000016784668,10|2,3:2|2:2,0:0:0:0:
438,230,49896,2,0,L|454:282,1,55.0000016784668,2|2,3:2|3:2,0:0:0:0:
453,337,50255,1,10,3:2:0:0:
346,366,50615,2,0,L|292:377,2,55.0000016784668,6|0|8,1:2|3:2|3:2,0:0:0:0:
272,284,51333,2,0,L|218:295,2,55.0000016784668,6|0|8,3:2|3:2|3:2,0:0:0:0:
204,204,52052,37,6,1:2:0:0:
204,204,52232,2,0,L|149:213,1,55.0000016784668,0|8,3:2|3:2,0:0:0:0:
100,187,52591,2,0,P|70:142|89:93,1,110.000003356934,2|2,2:2|3:2,2:2:0:0:
135,60,53130,1,10,3:2:0:0:
135,60,53309,1,2,2:2:0:0:
243,99,53669,1,2,3:2:0:0:
243,99,53848,1,8,3:2:0:0:
350,140,54208,1,0,3:2:0:0:
350,140,54387,2,0,L|360:193,1,55.0000016784668,2|10,3:2|3:2,0:0:0:0:
390,240,54746,5,2,3:2:0:0:
318,324,55106,1,2,3:2:0:0:
227,261,55465,1,2,3:2:0:0:
133,320,55824,1,2,3:2:0:0:
47,251,56184,2,0,P|64:194|73:135,1,110.000003356934,2|2,3:2|3:2,2:2:0:0:
52,92,56723,2,0,L|110:80,1,55.0000016784668,10|2,3:2|2:2,0:0:0:0:
117,30,57082,1,2,3:2:0:0:
117,30,57261,2,0,L|175:18,1,55.0000016784668,2|10,3:2|3:2,0:0:0:0:
270,65,57800,38,0,L|339:79,1,55.0000016784668,0|0,1:2|3:2,0:0:0:0:
371,104,58160,2,0,P|396:155|369:206,1,110.000003356934,10|2,3:2|3:2,2:2:0:0:
330,231,58699,1,0,3:2:0:0:
292,334,59058,1,2,3:2:0:0:
391,378,59419,1,2,3:2:0:0:
436,279,59783,1,2,3:2:0:0:
436,279,59965,2,0,L|436:219,1,55.0000016784668,0|6,3:2|3:3,0:0:0:0:
487,126,60510,6,2,P|450:83|392:88,1,110.000003356934,6|2,1:2|3:2,2:1:0:0:
353,113,61056,2,0,L|282:96,1,55.0000016784668,10|2,3:2|2:2,0:0:0:0:
246,114,61419,1,2,3:2:0:0:
143,86,61783,1,8,3:2:0:0:
143,86,61965,2,2,P|159:144|169:204,1,110.000003356934,6|2,1:2|3:2,2:1:0:0:
139,240,62507,2,0,P|110:249|80:252,1,55.0000016784668,10|2,3:2|2:2,0:0:0:0:
30,247,62866,1,2,3:2:0:0:
25,141,63226,37,10,3:2:0:0:
25,141,63405,2,2,P|54:132|84:129,1,55.0000016784668,6|0,1:2|2:2,2:1:0:0:
106,83,63765,1,2,3:2:0:0:
106,83,63944,2,0,P|163:101|223:111,1,110.000003356934,10|0,3:2|3:2,0:0:0:0:
260,82,64483,2,0,L|273:23,2,55.0000016784668,10|10|14,3:3|3:3|1:2,0:0:0:0:
28,25,72193,6,0,L|37:68,1,44.999998626709,6|2,1:2|2:2,0:0:0:0:
73,96,72552,2,0,P|104:66|148:66,1,89.9999972534181,10|0,3:2|3:2,0:0:0:0:
218,123,73271,2,0,L|228:167,1,44.999998626709,8|2,3:2|2:2,0:0:0:0:
201,203,73630,1,2,1:2:0:0:
201,203,73810,2,0,L|210:247,1,44.999998626709,2|8,2:2|3:2,0:0:0:0:
276,308,74349,2,0,L|319:297,1,44.999998626709,4|2,3:2|3:3,0:0:0:0:
353,326,74708,2,0,L|396:315,1,44.999998626709,2|2,3:3|2:2,2:2:0:0:
430,285,75067,6,0,P|445:244|422:207,1,89.9999972534181,2|10,1:2|3:2,2:2:0:0:
368,135,75786,1,2,3:2:0:0:
406,55,76145,1,10,3:2:0:0:
406,55,76325,2,0,L|493:73,1,89.9999972534181,2|2,2:2|2:2,2:2:0:0:
509,116,76864,1,8,3:2:0:0:
456,188,77223,2,0,L|465:232,1,44.999998626709,4|2,3:2|3:3,0:0:0:0:
462,277,77582,2,0,P|433:309|390:303,1,89.9999972534181,2|0,3:3|1:2,2:2:0:0:
318,248,78301,38,0,L|261:258,1,44.999998626709,10|2,3:2|2:2,0:0:0:0:
233,235,78660,2,0,B|214:195|214:195|230:151,1,89.9999972534181,2|8,3:2|3:2,2:2:0:0:
267,125,79199,1,2,2:2:0:0:
267,125,79379,2,0,L|258:80,1,44.999998626709,2|2,1:2|2:2,0:0:0:0:
228,47,79738,1,10,3:2:0:0:
145,12,80097,2,0,L|90:24,1,44.999998626709,6|2,3:2|3:3,0:0:0:0:
72,56,80456,1,2,3:3:0:0:
6,117,80816,6,0,L|20:160,1,44.999998626709,2|2,1:2|2:2,0:0:0:0:
59,180,81175,2,0,P|92:207|87:250,1,89.9999972534181,10|0,3:2|3:2,0:0:0:0:
52,334,81894,2,0,L|7:341,2,44.999998626709,8|0|0,3:2|0:0|1:2,0:0:0:0:
132,374,82612,1,8,3:2:0:0:
132,374,82792,2,0,L|176:366,1,44.999998626709,2|6,2:2|3:2,0:0:0:0:
202,329,83151,2,0,L|246:321,1,44.999998626709,2|2,2:2|3:3,0:0:0:0:
277,289,83510,1,2,3:3:0:0:
349,233,83870,37,2,2:2:0:0:
349,233,84049,2,0,P|350:182|331:145,1,89.9999972534181,10|0,3:2|3:2,0:0:0:0:
248,117,84768,2,0,L|238:72,1,44.999998626709,8|2,3:2|2:2,0:0:0:0:
207,41,85127,2,0,L|162:49,2,44.999998626709,2|0|10,1:2|0:0|3:2,2:2:0:0:
289,4,85846,2,0,L|333:16,1,44.999998626709,4|2,3:2|3:3,0:0:0:0:
364,47,86205,2,0,L|408:35,1,44.999998626709,2|2,3:3|2:2,2:2:0:0:
443,61,86564,6,0,L|424:149,1,89.9999972534181,2|10,1:2|3:2,2:2:0:0:
355,207,87283,2,0,L|345:250,1,44.999998626709,0|0,3:2|0:0,0:0:0:0:
335,294,87642,1,10,3:2:0:0:
255,336,88001,2,0,P|213:323|168:316,1,89.9999972534181,2|10,1:2|3:2,2:2:0:0:
132,233,88720,2,0,P|110:239|88:242,1,44.999998626709,4|2,3:2|3:3,0:0:0:0:
42,242,89079,2,0,P|13:211|19:168,1,89.9999972534181,2|0,3:3|1:2,2:2:0:0:
55,85,89798,38,0,P|76:78|98:75,1,44.999998626709,10|0,3:2|0:0,0:0:0:0:
144,75,90157,2,0,P|173:106|167:149,1,89.9999972534181,2|8,3:2|3:2,2:2:0:0:
139,185,90696,1,2,2:2:0:0:
122,273,91055,2,0,L|77:278,2,44.999998626709,2|8|2,2:2|3:2|2:2,0:0:0:0:
162,308,91594,1,6,3:2:0:0:
162,308,91774,2,0,L|215:301,1,44.999998626709,2|2,3:3|3:2,2:2:0:0:
303,334,92313,5,2,1:2:0:0:
303,334,92492,2,0,L|347:327,1,44.999998626709,2|10,2:2|3:2,0:0:0:0:
419,256,93031,2,0,P|434:216|411:179,1,89.9999972534181,0|0,3:2|3:2,0:0:0:0:
373,168,93570,1,2,3:2:0:0:
373,168,93750,2,0,L|328:182,1,44.999998626709,10|2,1:2|2:2,0:0:0:0:
223,103,95187,21,6,1:2:0:0:
223,103,95366,1,0,3:2:0:0:
223,103,95546,2,0,L|276:87,1,55.0000016784668,8|2,3:2|2:2,0:0:0:0:
384,102,96084,2,0,L|398:156,1,55.0000016784668,2|10,3:2|3:2,2:2:0:0:
407,209,96443,1,2,2:2:0:0:
341,297,96802,1,2,3:2:0:0:
341,297,96982,2,0,L|234:323,1,110.000003356934,8|0,3:2|3:2,0:0:0:0:
184,316,97520,1,2,3:2:0:0:
184,316,97700,2,0,P|169:292|170:265,1,55.0000016784668,10|2,3:2|3:2,0:0:0:0:
245,186,98239,5,2,3:2:0:0:
189,91,98598,1,2,3:2:0:0:
82,120,98957,1,2,3:2:0:0:
75,229,99316,2,0,P|91:281|100:335,1,110.000003356934,2|2,3:2|3:2,2:2:0:0:
137,376,99854,2,0,P|164:371|190:363,1,55.0000016784668,10|2,3:2|2:2,0:0:0:0:
231,326,100213,2,0,P|258:330|284:338,1,55.0000016784668,2|2,3:2|3:2,0:0:0:0:
328,370,100572,1,10,3:2:0:0:
422,313,100932,38,0,L|412:258,1,55.0000016784668,0|0,1:2|3:2,0:0:0:0:
402,204,101291,1,10,3:2:0:0:
458,115,101650,2,0,P|485:116|506:133,2,55.0000016784668,2|0|8,3:2|3:2|3:2,2:2:0:0:
407,110,102188,1,2,2:2:0:0:
407,110,102368,2,0,P|387:74|388:33,2,82.5000025177003,2|2|2,1:2|3:2|2:2,2:2:0:0:
386,155,103086,1,0,3:2:0:0:
326,248,103445,5,8,3:2:0:0:
326,248,103625,2,0,L|218:222,1,110.000003356934,2|2,2:2|3:2,2:2:0:0:
166,237,104163,1,10,3:2:0:0:
98,323,104522,2,0,L|44:309,1,55.0000016784668,2|2,3:2|3:2,0:0:0:0:
6,269,104881,1,10,3:2:0:0:
15,159,105240,2,0,L|29:105,2,55.0000016784668,6|0|8,1:2|3:2|3:2,0:0:0:0:
122,133,105958,2,0,L|136:79,2,55.0000016784668,6|0|8,3:2|3:2|3:2,0:0:0:0:
222,181,106677,37,6,1:2:0:0:
222,181,106856,2,0,L|234:234,1,55.0000016784668,0|8,3:2|3:2,0:0:0:0:
275,270,107215,2,0,L|382:247,1,110.000003356934,2|2,2:2|3:2,2:2:0:0:
435,275,107754,1,10,3:2:0:0:
435,275,107933,1,2,2:2:0:0:
511,196,108292,1,2,3:2:0:0:
511,196,108472,1,8,3:2:0:0:
435,124,108831,1,0,3:2:0:0:
435,124,109011,2,0,L|381:134,1,55.0000016784668,2|10,3:2|3:2,0:0:0:0:
327,115,109370,5,2,3:2:0:0:
241,184,109729,1,2,3:2:0:0:
189,86,110088,1,2,3:2:0:0:
103,155,110447,1,2,3:2:0:0:
52,252,110806,2,0,P|73:302|86:355,1,110.000003356934,2|2,3:2|3:2,2:2:0:0:
136,379,111344,2,0,P|161:367|187:360,1,55.0000016784668,10|2,3:2|2:2,0:0:0:0:
229,323,111704,1,2,3:2:0:0:
229,323,111883,2,0,P|254:334|280:341,1,55.0000016784668,2|10,3:2|3:2,0:0:0:0:
321,238,112422,38,0,P|295:226|269:219,1,55.0000016784668,0|0,1:2|3:2,0:0:0:0:
226,191,112781,2,0,P|200:145|229:101,1,110.000003356934,10|2,3:2|3:2,2:2:0:0:
278,77,113319,1,0,3:2:0:0:
186,15,113678,1,10,3:3:0:0:
108,93,114037,1,10,3:3:0:0:
169,189,114397,1,10,3:3:0:0:
169,189,114576,2,0,L|185:255,1,55.0000016784668,4|6,3:3|3:3,0:0:0:0:
112,338,115115,5,6,3:2:0:0:
15,57,125369,38,0,P|62:50|123:17,1,110.000003356934,14|10,1:2|3:3,0:0:0:0:
188,104,126088,2,0,P|242:123|297:166,1,110.000003356934,6|6,3:3|3:3,0:0:0:0:
389,138,126806,6,0,L|361:234,1,100,6|8,1:2|3:2,2:2:0:0:
365,288,127345,1,0,0:0:0:0:
365,288,127525,2,0,L|286:298,1,66.6666666666667,2|2,3:2|0:0,2:2:0:0:
247,210,128124,2,0,L|346:198,1,100,2|2,0:0|0:0,0:0:0:0:
399,75,128962,1,2,3:2:0:0:
313,24,129321,2,0,L|213:35,1,100,10|6,3:2|1:2,0:0:0:0:
71,25,130219,21,2,0:0:0:0:
71,25,130399,2,0,L|93:122,1,100,2|8,3:2|3:2,2:2:0:0:
83,209,130998,2,0,P|50:244|1:243,2,100,2|2|2,0:0|0:0|0:0,0:0:0:0:
189,181,132076,2,0,L|332:202,1,133.333333333333,2|6,0:0|1:2,0:0:0:0:
401,55,133094,21,2,0:0:0:0:
401,55,133273,2,0,L|380:146,2,83.3333333333333,2|2|2,3:2|0:0|0:0,0:0:0:0:
475,146,134231,2,0,L|441:278,1,133.333333333333,2|10,0:0|3:3,0:0:0:0:
356,327,135070,1,10,3:3:0:0:
284,257,135429,1,6,1:2:0:0:
302,25,143685,37,10,3:2:0:0:
302,25,143865,2,0,L|276:132,1,110.000003356934,6|2,1:2|3:2,2:2:0:0:
260,184,144403,1,10,2:2:0:0:
198,274,144762,2,0,P|154:306|101:297,1,110.000003356934,2|8,3:2|3:2,2:2:0:0:
61,259,145300,1,2,2:2:0:0:
61,259,145480,2,0,L|81:179,1,82.5000025177003,2|2,1:2|3:2,2:2:0:0:
144,125,146018,2,0,L|252:145,1,110.000003356934,2|0,3:2|3:2,2:2:0:0:
360,157,146737,6,0,P|395:116|384:63,1,110.000003356934,2|2,3:2|3:2,2:2:0:0:
333,44,147276,2,0,L|278:52,1,55.0000016784668,10|2,3:2|2:2,0:0:0:0:
228,30,147635,2,0,L|173:38,1,55.0000016784668,2|2,3:2|3:2,0:0:0:0:
120,22,147994,1,10,3:2:0:0:
72,121,148354,2,0,L|17:129,2,55.0000016784668,6|0|8,1:2|3:2|3:2,0:0:0:0:
100,227,149072,2,0,L|45:235,2,55.0000016784668,6|0|8,3:2|3:2|3:2,0:0:0:0:
175,307,149791,37,6,1:2:0:0:
175,307,149971,2,0,L|229:297,1,55.0000016784668,0|8,3:2|3:2,0:0:0:0:
271,333,150331,2,0,L|379:317,1,110.000003356934,2|2,2:2|3:2,2:2:0:0:
429,342,150872,1,10,3:2:0:0:
429,342,151052,1,2,2:2:0:0:
485,247,151412,1,2,3:2:0:0:
485,247,151592,1,8,3:2:0:0:
399,177,151953,1,0,3:2:0:0:
399,177,152133,2,0,L|414:124,1,55.0000016784668,2|10,3:2|3:2,0:0:0:0:
431,71,152493,5,2,3:2:0:0:
344,2,152854,1,2,3:2:0:0:
244,49,153214,1,2,3:2:0:0:
272,155,153574,1,2,3:2:0:0:
199,237,153935,2,0,L|76:217,1,110.000003356934,2|2,3:2|3:2,2:2:0:0:
46,182,154475,2,0,P|43:154|54:130,1,55.0000016784668,10|2,3:2|2:2,0:0:0:0:
100,98,154836,1,2,3:2:0:0:
100,98,155016,2,0,P|102:70|91:46,1,55.0000016784668,2|10,3:2|3:2,0:0:0:0:
194,7,155556,38,0,P|220:12|242:28,1,55.0000016784668,0|0,1:2|3:2,0:0:0:0:
270,83,155913,2,0,P|251:134|241:188,1,110.000003356934,10|2,3:2|3:2,2:2:0:0:
306,284,156627,1,10,3:2:0:0:
306,284,156806,1,2,2:2:0:0:
395,217,157163,1,2,3:2:0:0:
395,217,157341,1,10,3:2:0:0:
328,128,157698,2,0,P|302:135|278:148,1,55.0000016784668,10|10,3:2|3:2,0:0:0:0:
214,243,158234,5,2,1:2:0:0:
214,243,158413,1,4,1:2:0:0:
214,243,158592,1,0,2:2:0:0:
284,327,158951,2,0,L|392:309,1,110.000003356934,2|2,3:2|3:2,2:2:0:0:
440,337,159490,1,10,3:2:0:0:
440,337,159670,1,2,2:2:0:0:
488,240,160029,1,2,3:2:0:0:
488,240,160209,1,8,3:2:0:0:
422,158,160568,1,0,3:2:0:0:
422,158,160748,2,0,L|368:168,1,55.0000016784668,2|10,3:2|3:2,0:0:0:0:
320,140,161107,37,2,3:2:0:0:
237,212,161466,1,2,3:2:0:0:
292,307,161826,1,2,3:2:0:0:
199,365,162185,1,2,3:2:0:0:
103,303,162544,2,0,P|72:259|87:208,1,110.000003356934,2|2,3:2|3:2,2:2:0:0:
135,181,163083,2,0,L|122:127,1,55.0000016784668,10|2,3:2|2:2,0:0:0:0:
149,79,163442,2,0,L|202:66,1,55.0000016784668,2|2,3:2|3:2,0:0:0:0:
254,85,163802,1,10,3:2:0:0:
341,151,164161,6,0,L|317:225,1,55.0000016784668,0|0,1:2|3:2,0:0:0:0:
328,258,164520,1,10,3:2:0:0:
409,332,164880,2,0,P|449:297|440:245,1,110.000003356934,2|8,3:2|3:2,2:2:0:0:
409,200,165418,1,2,2:2:0:0:
409,200,165598,2,0,L|427:111,1,82.5000025177003,2|2,1:2|3:2,2:2:0:0:
364,61,166137,2,0,L|255:80,1,110.000003356934,2|0,3:2|3:2,2:2:0:0:
178,161,166856,38,0,L|69:141,1,110.000003356934,2|2,3:2|3:2,2:2:0:0:
23,170,167395,1,10,3:2:0:0:
40,278,167754,2,0,L|93:288,1,55.0000016784668,2|2,3:2|3:2,0:0:0:0:
146,306,168113,1,10,3:2:0:0:
251,272,168472,2,0,L|261:218,2,55.0000016784668,6|0|8,1:2|3:2|3:2,0:0:0:0:
347,218,169186,2,0,L|357:164,2,55.0000016784668,6|0|8,3:2|3:2|3:2,0:0:0:0:
447,177,169900,6,0,L|457:123,1,55.0000016784668,6|0,1:2|3:0,2:2:0:0:
468,68,170261,1,10,3:2:0:0:
365,28,170622,2,0,P|313:16|276:54,1,110.000003356934,2|8,3:2|3:2,0:0:0:0:
200,134,171345,2,0,L|211:187,1,55.0000016784668,2|2,1:2|3:2,0:0:0:0:
226,241,171707,1,10,3:2:0:0:
226,241,171887,2,0,B|176:243|173:276|121:269,1,110.000003356934,2|0,2:2|3:2,2:2:0:0:
70,249,172430,1,8,3:2:0:0:
22,149,172791,38,0,L|75:138,1,55.0000016784668,2|0,1:2|3:0,2:2:0:0:
115,99,173150,2,0,L|168:88,1,55.0000016784668,10|2,3:2|2:2,2:2:0:0:
194,39,173509,2,0,L|302:20,1,110.000003356934,2|10,3:2|3:2,2:2:0:0:
356,47,174048,1,2,2:2:0:0:
356,47,174228,1,2,1:2:0:0:
435,131,174587,1,8,3:2:0:0:
435,131,174767,2,0,P|412:179|359:187,1,110.000003356934,2|0,2:2|3:2,2:2:0:0:
314,156,175305,1,8,3:2:0:0:
263,253,175665,6,0,L|209:241,1,55.0000016784668,2|0,1:2|3:2,0:0:0:0:
155,253,176024,1,10,3:2:0:0:
53,293,176383,2,0,L|41:346,2,55.0000016784668,2|0|8,3:2|3:2|3:2,2:2:0:0:
21,255,176922,1,2,2:2:0:0:
21,255,177102,2,0,L|34:179,1,55.0000016784668,2|2,1:2|3:2,0:0:0:0:
102,117,177641,2,0,L|210:137,1,110.000003356934,2|2,3:2|3:2,0:0:0:0:
318,111,178359,38,2,P|353:71|344:19,1,110.000003356934,6|2,1:2|3:2,2:1:0:0:
290,9,178899,2,0,L|217:21,1,55.0000016784668,10|2,3:2|2:2,0:0:0:0:
182,31,179259,1,2,3:2:0:0:
79,71,179620,1,8,3:2:0:0:
79,71,179800,2,2,L|104:185,1,110.000003356934,6|2,1:2|3:2,2:1:0:0:
136,221,180340,2,0,L|131:275,1,55.0000016784668,10|2,3:2|2:2,0:0:0:0:
147,328,180701,1,2,3:2:0:0:
249,368,181061,5,10,3:2:0:0:
248,368,181241,2,2,P|280:325|333:329,1,110.000003356934,6|2,1:2|3:2,2:1:0:0:
370,368,181782,1,8,3:2:0:0:
436,281,182142,1,0,3:2:0:0:
436,281,182322,2,0,L|420:213,1,55.0000016784668,10|10,3:3|3:3,0:0:0:0:
409,179,182683,1,14,1:2:0:0:
128,384,184289,38,2,P|97:342|110:290,1,100,6|0,1:2|3:2,2:1:0:0:
176,227,185008,2,2,L|247:249,2,75,10|10|10,3:2|3:2|3:2,2:1:0:0:
134,198,185726,2,0,P|103:162|124:120,1,100,14|0,1:2|0:0,0:0:0:0:
140,21,186445,2,2,L|65:31,2,75,10|10|10,3:2|3:2|3:2,2:1:0:0:
186,39,187163,22,2,L|285:26,1,100,14|0,1:2|3:2,2:1:0:0:
369,80,187882,2,2,P|392:53|389:16,2,75,10|10|10,3:2|3:2|3:2,2:1:0:0:
330,111,188600,2,0,P|309:159|343:210,1,100,14|0,1:2|0:0,0:0:0:0:
397,270,189319,2,2,P|433:261|470:259,2,75,10|10|10,3:2|3:2|3:2,2:1:0:0:
373,315,190038,22,0,P|323:315|279:292,1,100,14|0,1:2|3:2,0:0:0:0:
174,257,190756,2,2,P|194:225|188:189,1,75,10|10,3:2|3:2,2:1:0:0:
131,131,191295,1,10,3:2:0:0:
131,131,191475,2,0,P|89:156|40:162,1,100,14|0,1:2|3:2,0:0:0:0:
13,65,192193,2,2,P|44:44|80:37,1,75,10|10,3:2|3:2,2:1:0:0:
169,50,192732,21,10,3:2:0:0:
169,50,192912,2,0,L|266:28,1,100,14|0,1:2|3:2,0:0:0:0:
337,99,193630,2,2,P|373:107|407:122,1,75,10|10,3:2|3:2,2:1:0:0:
466,189,194169,1,10,3:2:0:0:
466,189,194349,2,0,L|433:283,1,100,14|8,1:2|3:3,0:0:0:0:
413,329,194887,1,6,3:2:0:0:
256,192,195067,12,0,200097,0:0:0:0:
