osu file format v14

[General]
AudioFilename: audio.mp3
AudioLeadIn: 0
PreviewTime: 35123
Countdown: 0
SampleSet: Soft
StackLeniency: 0.7
Mode: 0
LetterboxInBreaks: 0
WidescreenStoryboard: 1

[Editor]
DistanceSpacing: 1.4
BeatDivisor: 4
GridSize: 4
TimelineZoom: 1.2

[Metadata]
Title:Ashita o Narase (TV Size)
TitleUnicode:明日を鳴らせ (TV Size)
Artist:Shishido Kavka
ArtistUnicode:シシド・カフカ
Creator:mantasu
Version:Hard
Source:FAIRY TAIL
Tags:female japanese j-pop metal rock anime zero ZERØ 0 op opening 22 2014 wo フェアリーテイル ゼロ seselis1 Neoskylove Affirmation AF
BeatmapID:3006573
BeatmapSetID:593072

[Difficulty]
HPDrainRate:5
CircleSize:3
OverallDifficulty:6
ApproachRate:7
SliderMultiplier:1.3
SliderTickRate:1

[Events]
//Background and Video events
0,0,"bg.jpg",0,0
Video,0,"video.mp4"
//Break Periods
//Storyboard Layer 0 (Background)
//Storyboard Layer 1 (Fail)
//Storyboard Layer 2 (Pass)
//Storyboard Layer 3 (Foreground)
//Storyboard Layer 4 (Overlay)
//Storyboard Sound Samples

[TimingPoints]
632,359.281437125748,4,2,1,60,1,0
6380,-125,4,2,1,60,0,0
12129,-100,4,2,1,45,0,0
33865,-100,4,2,2,45,0,0
35123,-83.3333333333333,4,2,2,75,0,0
40871,-83.3333333333333,4,2,3,75,0,0
41230,-83.3333333333333,4,2,2,75,0,0
43566,-83.3333333333333,4,2,3,75,0,0
44105,-83.3333333333333,4,2,2,75,0,0
52368,-83.3333333333333,4,2,3,75,0,0
52727,-83.3333333333333,4,2,2,75,0,0
60991,-83.3333333333333,4,2,3,75,0,0
61350,-83.3333333333333,4,2,2,75,0,0
63685,-83.3333333333333,4,2,3,75,0,0
64224,-83.3333333333333,4,2,2,75,0,0
72488,-83.3333333333333,4,2,3,75,0,0
72847,-83.3333333333333,4,2,2,75,0,0
75182,-83.3333333333333,4,2,3,75,0,0
75721,-83.3333333333333,4,2,2,75,0,0
76620,-83.3333333333333,4,2,3,75,0,0
77158,-83.3333333333333,4,2,2,75,0,0
78057,-83.3333333333333,4,2,3,75,0,0
78596,-83.3333333333333,4,2,2,75,0,0
81111,-125,4,2,1,65,0,0
89015,-125,4,2,1,5,0,0

[Colours]
Combo1 : 255,255,85
Combo2 : 230,230,230
Combo3 : 107,107,107
Combo4 : 120,243,84
SliderBorder : 223,223,223
SliderTrackOverride : 0,0,0

[HitObjects]
21,71,6380,6,0,P|69:69|121:92,1,104,12|0,2:2|3:3,0:0:0:0:
221,222,7099,6,0,P|188:236|143:236,2,78,8|8|8,2:2|2:2|2:2,0:0:0:0:
253,145,7817,1,12,2:2:0:0:
352,277,8176,1,0,3:3:0:0:
253,145,8536,6,0,P|261:98|291:61,2,78,8|8|8,2:2|2:2|2:2,0:0:0:0:
299,213,9254,1,12,2:2:0:0:
133,231,9613,1,0,3:3:0:0:
299,213,9973,6,0,P|335:243|352:288,2,78,8|8|8,2:2|2:2|2:2,0:0:0:0:
214,219,10691,1,12,2:2:0:0:
282,70,11050,1,0,3:3:0:0:
214,219,11410,6,0,P|164:242|100:226,1,104,8|2,2:2|1:0,0:0:0:0:
63,172,11949,1,8,2:2:0:0:
63,172,12129,6,0,L|54:103,1,65,4|2,3:2|2:2,0:0:0:0:
138,57,12488,2,0,L|160:202,1,130,0|0,3:3|3:3,0:0:0:0:
82,355,13206,1,0,3:3:0:0:
9,290,13386,1,2,2:2:0:0:
82,355,13566,6,0,P|113:357|153:340,1,65,0|2,3:3|2:2,0:0:0:0:
175,253,13925,1,0,3:3:0:0:
323,379,14284,1,0,3:3:0:0:
370,293,14464,2,0,P|401:291|441:308,2,65,2|0|2,2:2|3:3|2:2,0:0:0:0:
272,293,15003,6,0,P|283:215|330:171,1,130,0|0,3:3|3:3,0:0:0:0:
510,194,15721,1,0,3:3:0:0:
403,30,16081,1,0,3:3:0:0:
401,127,16260,1,2,2:2:0:0:
306,92,16440,6,0,P|270:86|223:98,1,65,0|2,3:3|2:2,0:0:0:0:
174,160,16799,1,0,3:3:0:0:
30,27,17158,1,0,3:3:0:0:
44,123,17338,2,0,L|55:201,2,65,2|0|2,2:2|3:3|2:2,0:0:0:0:
30,27,17877,5,0,3:3:0:0:
174,160,18236,2,0,L|155:243,1,65,0|2,3:3|2:2,0:0:0:0:
97,299,18596,2,0,P|153:281|231:313,1,130,0|0,3:3|3:3,0:0:0:0:
276,379,19134,1,2,2:2:0:0:
351,316,19314,5,0,3:3:0:0:
427,377,19494,1,2,2:2:0:0:
351,316,19673,2,0,L|355:232,1,65,0|2,3:3|2:2,0:0:0:0:
434,194,20033,1,0,3:3:0:0:
511,252,20212,1,2,2:2:0:0:
434,194,20392,2,0,L|430:110,1,65,0|2,3:3|2:2,0:0:0:0:
465,37,20751,6,0,P|425:30|385:43,1,65,0|2,3:3|2:2,0:0:0:0:
339,106,21111,2,0,P|275:128|193:106,1,130,0|0,3:3|3:3,0:0:0:0:
42,26,21829,1,0,3:3:0:0:
4,217,22188,6,0,P|33:220|78:204,1,65,0|2,3:3|2:2,0:0:0:0:
112,124,22548,1,0,3:3:0:0:
101,318,22907,1,0,3:3:0:0:
180,261,23087,2,0,P|210:251|242:255,2,65,2|0|2,2:2|3:3|2:2,0:0:0:0:
106,323,23626,5,4,3:2:0:0:
189,373,23805,1,2,2:2:0:0:
106,323,23985,2,0,P|87:271|110:192,1,130,0|0,3:3|3:3,0:0:0:0:
269,290,24703,1,0,3:3:0:0:
348,233,24883,1,2,3:2:0:0:
366,214,24973,1,0,3:3:0:0:
373,189,25063,6,0,P|371:152|345:110,1,65,0|2,3:3|2:2,0:0:0:0:
286,62,25422,1,0,3:3:0:0:
218,244,25781,1,0,3:3:0:0:
158,166,25961,2,0,P|156:136|178:90,2,65,2|0|2,2:2|3:3|2:2,0:0:0:0:
218,244,26500,6,0,P|235:309|212:376,1,130,0|0,3:3|3:3,0:0:0:0:
23,348,27218,1,0,3:3:0:0:
93,164,27578,2,0,L|166:170,1,65,0|2,3:3|3:2,0:0:0:0:
171,199,27847,1,0,3:3:0:0:
188,227,27937,6,0,L|271:220,1,65,0|2,3:3|2:2,0:0:0:0:
350,215,28296,1,0,3:3:0:0:
215,74,28655,1,0,3:3:0:0:
312,83,28835,2,0,L|391:95,2,65,2|0|2,2:2|3:3|2:2,0:0:0:0:
215,74,29374,5,0,3:3:0:0:
350,215,29733,1,0,3:3:0:0:
252,221,29913,1,2,2:2:0:0:
350,215,30093,2,0,P|366:269|329:360,1,130,0|0,3:3|3:3,0:0:0:0:
260,383,30631,1,2,3:2:0:0:
223,380,30721,1,0,3:3:0:0:
189,366,30811,6,0,P|167:342|156:312,1,65,0|2,3:3|2:2,0:0:0:0:
119,221,31170,2,0,P|150:213|182:219,1,65,0|2,3:3|2:2,0:0:0:0:
278,238,31530,2,0,P|268:268|247:293,2,65,0|2|0,3:3|2:2|3:3,0:0:0:0:
244,146,32069,1,2,2:2:0:0:
182,219,32248,5,0,3:3:0:0:
121,142,32428,1,2,2:2:0:0:
63,221,32608,2,0,P|30:174|34:93,1,130,0|0,3:3|3:3,0:0:0:0:
213,37,33326,1,0,3:3:0:0:
160,119,33506,1,2,2:2:0:0:
213,37,33685,6,0,L|295:33,1,65,4|8,3:2|2:2,0:0:0:0:
332,115,34045,1,8,2:2:0:0:
401,47,34224,1,8,2:2:0:0:
336,120,34404,2,0,L|332:184,2,65,6|2|2,0:0|0:3|0:0,0:0:0:0:
321,353,35123,5,6,3:2:0:0:
273,255,35302,1,0,3:3:0:0:
381,268,35482,1,10,1:2:0:0:
321,353,35661,2,0,B|248:372|248:372|179:324,1,155.999995239258,2|0,0:3|3:3,0:0:0:0:
161,219,36200,1,10,1:2:0:0:
259,171,36380,6,0,P|271:207|269:246,1,77.999997619629,2|2,0:2|3:2,0:0:0:0:
181,325,36739,1,0,3:3:0:0:
283,363,36919,2,0,B|352:342|352:342|371:253,1,155.999995239258,10|2,1:2|3:2,0:0:0:0:
358,148,37458,1,0,3:3:0:0:
465,132,37637,1,10,1:2:0:0:
358,148,37817,6,0,L|344:54,1,77.999997619629,2|2,0:3|3:2,0:0:0:0:
249,19,38176,2,0,L|235:113,1,77.999997619629,0|10,3:3|1:2,0:0:0:0:
145,155,38536,2,0,L|131:61,1,77.999997619629,2|2,0:3|3:2,0:0:0:0:
39,21,38895,2,0,L|25:115,1,77.999997619629,0|10,3:3|1:2,0:0:0:0:
2,204,39254,5,2,0:3:0:0:
228,154,39614,1,0,3:3:0:0:
197,259,39793,1,10,1:2:0:0:
123,179,39973,1,2,0:3:0:0:
99,285,40152,2,0,L|7:306,2,77.999997619629,2|0|10,3:2|3:3|1:2,0:0:0:0:
314,245,40871,5,6,3:2:0:0:
206,264,41051,1,0,3:3:0:0:
314,245,41230,2,0,L|305:335,1,77.999997619629,10|0,1:2|0:0,0:0:0:0:
412,294,41590,2,0,L|396:128,1,155.999995239258,2|10,3:2|1:2,0:0:0:0:
386,29,42129,1,2,0:3:0:0:
284,69,42308,6,0,B|250:85|250:85|161:62,2,116.999996429443,2|2|2,3:2|0:0|0:3,0:0:0:0:
386,29,43027,2,0,B|425:26|425:26|467:48,1,77.999997619629,2|0,3:2|3:3,0:0:0:0:
508,142,43386,1,8,1:2:0:0:
401,131,43566,6,0,B|360:126|360:126|325:146,1,77.999997619629,6|0,3:2|0:0,0:0:0:0:
289,248,43925,1,0,3:3:0:0:
378,311,44105,2,0,P|393:268|389:219,1,77.999997619629,10|2,1:2|0:3,0:0:0:0:
328,144,44464,1,2,3:2:0:0:
289,248,44643,1,0,3:3:0:0:
224,159,44823,2,0,P|191:183|170:225,1,77.999997619629,10|0,1:2|0:0,0:0:0:0:
215,315,45182,6,0,P|244:338|288:348,2,77.999997619629,2|0|10,3:2|3:3|1:2,0:0:0:0:
198,70,45901,2,0,P|169:44|125:37,2,77.999997619629,2|0|10,3:2|3:3|1:2,0:0:0:0:
57,237,46620,5,6,3:2:0:0:
117,146,46799,1,0,3:3:0:0:
8,138,46979,1,10,1:2:0:0:
57,237,47158,2,0,B|111:295|111:295|194:283,1,155.999995239258,2|0,0:3|3:3,0:0:0:0:
260,203,47697,1,10,1:2:0:0:
194,115,47877,6,0,P|165:150|156:196,1,77.999997619629,2|2,0:3|3:2,0:0:0:0:
186,284,48236,1,0,3:3:0:0:
78,261,48416,2,0,B|30:205|30:205|56:105,1,155.999995239258,10|2,1:2|3:2,0:0:0:0:
137,55,48955,1,0,3:3:0:0:
40,4,49134,1,10,1:2:0:0:
137,55,49314,6,0,P|180:63|230:56,1,77.999997619629,2|2,0:3|3:2,0:0:0:0:
279,156,49673,2,0,P|236:164|186:157,1,77.999997619629,0|10,3:3|1:2,0:0:0:0:
148,257,50033,2,0,P|187:259|225:251,1,77.999997619629,2|2,0:3|3:2,0:0:0:0:
278,346,50392,2,0,P|235:354|185:347,1,77.999997619629,0|10,3:3|1:2,0:0:0:0:
96,335,50751,5,2,0:3:0:0:
165,127,51111,1,0,3:3:0:0:
236,209,51290,1,10,1:2:0:0:
129,232,51470,1,2,0:3:0:0:
207,306,51649,2,0,P|212:342|207:388,2,77.999997619629,2|0|10,3:2|3:3|1:2,0:0:0:0:
143,96,52368,5,6,3:2:0:0:
75,182,52548,1,0,3:3:0:0:
143,96,52727,2,0,B|178:82|178:82|231:98,1,77.999997619629,10|0,1:2|0:0,0:0:0:0:
282,181,53087,2,0,B|318:194|318:194|364:181,1,77.999997619629,2|0,3:2|3:3,0:0:0:0:
411,88,53446,1,10,1:2:0:0:
457,187,53626,6,0,P|424:261|346:284,1,155.999995239258,2|0,0:3|3:3,0:0:0:0:
249,272,54164,1,10,1:2:0:0:
453,349,54524,1,10,1:2:0:0:
357,284,54703,1,8,1:2:0:0:
140,316,55063,1,6,3:2:0:0:
178,214,55242,5,4,0:2:0:0:
249,297,55422,1,0,3:3:0:0:
303,202,55602,1,10,1:2:0:0:
178,214,55781,2,0,B|134:148|134:148|152:74,1,155.999995239258,2|0,0:3|3:3,0:0:0:0:
249,23,56320,1,10,1:2:0:0:
313,106,56500,6,0,P|277:125|225:123,1,77.999997619629,2|2,0:3|3:2,0:0:0:0:
152,73,56859,1,0,3:3:0:0:
156,184,57039,2,0,B|200:243|200:243|292:231,1,155.999995239258,10|2,1:2|3:2,0:0:0:0:
379,168,57578,1,0,3:3:0:0:
446,252,57757,1,10,1:2:0:0:
379,168,57937,6,0,L|397:93,1,77.999997619629,2|2,0:3|3:2,0:0:0:0:
291,122,58296,2,0,L|291:42,1,77.999997619629,0|10,3:3|1:2,0:0:0:0:
197,100,58655,2,0,L|177:12,1,77.999997619629,2|2,0:3|3:2,0:0:0:0:
106,105,59015,2,0,L|55:27,1,77.999997619629,0|10,3:3|1:2,0:0:0:0:
10,144,59374,5,2,0:3:0:0:
240,166,59733,1,0,3:3:0:0:
149,227,59913,1,10,1:2:0:0:
226,303,60093,1,2,0:3:0:0:
119,324,60272,2,0,L|28:346,2,77.999997619629,2|0|10,3:2|3:3|1:2,0:0:0:0:
330,268,60991,5,6,3:2:0:0:
262,353,61170,1,0,3:3:0:0:
330,268,61350,2,0,L|319:182,1,77.999997619629,10|0,1:2|0:0,0:0:0:0:
233,123,61709,2,0,B|300:85|300:85|378:105,1,155.999995239258,2|10,3:2|1:2,0:0:0:0:
428,202,62248,1,2,0:3:0:0:
481,106,62428,6,0,P|459:42|407:9,2,116.999996429443,2|2|2,3:2|0:0|0:3,0:0:0:0:
428,202,63146,2,0,P|426:248|441:287,1,77.999997619629,2|0,3:2|3:3,0:0:0:0:
495,370,63506,1,8,1:2:0:0:
386,366,63685,6,0,L|294:364,1,77.999997619629,6|0,3:2|0:0,0:0:0:0:
198,363,64045,1,0,3:3:0:0:
238,261,64224,2,0,L|160:266,1,77.999997619629,10|0,1:2|0:0,0:0:0:0:
50,277,64584,1,2,3:2:0:0:
101,181,64763,1,0,3:3:0:0:
50,277,64943,2,0,P|47:318|66:371,1,77.999997619629,10|0,1:2|0:0,0:0:0:0:
168,343,65302,6,0,P|169:297|150:249,2,77.999997619629,2|0|10,3:2|3:3|1:2,0:0:0:0:
96,136,66021,2,0,P|95:90|124:43,2,77.999997619629,2|0|10,3:2|3:3|1:2,0:0:0:0:
303,203,66739,5,6,3:2:0:0:
260,102,66919,1,0,3:3:0:0:
356,49,67099,2,0,B|374:83|374:83|367:123,1,77.999997619629,10|0,1:2|0:0,0:0:0:0:
303,203,67458,2,0,B|278:274|278:274|317:351,1,155.999995239258,2|10,3:2|1:2,0:0:0:0:
476,199,68176,5,2,3:2:0:0:
398,276,68356,1,0,3:3:0:0:
476,351,68536,1,10,1:2:0:0:
398,276,68715,2,0,L|242:272,1,155.999995239258,2|0,0:3|3:3,0:0:0:0:
144,321,69254,1,10,1:2:0:0:
20,140,69614,6,0,B|57:126|57:126|96:137,1,77.999997619629,2|0,3:2|3:3,0:0:0:0:
182,201,69973,1,10,1:2:0:0:
88,256,70152,1,2,0:3:0:0:
185,304,70332,2,0,B|221:319|221:319|259:308,1,77.999997619629,2|0,3:2|3:3,0:0:0:0:
357,262,70691,1,10,1:2:0:0:
395,364,70871,1,2,0:3:0:0:
357,262,71051,6,0,L|374:136,2,116.999996429443,2|0|2,3:2|0:0|0:3,0:0:0:0:
458,301,71769,2,0,L|477:144,1,155.999995239258,2|10,3:2|1:2,0:0:0:0:
263,125,72488,5,6,3:2:0:0:
366,90,72667,1,0,3:3:0:0:
263,125,72847,2,0,L|261:227,1,77.999997619629,10|0,1:2|0:0,0:0:0:0:
325,291,73206,2,0,B|258:254|258:254|182:283,1,155.999995239258,2|10,3:2|1:2,0:0:0:0:
87,333,73745,1,2,0:0:0:0:
61,226,73925,6,0,L|34:107,2,116.999996429443,2|2|2,3:2|0:0|0:3,0:0:0:0:
87,333,74643,2,0,L|173:338,1,77.999997619629,2|0,3:2|3:3,0:0:0:0:
187,340,74913,1,0,3:3:0:0:
207,342,75003,1,8,1:2:0:0:
222,234,75182,6,0,L|398:230,1,155.999995239258,6|0,3:2|3:3,0:0:0:0:
487,228,75721,1,10,1:2:0:0:
500,119,75901,1,2,0:3:0:0:
487,228,76081,2,0,L|478:332,2,77.999997619629,2|0|8,3:2|0:0|1:2,0:0:0:0:
377,230,76620,6,0,L|201:234,1,155.999995239258,6|0,3:2|3:3,0:0:0:0:
111,237,77159,1,10,1:2:0:0:
90,129,77339,1,2,0:3:0:0:
111,237,77519,2,0,L|128:343,2,77.999997619629,2|0|8,3:2|0:0|1:2,0:0:0:0:
221,233,78057,6,0,L|240:140,1,77.999997619629,6|0,3:2|0:0,0:0:0:0:
342,198,78416,1,0,3:3:0:0:
335,88,78596,2,0,P|273:42|197:43,1,155.999995239258,10|2,1:2|3:2,0:0:0:0:
135,133,79134,1,8,1:2:0:0:
236,156,79314,1,8,1:2:0:0:
256,192,79494,12,14,80751,1:2:0:0:
440,79,81111,6,0,L|327:91,1,104,12|0,2:2|3:3,0:0:0:0:
211,212,81829,6,0,L|134:202,2,78,8|8|8,2:2|2:2|2:2,0:0:0:0:
294,222,82548,1,12,2:2:0:0:
239,64,82907,1,0,3:3:0:0:
294,222,83266,6,0,L|323:293,2,78,8|8|8,2:2|2:2|2:2,0:0:0:0:
261,145,83985,1,12,2:2:0:0:
152,272,84344,1,0,3:3:0:0:
261,145,84703,6,0,L|308:83,2,78,8|8|8,2:2|2:2|2:2,0:0:0:0:
213,214,85422,2,0,L|189:240,4,26,12|0|0|0|0,2:2|3:3|3:3|3:3|3:3,0:0:0:0:
256,192,85961,12,0,89015,1:2:0:0:
