osu file format v14

[General]
AudioFilename: audio.mp3
AudioLeadIn: 0
PreviewTime: 35123
Countdown: 0
SampleSet: Soft
StackLeniency: 0.2
Mode: 0
LetterboxInBreaks: 0
WidescreenStoryboard: 1

[Editor]
DistanceSpacing: 1.4
BeatDivisor: 4
GridSize: 4
TimelineZoom: 1.2

[Metadata]
Title:Ashita o Narase (TV Size)
TitleUnicode:明日を鳴らせ (TV Size)
Artist:Shishido Kavka
ArtistUnicode:シシド・カフカ
Creator:mantasu
Version:Daijoubu
Source:FAIRY TAIL
Tags:female japanese j-pop metal rock anime zero ZERØ 0 op opening 22 2014 wo フェアリーテイル ゼロ seselis1 Neoskylove Affirmation AF
BeatmapID:1421477
BeatmapSetID:593072

[Difficulty]
HPDrainRate:6
CircleSize:4
OverallDifficulty:8
ApproachRate:9
SliderMultiplier:2
SliderTickRate:1

[Events]
//Background and Video events
0,0,"bg.jpg",0,0
Video,0,"video.mp4"
//Break Periods
//Storyboard Layer 0 (Background)
//Storyboard Layer 1 (Fail)
//Storyboard Layer 2 (Pass)
//Storyboard Layer 3 (Foreground)
//Storyboard Layer 4 (Overlay)
//Storyboard Sound Samples

[TimingPoints]
632,359.281437125748,4,2,1,60,1,0
6021,-500,4,2,1,60,0,0
6380,-166.666666666667,4,2,1,60,0,0
12129,-100,4,2,1,45,0,0
33865,-100,4,2,2,45,0,0
35123,-66.6666666666667,4,2,2,75,0,0
36919,-83.3333333333333,4,2,2,75,0,0
37458,-66.6666666666667,4,2,2,75,0,0
37817,-71.4285714285714,4,2,2,75,0,0
38536,-62.5,4,2,2,75,0,0
39254,-55.5555555555556,4,2,2,75,0,0
39614,-66.6666666666667,4,2,2,75,0,0
40512,-83.3333333333333,4,2,2,75,0,0
40871,-66.6666666666667,4,2,3,75,0,0
41230,-66.6666666666667,4,2,2,75,0,0
42308,-83.3333333333333,4,2,2,75,0,0
43027,-66.6666666666667,4,2,2,75,0,0
43566,-66.6666666666667,4,2,3,75,0,0
44105,-66.6666666666667,4,2,2,75,0,0
44823,-83.3333333333333,4,2,2,75,0,0
46620,-66.6666666666667,4,2,2,75,0,0
48416,-83.3333333333333,4,2,2,75,0,0
48955,-66.6666666666667,4,2,2,75,0,0
49314,-71.4285714285714,4,2,2,75,0,0
50033,-62.5,4,2,2,75,0,0
50751,-55.5555555555556,4,2,2,75,0,0
51111,-66.6666666666667,4,2,2,75,0,0
52009,-83.3333333333333,4,2,2,75,0,0
52368,-66.6666666666667,4,2,3,75,0,0
52727,-66.6666666666667,4,2,2,75,0,0
53626,-83.3333333333333,4,2,2,75,0,0
54164,-66.6666666666667,4,2,2,75,0,0
55242,-66.6666666666667,4,2,2,75,0,0
57039,-83.3333333333333,4,2,2,75,0,0
57578,-66.6666666666667,4,2,2,75,0,0
57937,-71.4285714285714,4,2,2,75,0,0
58655,-62.5,4,2,2,75,0,0
59374,-55.5555555555556,4,2,2,75,0,0
59733,-66.6666666666667,4,2,2,75,0,0
60631,-83.3333333333333,4,2,2,75,0,0
60991,-66.6666666666667,4,2,3,75,0,0
61350,-66.6666666666667,4,2,2,75,0,0
62428,-83.3333333333333,4,2,2,75,0,0
63146,-66.6666666666667,4,2,2,75,0,0
63685,-66.6666666666667,4,2,3,75,0,0
64224,-66.6666666666667,4,2,2,75,0,0
64943,-83.3333333333333,4,2,2,75,0,0
66739,-66.6666666666667,4,2,2,75,0,0
68715,-83.3333333333333,4,2,2,75,0,0
69614,-66.6666666666667,4,2,2,75,0,0
71590,-83.3333333333333,4,2,2,75,0,0
72488,-66.6666666666667,4,2,3,75,0,0
72847,-66.6666666666667,4,2,2,75,0,0
73925,-83.3333333333333,4,2,2,75,0,0
74643,-66.6666666666667,4,2,2,75,0,0
75182,-66.6666666666667,4,2,3,75,0,0
75721,-66.6666666666667,4,2,2,75,0,0
76620,-66.6666666666667,4,2,3,75,0,0
77158,-66.6666666666667,4,2,2,75,0,0
78057,-83.3333333333333,4,2,3,75,0,0
78596,-83.3333333333333,4,2,2,75,0,0
81111,-166.666666666667,4,2,1,65,0,0
89015,-166.666666666667,4,2,1,5,0,0

[Colours]
Combo1 : 255,255,85
Combo2 : 230,230,230
Combo3 : 107,107,107
Combo4 : 120,243,84
SliderBorder : 223,223,223
SliderTrackOverride : 0,0,0

[HitObjects]
332,67,6021,6,0,L|320:100,1,30,2|0,1:0|0:0,0:0:0:0:
350,170,6380,6,0,P|304:130|236:133,1,119.999996337891,12|0,2:2|3:3,0:0:0:0:
353,365,7099,6,0,P|396:356|421:337,1,59.9999981689454,8|0,2:2|0:0,0:0:0:0:
477,315,7368,2,0,P|447:282|418:270,1,59.9999981689454,8|0,2:2|0:0,0:0:0:0:
359,248,7637,2,0,P|351:271|350:295,1,29.9999990844727,8|0,2:2|0:0,0:0:0:0:
353,365,7817,2,0,P|345:322|366:236,1,119.999996337891,12|0,2:2|3:3,0:0:0:0:
120,224,8536,6,0,P|106:265|110:296,1,59.9999981689454,8|0,2:2|0:0,0:0:0:0:
102,356,8805,2,0,P|145:346|170:327,1,59.9999981689454,8|0,2:2|0:0,0:0:0:0:
219,289,9074,2,0,P|203:270|182:257,1,29.9999990844727,8|0,2:2|0:0,0:0:0:0:
120,224,9254,2,0,P|161:238|225:299,1,119.999996337891,12|0,2:2|3:3,0:0:0:0:
365,100,9973,6,0,P|335:67|306:55,1,59.9999981689454,8|0,2:2|0:0,0:0:0:0:
260,18,10242,2,0,P|246:59|250:90,1,59.9999981689454,8|0,2:2|0:0,0:0:0:0:
261,153,10512,2,0,P|284:148|305:137,1,29.9999990844727,8|0,2:2|0:0,0:0:0:0:
365,100,10691,2,0,P|331:128|276:148,1,89.9999972534181,12|0,2:2|0:0,0:0:0:0:
261,153,11051,1,0,3:3:0:0:
233,351,11410,5,8,2:2:0:0:
186,202,11590,1,2,0:0:0:0:
273,253,11769,1,2,1:0:0:0:
233,351,11949,1,8,2:2:0:0:
146,80,12129,5,4,3:2:0:0:
317,182,12308,1,2,2:2:0:0:
70,144,12488,2,0,P|44:215|84:282,1,150,0|0,3:3|0:0,0:0:0:0:
133,206,12847,1,0,3:3:0:0:
133,206,13206,2,0,L|196:200,1,50,0|0,3:3|0:0,0:0:0:0:
282,193,13386,1,2,2:2:0:0:
139,330,13566,5,0,3:3:0:0:
70,144,13745,1,2,2:2:0:0:
133,206,13925,2,0,L|290:193,1,150,0|0,3:3|0:0,0:0:0:0:
382,185,14284,1,0,3:3:0:0:
206,72,14464,2,0,P|211:102|220:128,1,50,2|0,2:2|0:0,0:0:0:0:
282,193,14643,2,0,P|277:223|268:249,1,50,0|0,3:3|0:0,0:0:0:0:
204,301,14823,2,0,P|209:331|218:357,1,50,2|0,2:2|0:0,0:0:0:0:
401,326,15003,6,0,P|345:317|287:332,1,100,0|2,3:3|2:2,0:0:0:0:
57,212,15362,2,0,P|129:224|196:192,1,150,0|0,3:3|0:0,0:0:0:0:
248,93,15721,1,0,3:3:0:0:
248,93,16081,2,0,L|316:99,1,50,0|0,3:3|0:0,0:0:0:0:
397,110,16260,1,2,2:2:0:0:
168,84,16440,5,0,3:3:0:0:
252,265,16620,1,2,2:2:0:0:
327,224,16799,2,0,P|267:181|196:198,1,150,0|0,3:3|0:0,0:0:0:0:
146,285,17158,1,0,3:3:0:0:
38,127,17338,2,0,P|31:95|33:61,1,50,2|0,2:2|0:0,0:0:0:0:
100,23,17518,2,0,P|128:27|164:51,1,50,0|0,3:3|0:0,0:0:0:0:
166,125,17697,2,0,P|144:144|104:163,1,50,2|0,2:2|0:0,0:0:0:0:
233,82,17877,6,0,P|302:100|381:69,1,150,0|0,3:3|0:0,0:0:0:0:
463,8,18236,2,0,L|450:131,1,100,0|2,3:3|2:2,0:0:0:0:
422,360,18596,2,0,L|444:189,1,150,0|0,3:3|0:0,0:0:0:0:
452,107,18955,2,0,L|459:40,1,50,0|0,3:3|0:0,0:0:0:0:
512,169,19134,1,2,2:2:0:0:
313,140,19314,5,0,3:3:0:0:
432,301,19494,1,2,2:2:0:0:
457,57,19673,2,0,L|451:106,1,50,0|0,3:3|0:0,0:0:0:0:
442,207,19853,1,2,2:2:0:0:
268,74,20033,1,0,3:3:0:0:
340,218,20212,2,0,P|338:247|319:289,1,50,2|0,2:2|0:0,0:0:0:0:
226,310,20392,2,0,P|218:286|217:261,1,50,0|0,3:3|0:0,0:0:0:0:
340,218,20572,2,0,P|338:247|319:289,1,50,2|0,2:2|0:0,0:0:0:0:
150,205,20751,6,0,P|194:182|244:185,1,100,0|2,3:3|2:2,0:0:0:0:
394,326,21111,2,0,P|428:250|416:178,1,150,0|0,3:3|0:0,0:0:0:0:
360,104,21470,1,0,3:3:0:0:
360,104,21829,2,0,L|246:91,1,100,0|2,3:3|2:2,0:0:0:0:
159,207,22188,5,0,3:3:0:0:
159,207,22548,2,0,L|273:194,1,100,0|2,3:3|2:2,0:0:0:0:
360,104,22907,1,0,3:3:0:0:
345,261,23087,2,0,L|338:330,1,50,2|0,2:2|0:0,0:0:0:0:
259,196,23266,2,0,L|271:128,1,50,0|0,3:3|0:0,0:0:0:0:
365,54,23446,2,0,L|358:121,1,50,2|0,2:2|0:0,0:0:0:0:
183,157,23626,5,4,3:2:0:0:
351,183,23805,1,2,2:2:0:0:
141,78,23985,2,0,P|97:134|113:213,1,150,0|0,3:3|0:0,0:0:0:0:
179,279,24344,1,0,3:3:0:0:
179,279,24703,2,0,L|233:275,1,50,0|0,3:3|0:0,0:0:0:0:
354,270,24883,1,2,3:2:0:0:
366,269,24973,1,0,3:3:0:0:
379,268,25063,5,0,3:3:0:0:
199,355,25242,1,2,2:2:0:0:
228,275,25422,2,0,L|212:121,1,150,0|0,3:3|0:0,0:0:0:0:
198,26,25781,1,0,3:3:0:0:
135,216,25961,2,0,P|111:222|78:218,1,50,2|0,2:2|0:0,0:0:0:0:
99,113,26140,2,0,P|105:89|125:62,1,50,0|0,3:3|0:0,0:0:0:0:
212,125,26320,2,0,P|229:142|242:173,1,50,2|0,2:2|0:0,0:0:0:0:
186,286,26500,6,0,P|258:298|341:255,1,150,0|0,3:3|0:0,0:0:0:0:
382,184,26859,2,0,P|313:155|240:164,1,150,0|0,3:3|0:0,0:0:0:0:
150,208,27218,1,0,3:3:0:0:
150,208,27578,2,0,L|147:269,1,50,0|0,3:3|0:0,0:0:0:0:
145,358,27757,1,2,3:2:0:0:
145,367,27847,1,0,3:3:0:0:
146,378,27937,5,0,3:3:0:0:
55,278,28117,1,2,2:2:0:0:
235,160,28296,2,0,L|229:309,1,150,0|0,3:3|0:0,0:0:0:0:
314,362,28655,1,0,3:3:0:0:
439,186,28835,2,0,P|406:177|386:177,1,50,2|0,2:2|0:0,0:0:0:0:
308,262,29015,2,0,P|332:260|356:252,1,50,0|0,3:3|0:0,0:0:0:0:
460,331,29194,2,0,P|427:322|407:322,1,50,2|0,2:2|0:0,0:0:0:0:
314,362,29374,5,0,3:3:0:0:
314,362,29733,2,0,P|290:369|265:371,1,50,0|0,3:3|0:0,0:0:0:0:
168,341,29913,1,2,2:2:0:0:
367,301,30093,2,0,P|376:235|339:141,1,150,0|0,3:3|0:0,0:0:0:0:
264,106,30452,2,0,L|206:115,1,50,0|0,3:3|0:0,0:0:0:0:
115,128,30631,1,2,3:2:0:0:
104,131,30721,1,0,3:3:0:0:
91,134,30811,5,0,3:3:0:0:
266,241,30991,1,2,2:2:0:0:
395,81,31170,2,0,L|324:92,1,50,0|0,3:3|0:0,0:0:0:0:
214,113,31350,1,2,2:2:0:0:
371,237,31530,1,0,3:3:0:0:
189,335,31709,2,0,P|184:310|182:285,1,50,2|0,2:2|0:0,0:0:0:0:
266,241,31889,2,0,P|270:216|272:191,1,50,0|0,3:3|0:0,0:0:0:0:
197,132,32069,2,0,P|192:107|190:82,1,50,2|0,2:2|0:0,0:0:0:0:
298,91,32248,5,0,3:3:0:0:
133,202,32428,1,2,2:2:0:0:
289,327,32608,2,0,P|365:335|435:280,1,150,0|0,3:3|0:0,0:0:0:0:
464,204,32967,1,0,3:3:0:0:
464,204,33326,2,0,L|446:134,1,50,0|0,3:3|0:0,0:0:0:0:
428,52,33506,1,2,2:2:0:0:
405,334,33685,5,4,3:2:0:0:
355,123,33865,1,8,2:2:0:0:
172,294,34045,1,8,2:2:0:0:
385,234,34224,1,8,2:2:0:0:
273,267,34404,5,6,0:0:0:0:
405,334,34584,1,2,0:3:0:0:
273,267,34763,1,2,0:0:0:0:
273,267,35123,5,6,3:2:0:0:
357,60,35302,1,0,3:3:0:0:
512,214,35482,1,10,1:2:0:0:
330,34,35661,2,0,B|358:134|358:134|348:160|348:160|382:265,1,225.000008583069,2|0,0:3|0:0,0:0:0:0:
402,324,36021,1,0,3:3:0:0:
447,175,36200,1,10,1:2:0:0:
271,244,36380,6,0,B|200:274|200:274|134:238,1,150.000005722046,2|2,0:2|3:2,0:0:0:0:
218,90,36739,1,0,3:3:0:0:
88,250,36919,2,0,B|197:308|197:308|319:261,1,239.999992675781,10|2,1:2|3:2,0:0:0:0:
218,90,37458,1,0,3:3:0:0:
207,214,37637,1,10,1:2:0:0:
65,111,37817,6,0,L|90:264,1,139.999995727539,2|2,0:3|3:2,0:0:0:0:
240,75,38176,1,0,3:3:0:0:
223,237,38355,1,10,1:2:0:0:
27,113,38536,2,0,L|55:285,1,160,2|2,0:3|3:2,0:0:0:0:
257,69,38895,1,0,3:3:0:0:
232,256,39075,1,10,1:2:0:0:
0,108,39254,2,0,L|31:298,1,179.999994506836,2|2,0:3|3:2,0:0:0:0:
232,256,39613,5,0,3:3:0:0:
28,285,39793,1,10,1:2:0:0:
142,364,39973,1,2,0:3:0:0:
212,142,40152,1,2,3:2:0:0:
377,343,40332,1,0,3:3:0:0:
460,225,40512,2,0,B|424:238|424:238|337:212|337:212|287:234,1,179.999994506836,10|0,1:2|0:0,0:0:0:0:
219,271,40871,5,6,3:2:0:0:
219,271,41051,1,0,3:3:0:0:
473,182,41230,2,0,B|413:201|413:201|328:174|328:174|258:201,1,225.000008583069,10|0,1:2|0:0,0:0:0:0:
219,271,41590,2,0,P|180:223|202:139,1,150.000005722046,2|0,3:2|3:3,0:0:0:0:
363,81,41949,1,10,1:2:0:0:
332,264,42129,1,2,0:3:0:0:
477,94,42308,6,0,B|445:74|445:74|338:82,1,119.999996337891,2|0,3:2|0:0,0:0:0:0:
282,178,42578,2,0,B|314:158|314:158|421:166,1,119.999996337891,2|0,0:0|0:0,0:0:0:0:
504,269,42847,2,0,B|467:240|467:240|255:260,1,239.999992675781,2|0,0:3|3:3,0:0:0:0:
91,285,43386,1,8,1:2:0:0:
136,11,43566,6,0,B|112:53|112:53|143:158,1,150.000005722046,6|0,3:2|0:0,0:0:0:0:
184,272,43925,1,0,3:3:0:0:
221,71,44105,1,10,1:2:0:0:
184,272,44284,1,2,0:3:0:0:
4,135,44464,1,2,3:2:0:0:
290,190,44643,1,0,3:3:0:0:
4,135,44823,2,0,B|36:170|36:170|27:304,1,179.999994506836,10|0,1:2|0:0,0:0:0:0:
17,382,45182,5,2,3:2:0:0:
17,382,45362,1,0,3:3:0:0:
160,240,45542,2,0,L|172:380,1,119.999996337891,10|0,1:2|0:0,0:0:0:0:
150,156,45901,1,2,3:2:0:0:
150,156,46081,1,0,3:3:0:0:
324,198,46260,2,0,L|314:334,1,119.999996337891,10|0,1:2|0:0,0:0:0:0:
239,103,46620,5,6,3:2:0:0:
456,158,46799,1,0,3:3:0:0:
315,317,46979,1,10,1:2:0:0:
368,32,47158,2,0,B|374:80|374:80|309:185|309:185|311:240,1,225.000008583069,2|0,0:3|0:0,0:0:0:0:
315,317,47518,1,0,3:3:0:0:
411,212,47697,1,10,1:2:0:0:
206,117,47877,6,0,B|172:102|172:102|59:126,1,150.000005722046,2|2,0:3|3:2,0:0:0:0:
161,283,48236,1,0,3:3:0:0:
1,144,48416,2,0,B|29:102|29:102|221:62,1,239.999992675781,10|2,1:2|3:2,0:0:0:0:
161,283,48955,1,0,3:3:0:0:
131,158,49134,1,10,1:2:0:0:
299,249,49314,6,0,L|310:98,1,139.999995727539,2|2,0:3|3:2,0:0:0:0:
154,319,49673,1,0,3:3:0:0:
104,150,49853,1,10,1:2:0:0:
329,265,50033,2,0,L|342:93,1,160,2|2,0:3|3:2,0:0:0:0:
139,343,50392,1,0,3:3:0:0:
81,137,50572,1,10,1:2:0:0:
360,282,50751,2,0,L|374:82,1,179.999994506836,2|2,0:3|3:2,0:0:0:0:
185,226,51111,5,0,3:3:0:0:
345,365,51290,1,10,1:2:0:0:
276,240,51470,1,2,0:3:0:0:
491,300,51649,1,2,3:2:0:0:
372,102,51829,1,0,3:3:0:0:
276,240,52009,2,0,B|252:273|252:273|89:255,1,179.999994506836,10|0,1:2|0:0,0:0:0:0:
29,238,52368,5,6,3:2:0:0:
29,238,52548,1,0,3:3:0:0:
298,258,52727,2,0,B|259:309|259:309|91:289,1,225.000008583069,10|0,1:2|0:0,0:0:0:0:
29,238,53087,2,0,B|18:318|18:318|64:369,1,150.000005722046,2|0,3:2|3:3,0:0:0:0:
49,144,53446,1,10,1:2:0:0:
290,195,53626,6,0,B|298:257|298:257|258:312,1,119.999996337891,2|2,0:3|3:2,0:0:0:0:
264,113,53985,1,0,3:3:0:0:
0,221,54164,2,0,B|44:248|44:248|157:210|157:210|219:235,1,225.000008583069,10|0,1:2|0:0,0:0:0:0:
264,303,54524,1,10,1:2:0:0:
266,37,54703,1,8,1:2:0:0:
266,37,55063,1,6,3:2:0:0:
394,220,55242,5,4,0:2:0:0:
158,210,55422,1,0,3:3:0:0:
266,37,55602,1,10,1:2:0:0:
172,244,55781,2,0,B|276:296|276:296|394:236,1,225.000008583069,2|0,0:3|0:0,0:0:0:0:
437,200,56140,1,0,3:3:0:0:
402,360,56320,1,10,1:2:0:0:
273,198,56500,6,0,L|267:31,1,150.000005722046,2|2,0:3|3:2,0:0:0:0:
124,155,56859,1,0,3:3:0:0:
302,2,57039,2,0,L|310:250,1,239.999992675781,10|2,1:2|3:2,0:0:0:0:
135,335,57578,1,0,3:3:0:0:
117,191,57757,1,10,1:2:0:0:
251,316,57937,6,0,P|324:334|388:301,1,139.999995727539,2|2,0:3|3:2,0:0:0:0:
129,363,58296,1,0,3:3:0:0:
100,160,58475,1,10,1:2:0:0:
242,341,58655,2,0,P|315:359|395:325,1,160,2|2,0:3|3:2,0:0:0:0:
109,383,59015,1,0,3:3:0:0:
79,140,59194,1,10,1:2:0:0:
237,362,59374,2,0,P|330:382|418:336,1,179.999994506836,2|2,0:3|3:2,0:0:0:0:
448,187,59733,5,0,3:3:0:0:
311,292,59913,1,10,1:2:0:0:
293,178,60093,1,2,0:3:0:0:
160,311,60272,1,2,3:2:0:0:
429,273,60452,1,0,3:3:0:0:
219,80,60631,2,0,B|182:158|182:158|224:267,1,179.999994506836,10|0,1:2|0:0,0:0:0:0:
256,322,60991,5,6,3:2:0:0:
256,322,61170,1,0,3:3:0:0:
195,58,61350,2,0,B|144:157|144:157|196:297,1,225.000008583069,10|0,1:2|0:0,0:0:0:0:
256,322,61709,2,0,L|406:309,1,150.000005722046,2|0,3:2|3:3,0:0:0:0:
512,171,62069,1,10,1:2:0:0:
499,361,62248,1,2,0:3:0:0:
382,223,62428,6,0,P|323:233|263:233,1,119.999996337891,2|0,3:2|0:0,0:0:0:0:
182,141,62697,2,0,P|241:150|301:147,1,119.999996337891,2|0,3:2|0:0,0:0:0:0:
379,40,62967,2,0,P|263:64|139:47,1,239.999992675781,2|0,0:3|3:3,0:0:0:0:
301,147,63506,1,8,1:2:0:0:
158,322,63685,6,0,B|125:304|125:304|104:169,1,150.000005722046,6|0,3:2|0:0,0:0:0:0:
91,47,64045,1,0,3:3:0:0:
121,337,64224,2,0,B|88:319|88:319|72:182,1,150.000005722046,10|0,1:2|0:0,0:0:0:0:
54,29,64584,1,2,3:2:0:0:
222,109,64763,1,0,3:3:0:0:
54,29,64943,2,0,L|76:211,1,179.999994506836,10|0,1:2|0:0,0:0:0:0:
85,293,65302,5,2,3:2:0:0:
85,293,65482,1,0,3:3:0:0:
224,179,65661,2,0,L|205:320,1,119.999996337891,10|0,1:2|0:0,0:0:0:0:
240,99,66021,1,2,3:2:0:0:
240,99,66200,1,0,3:3:0:0:
369,248,66380,2,0,L|297:359,1,119.999996337891,10|0,1:2|0:0,0:0:0:0:
85,293,66739,5,6,3:2:0:0:
247,258,66919,1,0,3:3:0:0:
93,93,67099,2,0,B|93:145|93:145|173:248|173:248|172:306,1,225.000008583069,10|0,1:2|0:0,0:0:0:0:
146,341,67458,2,0,B|152:281|152:281|59:158|59:158|59:72,1,300.000011444092,2|10,3:2|1:2,0:0:0:0:
246,257,68176,5,2,3:2:0:0:
94,207,68356,1,0,3:3:0:0:
319,117,68536,1,10,1:2:0:0:
74,88,68715,2,0,L|95:215,1,119.999996337891,2|2,0:3|3:2,0:0:0:0:
117,340,69075,1,0,3:3:0:0:
297,197,69254,2,0,L|276:324,1,119.999996337891,10|0,1:2|0:0,0:0:0:0:
117,340,69614,5,2,3:2:0:0:
117,340,69793,1,0,3:3:0:0:
277,315,69973,1,10,1:2:0:0:
93,206,70152,1,2,0:3:0:0:
324,109,70332,2,0,B|350:178|350:178|312:256,1,150.000005722046,2|0,3:2|3:3,0:0:0:0:
171,169,70691,1,10,1:2:0:0:
283,37,70871,1,2,0:3:0:0:
105,102,71051,6,0,B|75:168|75:168|110:243,1,150.000005722046,2|0,3:2|3:3,0:0:0:0:
261,170,71410,1,10,1:2:0:0:
280,372,71590,2,0,L|269:245,1,119.999996337891,2|2,0:3|3:2,0:0:0:0:
427,339,71949,1,0,3:3:0:0:
436,136,72129,2,0,L|431:255,1,119.999996337891,10|0,1:2|0:0,0:0:0:0:
280,372,72488,5,6,3:2:0:0:
280,372,72667,1,0,3:3:0:0:
301,131,72847,2,0,B|220:113|220:113|179:136|179:136|81:113,1,225.000008583069,10|0,1:2|0:0,0:0:0:0:
51,71,73206,2,0,B|172:100|172:100|218:79|218:79|366:108,1,300.000011444092,2|10,3:2|1:2,0:0:0:0:
469,281,73745,1,2,0:0:0:0:
315,244,73925,6,0,B|235:228|235:228|184:251,1,119.999996337891,2|0,2:3|0:0,0:0:0:0:
93,199,74194,2,0,B|173:215|173:215|205:249,1,119.999996337891,2|0,0:0|0:0,0:0:0:0:
293,346,74464,2,0,B|237:334|237:334|178:353|178:353|131:310|131:310|67:298,1,239.999992675781,2|0,0:3|3:3,0:3:0:0:
40,292,74913,1,0,3:3:0:0:
9,288,75003,1,8,1:2:0:0:
293,346,75182,6,0,P|318:161|273:141,1,225.000008583069,6|0,3:2|0:0,0:0:0:0:
255,101,75542,1,0,3:3:0:0:
481,123,75721,1,10,1:2:0:0:
293,346,75901,1,2,0:3:0:0:
241,27,76081,2,0,L|258:119,1,75.0000028610231,2|0,3:2|0:0,0:0:0:0:
276,249,76260,1,0,3:3:0:0:
241,27,76440,1,8,1:2:0:0:
189,346,76620,6,0,P|164:161|209:141,1,225.000008583069,6|0,3:2|0:0,0:0:0:0:
227,101,76980,1,0,3:3:0:0:
1,123,77159,1,10,1:2:0:0:
189,346,77339,1,2,0:3:0:0:
241,27,77519,2,0,L|224:119,1,75.0000028610231,2|0,3:2|0:0,0:0:0:0:
206,249,77698,1,0,3:3:0:0:
241,27,77878,1,8,1:2:0:0:
362,263,78057,6,0,B|277:299|277:299|196:241,1,179.999994506836,6|0,3:2|0:0,0:0:0:0:
147,198,78417,1,0,3:3:0:0:
383,294,78596,2,0,B|270:336|270:336|168:265,1,239.999992675781,10|2,1:2|3:2,0:0:0:0:
310,53,79134,1,8,1:2:0:0:
437,233,79314,1,8,1:2:0:0:
147,198,79494,1,8,1:2:0:0:
256,192,79584,12,14,80751,1:2:0:0:
101,127,81111,6,0,B|149:87|149:87|207:94,1,119.999996337891,12|0,2:2|3:3,0:0:0:0:
452,122,81829,6,0,L|380:162,1,59.9999981689454,8|0,2:2|0:0,0:0:0:0:
323,197,82099,2,0,L|324:114,1,59.9999981689454,8|0,2:2|0:0,0:0:0:0:
324,44,82368,2,0,L|364:68,1,29.9999990844727,8|0,2:2|0:0,0:0:0:0:
452,122,82548,2,0,L|343:55,1,119.999996337891,12|0,2:2|3:3,0:0:0:0:
209,379,83266,6,0,L|210:296,1,59.9999981689454,8|0,2:2|0:0,0:0:0:0:
208,230,83536,2,0,L|278:272,1,59.9999981689454,8|0,2:2|0:0,0:0:0:0:
340,307,83805,2,0,L|298:329,1,29.9999990844727,8|0,2:2|0:0,0:0:0:0:
209,379,83985,2,0,L|321:318,1,119.999996337891,12|0,2:2|3:3,0:0:0:0:
100,55,84703,6,0,L|170:97,1,59.9999981689454,8|0,2:2|0:0,0:0:0:0:
229,128,84973,2,0,L|156:167,1,59.9999981689454,8|0,2:2|0:0,0:0:0:0:
96,204,85242,2,0,L|97:157,1,29.9999990844727,8|0,2:2|0:0,0:0:0:0:
100,55,85422,5,12,2:2:0:0:
98,101,85511,1,0,3:3:0:0:
97,136,85601,1,0,3:3:0:0:
96,174,85691,1,0,3:3:0:0:
95,205,85781,1,0,3:3:0:0:
229,128,85961,1,12,1:2:0:0:
256,192,86051,12,0,89015,0:0:0:0:
