osu file format v14

[General]
AudioFilename: audio.mp3
AudioLeadIn: 0
PreviewTime: 89701
Countdown: 0
SampleSet: Normal
StackLeniency: 0.7
Mode: 1
LetterboxInBreaks: 0
WidescreenStoryboard: 1

[Editor]
Bookmarks: 1369,11739,13220,23591,25072,35443,36924,47294,48776,59146,60628,68405,69517,73961,78406,84330,88775,90256,100627,102108,112479,113960
DistanceSpacing: 1
BeatDivisor: 1
GridSize: 32
TimelineZoom: 2.799999

[Metadata]
Title:Lunartic Dial
TitleUnicode:Lunartic Dial
Artist:Shiron
ArtistUnicode:Shiron
Creator:eterpay
Version:Kantan
Source:SOUND VOLTEX II -infinite infection-
Tags:ultimate tracks touhou toho sakuya izayoi lunar clock luna dial embodiment of scarlet devil eosd iidx
BeatmapID:1179420
BeatmapSetID:556533

[Difficulty]
HPDrainRate:4
CircleSize:2
OverallDifficulty:3
ApproachRate:5
SliderMultiplier:1.40493573995729
SliderTickRate:1

[Events]
//Background and Video events
0,0,"sakuyabg.jpg",0,0
//Break Periods
//Storyboard Layer 0 (Background)
//Storyboard Layer 1 (Fail)
//Storyboard Layer 2 (Pass)
//Storyboard Layer 3 (Foreground)
//Storyboard Sound Samples

[TimingPoints]
-112.471364737529,370.37037037037,4,1,0,100,1,0
1369,-100,4,1,0,100,0,0
2109,-100,4,1,0,100,0,0
4331,-100,4,1,0,100,0,0
5072,-100,4,1,0,100,0,0
7294,-100,4,1,0,100,0,0
8035,-100,4,1,0,100,0,0
10257,-100,4,1,0,100,0,0
11739,-100,4,1,0,100,0,0
11862,-100,4,1,0,100,0,0
11986,-100,4,1,0,100,0,0
12109,-100,4,1,0,100,0,0
12233,-100,4,1,0,100,0,0
12356,-100,4,1,0,100,0,0
12480,-100,4,1,0,100,0,0
12603,-100,4,1,0,100,0,0
12727,-100,4,1,0,100,0,0
12850,-100,4,1,0,100,0,0
23591,-100,4,1,0,100,0,0
23961,-100,4,1,0,100,0,0
24331,-100,4,1,0,100,0,0
24702,-100,4,1,0,100,0,0
25072,-100,4,1,0,100,0,0
47294,-100,4,1,0,100,0,0
48035,-100,4,1,0,100,0,0
48406,-100,4,1,0,100,0,0
60628,370.37037037037,3,1,0,100,1,0
60628,-100,3,1,0,100,0,0
78035,-100,3,1,0,100,0,0
78405,370.37037037037,4,1,0,100,1,0
78405,-100,4,1,0,100,0,1
88775,-100,4,1,0,100,0,0
90256,-100,4,1,0,100,0,1
101738,-100,4,1,0,100,0,1
102108,-100,4,1,0,100,0,0
112479,-100,4,1,0,100,0,0
113960,-100,4,1,0,100,0,0
114330,-100,4,1,0,100,0,0
114516,-100,4,1,0,100,0,0
114886,-100,4,1,0,100,0,0
115256,-100,4,1,0,100,0,0
116553,-100,4,1,0,100,0,0

[HitObjects]
256,192,1369,5,8,0:0:0:0:
256,192,2850,1,0,0:0:0:0:
256,192,4331,1,8,0:0:0:0:
256,192,5813,1,0,0:0:0:0:
256,192,6554,1,8,0:0:0:0:
256,192,7294,1,8,0:0:0:0:
256,192,8406,1,0,0:0:0:0:
256,192,8776,1,0,0:0:0:0:
256,192,9517,1,8,0:0:0:0:
256,192,9887,1,8,0:0:0:0:
256,192,10257,1,8,0:0:0:0:
256,192,10998,1,8,0:0:0:0:
256,192,11739,12,0,12850,0:0:0:0:
256,192,13220,5,8,0:0:0:0:
256,192,13961,1,8,0:0:0:0:
256,192,14702,1,8,0:0:0:0:
256,192,15443,1,8,0:0:0:0:
256,192,15813,1,0,0:0:0:0:
256,192,16183,1,8,0:0:0:0:
256,192,16924,1,8,0:0:0:0:
256,192,17665,1,8,0:0:0:0:
256,192,18406,1,8,0:0:0:0:
256,192,18776,1,0,0:0:0:0:
256,192,19146,1,8,0:0:0:0:
256,192,19887,1,8,0:0:0:0:
256,192,20257,1,8,0:0:0:0:
256,192,20628,1,8,0:0:0:0:
256,192,21369,1,8,0:0:0:0:
256,192,21739,1,8,0:0:0:0:
256,192,22109,1,8,0:0:0:0:
256,192,22850,1,8,0:0:0:0:
256,192,23591,1,0,0:0:0:0:
256,192,23961,1,0,0:0:0:0:
256,192,24331,1,0,0:0:0:0:
256,192,24702,2,0,L|192:128,1,70.2467869978645
256,192,25072,1,0,0:0:0:0:
256,192,25257,1,0,0:0:0:0:
256,192,25628,1,0,0:0:0:0:
256,192,25998,1,0,0:0:0:0:
256,192,26369,1,8,0:0:0:0:
256,192,27109,1,0,0:0:0:0:
256,192,27480,1,0,0:0:0:0:
256,192,27850,1,8,0:0:0:0:
256,192,28591,1,0,0:0:0:0:
256,192,28962,1,0,0:0:0:0:
256,192,29331,1,8,0:0:0:0:
256,192,30257,1,0,0:0:0:0:
256,192,30998,1,0,0:0:0:0:
256,192,31183,1,0,0:0:0:0:
256,192,31554,1,0,0:0:0:0:
256,192,31925,1,0,0:0:0:0:
256,192,32294,1,8,0:0:0:0:
256,192,33035,1,0,0:0:0:0:
256,192,33406,1,0,0:0:0:0:
256,192,33776,1,0,0:0:0:0:
256,192,34146,1,0,0:0:0:0:
256,192,34517,1,0,0:0:0:0:
256,192,34887,1,8,0:0:0:0:
256,192,35257,1,8,0:0:0:0:
256,192,35443,12,0,36554,0:0:0:0:
256,192,36924,5,0,0:0:0:0:
256,192,37294,1,0,0:0:0:0:
256,192,37665,1,8,0:0:0:0:
256,192,38406,1,0,0:0:0:0:
256,192,38776,1,8,0:0:0:0:
256,192,39146,1,8,0:0:0:0:
256,192,39887,1,8,0:0:0:0:
256,192,40257,1,0,0:0:0:0:
256,192,40628,1,8,0:0:0:0:
256,192,41369,1,0,0:0:0:0:
256,192,41739,1,8,0:0:0:0:
256,192,42109,12,0,42665,0:0:0:0:
256,192,42850,5,8,0:0:0:0:
256,192,43220,1,8,0:0:0:0:
256,192,43591,1,0,0:0:0:0:
256,192,44331,1,8,0:0:0:0:
256,192,44702,1,8,0:0:0:0:
256,192,45072,12,0,45628,0:0:0:0:
256,192,45813,5,0,0:0:0:0:
256,192,46183,1,0,0:0:0:0:
256,192,46554,1,0,0:0:0:0:
256,192,46924,1,0,0:0:0:0:
256,192,47294,5,0,0:0:0:0:
256,192,48035,1,8,0:0:0:0:
256,192,48776,1,8,0:0:0:0:
256,192,49887,1,8,0:0:0:0:
256,192,50257,1,8,0:0:0:0:
256,192,50998,1,0,0:0:0:0:
256,192,51369,1,0,0:0:0:0:
256,192,51739,1,8,0:0:0:0:
256,192,52850,1,8,0:0:0:0:
256,192,53220,1,8,0:0:0:0:
256,192,53961,1,0,0:0:0:0:
256,192,54331,1,0,0:0:0:0:
256,192,54702,1,8,0:0:0:0:
256,192,55813,1,8,0:0:0:0:
256,192,56183,1,8,0:0:0:0:
256,192,56924,1,8,0:0:0:0:
256,192,57294,1,0,0:0:0:0:
256,192,57665,1,8,0:0:0:0:
256,192,58406,1,8,0:0:0:0:
256,192,59146,12,0,60257,0:0:0:0:
256,192,60628,5,8,0:0:0:0:
256,192,61739,1,0,0:0:0:0:
256,192,62850,1,8,0:0:0:0:
256,192,63405,1,0,0:0:0:0:
256,192,63961,1,8,0:0:0:0:
256,192,65072,1,8,0:0:0:0:
256,192,66183,1,0,0:0:0:0:
256,192,67294,1,8,0:0:0:0:
256,192,67850,1,0,0:0:0:0:
256,192,68405,2,0,B|352:192|352:96|32:96|32:128,1,351.233934989322
256,192,69516,1,0,0:0:0:0:
256,192,69887,1,0,0:0:0:0:
256,192,70257,1,0,0:0:0:0:
256,192,70627,2,0,L|160:128,4,70.2467869978645
256,192,71739,1,0,0:0:0:0:
256,192,72109,1,0,0:0:0:0:
256,192,72479,1,0,0:0:0:0:
256,192,72850,2,0,L|192:96,4,70.2467869978645
256,192,73961,1,0,0:0:0:0:
256,192,74516,1,8,0:0:0:0:
256,192,75072,1,0,0:0:0:0:
256,192,75627,1,8,0:0:0:0:
256,192,76183,1,0,0:0:0:0:
256,192,77294,1,0,0:0:0:0:
256,192,78035,1,8,0:0:0:0:
256,192,78405,1,0,0:0:0:0:
256,192,79145,1,0,0:0:0:0:
256,192,79516,1,8,0:0:0:0:
256,192,79886,1,0,0:0:0:0:
256,192,80627,1,0,0:0:0:0:
256,192,80997,1,0,0:0:0:0:
256,192,81367,1,0,0:0:0:0:
256,192,82108,1,0,0:0:0:0:
256,192,82479,1,8,0:0:0:0:
256,192,82849,1,8,0:0:0:0:
256,192,83590,1,0,0:0:0:0:
256,192,83960,1,8,0:0:0:0:
256,192,84330,1,0,0:0:0:0:
256,192,85070,1,0,0:0:0:0:
256,192,85441,1,8,0:0:0:0:
256,192,85811,1,0,0:0:0:0:
256,192,86553,1,0,0:0:0:0:
256,192,86923,1,0,0:0:0:0:
256,192,87293,1,0,0:0:0:0:
256,192,88034,1,0,0:0:0:0:
256,192,88405,1,8,0:0:0:0:
256,192,88775,12,0,89516,0:0:0:0:
256,192,89886,5,8,0:0:0:0:
256,192,90256,1,0,0:0:0:0:
256,192,90997,1,0,0:0:0:0:
256,192,91367,1,8,0:0:0:0:
256,192,91738,1,0,0:0:0:0:
256,192,92479,1,0,0:0:0:0:
256,192,92849,1,0,0:0:0:0:
256,192,93219,1,0,0:0:0:0:
256,192,93960,1,0,0:0:0:0:
256,192,94330,1,8,0:0:0:0:
256,192,94701,1,8,0:0:0:0:
256,192,95442,1,8,0:0:0:0:
256,192,95812,1,8,0:0:0:0:
256,192,96182,1,0,0:0:0:0:
256,192,96923,1,0,0:0:0:0:
256,192,97293,1,8,0:0:0:0:
256,192,97664,1,0,0:0:0:0:
256,192,98404,1,0,0:0:0:0:
256,192,98775,1,8,0:0:0:0:
256,192,99145,1,0,0:0:0:0:
256,192,99886,1,0,0:0:0:0:
256,192,100627,12,0,101738,0:0:0:0:
256,192,102108,5,8,0:0:0:0:
256,192,103219,1,8,0:0:0:0:
256,192,103589,1,8,0:0:0:0:
256,192,104330,1,0,0:0:0:0:
256,192,104701,1,0,0:0:0:0:
256,192,105071,1,8,0:0:0:0:
256,192,106182,1,8,0:0:0:0:
256,192,106552,1,8,0:0:0:0:
256,192,107293,1,0,0:0:0:0:
256,192,107664,1,0,0:0:0:0:
256,192,108034,1,8,0:0:0:0:
256,192,109145,1,8,0:0:0:0:
256,192,109515,1,8,0:0:0:0:
256,192,110256,1,0,0:0:0:0:
256,192,110626,1,8,0:0:0:0:
256,192,110997,1,8,0:0:0:0:
256,192,111738,1,8,0:0:0:0:
256,192,112479,2,0,L|416:192,2,140.493573995729
256,192,113590,1,0,0:0:0:0:
256,192,113960,1,0,0:0:0:0:
256,192,114330,1,8,0:0:0:0:
256,192,114886,1,8,0:0:0:0:
256,192,115442,1,8,0:0:0:0:
256,192,115627,12,0,116182,0:0:0:0:
256,192,116553,5,0,0:0:0:0:
