osu file format v14

[General]
AudioFilename: Shiron + xi - Magical Toy Box.mp3
AudioLeadIn: 0
PreviewTime: 26579
Countdown: 0
SampleSet: Soft
StackLeniency: 0.7
Mode: 3
LetterboxInBreaks: 0
SpecialStyle: 0
WidescreenStoryboard: 0

[Editor]
DistanceSpacing: 1.4
BeatDivisor: 4
GridSize: 4
TimelineZoom: 1.5

[Metadata]
Title:Magical Toy Box
TitleUnicode:Magical Toy Box
Artist:Shiron + xi
ArtistUnicode:Shiron + xi
Creator:Amiichii
Version:Normal
Source:VOEZ
Tags:jazz hardcore fusion cytoid 最終日はやはりお祭り曲こそ相応しい!! 神曲神譜面に震えろ! Happy 6th anniversary Rayark & 7days New song Festival!!!
BeatmapID:1686241
BeatmapSetID:803018

[Difficulty]
HPDrainRate:7.5
CircleSize:4
OverallDifficulty:7.5
ApproachRate:9
SliderMultiplier:1.4
SliderTickRate:1

[Events]
//Background and Video events
0,0,"IMG_2573.jpg",0,0
//Break Periods
//Storyboard Layer 0 (Background)
//Storyboard Layer 1 (Fail)
//Storyboard Layer 2 (Pass)
//Storyboard Layer 3 (Foreground)
//Storyboard Sound Samples
Sample,71905,0,"soft-hitclap99.wav",70

[TimingPoints]
1797,326.086956521739,4,2,1,45,1,0
26579,-100,4,2,1,45,0,1
36199,-100,4,2,1,45,0,0
37014,-100,4,2,1,45,0,1
47449,-100,4,2,1,45,0,0
72231,-100,4,2,1,45,0,1
95710,-100,4,2,1,45,0,0
129949,-100,4,2,1,45,0,1
140383,-100,4,2,1,45,0,0

[HitObjects]
64,192,1797,5,0,0:0:0:0:
192,192,1960,1,0,0:0:0:0:
320,192,2123,1,0,0:0:0:0:
192,192,2286,1,0,0:0:0:0:
448,192,2449,1,0,0:0:0:0:
320,192,2693,1,0,0:0:0:0:
192,192,2938,1,0,0:0:0:0:
64,192,3101,1,0,0:0:0:0:
320,192,3264,1,0,0:0:0:0:
192,192,3427,1,0,0:0:0:0:
448,192,3590,1,0,0:0:0:0:
320,192,3753,1,0,0:0:0:0:
448,192,4405,1,0,0:0:0:0:
64,192,4568,1,0,0:0:0:0:
192,192,4731,1,0,0:0:0:0:
320,192,4894,1,0,0:0:0:0:
448,192,5057,1,0,0:0:0:0:
64,192,5383,1,0,0:0:0:0:
320,192,5710,1,0,0:0:0:0:
192,192,5873,1,0,0:0:0:0:
320,192,6036,1,0,0:0:0:0:
64,192,6199,1,0,0:0:0:0:
448,192,6362,1,0,0:0:0:0:
192,192,6688,1,0,0:0:0:0:
448,192,7014,1,0,0:0:0:0:
64,192,7829,1,0,0:0:0:0:
192,192,7992,1,0,0:0:0:0:
448,192,8155,1,0,0:0:0:0:
64,192,8318,1,4,0:0:0:0:
192,192,8318,1,2,0:0:0:0:
320,192,8481,1,4,0:0:0:0:
448,192,8481,1,2,0:0:0:0:
192,192,8644,1,0,0:0:0:0:
320,192,8807,1,0,0:0:0:0:
64,192,8970,1,2,0:0:0:0:
448,192,8970,1,0,0:0:0:0:
320,192,9296,1,10,0:0:0:0:
192,192,9296,1,4,0:0:0:0:
64,192,9623,1,4,0:0:0:0:
192,192,9623,1,2,0:0:0:0:
320,192,9786,1,2,0:0:0:0:
448,192,9786,1,4,0:0:0:0:
64,192,9949,1,0,0:0:0:0:
448,192,10112,1,0,0:0:0:0:
192,192,10275,1,2,0:0:0:0:
320,192,10275,1,0,0:0:0:0:
448,192,10601,1,10,0:0:0:0:
64,192,10601,1,4,0:0:0:0:
448,192,10927,1,4,0:0:0:0:
192,192,10927,1,2,0:0:0:0:
320,192,11090,1,2,0:0:0:0:
192,192,11253,1,2,0:0:0:0:
320,192,11416,1,2,0:0:0:0:
64,192,11579,1,10,0:0:0:0:
448,192,11742,128,10,11905:0:0:0:0:
64,192,11905,1,10,0:0:0:0:
192,192,12068,128,10,12231:0:0:0:0:
320,192,12231,1,4,0:0:0:0:
448,192,12231,1,2,0:0:0:0:
192,192,12394,1,4,0:0:0:0:
64,192,12394,1,2,0:0:0:0:
320,192,12557,1,4,0:0:0:0:
448,192,12557,1,2,0:0:0:0:
192,192,12720,1,2,0:0:0:0:
64,192,12720,128,4,13210:0:0:0:0:
320,192,13210,128,4,13536:0:0:0:0:
448,192,13536,1,4,0:0:0:0:
64,192,13536,1,2,0:0:0:0:
192,192,13699,1,0,0:0:0:0:
320,192,13862,1,0,0:0:0:0:
192,192,14025,1,0,0:0:0:0:
320,192,14188,1,2,0:0:0:0:
448,192,14351,1,2,0:0:0:0:
64,192,14514,1,2,0:0:0:0:
192,192,14677,1,2,0:0:0:0:
320,192,14840,1,6,0:0:0:0:
448,192,15003,1,2,0:0:0:0:
64,192,15166,1,2,0:0:0:0:
320,192,15329,1,6,0:0:0:0:
192,192,15492,1,4,0:0:0:0:
64,192,15492,1,2,0:0:0:0:
320,192,15655,1,2,0:0:0:0:
448,192,15655,1,4,0:0:0:0:
192,192,15818,128,0,16144:0:0:0:0:
64,192,16144,1,2,0:0:0:0:
448,192,16144,1,4,0:0:0:0:
320,192,16307,1,2,0:0:0:0:
192,192,16470,1,10,0:0:0:0:
448,192,16715,1,2,0:0:0:0:
64,192,16796,1,2,0:0:0:0:
320,192,16960,1,2,0:0:0:0:
192,192,17123,1,10,0:0:0:0:
448,192,17286,1,2,0:0:0:0:
192,192,17612,1,2,0:0:0:0:
448,192,17775,1,10,0:0:0:0:
320,192,18019,1,2,0:0:0:0:
64,192,18101,1,2,0:0:0:0:
192,192,18264,1,2,0:0:0:0:
448,192,18427,1,10,0:0:0:0:
192,192,18753,1,2,0:0:0:0:
320,192,18916,1,2,0:0:0:0:
64,192,19079,1,10,0:0:0:0:
320,192,19324,1,2,0:0:0:0:
64,192,19405,1,2,0:0:0:0:
192,192,19568,1,2,0:0:0:0:
448,192,19731,1,10,0:0:0:0:
64,192,19894,1,2,0:0:0:0:
192,192,20220,1,2,0:0:0:0:
448,192,20383,1,10,0:0:0:0:
320,192,20628,1,2,0:0:0:0:
192,192,20710,1,2,0:0:0:0:
448,192,20873,1,2,0:0:0:0:
64,192,21036,1,10,0:0:0:0:
320,192,21199,1,10,0:0:0:0:
192,192,21362,1,2,0:0:0:0:
64,192,21362,1,8,0:0:0:0:
192,192,21688,1,8,0:0:0:0:
64,192,21688,1,0,0:0:0:0:
192,192,22014,1,8,0:0:0:0:
64,192,22014,1,0,0:0:0:0:
192,192,22340,1,8,0:0:0:0:
64,192,22340,1,0,0:0:0:0:
448,192,22666,1,8,0:0:0:0:
320,192,22666,1,0,0:0:0:0:
448,192,22992,1,8,0:0:0:0:
320,192,22992,1,0,0:0:0:0:
448,192,23318,1,8,0:0:0:0:
320,192,23318,1,0,0:0:0:0:
448,192,23644,1,8,0:0:0:0:
320,192,23644,1,0,0:0:0:0:
64,192,23970,128,2,25275:0:0:0:0:
192,192,23970,1,8,0:0:0:0:
320,192,24133,1,10,0:0:0:0:
448,192,24296,1,10,0:0:0:0:
192,192,24460,1,10,0:0:0:0:
320,192,24623,1,10,0:0:0:0:
448,192,24786,1,10,0:0:0:0:
192,192,24949,1,10,0:0:0:0:
448,192,25112,1,10,0:0:0:0:
320,192,25275,128,14,25927:0:0:0:0:
64,192,25927,128,0,26253:0:0:0:0:
448,192,26253,128,0,26579:0:0:0:70:soft-hitclap99.wav
192,192,26579,1,8,0:0:0:0:
64,192,26579,1,6,0:0:0:0:
320,192,26905,1,2,0:0:0:0:
448,192,26905,1,0,0:0:0:0:
64,192,27231,1,2,0:0:0:0:
192,192,27231,1,0,0:0:0:0:
320,192,27557,1,2,0:0:0:0:
448,192,27557,1,0,0:0:0:0:
192,192,27720,1,2,0:0:0:0:
64,192,27720,1,0,0:0:0:0:
64,192,28046,1,2,0:0:0:0:
448,192,28046,1,0,0:0:0:0:
320,192,28373,1,2,0:0:0:0:
192,192,28373,1,0,0:0:0:0:
448,192,28699,1,2,0:0:0:0:
64,192,28862,128,2,29188:0:0:0:0:
192,192,29188,1,2,0:0:0:0:
448,192,29188,1,0,0:0:0:0:
320,192,29514,1,2,0:0:0:0:
448,192,29514,1,0,0:0:0:0:
64,192,29840,1,2,0:0:0:0:
192,192,29840,1,0,0:0:0:0:
448,192,30166,1,0,0:0:0:0:
64,192,30166,1,2,0:0:0:0:
192,192,30329,1,2,0:0:0:0:
448,192,30492,1,0,0:0:0:0:
320,192,30492,1,2,0:0:0:0:
320,192,30818,1,2,0:0:0:0:
192,192,30818,1,0,0:0:0:0:
64,192,31144,1,2,0:0:0:0:
192,192,31144,1,0,0:0:0:0:
320,192,31389,1,2,0:0:0:0:
64,192,31470,1,0,0:0:0:0:
448,192,31470,1,2,0:0:0:0:
192,192,31633,1,2,0:0:0:0:
320,192,31796,1,4,0:0:0:0:
448,192,31796,1,2,0:0:0:0:
448,192,32123,1,8,0:0:0:0:
64,192,32123,1,2,0:0:0:0:
192,192,32449,1,2,0:0:0:0:
320,192,32612,1,2,0:0:0:0:
448,192,32775,1,8,0:0:0:0:
192,192,32775,1,2,0:0:0:0:
64,192,32938,1,2,0:0:0:0:
192,192,33101,1,4,0:0:0:0:
320,192,33101,1,2,0:0:0:0:
448,192,33264,1,4,0:0:0:0:
64,192,33264,1,2,0:0:0:0:
192,192,33427,1,2,0:0:0:0:
320,192,33427,1,4,0:0:0:0:
448,192,33590,1,4,0:0:0:0:
64,192,33590,1,2,0:0:0:0:
192,192,33916,1,0,0:0:0:0:
448,192,34079,1,2,0:0:0:0:
320,192,34079,1,8,0:0:0:0:
192,192,34242,1,0,0:0:0:0:
64,192,34405,1,2,0:0:0:0:
192,192,34731,1,2,0:0:0:0:
320,192,34731,1,8,0:0:0:0:
192,192,34894,1,0,0:0:0:0:
448,192,35057,1,2,0:0:0:0:
448,192,35220,1,2,0:0:0:0:
64,192,35383,1,10,0:0:0:0:
192,192,35383,1,0,0:0:0:0:
320,192,35546,1,2,0:0:0:0:
448,192,35710,1,10,0:0:0:0:
64,192,35873,1,10,0:0:0:0:
320,192,36036,1,10,0:0:0:0:
192,192,36199,1,10,0:0:0:0:
448,192,36525,1,0,0:0:0:0:
64,192,36688,128,0,37014:0:0:0:0:
320,192,37014,1,12,0:0:0:0:
448,192,37014,1,2,0:0:0:0:
192,192,37340,1,2,0:0:0:0:
64,192,37340,1,8,0:0:0:0:
448,192,37666,1,2,0:0:0:0:
192,192,37992,1,2,0:0:0:0:
320,192,37992,1,8,0:0:0:0:
64,192,38155,1,2,0:0:0:0:
320,192,38481,1,2,0:0:0:0:
64,192,38644,1,2,0:0:0:0:
448,192,38644,1,8,0:0:0:0:
192,192,38807,1,2,0:0:0:0:
448,192,39133,1,2,0:0:0:0:
192,192,39296,1,2,0:0:0:0:
64,192,39296,1,8,0:0:0:0:
320,192,39460,1,2,0:0:0:0:
64,192,39623,1,2,0:0:0:0:
448,192,39949,1,2,0:0:0:0:
320,192,39949,1,8,0:0:0:0:
64,192,40275,1,2,0:0:0:0:
320,192,40438,1,2,0:0:0:0:
192,192,40601,1,8,0:0:0:0:
64,192,40601,1,2,0:0:0:0:
448,192,40764,1,2,0:0:0:0:
192,192,41090,1,2,0:0:0:0:
64,192,41253,1,2,0:0:0:0:
448,192,41253,1,8,0:0:0:0:
320,192,41416,1,10,0:0:0:0:
448,192,41742,1,10,0:0:0:0:
64,192,41905,1,2,0:0:0:0:
320,192,41905,1,8,0:0:0:0:
192,192,42068,1,2,0:0:0:0:
448,192,42231,1,2,0:0:0:0:
64,192,42557,1,8,0:0:0:0:
192,192,42557,1,2,0:0:0:0:
64,192,42720,1,0,0:0:0:0:
448,192,42883,1,2,0:0:0:0:
320,192,43046,1,2,0:0:0:0:
64,192,43210,1,8,0:0:0:0:
448,192,43210,1,2,0:0:0:0:
192,192,43373,1,2,0:0:0:0:
448,192,43536,1,8,0:0:0:0:
320,192,43536,1,2,0:0:0:0:
64,192,43699,1,8,0:0:0:0:
192,192,43699,1,2,0:0:0:0:
448,192,43862,1,8,0:0:0:0:
320,192,43862,1,2,0:0:0:0:
192,192,44025,1,8,0:0:0:0:
64,192,44025,1,2,0:0:0:0:
320,192,44351,1,0,0:0:0:0:
192,192,44514,1,8,0:0:0:0:
448,192,44514,1,2,0:0:0:0:
64,192,44677,1,2,0:0:0:0:
448,192,44840,1,2,0:0:0:0:
448,192,45003,1,0,0:0:0:0:
320,192,45166,1,8,0:0:0:0:
192,192,45166,1,2,0:0:0:0:
320,192,45329,1,0,0:0:0:0:
64,192,45492,1,2,0:0:0:0:
64,192,45655,1,0,0:0:0:0:
448,192,45818,1,8,0:0:0:0:
320,192,45818,1,2,0:0:0:0:
448,192,45981,1,0,0:0:0:0:
192,192,46144,1,10,0:0:0:0:
192,192,46307,1,10,0:0:0:0:
320,192,46470,1,2,0:0:0:0:
448,192,46470,1,8,0:0:0:0:
64,192,46633,1,10,0:0:0:0:
192,192,46960,1,10,0:0:0:0:
448,192,47123,128,8,47449:0:0:0:0:
320,192,47123,1,2,0:0:0:0:
64,192,47449,1,6,0:0:0:0:
320,192,47775,128,0,48101:0:0:0:0:
192,192,48101,128,0,48427:0:0:0:0:
64,192,48427,128,0,48753:0:0:0:0:
448,192,48753,1,4,0:0:0:0:
320,192,48753,1,2,0:0:0:0:
192,192,48916,1,0,0:0:0:0:
320,192,49079,1,0,0:0:0:0:
64,192,49242,1,2,0:0:0:0:
192,192,49242,1,4,0:0:0:0:
448,192,49405,1,0,0:0:0:0:
192,192,49568,1,0,0:0:0:0:
448,192,49731,1,2,0:0:0:0:
64,192,49731,1,4,0:0:0:0:
320,192,50057,1,2,0:0:0:0:
192,192,50383,128,0,50710:0:0:0:0:
448,192,50710,1,0,0:0:0:0:
320,192,50873,1,0,0:0:0:0:
64,192,51036,128,0,51362:0:0:0:0:
320,192,51362,1,4,0:0:0:0:
448,192,51362,1,2,0:0:0:0:
64,192,51688,128,0,51932:0:0:0:0:
448,192,51932,1,0,0:0:0:0:
192,192,52014,1,0,0:0:0:0:
320,192,52177,1,0,0:0:0:0:
64,192,52340,1,0,0:0:0:0:
448,192,52503,1,0,0:0:0:0:
192,192,52666,128,0,52992:0:0:0:0:
320,192,52992,1,0,0:0:0:0:
64,192,53155,1,0,0:0:0:0:
448,192,53318,128,0,53563:0:0:0:0:
192,192,53563,128,0,53807:0:0:0:0:
320,192,53807,1,0,0:0:0:0:
64,192,53970,128,4,54296:0:0:0:0:
448,192,54296,128,0,54623:0:0:0:0:
192,192,54623,128,4,54949:0:0:0:0:
448,192,54949,128,0,55275:0:0:0:0:
64,192,55275,128,4,55601:0:0:0:0:
448,192,55601,128,0,55927:0:0:0:0:
192,192,55927,128,4,56171:0:0:0:0:
64,192,56171,128,0,56416:0:0:0:0:
320,192,56416,1,0,0:0:0:0:
192,192,56579,1,4,0:0:0:0:
448,192,56905,1,0,0:0:0:0:
64,192,57068,1,0,0:0:0:0:
192,192,57394,1,0,0:0:0:0:
448,192,57557,1,0,0:0:0:0:
192,192,57720,1,0,0:0:0:0:
448,192,57883,128,4,58101:0:0:0:0:
64,192,58101,128,0,58318:0:0:0:0:
320,192,58318,1,0,0:0:0:0:
192,192,58536,128,0,58753:0:0:0:0:
448,192,58753,128,0,58970:0:0:0:0:
64,192,58970,1,0,0:0:0:0:
320,192,59188,1,2,0:0:0:0:
192,192,59188,1,4,0:0:0:0:
448,192,59351,1,0,0:0:0:0:
192,192,59514,1,0,0:0:0:0:
320,192,59677,1,4,0:0:0:0:
64,192,59677,1,2,0:0:0:0:
448,192,59840,1,0,0:0:0:0:
192,192,60003,1,0,0:0:0:0:
320,192,60166,1,4,0:0:0:0:
448,192,60166,1,2,0:0:0:0:
192,192,60655,1,0,0:0:0:0:
448,192,60818,128,6,61144:0:0:0:0:
64,192,61144,1,0,0:0:0:0:
192,192,61307,1,0,0:0:0:0:
320,192,61470,1,0,0:0:0:0:
192,192,61633,1,0,0:0:0:0:
448,192,61796,128,6,62014:0:0:0:0:
320,192,62014,1,0,0:0:0:0:
192,192,62123,1,0,0:0:0:0:
64,192,62231,1,0,0:0:0:0:
448,192,62340,1,0,0:0:0:0:
320,192,62449,1,10,0:0:0:0:
64,192,62612,1,0,0:0:0:0:
448,192,62775,1,0,0:0:0:0:
192,192,62938,1,2,0:0:0:0:
320,192,63101,128,2,63427:0:0:0:0:
64,192,63427,1,0,0:0:0:0:
192,192,63590,1,2,0:0:0:0:
448,192,63753,128,10,63998:0:0:0:0:
192,192,63998,128,0,64242:0:0:0:0:
320,192,64242,1,0,0:0:0:0:
64,192,64405,128,2,64731:0:0:0:0:
448,192,64731,128,2,65057:0:0:0:0:
64,192,65057,128,10,65383:0:0:0:0:
320,192,65383,128,0,65710:0:0:0:0:
192,192,65710,128,10,66036:0:0:0:0:
64,192,66036,128,2,66362:0:0:0:0:
448,192,66362,128,10,66688:0:0:0:0:
192,192,66688,128,2,67014:0:0:0:0:
320,192,67014,128,6,67340:0:0:0:0:
64,192,67340,1,0,0:0:0:0:
448,192,67503,1,0,0:0:0:0:
448,192,67829,1,0,0:0:0:0:
64,192,67992,1,0,0:0:0:0:
448,192,68155,1,0,0:0:0:0:
192,192,68318,1,2,0:0:0:0:
320,192,68481,1,0,0:0:0:0:
64,192,68644,1,2,0:0:0:0:
448,192,68807,1,0,0:0:0:0:
64,192,68970,1,2,0:0:0:0:
320,192,69133,1,0,0:0:0:0:
192,192,69296,1,2,0:0:0:0:
320,192,69460,1,0,0:0:0:0:
64,192,69623,1,6,0:0:0:0:
64,192,69786,1,6,0:0:0:0:
448,192,69949,1,6,0:0:0:0:
448,192,70112,1,6,0:0:0:0:
192,192,70438,1,0,0:0:0:0:
320,192,70601,1,0,0:0:0:0:
448,192,70927,128,6,71253:0:0:0:0:
320,192,71253,128,6,71579:0:0:0:0:
192,192,71579,128,6,71905:0:0:0:0:
64,192,71905,128,2,72231:0:0:0:0:
320,192,72231,1,10,0:0:0:0:
448,192,72231,128,4,73210:0:0:0:0:
192,192,72557,1,2,0:0:0:0:
320,192,72883,1,2,0:0:0:0:
64,192,73210,1,2,0:0:0:0:
64,192,73373,128,0,74514:0:0:0:0:
448,192,73536,1,2,0:0:0:0:
320,192,73862,1,2,0:0:0:0:
320,192,74025,1,0,0:0:0:0:
192,192,74188,1,2,0:0:0:0:
448,192,74514,1,2,0:0:0:0:
192,192,74677,128,2,75655:0:0:0:0:
320,192,74840,1,2,0:0:0:0:
64,192,75166,1,2,0:0:0:0:
320,192,75492,1,2,0:0:0:0:
448,192,75655,1,0,0:0:0:0:
448,192,75818,1,2,0:0:0:0:
64,192,75981,1,0,0:0:0:0:
64,192,76144,128,2,76470:0:0:0:0:
192,192,76470,128,2,76796:0:0:0:0:
320,192,76796,128,2,77123:0:0:0:0:
448,192,77123,128,2,77449:0:0:0:0:
192,192,77286,1,2,0:0:0:0:
64,192,77449,128,2,78427:0:0:0:0:
320,192,77775,1,8,0:0:0:0:
192,192,77775,1,2,0:0:0:0:
448,192,78101,1,2,0:0:0:0:
192,192,78427,1,8,0:0:0:0:
320,192,78427,1,2,0:0:0:0:
448,192,78590,128,0,79242:0:0:0:0:
64,192,78753,1,2,0:0:0:0:
192,192,79079,1,8,0:0:0:0:
320,192,79079,1,2,0:0:0:0:
192,192,79405,1,8,0:0:0:0:
64,192,79405,1,2,0:0:0:0:
448,192,79650,1,10,0:0:0:0:
64,192,79894,1,10,0:0:0:0:
448,192,80057,1,2,0:0:0:0:
320,192,80057,1,4,0:0:0:0:
192,192,80383,128,8,80710:0:0:0:0:
64,192,80383,1,2,0:0:0:0:
320,192,80546,1,0,0:0:0:0:
448,192,80710,1,2,0:0:0:0:
64,192,81036,1,8,0:0:0:0:
448,192,81036,1,2,0:0:0:0:
192,192,81199,1,2,0:0:0:0:
448,192,81525,1,0,0:0:0:0:
448,192,81688,1,8,0:0:0:0:
64,192,81688,1,2,0:0:0:0:
192,192,81851,1,2,0:0:0:0:
320,192,82014,128,8,82258:0:0:0:0:
448,192,82014,1,2,0:0:0:0:
192,192,82258,128,8,82503:0:0:0:0:
64,192,82503,1,8,0:0:0:0:
448,192,82666,128,0,82992:0:0:0:0:
192,192,82992,1,12,0:0:0:0:
64,192,82992,1,2,0:0:0:0:
320,192,83318,1,2,0:0:0:0:
320,192,83644,1,8,0:0:0:0:
448,192,83644,1,2,0:0:0:0:
64,192,83807,1,2,0:0:0:0:
448,192,83970,1,2,0:0:0:0:
320,192,84296,1,2,0:0:0:0:
64,192,84296,1,8,0:0:0:0:
192,192,84623,1,2,0:0:0:0:
448,192,84867,1,2,0:0:0:0:
64,192,84949,1,2,0:0:0:0:
192,192,84949,1,8,0:0:0:0:
320,192,85112,1,2,0:0:0:0:
64,192,85275,1,2,0:0:0:0:
448,192,85601,1,2,0:0:0:0:
320,192,85601,1,8,0:0:0:0:
192,192,85927,1,2,0:0:0:0:
448,192,86171,1,0,0:0:0:0:
192,192,86253,1,2,0:0:0:0:
64,192,86253,1,8,0:0:0:0:
320,192,86416,1,2,0:0:0:0:
192,192,86579,1,2,0:0:0:0:
320,192,86905,1,2,0:0:0:0:
448,192,86905,1,8,0:0:0:0:
64,192,87231,1,2,0:0:0:0:
192,192,87557,1,2,0:0:0:0:
448,192,87557,1,8,0:0:0:0:
64,192,87720,1,2,0:0:0:0:
448,192,87883,1,2,0:0:0:0:
448,192,88046,1,2,0:0:0:0:
64,192,88210,1,2,0:0:0:0:
192,192,88210,1,8,0:0:0:0:
320,192,88373,1,2,0:0:0:0:
192,192,88536,128,2,88862:0:0:0:0:
448,192,88862,1,8,0:0:0:0:
64,192,88862,1,2,0:0:0:0:
192,192,89188,1,2,0:0:0:0:
192,192,89351,1,2,0:0:0:0:
320,192,89514,1,2,0:0:0:0:
448,192,89514,1,8,0:0:0:0:
64,192,89677,1,2,0:0:0:0:
448,192,89840,128,2,90166:0:0:0:0:
64,192,90166,1,2,0:0:0:0:
192,192,90166,1,8,0:0:0:0:
320,192,90492,1,2,0:0:0:0:
192,192,90655,1,2,0:0:0:0:
64,192,90818,1,2,0:0:0:0:
448,192,90818,1,8,0:0:0:0:
320,192,90981,1,2,0:0:0:0:
192,192,91144,1,10,0:0:0:0:
320,192,91307,1,10,0:0:0:0:
64,192,91470,1,2,0:0:0:0:
448,192,91470,1,8,0:0:0:0:
64,192,91633,1,10,0:0:0:0:
320,192,91796,1,4,0:0:0:0:
448,192,91796,1,2,0:0:0:0:
64,192,91960,1,4,0:0:0:0:
192,192,91960,1,2,0:0:0:0:
448,192,92123,1,4,0:0:0:0:
320,192,92123,1,2,0:0:0:0:
192,192,92286,128,4,92612:0:0:0:0:
64,192,92286,1,2,0:0:0:0:
448,192,92612,1,0,0:0:0:0:
64,192,92775,128,2,93101:0:0:0:0:
320,192,93101,1,0,0:0:0:0:
192,192,93427,1,4,0:0:0:0:
64,192,93427,1,2,0:0:0:0:
448,192,93753,128,2,94079:0:0:0:0:
320,192,94079,1,2,0:0:0:0:
64,192,94079,1,4,0:0:0:0:
192,192,94242,1,2,0:0:0:0:
448,192,94568,1,2,0:0:0:0:
64,192,94813,1,2,0:0:0:0:
320,192,95057,1,10,0:0:0:0:
192,192,95302,1,10,0:0:0:0:
448,192,95546,1,10,0:0:0:0:
64,192,95710,128,2,96036:0:0:0:0:
192,192,96036,1,10,0:0:0:0:
320,192,96036,1,4,0:0:0:0:
448,192,96199,1,0,0:0:0:0:
64,192,96362,1,2,0:0:0:0:
192,192,96525,1,0,0:0:0:0:
448,192,96688,1,10,0:0:0:0:
320,192,96851,1,0,0:0:0:0:
192,192,97014,1,2,0:0:0:0:
448,192,97177,1,0,0:0:0:0:
448,192,97340,1,10,0:0:0:0:
64,192,97503,1,0,0:0:0:0:
64,192,97666,1,2,0:0:0:0:
320,192,97829,1,0,0:0:0:0:
448,192,97992,1,10,0:0:0:0:
192,192,98155,1,0,0:0:0:0:
64,192,98318,1,2,0:0:0:0:
320,192,98481,1,0,0:0:0:0:
192,192,98644,1,10,0:0:0:0:
448,192,98807,1,0,0:0:0:0:
320,192,98970,1,2,0:0:0:0:
64,192,99133,1,0,0:0:0:0:
448,192,99296,1,10,0:0:0:0:
192,192,99460,1,0,0:0:0:0:
320,192,99623,1,2,0:0:0:0:
448,192,99949,1,8,0:0:0:0:
192,192,99949,1,2,0:0:0:0:
320,192,100275,1,2,0:0:0:0:
64,192,100601,1,8,0:0:0:0:
448,192,100601,1,2,0:0:0:0:
320,192,100764,1,2,0:0:0:0:
192,192,100927,1,2,0:0:0:0:
448,192,101090,1,0,0:0:0:0:
320,192,101253,1,10,0:0:0:0:
64,192,101416,1,0,0:0:0:0:
448,192,101579,1,2,0:0:0:0:
320,192,101742,1,0,0:0:0:0:
64,192,101905,1,10,0:0:0:0:
192,192,102068,1,0,0:0:0:0:
448,192,102231,1,2,0:0:0:0:
448,192,102394,1,0,0:0:0:0:
192,192,102557,1,10,0:0:0:0:
192,192,102720,1,0,0:0:0:0:
320,192,103046,1,0,0:0:0:0:
64,192,103210,1,10,0:0:0:0:
192,192,103373,1,0,0:0:0:0:
448,192,103536,1,2,0:0:0:0:
320,192,103699,1,2,0:0:0:0:
64,192,103862,1,10,0:0:0:0:
320,192,104025,1,2,0:0:0:0:
192,192,104188,1,2,0:0:0:0:
448,192,104351,1,6,0:0:0:0:
320,192,104514,1,10,0:0:0:0:
64,192,104677,1,6,0:0:0:0:
192,192,104840,1,0,0:0:0:0:
448,192,105003,1,6,0:0:0:0:
320,192,105248,1,6,0:0:0:0:
192,192,105492,1,6,0:0:0:0:
64,192,105737,1,6,0:0:0:0:
320,192,105981,128,14,106144:0:0:0:0:
64,192,106144,128,0,106470:0:0:0:0:
320,192,106470,1,12,0:0:0:0:
448,192,106470,1,2,0:0:0:0:
192,192,106633,1,0,0:0:0:0:
320,192,106796,1,2,0:0:0:0:
64,192,106960,1,0,0:0:0:0:
320,192,107123,1,10,0:0:0:0:
192,192,107286,1,0,0:0:0:0:
448,192,107449,1,2,0:0:0:0:
320,192,107612,1,0,0:0:0:0:
64,192,107775,1,10,0:0:0:0:
192,192,107938,1,0,0:0:0:0:
320,192,108101,1,2,0:0:0:0:
448,192,108345,1,0,0:0:0:0:
64,192,108590,1,0,0:0:0:0:
320,192,108753,1,2,0:0:0:0:
192,192,108916,1,0,0:0:0:0:
448,192,109079,1,10,0:0:0:0:
64,192,109242,1,0,0:0:0:0:
192,192,109405,1,2,0:0:0:0:
448,192,109568,1,0,0:0:0:0:
320,192,109731,1,10,0:0:0:0:
192,192,109894,1,0,0:0:0:0:
448,192,110057,1,2,0:0:0:0:
320,192,110220,1,0,0:0:0:0:
64,192,110383,1,10,0:0:0:0:
192,192,110546,1,0,0:0:0:0:
448,192,110710,1,2,0:0:0:0:
192,192,110873,1,2,0:0:0:0:
320,192,111036,1,10,0:0:0:0:
192,192,111199,1,2,0:0:0:0:
64,192,111362,1,2,0:0:0:0:
448,192,111362,1,0,0:0:0:0:
320,192,111525,1,0,0:0:0:0:
192,192,111688,1,10,0:0:0:0:
448,192,111851,1,6,0:0:0:0:
320,192,112177,1,6,0:0:0:0:
64,192,112340,1,10,0:0:0:0:
448,192,112503,1,6,0:0:0:0:
192,192,112666,1,0,0:0:0:0:
448,192,112829,1,0,0:0:0:0:
320,192,112992,1,10,0:0:0:0:
64,192,113155,1,2,0:0:0:0:
192,192,113481,1,2,0:0:0:0:
64,192,113644,1,10,0:0:0:0:
448,192,113807,1,2,0:0:0:0:
320,192,114133,1,0,0:0:0:0:
192,192,114296,1,10,0:0:0:0:
64,192,114460,1,0,0:0:0:0:
448,192,114623,1,2,0:0:0:0:
320,192,114786,1,0,0:0:0:0:
64,192,114949,1,10,0:0:0:0:
192,192,115112,1,0,0:0:0:0:
448,192,115275,1,10,0:0:0:0:
448,192,115438,1,10,0:0:0:0:
64,192,115601,1,10,0:0:0:0:
64,192,115764,1,10,0:0:0:0:
320,192,115927,1,10,0:0:0:0:
320,192,116090,1,10,0:0:0:0:
64,192,116253,1,10,0:0:0:0:
64,192,116416,1,10,0:0:0:0:
192,192,116579,1,2,0:0:0:0:
320,192,116742,1,8,0:0:0:0:
448,192,116905,1,10,0:0:0:0:
192,192,117068,1,8,0:0:0:0:
320,192,117231,1,10,0:0:0:0:
64,192,117394,1,8,0:0:0:0:
192,192,117557,1,10,0:0:0:0:
448,192,117720,1,8,0:0:0:0:
320,192,117883,1,10,0:0:0:0:
192,192,118046,1,8,0:0:0:0:
320,192,118210,1,10,0:0:0:0:
448,192,118373,1,8,0:0:0:0:
64,192,118536,1,10,0:0:0:0:
64,192,118699,1,2,0:0:0:0:
320,192,118862,1,0,0:0:0:0:
64,192,119188,128,2,120166:0:0:0:0:
448,192,120166,1,0,0:0:0:0:
448,192,120329,128,0,121470:0:0:0:0:
64,192,120818,1,0,0:0:0:0:
64,192,120981,1,0,0:0:0:0:
192,192,121470,1,0,0:0:0:0:
320,192,121633,128,0,122612:0:0:0:0:
192,192,122123,1,0,0:0:0:0:
192,192,122286,1,0,0:0:0:0:
64,192,122612,1,0,0:0:0:0:
64,192,122775,1,0,0:0:0:0:
320,192,122938,1,8,0:0:0:0:
448,192,123101,128,0,123427:0:0:0:0:
64,192,123427,128,8,123753:0:0:0:0:
320,192,123753,128,8,124079:0:0:0:0:
448,192,124079,128,8,124405:0:0:0:0:
64,192,124405,128,8,125383:0:0:0:0:
320,192,125383,1,0,0:0:0:0:
320,192,125546,128,0,126362:0:0:0:0:
64,192,126362,1,10,0:0:0:0:
448,192,126606,1,10,0:0:0:0:
192,192,126851,1,10,0:0:0:0:
320,192,127014,128,0,127340:0:0:0:0:
64,192,127340,1,10,0:0:0:0:
192,192,127503,1,2,0:0:0:0:
448,192,127666,128,2,127992:0:0:0:0:
64,192,127992,1,2,0:0:0:0:
320,192,128155,128,2,128481:0:0:0:0:
448,192,128481,1,6,0:0:0:0:
64,192,128644,1,6,0:0:0:0:
320,192,128807,1,2,0:0:0:0:
192,192,128970,1,6,0:0:0:0:
448,192,129133,128,8,129296:0:0:0:0:
64,192,129296,1,10,0:0:0:0:
192,192,129460,128,8,129623:0:0:0:0:
320,192,129623,128,0,129949:0:0:0:0:
64,192,129949,1,8,0:0:0:0:
192,192,129949,1,6,0:0:0:0:
448,192,130275,1,2,0:0:0:0:
192,192,130601,1,8,0:0:0:0:
64,192,130601,1,2,0:0:0:0:
320,192,130764,1,2,0:0:0:0:
192,192,130927,1,2,0:0:0:0:
64,192,131253,1,8,0:0:0:0:
448,192,131253,1,2,0:0:0:0:
320,192,131579,1,2,0:0:0:0:
64,192,131824,1,2,0:0:0:0:
448,192,131905,1,8,0:0:0:0:
320,192,131905,1,2,0:0:0:0:
192,192,132068,1,2,0:0:0:0:
448,192,132231,1,2,0:0:0:0:
64,192,132557,1,8,0:0:0:0:
192,192,132557,1,2,0:0:0:0:
448,192,132883,1,2,0:0:0:0:
192,192,133210,1,2,0:0:0:0:
64,192,133210,1,8,0:0:0:0:
320,192,133373,1,2,0:0:0:0:
64,192,133536,1,2,0:0:0:0:
448,192,133862,1,8,0:0:0:0:
192,192,133862,1,2,0:0:0:0:
320,192,134188,1,2,0:0:0:0:
192,192,134514,1,8,0:0:0:0:
64,192,134514,1,2,0:0:0:0:
320,192,134677,1,2,0:0:0:0:
192,192,134840,1,2,0:0:0:0:
192,192,135003,1,2,0:0:0:0:
64,192,135166,1,8,0:0:0:0:
448,192,135166,1,2,0:0:0:0:
320,192,135329,1,2,0:0:0:0:
192,192,135492,128,2,135818:0:0:0:0:
448,192,135818,1,8,0:0:0:0:
320,192,135818,128,2,136144:0:0:0:0:
64,192,136144,1,2,0:0:0:0:
64,192,136307,1,2,0:0:0:0:
448,192,136470,1,8,0:0:0:0:
320,192,136470,1,2,0:0:0:0:
192,192,136633,1,2,0:0:0:0:
64,192,136796,128,2,137123:0:0:0:0:
320,192,137123,1,2,0:0:0:0:
448,192,137123,1,8,0:0:0:0:
192,192,137286,1,0,0:0:0:0:
448,192,137449,128,2,138101:0:0:0:0:
64,192,137612,1,10,0:0:0:0:
192,192,137775,1,10,0:0:0:0:
320,192,137938,1,10,0:0:0:0:
64,192,138101,128,10,138753:0:0:0:0:
192,192,138264,1,10,0:0:0:0:
320,192,138427,1,10,0:0:0:0:
448,192,138590,1,10,0:0:0:0:
192,192,138753,1,14,0:0:0:0:
448,192,138970,1,6,0:0:0:0:
320,192,139188,1,6,0:0:0:0:
64,192,139405,1,6,0:0:0:0:
192,192,139623,1,6,0:0:0:0:
448,192,139840,1,6,0:0:0:0:
192,192,140383,1,4,0:0:0:0:
64,192,140383,128,2,145275:0:0:0:0:
192,192,141362,1,0,0:0:0:0:
320,192,141525,1,0,0:0:0:0:
448,192,141796,1,0,0:0:0:0:
192,192,142014,1,0,0:0:0:0:
448,192,142258,1,0,0:0:0:0:
320,192,142503,1,0,0:0:0:0:
448,192,142666,128,0,145275:0:0:0:0:
320,192,145275,128,6,147883:0:0:0:0:
64,192,147883,1,0,0:0:0:0:
