osu file format v14

[General]
AudioFilename: Shiron + xi - Magical Toy Box.mp3
AudioLeadIn: 0
PreviewTime: 26579
Countdown: 0
SampleSet: Soft
StackLeniency: 0.7
Mode: 3
LetterboxInBreaks: 0
SpecialStyle: 0
WidescreenStoryboard: 0

[Editor]
DistanceSpacing: 1.4
BeatDivisor: 4
GridSize: 4
TimelineZoom: 1.3

[Metadata]
Title:Magical Toy Box
TitleUnicode:Magical Toy Box
Artist:Shiron + xi
ArtistUnicode:Shiron + xi
Creator:Amiichii
Version:Magical
Source:VOEZ
Tags:jazz hardcore fusion cytoid 最終日はやはりお祭り曲こそ相応しい!! 神曲神譜面に震えろ! Happy 6th anniversary Rayark & 7days New song Festival!!!
BeatmapID:1686159
BeatmapSetID:803018

[Difficulty]
HPDrainRate:8.5
CircleSize:4
OverallDifficulty:8.5
ApproachRate:9
SliderMultiplier:1.4
SliderTickRate:1

[Events]
//Background and Video events
0,0,"IMG_2573.jpg",0,0
//Break Periods
//Storyboard Layer 0 (Background)
//Storyboard Layer 1 (Fail)
//Storyboard Layer 2 (Pass)
//Storyboard Layer 3 (Foreground)
//Storyboard Sound Samples

[TimingPoints]
1797,326.086956521739,4,2,1,45,1,0
26579,-100,4,2,1,45,0,1
36199,-100,4,2,1,45,0,0
37014,-100,4,2,1,45,0,1
47449,-100,4,2,1,45,0,0
72231,-100,4,2,1,45,0,1
95710,-100,4,2,1,45,0,0
129949,-100,4,2,1,45,0,1
140383,-100,4,2,1,45,0,0

[HitObjects]
448,192,1797,5,0,0:0:0:0:
64,192,1797,1,0,0:0:0:0:
192,192,1960,1,0,0:0:0:0:
320,192,2123,1,0,0:0:0:0:
448,192,2286,1,0,0:0:0:0:
192,192,2408,1,0,0:0:0:0:
320,192,2449,1,0,0:0:0:0:
448,192,2489,1,0,0:0:0:0:
320,192,2693,1,0,0:0:0:0:
192,192,2938,1,0,0:0:0:0:
64,192,3101,1,0,0:0:0:0:
448,192,3101,1,0,0:0:0:0:
320,192,3264,1,0,0:0:0:0:
192,192,3427,1,0,0:0:0:0:
320,192,3590,1,0,0:0:0:0:
448,192,3753,1,0,0:0:0:0:
320,192,4405,1,0,0:0:0:0:
64,192,4405,1,0,0:0:0:0:
192,192,4568,1,0,0:0:0:0:
448,192,4731,1,0,0:0:0:0:
192,192,4894,1,0,0:0:0:0:
320,192,5057,1,0,0:0:0:0:
64,192,5098,1,0,0:0:0:0:
448,192,5383,1,0,0:0:0:0:
192,192,5710,1,0,0:0:0:0:
64,192,5710,1,0,0:0:0:0:
448,192,5873,1,0,0:0:0:0:
320,192,6036,1,0,0:0:0:0:
64,192,6199,1,0,0:0:0:0:
448,192,6362,1,0,0:0:0:0:
192,192,6688,1,0,0:0:0:0:
64,192,7014,1,0,0:0:0:0:
192,192,7055,1,0,0:0:0:0:
320,192,7095,1,0,0:0:0:0:
448,192,7136,1,0,0:0:0:0:
64,192,7829,1,0,0:0:0:0:
192,192,7829,1,0,0:0:0:0:
320,192,7911,1,0,0:0:0:0:
448,192,7911,1,0,0:0:0:0:
192,192,7992,1,0,0:0:0:0:
64,192,7992,1,0,0:0:0:0:
320,192,8074,1,0,0:0:0:0:
192,192,8155,1,0,0:0:0:0:
320,192,8237,1,0,0:0:0:0:
192,192,8318,1,4,0:0:0:0:
64,192,8318,1,2,0:0:0:0:
448,192,8318,1,0,0:0:0:0:
192,192,8481,1,4,0:0:0:0:
64,192,8481,1,2,0:0:0:0:
448,192,8481,1,0,0:0:0:0:
320,192,8644,1,0,0:0:0:0:
448,192,8726,1,0,0:0:0:0:
64,192,8807,1,0,0:0:0:0:
192,192,8889,1,0,0:0:0:0:
320,192,8970,1,2,0:0:0:0:
448,192,8970,1,0,0:0:0:0:
192,192,9133,1,8,0:0:0:0:
320,192,9188,1,8,0:0:0:0:
448,192,9242,1,8,0:0:0:0:
192,192,9296,1,10,0:0:0:0:
64,192,9296,1,4,0:0:0:0:
448,192,9460,1,8,0:0:0:0:
320,192,9514,1,8,0:0:0:0:
192,192,9568,1,8,0:0:0:0:
320,192,9623,1,4,0:0:0:0:
64,192,9623,1,0,0:0:0:0:
448,192,9623,1,2,0:0:0:0:
448,192,9786,1,2,0:0:0:0:
320,192,9786,1,4,0:0:0:0:
64,192,9786,1,0,0:0:0:0:
192,192,9949,1,0,0:0:0:0:
64,192,10030,1,0,0:0:0:0:
320,192,10112,1,0,0:0:0:0:
448,192,10193,1,0,0:0:0:0:
64,192,10275,1,0,0:0:0:0:
192,192,10275,1,2,0:0:0:0:
448,192,10438,1,8,0:0:0:0:
320,192,10492,1,8,0:0:0:0:
192,192,10546,1,8,0:0:0:0:
64,192,10601,1,10,0:0:0:0:
448,192,10601,1,4,0:0:0:0:
320,192,10682,1,0,0:0:0:0:
64,192,10764,1,8,0:0:0:0:
192,192,10805,1,8,0:0:0:0:
320,192,10845,1,8,0:0:0:0:
448,192,10886,1,8,0:0:0:0:
64,192,10927,1,4,0:0:0:0:
192,192,10927,1,2,0:0:0:0:
320,192,11090,1,2,0:0:0:0:
448,192,11090,1,0,0:0:0:0:
192,192,11171,1,0,0:0:0:0:
448,192,11253,1,0,0:0:0:0:
64,192,11253,1,2,0:0:0:0:
320,192,11335,1,0,0:0:0:0:
192,192,11416,1,0,0:0:0:0:
64,192,11416,1,2,0:0:0:0:
448,192,11498,1,2,0:0:0:0:
320,192,11498,1,0,0:0:0:0:
192,192,11579,1,8,0:0:0:0:
64,192,11579,1,2,0:0:0:0:
448,192,11661,1,2,0:0:0:0:
320,192,11661,1,0,0:0:0:0:
64,192,11742,1,10,0:0:0:0:
192,192,11783,1,8,0:0:0:0:
320,192,11824,1,8,0:0:0:0:
448,192,11864,1,8,0:0:0:0:
192,192,11905,1,2,0:0:0:0:
64,192,11905,1,8,0:0:0:0:
448,192,11987,1,0,0:0:0:0:
320,192,11987,1,2,0:0:0:0:
64,192,12068,1,10,0:0:0:0:
448,192,12109,1,8,0:0:0:0:
320,192,12150,1,8,0:0:0:0:
192,192,12191,1,8,0:0:0:0:
64,192,12231,1,2,0:0:0:0:
448,192,12231,1,4,0:0:0:0:
448,192,12394,1,0,0:0:0:0:
320,192,12394,1,4,0:0:0:0:
192,192,12394,1,2,0:0:0:0:
320,192,12557,1,4,0:0:0:0:
192,192,12557,1,2,0:0:0:0:
64,192,12557,1,0,0:0:0:0:
192,192,12720,1,2,0:0:0:0:
64,192,12720,128,0,13210:0:0:0:0:
448,192,12720,128,4,13210:0:0:0:0:
320,192,13210,128,0,13536:0:0:0:0:
192,192,13210,1,4,0:0:0:0:
64,192,13536,1,4,0:0:0:0:
192,192,13536,1,2,0:0:0:0:
448,192,13536,1,0,0:0:0:0:
320,192,13617,1,0,0:0:0:0:
448,192,13699,1,0,0:0:0:0:
192,192,13780,1,0,0:0:0:0:
320,192,13862,1,0,0:0:0:0:
64,192,13943,1,0,0:0:0:0:
192,192,14025,1,0,0:0:0:0:
320,192,14106,1,0,0:0:0:0:
64,192,14188,1,0,0:0:0:0:
448,192,14188,1,2,0:0:0:0:
320,192,14269,1,2,0:0:0:0:
192,192,14269,1,0,0:0:0:0:
64,192,14351,1,0,0:0:0:0:
448,192,14351,1,2,0:0:0:0:
192,192,14432,1,0,0:0:0:0:
320,192,14432,1,2,0:0:0:0:
64,192,14514,1,0,0:0:0:0:
448,192,14514,1,2,0:0:0:0:
192,192,14595,1,0,0:0:0:0:
320,192,14595,1,2,0:0:0:0:
64,192,14677,1,0,0:0:0:0:
448,192,14677,1,2,0:0:0:0:
192,192,14758,1,2,0:0:0:0:
320,192,14840,1,2,0:0:0:0:
448,192,14840,1,4,0:0:0:0:
192,192,14921,1,2,0:0:0:0:
64,192,14921,1,0,0:0:0:0:
320,192,15003,1,2,0:0:0:0:
448,192,15003,1,0,0:0:0:0:
192,192,15085,1,2,0:0:0:0:
64,192,15085,1,4,0:0:0:0:
320,192,15166,1,2,0:0:0:0:
448,192,15166,1,0,0:0:0:0:
192,192,15248,1,2,0:0:0:0:
64,192,15248,1,0,0:0:0:0:
320,192,15329,1,2,0:0:0:0:
448,192,15329,1,4,0:0:0:0:
192,192,15411,1,2,0:0:0:0:
64,192,15492,1,0,0:0:0:0:
448,192,15492,1,4,0:0:0:0:
320,192,15492,1,2,0:0:0:0:
64,192,15655,1,0,0:0:0:0:
320,192,15655,1,2,0:0:0:0:
448,192,15655,1,4,0:0:0:0:
192,192,15818,128,0,16144:0:0:0:0:
320,192,16144,1,0,0:0:0:0:
448,192,16144,1,2,0:0:0:0:
64,192,16144,1,4,0:0:0:0:
192,192,16226,1,0,0:0:0:0:
320,192,16307,1,0,0:0:0:0:
448,192,16307,1,2,0:0:0:0:
192,192,16389,1,0,0:0:0:0:
64,192,16470,1,2,0:0:0:0:
448,192,16470,1,8,0:0:0:0:
320,192,16552,1,0,0:0:0:0:
192,192,16633,1,0,0:0:0:0:
320,192,16715,1,0,0:0:0:0:
448,192,16715,1,2,0:0:0:0:
192,192,16796,1,2,0:0:0:0:
64,192,16796,1,0,0:0:0:0:
320,192,16878,1,0,0:0:0:0:
64,192,16960,1,0,0:0:0:0:
448,192,16960,1,2,0:0:0:0:
192,192,17041,1,0,0:0:0:0:
320,192,17123,1,8,0:0:0:0:
448,192,17123,1,2,0:0:0:0:
192,192,17204,1,0,0:0:0:0:
320,192,17286,1,2,0:0:0:0:
64,192,17286,1,0,0:0:0:0:
448,192,17367,1,0,0:0:0:0:
192,192,17449,1,0,0:0:0:0:
320,192,17530,1,0,0:0:0:0:
64,192,17612,1,0,0:0:0:0:
192,192,17612,1,2,0:0:0:0:
320,192,17693,1,0,0:0:0:0:
448,192,17775,1,2,0:0:0:0:
64,192,17775,1,8,0:0:0:0:
192,192,17856,1,0,0:0:0:0:
320,192,17938,1,0,0:0:0:0:
64,192,18019,1,0,0:0:0:0:
448,192,18019,1,2,0:0:0:0:
192,192,18101,1,0,0:0:0:0:
320,192,18101,1,2,0:0:0:0:
64,192,18182,1,0,0:0:0:0:
448,192,18264,1,0,0:0:0:0:
320,192,18264,1,2,0:0:0:0:
192,192,18345,1,0,0:0:0:0:
64,192,18427,1,8,0:0:0:0:
448,192,18427,1,2,0:0:0:0:
320,192,18508,1,0,0:0:0:0:
192,192,18590,1,0,0:0:0:0:
448,192,18671,1,0,0:0:0:0:
320,192,18753,1,0,0:0:0:0:
64,192,18753,1,2,0:0:0:0:
192,192,18835,1,0,0:0:0:0:
320,192,18916,1,2,0:0:0:0:
448,192,18916,1,0,0:0:0:0:
64,192,18998,1,0,0:0:0:0:
192,192,19079,1,2,0:0:0:0:
320,192,19079,1,8,0:0:0:0:
448,192,19161,1,0,0:0:0:0:
64,192,19242,1,0,0:0:0:0:
192,192,19324,1,2,0:0:0:0:
448,192,19324,1,0,0:0:0:0:
320,192,19405,1,0,0:0:0:0:
64,192,19405,1,2,0:0:0:0:
448,192,19487,1,0,0:0:0:0:
192,192,19568,1,0,0:0:0:0:
64,192,19568,1,2,0:0:0:0:
320,192,19650,1,0,0:0:0:0:
448,192,19731,1,8,0:0:0:0:
192,192,19731,1,2,0:0:0:0:
64,192,19813,1,0,0:0:0:0:
320,192,19894,1,0,0:0:0:0:
448,192,19894,1,2,0:0:0:0:
192,192,19976,1,0,0:0:0:0:
320,192,20057,1,0,0:0:0:0:
448,192,20139,1,0,0:0:0:0:
192,192,20220,1,2,0:0:0:0:
64,192,20220,1,0,0:0:0:0:
320,192,20302,1,0,0:0:0:0:
448,192,20383,1,2,0:0:0:0:
192,192,20383,1,8,0:0:0:0:
64,192,20465,1,0,0:0:0:0:
320,192,20546,1,0,0:0:0:0:
192,192,20628,1,2,0:0:0:0:
64,192,20628,1,0,0:0:0:0:
320,192,20710,1,2,0:0:0:0:
448,192,20710,1,0,0:0:0:0:
64,192,20791,1,0,0:0:0:0:
192,192,20873,1,2,0:0:0:0:
448,192,20873,1,0,0:0:0:0:
320,192,20954,1,0,0:0:0:0:
192,192,21036,1,8,0:0:0:0:
64,192,21036,1,2,0:0:0:0:
448,192,21117,1,0,0:0:0:0:
64,192,21199,1,2,0:0:0:0:
192,192,21199,1,8,0:0:0:0:
320,192,21280,1,2,0:0:0:0:
448,192,21280,1,0,0:0:0:0:
192,192,21362,1,8,0:0:0:0:
64,192,21362,1,2,0:0:0:0:
320,192,21443,1,0,0:0:0:0:
448,192,21525,1,0,0:0:0:0:
320,192,21606,1,0,0:0:0:0:
192,192,21688,1,8,0:0:0:0:
64,192,21688,1,0,0:0:0:0:
320,192,21769,1,0,0:0:0:0:
448,192,21851,1,0,0:0:0:0:
320,192,21932,1,0,0:0:0:0:
192,192,22014,1,8,0:0:0:0:
64,192,22014,1,0,0:0:0:0:
320,192,22095,1,0,0:0:0:0:
448,192,22177,1,0,0:0:0:0:
320,192,22258,1,0,0:0:0:0:
192,192,22340,1,8,0:0:0:0:
64,192,22340,1,0,0:0:0:0:
320,192,22421,1,0,0:0:0:0:
64,192,22503,1,0,0:0:0:0:
448,192,22503,1,0,0:0:0:0:
192,192,22585,1,0,0:0:0:0:
320,192,22666,1,0,0:0:0:0:
448,192,22666,1,8,0:0:0:0:
192,192,22748,1,0,0:0:0:0:
64,192,22829,1,0,0:0:0:0:
192,192,22911,1,0,0:0:0:0:
320,192,22992,1,0,0:0:0:0:
448,192,22992,1,8,0:0:0:0:
192,192,23074,1,0,0:0:0:0:
64,192,23155,1,0,0:0:0:0:
192,192,23237,1,0,0:0:0:0:
448,192,23318,1,8,0:0:0:0:
320,192,23318,1,0,0:0:0:0:
192,192,23400,1,0,0:0:0:0:
64,192,23481,1,0,0:0:0:0:
192,192,23563,1,0,0:0:0:0:
320,192,23644,1,0,0:0:0:0:
448,192,23644,1,8,0:0:0:0:
192,192,23726,1,0,0:0:0:0:
64,192,23807,1,0,0:0:0:0:
448,192,23807,1,0,0:0:0:0:
320,192,23889,1,0,0:0:0:0:
192,192,23970,1,2,0:0:0:0:
64,192,23970,1,8,0:0:0:0:
320,192,24052,1,2,0:0:0:0:
448,192,24052,1,8,0:0:0:0:
192,192,24133,1,2,0:0:0:0:
64,192,24133,1,8,0:0:0:0:
320,192,24215,1,2,0:0:0:0:
448,192,24215,1,8,0:0:0:0:
192,192,24296,1,2,0:0:0:0:
64,192,24296,1,8,0:0:0:0:
320,192,24378,1,2,0:0:0:0:
448,192,24378,1,8,0:0:0:0:
64,192,24460,1,8,0:0:0:0:
192,192,24460,1,2,0:0:0:0:
448,192,24541,1,8,0:0:0:0:
320,192,24541,1,2,0:0:0:0:
64,192,24623,1,8,0:0:0:0:
192,192,24623,1,2,0:0:0:0:
320,192,24704,1,2,0:0:0:0:
448,192,24704,1,8,0:0:0:0:
192,192,24786,1,2,0:0:0:0:
64,192,24786,1,8,0:0:0:0:
320,192,24867,1,2,0:0:0:0:
448,192,24867,1,8,0:0:0:0:
192,192,24949,1,2,0:0:0:0:
64,192,24949,1,8,0:0:0:0:
320,192,25030,1,2,0:0:0:0:
448,192,25030,1,8,0:0:0:0:
192,192,25112,1,2,0:0:0:0:
64,192,25112,1,8,0:0:0:0:
448,192,25193,1,8,0:0:0:0:
320,192,25193,1,2,0:0:0:0:
192,192,25275,1,6,0:0:0:0:
64,192,25275,128,8,26498:0:0:0:0:
448,192,25927,128,0,26498:0:0:0:0:
320,192,26253,128,0,26498:0:0:0:70:soft-hitclap99.wav
64,192,26579,1,8,0:0:0:0:
192,192,26579,1,2,0:0:0:0:
448,192,26579,1,4,0:0:0:0:
320,192,26742,1,0,0:0:0:0:
192,192,26851,1,0,0:0:0:0:
448,192,26905,1,2,0:0:0:0:
64,192,26905,1,0,0:0:0:0:
64,192,27068,1,0,0:0:0:0:
448,192,27068,1,0,0:0:0:0:
192,192,27231,1,0,0:0:0:0:
448,192,27231,1,2,0:0:0:0:
64,192,27394,1,0,0:0:0:0:
192,192,27449,1,0,0:0:0:0:
320,192,27503,1,0,0:0:0:0:
448,192,27557,1,2,0:0:0:0:
64,192,27557,1,0,0:0:0:0:
192,192,27720,1,0,0:0:0:0:
64,192,27720,1,0,0:0:0:0:
320,192,27720,1,2,0:0:0:0:
192,192,28046,1,0,0:0:0:0:
320,192,28046,1,0,0:0:0:0:
448,192,28046,1,2,0:0:0:0:
64,192,28128,1,0,0:0:0:0:
192,192,28210,1,0,0:0:0:0:
320,192,28291,1,0,0:0:0:0:
64,192,28373,128,0,28699:0:0:0:0:
192,192,28373,128,2,28699:0:0:0:0:
448,192,28373,1,0,0:0:0:0:
448,192,28699,1,0,0:0:0:0:
320,192,28699,1,2,0:0:0:0:
192,192,28780,1,2,0:0:0:0:
64,192,28780,1,0,0:0:0:0:
448,192,28862,128,0,29188:0:0:0:0:
320,192,28862,128,2,29188:0:0:0:0:
192,192,29188,1,2,0:0:0:0:
64,192,29188,128,0,29514:0:0:0:0:
320,192,29514,1,2,0:0:0:0:
448,192,29514,128,0,29840:0:0:0:0:
192,192,29840,128,0,30003:0:0:0:0:
64,192,29840,1,2,0:0:0:0:
320,192,30003,128,0,30166:0:0:0:0:
448,192,30003,1,0,0:0:0:0:
64,192,30166,1,2,0:0:0:0:
192,192,30166,1,0,0:0:0:0:
448,192,30329,128,0,30655:0:0:0:0:
320,192,30329,1,2,0:0:0:0:
64,192,30492,1,2,0:0:0:0:
192,192,30492,1,0,0:0:0:0:
320,192,30655,128,0,30818:0:0:0:0:
64,192,30818,128,0,30981:0:0:0:0:
192,192,30818,1,2,0:0:0:0:
448,192,30981,128,0,31144:0:0:0:0:
320,192,31144,1,0,0:0:0:0:
192,192,31144,1,2,0:0:0:0:
64,192,31307,128,0,31470:0:0:0:0:
192,192,31389,1,2,0:0:0:0:
320,192,31470,1,2,0:0:0:0:
448,192,31470,1,0,0:0:0:0:
320,192,31633,128,2,31796:0:0:0:0:
192,192,31715,1,0,0:0:0:0:
448,192,31796,1,2,0:0:0:0:
64,192,31796,1,4,0:0:0:0:
192,192,31960,1,0,0:0:0:0:
320,192,32123,1,8,0:0:0:0:
448,192,32123,1,2,0:0:0:0:
448,192,32286,1,0,0:0:0:0:
320,192,32286,1,0,0:0:0:0:
64,192,32449,1,0,0:0:0:0:
192,192,32449,1,2,0:0:0:0:
320,192,32612,1,2,0:0:0:0:
448,192,32612,1,0,0:0:0:0:
192,192,32693,1,0,0:0:0:0:
448,192,32775,1,8,0:0:0:0:
64,192,32775,1,2,0:0:0:0:
320,192,32856,1,2,0:0:0:0:
192,192,32856,1,0,0:0:0:0:
64,192,32938,1,2,0:0:0:0:
448,192,32938,1,0,0:0:0:0:
320,192,33019,1,2,0:0:0:0:
192,192,33101,1,2,0:0:0:0:
64,192,33101,1,0,0:0:0:0:
448,192,33101,1,4,0:0:0:0:
192,192,33264,1,2,0:0:0:0:
320,192,33264,1,4,0:0:0:0:
64,192,33264,1,0,0:0:0:0:
192,192,33427,1,2,0:0:0:0:
320,192,33427,1,4,0:0:0:0:
448,192,33427,1,0,0:0:0:0:
64,192,33590,1,2,0:0:0:0:
320,192,33590,1,4,0:0:0:0:
448,192,33590,128,0,33916:0:0:0:0:
64,192,33916,1,0,0:0:0:0:
320,192,34079,1,10,0:0:0:0:
192,192,34161,1,0,0:0:0:0:
320,192,34242,1,0,0:0:0:0:
192,192,34324,1,0,0:0:0:0:
64,192,34405,1,0,0:0:0:0:
448,192,34405,1,2,0:0:0:0:
192,192,34568,1,0,0:0:0:0:
320,192,34623,1,0,0:0:0:0:
448,192,34677,1,0,0:0:0:0:
64,192,34731,1,8,0:0:0:0:
192,192,34731,1,2,0:0:0:0:
448,192,34894,1,0,0:0:0:0:
64,192,34894,1,0,0:0:0:0:
320,192,35057,1,2,0:0:0:0:
192,192,35057,1,0,0:0:0:0:
192,192,35220,1,0,0:0:0:0:
64,192,35220,1,2,0:0:0:0:
320,192,35302,1,0,0:0:0:0:
64,192,35383,1,2,0:0:0:0:
448,192,35383,1,8,0:0:0:0:
192,192,35465,1,0,0:0:0:0:
320,192,35546,1,2,0:0:0:0:
448,192,35546,1,0,0:0:0:0:
192,192,35628,1,2,0:0:0:0:
320,192,35669,1,2,0:0:0:0:
64,192,35710,1,2,0:0:0:0:
448,192,35710,1,8,0:0:0:0:
192,192,35873,1,0,0:0:0:0:
64,192,35873,1,2,0:0:0:0:
448,192,35873,1,8,0:0:0:0:
192,192,36036,1,0,0:0:0:0:
320,192,36036,1,8,0:0:0:0:
64,192,36036,1,2,0:0:0:0:
192,192,36199,1,0,0:0:0:0:
64,192,36199,1,2,0:0:0:0:
448,192,36199,1,8,0:0:0:0:
448,192,36525,1,0,0:0:0:0:
192,192,36606,1,0,0:0:0:0:
448,192,36688,128,0,37014:0:0:0:0:
320,192,36688,1,0,0:0:0:0:
192,192,37014,1,4,0:0:0:0:
64,192,37014,1,2,0:0:0:0:
320,192,37014,1,8,0:0:0:0:
320,192,37177,1,0,0:0:0:0:
192,192,37286,1,0,0:0:0:0:
64,192,37340,1,8,0:0:0:0:
448,192,37340,1,2,0:0:0:0:
64,192,37503,1,0,0:0:0:0:
448,192,37503,1,0,0:0:0:0:
320,192,37666,1,0,0:0:0:0:
64,192,37666,1,2,0:0:0:0:
448,192,37829,1,0,0:0:0:0:
320,192,37883,1,0,0:0:0:0:
192,192,37938,1,0,0:0:0:0:
448,192,37992,1,8,0:0:0:0:
64,192,37992,1,2,0:0:0:0:
192,192,38155,1,0,0:0:0:0:
448,192,38155,1,0,0:0:0:0:
320,192,38155,1,2,0:0:0:0:
64,192,38481,1,0,0:0:0:0:
192,192,38481,1,2,0:0:0:0:
320,192,38481,1,0,0:0:0:0:
448,192,38563,1,0,0:0:0:0:
320,192,38644,1,2,0:0:0:0:
192,192,38644,1,8,0:0:0:0:
64,192,38726,1,0,0:0:0:0:
320,192,38807,1,2,0:0:0:0:
448,192,38807,128,0,39133:0:0:0:0:
64,192,39133,1,2,0:0:0:0:
192,192,39133,1,0,0:0:0:0:
192,192,39215,1,0,0:0:0:0:
64,192,39215,1,2,0:0:0:0:
320,192,39296,1,2,0:0:0:0:
448,192,39296,1,8,0:0:0:0:
320,192,39460,1,0,0:0:0:0:
192,192,39460,1,2,0:0:0:0:
64,192,39623,1,2,0:0:0:0:
448,192,39623,128,0,39949:0:0:0:0:
192,192,39786,1,0,0:0:0:0:
64,192,39949,1,8,0:0:0:0:
320,192,39949,128,2,40275:0:0:0:0:
448,192,40112,1,0,0:0:0:0:
64,192,40275,128,0,40438:0:0:0:0:
192,192,40275,1,2,0:0:0:0:
448,192,40438,128,0,40601:0:0:0:0:
320,192,40438,1,2,0:0:0:0:
192,192,40601,1,8,0:0:0:0:
64,192,40601,1,2,0:0:0:0:
192,192,40764,128,0,41090:0:0:0:0:
320,192,40764,1,0,0:0:0:0:
448,192,40764,1,2,0:0:0:0:
64,192,41090,1,0,0:0:0:0:
448,192,41090,1,2,0:0:0:0:
320,192,41171,1,2,0:0:0:0:
192,192,41171,1,0,0:0:0:0:
64,192,41253,1,8,0:0:0:0:
448,192,41253,1,2,0:0:0:0:
192,192,41416,128,2,41579:0:0:0:0:
320,192,41416,128,8,41579:0:0:0:0:
448,192,41742,128,2,41905:0:0:0:0:
64,192,41742,128,8,41905:0:0:0:0:
192,192,41905,1,2,0:0:0:0:
320,192,41905,1,8,0:0:0:0:
64,192,41987,1,2,0:0:0:0:
448,192,41987,1,0,0:0:0:0:
320,192,42068,1,0,0:0:0:0:
192,192,42068,1,2,0:0:0:0:
64,192,42150,1,2,0:0:0:0:
448,192,42150,1,0,0:0:0:0:
192,192,42231,1,2,0:0:0:0:
320,192,42231,1,0,0:0:0:0:
448,192,42394,1,0,0:0:0:0:
320,192,42449,1,0,0:0:0:0:
192,192,42503,1,0,0:0:0:0:
64,192,42557,1,2,0:0:0:0:
448,192,42557,1,8,0:0:0:0:
64,192,42720,1,0,0:0:0:0:
448,192,42720,1,0,0:0:0:0:
320,192,42883,1,2,0:0:0:0:
192,192,42883,1,0,0:0:0:0:
64,192,43046,1,0,0:0:0:0:
448,192,43046,1,2,0:0:0:0:
192,192,43128,1,0,0:0:0:0:
320,192,43210,1,8,0:0:0:0:
448,192,43210,1,2,0:0:0:0:
192,192,43291,1,2,0:0:0:0:
64,192,43291,1,0,0:0:0:0:
320,192,43373,1,2,0:0:0:0:
448,192,43373,1,0,0:0:0:0:
192,192,43454,1,2,0:0:0:0:
64,192,43536,1,0,0:0:0:0:
320,192,43536,1,2,0:0:0:0:
448,192,43536,1,8,0:0:0:0:
64,192,43699,1,0,0:0:0:0:
192,192,43699,1,2,0:0:0:0:
320,192,43699,1,8,0:0:0:0:
448,192,43862,1,2,0:0:0:0:
192,192,43862,1,8,0:0:0:0:
64,192,43862,1,0,0:0:0:0:
320,192,44025,1,8,0:0:0:0:
448,192,44025,1,2,0:0:0:0:
64,192,44025,128,0,44351:0:0:0:0:
192,192,44351,1,0,0:0:0:0:
448,192,44514,1,8,0:0:0:0:
64,192,44514,1,2,0:0:0:0:
320,192,44595,1,0,0:0:0:0:
192,192,44595,1,2,0:0:0:0:
448,192,44677,1,0,0:0:0:0:
64,192,44677,1,2,0:0:0:0:
320,192,44758,1,2,0:0:0:0:
448,192,44840,1,0,0:0:0:0:
192,192,44840,1,2,0:0:0:0:
192,192,45003,1,0,0:0:0:0:
448,192,45003,1,0,0:0:0:0:
64,192,45166,1,2,0:0:0:0:
448,192,45166,1,8,0:0:0:0:
448,192,45329,1,0,0:0:0:0:
64,192,45329,1,0,0:0:0:0:
64,192,45492,1,0,0:0:0:0:
192,192,45492,1,2,0:0:0:0:
64,192,45655,1,0,0:0:0:0:
192,192,45655,1,0,0:0:0:0:
320,192,45818,1,2,0:0:0:0:
448,192,45818,1,8,0:0:0:0:
448,192,45981,1,0,0:0:0:0:
320,192,45981,1,0,0:0:0:0:
192,192,46144,1,2,0:0:0:0:
448,192,46144,1,0,0:0:0:0:
64,192,46144,1,8,0:0:0:0:
64,192,46307,1,8,0:0:0:0:
192,192,46307,1,2,0:0:0:0:
448,192,46307,1,0,0:0:0:0:
64,192,46470,1,8,0:0:0:0:
192,192,46470,1,2,0:0:0:0:
448,192,46470,1,0,0:0:0:0:
192,192,46633,1,8,0:0:0:0:
64,192,46633,1,0,0:0:0:0:
320,192,46633,1,2,0:0:0:0:
320,192,46960,1,8,0:0:0:0:
192,192,46960,1,0,0:0:0:0:
448,192,46960,1,2,0:0:0:0:
192,192,47123,1,2,0:0:0:0:
64,192,47123,1,8,0:0:0:0:
320,192,47204,1,2,0:0:0:0:
448,192,47204,1,0,0:0:0:0:
192,192,47286,1,2,0:0:0:0:
64,192,47286,1,0,0:0:0:0:
320,192,47367,1,2,0:0:0:0:
448,192,47449,1,0,0:0:0:0:
192,192,47449,1,2,0:0:0:0:
64,192,47449,1,4,0:0:0:0:
448,192,47775,1,0,0:0:0:0:
320,192,47856,1,0,0:0:0:0:
192,192,47938,1,0,0:0:0:0:
64,192,48019,1,0,0:0:0:0:
448,192,48101,1,0,0:0:0:0:
320,192,48101,1,0,0:0:0:0:
192,192,48182,1,0,0:0:0:0:
64,192,48182,1,0,0:0:0:0:
320,192,48264,1,0,0:0:0:0:
448,192,48264,1,0,0:0:0:0:
192,192,48345,1,0,0:0:0:0:
64,192,48427,1,0,0:0:0:0:
448,192,48427,1,0,0:0:0:0:
320,192,48508,1,0,0:0:0:0:
192,192,48508,1,0,0:0:0:0:
448,192,48590,1,0,0:0:0:0:
64,192,48590,1,0,0:0:0:0:
192,192,48671,1,0,0:0:0:0:
448,192,48753,128,0,48916:0:0:0:0:
320,192,48753,128,4,48916:0:0:0:0:
64,192,48753,128,2,48916:0:0:0:0:
192,192,48916,1,0,0:0:0:0:
320,192,48998,1,0,0:0:0:0:
448,192,49079,1,0,0:0:0:0:
64,192,49161,1,0,0:0:0:0:
192,192,49242,128,2,49405:0:0:0:0:
320,192,49242,128,4,49405:0:0:0:0:
448,192,49242,128,0,49405:0:0:0:0:
64,192,49405,1,0,0:0:0:0:
192,192,49487,1,0,0:0:0:0:
320,192,49568,1,0,0:0:0:0:
448,192,49650,1,0,0:0:0:0:
64,192,49731,128,2,49894:0:0:0:0:
192,192,49731,128,4,49894:0:0:0:0:
320,192,49731,128,0,49894:0:0:0:0:
448,192,50057,1,2,0:0:0:0:
320,192,50057,1,0,0:0:0:0:
192,192,50220,1,0,0:0:0:0:
320,192,50275,1,0,0:0:0:0:
448,192,50329,1,0,0:0:0:0:
64,192,50383,128,0,50710:0:0:0:0:
320,192,50710,128,0,50873:0:0:0:0:
64,192,50873,1,0,0:0:0:0:
192,192,50954,1,0,0:0:0:0:
448,192,51036,128,0,51362:0:0:0:0:
320,192,51362,1,4,0:0:0:0:
64,192,51362,1,0,0:0:0:0:
192,192,51362,1,2,0:0:0:0:
448,192,51688,128,0,52340:0:0:0:0:
192,192,51932,128,0,52014:0:0:0:0:
64,192,52014,128,0,52666:0:0:0:0:
192,192,52177,128,0,52340:0:0:0:0:
320,192,52340,128,0,52666:0:0:0:0:
448,192,52503,128,0,52666:0:0:0:0:
192,192,52666,128,0,52992:0:0:0:0:
448,192,52992,128,0,53318:0:0:0:0:
320,192,53155,128,0,53563:0:0:0:0:
192,192,53237,128,0,53563:0:0:0:0:
64,192,53318,128,0,53563:0:0:0:0:
448,192,53563,128,0,53970:0:0:0:0:
192,192,53644,1,4,0:0:0:0:
64,192,53644,1,0,0:0:0:0:
320,192,53807,128,0,53970:0:0:0:0:
192,192,53970,128,0,54623:0:0:0:0:
64,192,53970,1,4,0:0:0:0:
448,192,54296,128,0,54623:0:0:0:0:
320,192,54623,1,4,0:0:0:0:
64,192,54623,128,0,55275:0:0:0:0:
448,192,54949,128,0,55275:0:0:0:0:
192,192,55275,128,0,55927:0:0:0:0:
320,192,55275,1,4,0:0:0:0:
320,192,55601,128,0,55927:0:0:0:0:
448,192,55927,128,0,56416:0:0:0:0:
64,192,55927,1,4,0:0:0:0:
64,192,56171,128,0,56416:0:0:0:0:
320,192,56416,128,0,56579:0:0:0:0:
64,192,56579,128,0,56824:0:0:0:0:
192,192,56579,1,4,0:0:0:0:
448,192,56905,128,0,57068:0:0:0:0:
192,192,57068,128,0,57231:0:0:0:0:
448,192,57231,1,0,0:0:0:0:
320,192,57394,128,0,57557:0:0:0:0:
64,192,57557,128,0,57720:0:0:0:0:
320,192,57720,128,0,57883:0:0:0:0:
64,192,57883,128,0,58318:0:0:0:0:
192,192,57883,1,4,0:0:0:0:
448,192,58101,128,0,58318:0:0:0:0:
320,192,58318,128,0,58970:0:0:0:0:
64,192,58536,128,0,58970:0:0:0:0:
448,192,58536,1,0,0:0:0:0:
192,192,58753,128,0,58970:0:0:0:0:
448,192,58970,128,0,59188:0:0:0:0:
64,192,59188,1,2,0:0:0:0:
192,192,59188,1,4,0:0:0:0:
320,192,59188,1,0,0:0:0:0:
448,192,59351,1,0,0:0:0:0:
320,192,59432,1,0,0:0:0:0:
64,192,59514,1,0,0:0:0:0:
192,192,59595,1,0,0:0:0:0:
320,192,59677,1,4,0:0:0:0:
448,192,59677,1,2,0:0:0:0:
64,192,59677,1,0,0:0:0:0:
192,192,59840,1,0,0:0:0:0:
320,192,59921,1,0,0:0:0:0:
64,192,60003,1,0,0:0:0:0:
320,192,60085,1,0,0:0:0:0:
192,192,60166,1,4,0:0:0:0:
448,192,60166,1,2,0:0:0:0:
64,192,60166,128,0,60492:0:0:0:0:
448,192,60655,1,0,0:0:0:0:
320,192,60710,1,0,0:0:0:0:
64,192,60764,1,0,0:0:0:0:
192,192,60818,1,4,0:0:0:0:
448,192,60818,128,0,61144:0:0:0:0:
320,192,60818,1,2,0:0:0:0:
64,192,61144,128,0,61307:0:0:0:0:
192,192,61144,1,0,0:0:0:0:
320,192,61307,1,0,0:0:0:0:
192,192,61389,1,0,0:0:0:0:
64,192,61470,1,0,0:0:0:0:
448,192,61470,128,0,61633:0:0:0:0:
192,192,61633,1,0,0:0:0:0:
320,192,61715,1,0,0:0:0:0:
448,192,61796,1,2,0:0:0:0:
64,192,61796,128,0,62014:0:0:0:0:
192,192,61796,1,4,0:0:0:0:
448,192,62014,1,0,0:0:0:0:
320,192,62123,1,0,0:0:0:0:
192,192,62231,1,0,0:0:0:0:
320,192,62340,1,0,0:0:0:0:
448,192,62449,1,8,0:0:0:0:
64,192,62449,128,2,62612:0:0:0:0:
320,192,62612,128,0,62775:0:0:0:0:
448,192,62775,128,0,62938:0:0:0:0:
192,192,62938,1,2,0:0:0:0:
64,192,62938,1,0,0:0:0:0:
320,192,63019,1,2,0:0:0:0:
448,192,63019,1,0,0:0:0:0:
192,192,63101,1,2,0:0:0:0:
64,192,63101,128,0,63427:0:0:0:0:
320,192,63345,1,2,0:0:0:0:
192,192,63345,1,0,0:0:0:0:
448,192,63427,128,0,63590:0:0:0:0:
64,192,63590,1,0,0:0:0:0:
192,192,63590,1,2,0:0:0:0:
320,192,63671,1,0,0:0:0:0:
64,192,63753,1,8,0:0:0:0:
448,192,63753,128,2,63998:0:0:0:0:
320,192,63916,1,0,0:0:0:0:
192,192,63916,1,2,0:0:0:0:
64,192,63998,128,0,64242:0:0:0:0:
448,192,64079,1,2,0:0:0:0:
192,192,64079,1,8,0:0:0:0:
320,192,64242,128,0,64405:0:0:0:0:
448,192,64405,128,0,64731:0:0:0:0:
64,192,64405,1,2,0:0:0:0:
192,192,64568,1,8,0:0:0:0:
320,192,64568,1,2,0:0:0:0:
64,192,64731,128,0,65057:0:0:0:0:
320,192,64731,1,2,0:0:0:0:
192,192,64976,1,2,0:0:0:0:
448,192,65057,1,8,0:0:0:0:
320,192,65057,128,2,65383:0:0:0:0:
64,192,65383,128,0,65710:0:0:0:0:
192,192,65546,1,2,0:0:0:0:
448,192,65546,1,0,0:0:0:0:
320,192,65710,128,2,66036:0:0:0:0:
448,192,65710,1,8,0:0:0:0:
192,192,65873,1,2,0:0:0:0:
64,192,65873,1,0,0:0:0:0:
192,192,66036,128,2,66362:0:0:0:0:
448,192,66036,1,0,0:0:0:0:
320,192,66199,1,8,0:0:0:0:
64,192,66199,1,0,0:0:0:0:
64,192,66362,128,2,66688:0:0:0:0:
448,192,66362,1,8,0:0:0:0:
192,192,66443,1,2,0:0:0:0:
320,192,66525,1,2,0:0:0:0:
448,192,66525,1,0,0:0:0:0:
192,192,66606,1,2,0:0:0:0:
448,192,66688,128,0,67014:0:0:0:0:
320,192,66688,1,2,0:0:0:0:
192,192,67014,1,2,0:0:0:0:
64,192,67014,128,4,67340:0:0:0:0:
320,192,67340,1,0,0:0:0:0:
64,192,67503,1,0,0:0:0:0:
64,192,67829,1,0,0:0:0:0:
320,192,67992,1,0,0:0:0:0:
64,192,68155,1,0,0:0:0:0:
320,192,68318,1,2,0:0:0:0:
192,192,68318,1,0,0:0:0:0:
448,192,68481,128,0,68807:0:0:0:0:
320,192,68644,1,2,0:0:0:0:
64,192,68644,128,0,68970:0:0:0:0:
192,192,68807,128,0,69133:0:0:0:0:
448,192,68970,1,2,0:0:0:0:
320,192,68970,128,0,69296:0:0:0:0:
448,192,69133,128,0,69460:0:0:0:0:
192,192,69296,1,2,0:0:0:0:
64,192,69296,128,0,69623:0:0:0:0:
192,192,69460,128,0,69623:0:0:0:0:
320,192,69623,1,4,0:0:0:0:
448,192,69623,1,2,0:0:0:0:
192,192,69786,1,0,0:0:0:0:
320,192,69786,1,4,0:0:0:0:
448,192,69786,1,2,0:0:0:0:
320,192,69949,1,4,0:0:0:0:
192,192,69949,1,0,0:0:0:0:
448,192,69949,1,2,0:0:0:0:
192,192,70112,1,2,0:0:0:0:
64,192,70112,1,0,0:0:0:0:
320,192,70112,1,4,0:0:0:0:
448,192,70438,1,0,0:0:0:0:
64,192,70519,1,0,0:0:0:0:
448,192,70601,1,0,0:0:0:0:
448,192,70927,1,2,0:0:0:0:
64,192,70927,1,4,0:0:0:0:
320,192,71008,1,0,0:0:0:0:
192,192,71090,1,0,0:0:0:0:
64,192,71171,1,0,0:0:0:0:
320,192,71253,1,4,0:0:0:0:
448,192,71253,1,2,0:0:0:0:
192,192,71335,1,0,0:0:0:0:
64,192,71335,1,0,0:0:0:0:
320,192,71416,1,0,0:0:0:0:
448,192,71416,1,0,0:0:0:0:
192,192,71498,1,0,0:0:0:0:
448,192,71579,1,2,0:0:0:0:
64,192,71579,1,4,0:0:0:0:
320,192,71661,1,0,0:0:0:0:
192,192,71661,1,0,0:0:0:0:
64,192,71742,1,0,0:0:0:0:
448,192,71742,1,0,0:0:0:0:
320,192,71824,1,0,0:0:0:0:
192,192,71905,128,0,72068:0:0:0:70:soft-hitclap99.wav
64,192,71905,128,2,72068:0:0:0:0:
448,192,71905,128,0,72068:0:0:0:0:
320,192,72231,1,4,0:0:0:0:
448,192,72231,128,8,73210:0:0:0:0:
64,192,72231,1,2,0:0:0:0:
192,192,72394,1,0,0:0:0:0:
320,192,72557,1,0,0:0:0:0:
64,192,72557,1,2,0:0:0:0:
192,192,72720,1,0,0:0:0:0:
320,192,72883,1,0,0:0:0:0:
64,192,72883,1,2,0:0:0:0:
192,192,73046,1,0,0:0:0:0:
192,192,73210,1,0,0:0:0:0:
320,192,73210,1,2,0:0:0:0:
64,192,73210,1,0,0:0:0:0:
320,192,73373,1,0,0:0:0:0:
64,192,73373,128,0,74514:0:0:0:0:
448,192,73373,1,0,0:0:0:0:
192,192,73536,1,2,0:0:0:0:
448,192,73536,1,0,0:0:0:0:
320,192,73699,1,0,0:0:0:0:
192,192,73862,1,2,0:0:0:0:
448,192,73862,1,0,0:0:0:0:
448,192,74025,1,0,0:0:0:0:
320,192,74188,1,0,0:0:0:0:
192,192,74188,1,2,0:0:0:0:
448,192,74351,1,0,0:0:0:0:
320,192,74514,1,0,0:0:0:0:
448,192,74514,1,0,0:0:0:0:
192,192,74514,1,2,0:0:0:0:
64,192,74677,1,2,0:0:0:0:
192,192,74677,1,0,0:0:0:0:
320,192,74677,128,0,75655:0:0:0:0:
448,192,74840,1,2,0:0:0:0:
64,192,74840,1,0,0:0:0:0:
192,192,75003,1,0,0:0:0:0:
64,192,75166,1,0,0:0:0:0:
448,192,75166,1,2,0:0:0:0:
192,192,75329,1,0,0:0:0:0:
64,192,75492,1,0,0:0:0:0:
448,192,75492,1,2,0:0:0:0:
64,192,75655,1,0,0:0:0:0:
192,192,75655,1,0,0:0:0:0:
192,192,75818,1,2,0:0:0:0:
64,192,75818,1,0,0:0:0:0:
320,192,75981,1,0,0:0:0:0:
448,192,75981,1,0,0:0:0:0:
192,192,75981,1,0,0:0:0:0:
320,192,76144,1,2,0:0:0:0:
448,192,76144,128,0,76470:0:0:0:0:
64,192,76144,1,0,0:0:0:0:
192,192,76307,1,0,0:0:0:0:
64,192,76470,128,0,76796:0:0:0:0:
320,192,76470,1,2,0:0:0:0:
192,192,76633,1,0,0:0:0:0:
320,192,76796,128,0,77123:0:0:0:0:
448,192,76796,1,2,0:0:0:0:
192,192,76960,1,2,0:0:0:0:
448,192,77123,128,0,77449:0:0:0:0:
64,192,77123,1,2,0:0:0:0:
320,192,77204,1,2,0:0:0:0:
192,192,77286,1,2,0:0:0:0:
64,192,77286,1,0,0:0:0:0:
320,192,77367,1,2,0:0:0:0:
64,192,77449,128,0,78427:0:0:0:0:
192,192,77449,1,2,0:0:0:0:
320,192,77612,1,0,0:0:0:0:
448,192,77775,1,8,0:0:0:0:
192,192,77775,1,2,0:0:0:0:
320,192,77938,1,0,0:0:0:0:
448,192,78101,1,2,0:0:0:0:
192,192,78101,1,0,0:0:0:0:
320,192,78264,1,0,0:0:0:0:
448,192,78427,1,8,0:0:0:0:
192,192,78427,1,0,0:0:0:0:
320,192,78427,1,2,0:0:0:0:
64,192,78590,1,0,0:0:0:0:
448,192,78590,1,0,0:0:0:0:
192,192,78590,128,0,79242:0:0:0:0:
320,192,78753,1,2,0:0:0:0:
64,192,78753,1,0,0:0:0:0:
448,192,78916,1,0,0:0:0:0:
320,192,79079,1,8,0:0:0:0:
64,192,79079,1,2,0:0:0:0:
64,192,79242,1,0,0:0:0:0:
448,192,79242,1,2,0:0:0:0:
192,192,79324,1,2,0:0:0:0:
320,192,79405,1,0,0:0:0:0:
64,192,79405,1,2,0:0:0:0:
448,192,79405,1,8,0:0:0:0:
320,192,79650,1,2,0:0:0:0:
64,192,79650,1,8,0:0:0:0:
192,192,79650,1,0,0:0:0:0:
192,192,79894,1,2,0:0:0:0:
320,192,79894,1,0,0:0:0:0:
448,192,79894,1,8,0:0:0:0:
320,192,80057,1,2,0:0:0:0:
448,192,80057,1,4,0:0:0:0:
64,192,80057,128,0,80383:0:0:0:0:
192,192,80220,1,0,0:0:0:0:
320,192,80383,1,8,0:0:0:0:
448,192,80383,1,2,0:0:0:0:
192,192,80465,1,0,0:0:0:0:
320,192,80546,1,0,0:0:0:0:
64,192,80628,1,0,0:0:0:0:
320,192,80710,128,0,81036:0:0:0:0:
448,192,80710,1,2,0:0:0:0:
192,192,80873,1,2,0:0:0:0:
64,192,80873,1,0,0:0:0:0:
448,192,81036,1,2,0:0:0:0:
64,192,81036,128,8,81199:0:0:0:0:
320,192,81199,128,0,81525:0:0:0:0:
192,192,81199,1,2,0:0:0:0:
448,192,81199,1,0,0:0:0:0:
192,192,81525,1,0,0:0:0:0:
64,192,81525,1,0,0:0:0:0:
192,192,81688,1,8,0:0:0:0:
64,192,81688,128,2,81851:0:0:0:0:
448,192,81851,128,0,82014:0:0:0:0:
320,192,81851,1,2,0:0:0:0:
64,192,82014,1,8,0:0:0:0:
192,192,82014,128,2,82177:0:0:0:0:
448,192,82177,1,8,0:0:0:0:
320,192,82218,1,8,0:0:0:0:
64,192,82258,1,8,0:0:0:0:
192,192,82299,1,8,0:0:0:0:
448,192,82340,1,8,0:0:0:0:
320,192,82340,1,2,0:0:0:0:
64,192,82421,1,0,0:0:0:0:
192,192,82421,1,2,0:0:0:0:
448,192,82503,1,8,0:0:0:0:
320,192,82544,1,8,0:0:0:0:
192,192,82585,1,8,0:0:0:0:
64,192,82625,1,8,0:0:0:0:
448,192,82666,128,0,82992:0:0:0:0:
192,192,82829,1,0,0:0:0:0:
192,192,82992,1,8,0:0:0:0:
64,192,82992,1,2,0:0:0:0:
320,192,82992,1,4,0:0:0:0:
448,192,83155,1,0,0:0:0:0:
320,192,83210,1,0,0:0:0:0:
64,192,83264,1,0,0:0:0:0:
192,192,83318,1,2,0:0:0:0:
448,192,83318,128,0,83400:0:0:0:0:
320,192,83481,1,0,0:0:0:0:
192,192,83563,128,0,83644:0:0:0:0:
64,192,83644,1,0,0:0:0:0:
448,192,83644,1,8,0:0:0:0:
320,192,83644,1,2,0:0:0:0:
64,192,83807,128,0,83889:0:0:0:0:
448,192,83807,1,2,0:0:0:0:
192,192,83970,1,2,0:0:0:0:
64,192,83970,128,0,84052:0:0:0:0:
320,192,84133,1,0,0:0:0:0:
192,192,84296,1,8,0:0:0:0:
64,192,84296,1,2,0:0:0:0:
448,192,84296,1,0,0:0:0:0:
320,192,84460,1,0,0:0:0:0:
192,192,84623,1,2,0:0:0:0:
448,192,84623,128,0,84704:0:0:0:0:
320,192,84786,1,0,0:0:0:0:
192,192,84867,1,2,0:0:0:0:
64,192,84867,1,0,0:0:0:0:
320,192,84949,1,2,0:0:0:0:
448,192,84949,1,8,0:0:0:0:
320,192,85112,1,0,0:0:0:0:
192,192,85112,1,2,0:0:0:0:
448,192,85275,1,2,0:0:0:0:
64,192,85275,128,0,85356:0:0:0:0:
320,192,85438,1,0,0:0:0:0:
192,192,85601,1,8,0:0:0:0:
64,192,85601,1,2,0:0:0:0:
448,192,85601,1,0,0:0:0:0:
320,192,85764,1,0,0:0:0:0:
192,192,85927,1,2,0:0:0:0:
448,192,85927,128,0,86008:0:0:0:0:
64,192,86090,1,0,0:0:0:0:
192,192,86171,128,0,86253:0:0:0:0:
320,192,86253,1,2,0:0:0:0:
448,192,86253,1,8,0:0:0:0:
64,192,86253,1,0,0:0:0:0:
320,192,86416,128,0,86498:0:0:0:0:
192,192,86416,1,2,0:0:0:0:
448,192,86579,1,2,0:0:0:0:
64,192,86579,128,0,86661:0:0:0:0:
320,192,86742,1,0,0:0:0:0:
448,192,86905,1,0,0:0:0:0:
64,192,86905,1,2,0:0:0:0:
192,192,86905,1,8,0:0:0:0:
320,192,87068,1,0,0:0:0:0:
448,192,87231,128,0,87313:0:0:0:0:
64,192,87231,1,2,0:0:0:0:
192,192,87394,1,0,0:0:0:0:
320,192,87394,1,2,0:0:0:0:
64,192,87557,1,8,0:0:0:0:
192,192,87557,1,2,0:0:0:0:
320,192,87639,1,2,0:0:0:0:
448,192,87639,1,0,0:0:0:0:
192,192,87720,1,2,0:0:0:0:
64,192,87720,1,0,0:0:0:0:
448,192,87802,1,0,0:0:0:0:
320,192,87802,1,2,0:0:0:0:
192,192,87883,1,2,0:0:0:0:
64,192,87883,1,0,0:0:0:0:
192,192,88046,1,2,0:0:0:0:
64,192,88046,1,0,0:0:0:0:
448,192,88210,1,2,0:0:0:0:
320,192,88210,1,8,0:0:0:0:
192,192,88291,1,2,0:0:0:0:
64,192,88291,1,0,0:0:0:0:
320,192,88373,1,2,0:0:0:0:
448,192,88373,1,0,0:0:0:0:
192,192,88454,1,2,0:0:0:0:
64,192,88454,1,0,0:0:0:0:
320,192,88536,1,2,0:0:0:0:
448,192,88536,1,0,0:0:0:0:
192,192,88699,1,0,0:0:0:0:
64,192,88780,1,0,0:0:0:0:
448,192,88780,1,0,0:0:0:0:
320,192,88862,1,8,0:0:0:0:
192,192,88862,1,2,0:0:0:0:
64,192,89025,1,0,0:0:0:0:
448,192,89025,1,0,0:0:0:0:
448,192,89188,1,2,0:0:0:0:
192,192,89188,1,0,0:0:0:0:
448,192,89351,1,2,0:0:0:0:
192,192,89351,1,0,0:0:0:0:
192,192,89514,1,8,0:0:0:0:
320,192,89514,1,2,0:0:0:0:
64,192,89595,1,2,0:0:0:0:
448,192,89595,1,0,0:0:0:0:
320,192,89677,1,2,0:0:0:0:
192,192,89677,1,0,0:0:0:0:
64,192,89758,1,2,0:0:0:0:
448,192,89758,1,0,0:0:0:0:
320,192,89840,1,2,0:0:0:0:
192,192,89840,1,0,0:0:0:0:
64,192,90003,1,0,0:0:0:0:
320,192,90085,1,0,0:0:0:0:
448,192,90166,1,0,0:0:0:0:
64,192,90166,1,8,0:0:0:0:
192,192,90166,1,2,0:0:0:0:
320,192,90248,1,0,0:0:0:0:
192,192,90329,1,0,0:0:0:0:
320,192,90411,1,0,0:0:0:0:
192,192,90492,1,2,0:0:0:0:
64,192,90492,1,0,0:0:0:0:
448,192,90655,1,2,0:0:0:0:
320,192,90655,1,0,0:0:0:0:
192,192,90737,1,0,0:0:0:0:
448,192,90818,1,2,0:0:0:0:
64,192,90818,1,0,0:0:0:0:
320,192,90818,1,8,0:0:0:0:
192,192,90900,1,0,0:0:0:0:
448,192,90981,1,2,0:0:0:0:
64,192,90981,1,0,0:0:0:0:
320,192,91063,1,0,0:0:0:0:
64,192,91144,1,8,0:0:0:0:
192,192,91144,1,2,0:0:0:0:
448,192,91226,1,8,0:0:0:0:
320,192,91226,1,2,0:0:0:0:
64,192,91307,1,10,0:0:0:0:
448,192,91348,1,8,0:0:0:0:
320,192,91389,1,8,0:0:0:0:
192,192,91430,1,8,0:0:0:0:
448,192,91470,1,2,0:0:0:0:
64,192,91470,1,8,0:0:0:0:
192,192,91552,1,8,0:0:0:0:
320,192,91552,1,2,0:0:0:0:
448,192,91633,1,10,0:0:0:0:
64,192,91674,1,8,0:0:0:0:
192,192,91715,1,8,0:0:0:0:
320,192,91756,1,8,0:0:0:0:
448,192,91796,1,4,0:0:0:0:
64,192,91796,1,2,0:0:0:0:
448,192,91960,1,4,0:0:0:0:
192,192,91960,1,2,0:0:0:0:
320,192,92123,1,4,0:0:0:0:
64,192,92123,1,2,0:0:0:0:
448,192,92286,128,4,92612:0:0:0:0:
64,192,92286,128,2,92612:0:0:0:0:
320,192,92612,1,0,0:0:0:0:
192,192,92775,1,2,0:0:0:0:
64,192,92775,1,0,0:0:0:0:
320,192,92856,1,2,0:0:0:0:
448,192,92856,1,0,0:0:0:0:
192,192,92938,1,2,0:0:0:0:
64,192,92938,1,0,0:0:0:0:
320,192,93019,1,2,0:0:0:0:
448,192,93019,1,0,0:0:0:0:
192,192,93101,128,0,93427:0:0:0:0:
448,192,93427,1,4,0:0:0:0:
64,192,93427,1,0,0:0:0:0:
320,192,93427,1,2,0:0:0:0:
64,192,93753,128,0,94079:0:0:0:0:
448,192,93753,1,2,0:0:0:0:
192,192,93835,1,2,0:0:0:0:
320,192,93916,1,2,0:0:0:0:
448,192,93916,1,0,0:0:0:0:
192,192,93998,1,2,0:0:0:0:
320,192,94079,1,2,0:0:0:0:
448,192,94079,1,4,0:0:0:0:
192,192,94161,1,2,0:0:0:0:
448,192,94242,1,0,0:0:0:0:
64,192,94242,1,2,0:0:0:0:
320,192,94324,1,2,0:0:0:0:
64,192,94568,1,2,0:0:0:0:
448,192,94568,1,0,0:0:0:0:
320,192,94568,1,0,0:0:0:0:
64,192,94813,1,2,0:0:0:0:
192,192,94813,1,0,0:0:0:0:
448,192,94813,1,0,0:0:0:0:
320,192,95057,1,8,0:0:0:0:
448,192,95057,1,0,0:0:0:0:
192,192,95057,1,2,0:0:0:0:
64,192,95302,1,0,0:0:0:0:
192,192,95302,1,2,0:0:0:0:
320,192,95302,1,8,0:0:0:0:
448,192,95546,1,8,0:0:0:0:
192,192,95546,1,2,0:0:0:0:
64,192,95546,1,0,0:0:0:0:
448,192,95710,128,0,95873:0:0:0:0:
320,192,95710,128,0,95873:0:0:0:0:
64,192,95710,128,2,96036:0:0:0:0:
192,192,95873,1,0,0:0:0:0:
192,192,96036,1,8,0:0:0:0:
320,192,96036,1,2,0:0:0:0:
448,192,96036,1,4,0:0:0:0:
64,192,96117,1,0,0:0:0:0:
192,192,96199,1,0,0:0:0:0:
320,192,96280,1,0,0:0:0:0:
448,192,96362,1,2,0:0:0:0:
64,192,96362,1,0,0:0:0:0:
192,192,96443,1,0,0:0:0:0:
320,192,96525,1,0,0:0:0:0:
192,192,96606,1,0,0:0:0:0:
448,192,96688,1,8,0:0:0:0:
64,192,96688,1,0,0:0:0:0:
320,192,96688,1,2,0:0:0:0:
192,192,96769,1,0,0:0:0:0:
448,192,96851,1,0,0:0:0:0:
192,192,96932,1,0,0:0:0:0:
320,192,97014,1,2,0:0:0:0:
64,192,97014,1,0,0:0:0:0:
448,192,97177,1,0,0:0:0:0:
192,192,97177,1,0,0:0:0:0:
448,192,97340,1,0,0:0:0:0:
64,192,97340,1,2,0:0:0:0:
320,192,97340,1,8,0:0:0:0:
192,192,97503,1,0,0:0:0:0:
320,192,97503,1,0,0:0:0:0:
192,192,97666,1,0,0:0:0:0:
448,192,97666,1,2,0:0:0:0:
320,192,97829,1,0,0:0:0:0:
64,192,97911,1,0,0:0:0:0:
192,192,97992,1,0,0:0:0:0:
448,192,97992,1,8,0:0:0:0:
320,192,97992,1,2,0:0:0:0:
64,192,98074,1,0,0:0:0:0:
320,192,98155,1,0,0:0:0:0:
192,192,98237,1,0,0:0:0:0:
448,192,98318,1,2,0:0:0:0:
64,192,98318,1,0,0:0:0:0:
192,192,98481,1,0,0:0:0:0:
448,192,98563,1,0,0:0:0:0:
320,192,98644,1,0,0:0:0:0:
192,192,98644,1,8,0:0:0:0:
64,192,98644,1,2,0:0:0:0:
448,192,98807,1,0,0:0:0:0:
192,192,98889,1,0,0:0:0:0:
320,192,98970,1,0,0:0:0:0:
448,192,98970,1,2,0:0:0:0:
192,192,99052,1,0,0:0:0:0:
64,192,99133,1,0,0:0:0:0:
320,192,99215,1,0,0:0:0:0:
192,192,99296,1,2,0:0:0:0:
64,192,99296,1,8,0:0:0:0:
448,192,99296,1,0,0:0:0:0:
320,192,99378,1,0,0:0:0:0:
192,192,99460,1,0,0:0:0:0:
320,192,99541,1,0,0:0:0:0:
448,192,99623,1,0,0:0:0:0:
64,192,99623,1,2,0:0:0:0:
192,192,99786,1,0,0:0:0:0:
320,192,99867,1,0,0:0:0:0:
448,192,99867,1,0,0:0:0:0:
448,192,99949,1,8,0:0:0:0:
320,192,99949,1,2,0:0:0:0:
64,192,99949,1,0,0:0:0:0:
192,192,100112,1,0,0:0:0:0:
64,192,100275,1,0,0:0:0:0:
448,192,100275,1,2,0:0:0:0:
320,192,100438,1,0,0:0:0:0:
192,192,100601,1,2,0:0:0:0:
448,192,100601,1,0,0:0:0:0:
64,192,100601,1,8,0:0:0:0:
320,192,100764,1,0,0:0:0:0:
192,192,100764,1,2,0:0:0:0:
64,192,100927,1,2,0:0:0:0:
448,192,100927,1,0,0:0:0:0:
192,192,101090,1,0,0:0:0:0:
320,192,101171,1,0,0:0:0:0:
192,192,101253,1,8,0:0:0:0:
64,192,101253,1,0,0:0:0:0:
448,192,101253,1,2,0:0:0:0:
320,192,101335,1,0,0:0:0:0:
192,192,101416,1,0,0:0:0:0:
320,192,101498,1,0,0:0:0:0:
448,192,101579,1,0,0:0:0:0:
64,192,101579,1,2,0:0:0:0:
320,192,101661,1,0,0:0:0:0:
192,192,101742,1,0,0:0:0:0:
448,192,101824,1,0,0:0:0:0:
64,192,101905,1,0,0:0:0:0:
320,192,101905,1,2,0:0:0:0:
192,192,101905,1,8,0:0:0:0:
448,192,101987,1,0,0:0:0:0:
64,192,102068,1,0,0:0:0:0:
192,192,102150,1,0,0:0:0:0:
320,192,102231,1,2,0:0:0:0:
448,192,102231,1,0,0:0:0:0:
320,192,102394,1,0,0:0:0:0:
448,192,102394,1,0,0:0:0:0:
448,192,102557,1,2,0:0:0:0:
320,192,102557,1,8,0:0:0:0:
64,192,102557,1,0,0:0:0:0:
192,192,102720,1,0,0:0:0:0:
64,192,102720,1,0,0:0:0:0:
448,192,102883,1,0,0:0:0:0:
320,192,102883,1,2,0:0:0:0:
320,192,103046,1,0,0:0:0:0:
64,192,103046,128,0,103128:0:0:0:0:
192,192,103128,1,0,0:0:0:0:
320,192,103210,1,8,0:0:0:0:
448,192,103210,128,0,103291:0:0:0:0:
64,192,103210,1,2,0:0:0:0:
192,192,103291,1,0,0:0:0:0:
448,192,103373,1,0,0:0:0:0:
320,192,103373,128,0,103454:0:0:0:0:
192,192,103454,1,0,0:0:0:0:
64,192,103536,1,2,0:0:0:0:
448,192,103536,1,0,0:0:0:0:
320,192,103617,1,0,0:0:0:0:
64,192,103699,1,2,0:0:0:0:
192,192,103699,1,0,0:0:0:0:
448,192,103862,1,8,0:0:0:0:
192,192,103862,1,2,0:0:0:0:
64,192,103943,1,2,0:0:0:0:
320,192,103943,1,0,0:0:0:0:
448,192,104025,1,0,0:0:0:0:
192,192,104025,1,2,0:0:0:0:
64,192,104106,1,2,0:0:0:0:
320,192,104106,1,0,0:0:0:0:
192,192,104188,1,2,0:0:0:0:
448,192,104188,1,0,0:0:0:0:
64,192,104269,1,0,0:0:0:0:
320,192,104351,1,2,0:0:0:0:
448,192,104351,1,4,0:0:0:0:
448,192,104514,1,8,0:0:0:0:
64,192,104514,1,0,0:0:0:0:
192,192,104514,1,2,0:0:0:0:
320,192,104595,1,0,0:0:0:0:
192,192,104677,1,4,0:0:0:0:
64,192,104677,1,2,0:0:0:0:
320,192,104840,1,0,0:0:0:0:
448,192,104921,1,0,0:0:0:0:
64,192,105003,1,2,0:0:0:0:
192,192,105003,1,4,0:0:0:0:
320,192,105085,1,0,0:0:0:0:
448,192,105166,1,0,0:0:0:0:
192,192,105248,1,2,0:0:0:0:
64,192,105248,1,4,0:0:0:0:
320,192,105329,1,0,0:0:0:0:
64,192,105411,1,0,0:0:0:0:
192,192,105492,1,4,0:0:0:0:
320,192,105492,1,2,0:0:0:0:
448,192,105574,1,0,0:0:0:0:
64,192,105655,1,0,0:0:0:0:
192,192,105696,1,0,0:0:0:0:
320,192,105737,1,6,0:0:0:0:
448,192,105777,1,0,0:0:0:0:
64,192,105818,1,0,0:0:0:0:
192,192,105859,1,0,0:0:0:0:
320,192,105900,1,0,0:0:0:0:
448,192,105941,1,0,0:0:0:0:
64,192,105981,1,14,0:0:0:0:
192,192,106022,1,8,0:0:0:0:
320,192,106063,1,8,0:0:0:0:
448,192,106104,1,8,0:0:0:0:
64,192,106144,128,0,106470:0:0:0:0:
320,192,106307,1,0,0:0:0:0:
320,192,106470,1,8,0:0:0:0:
448,192,106470,1,4,0:0:0:0:
192,192,106470,1,2,0:0:0:0:
64,192,106552,1,0,0:0:0:0:
192,192,106633,1,0,0:0:0:0:
320,192,106715,1,0,0:0:0:0:
64,192,106796,1,0,0:0:0:0:
448,192,106796,1,2,0:0:0:0:
320,192,106878,1,0,0:0:0:0:
192,192,106960,1,0,0:0:0:0:
320,192,107041,1,0,0:0:0:0:
448,192,107123,1,2,0:0:0:0:
64,192,107123,1,0,0:0:0:0:
192,192,107123,1,8,0:0:0:0:
320,192,107204,1,0,0:0:0:0:
64,192,107286,1,0,0:0:0:0:
192,192,107367,1,0,0:0:0:0:
320,192,107449,1,2,0:0:0:0:
448,192,107449,1,0,0:0:0:0:
192,192,107530,1,0,0:0:0:0:
64,192,107612,1,0,0:0:0:0:
448,192,107693,1,0,0:0:0:0:
320,192,107775,1,2,0:0:0:0:
192,192,107775,1,8,0:0:0:0:
64,192,107775,1,0,0:0:0:0:
448,192,107856,1,0,0:0:0:0:
192,192,107938,1,0,0:0:0:0:
320,192,108019,1,0,0:0:0:0:
64,192,108101,1,0,0:0:0:0:
192,192,108101,1,2,0:0:0:0:
448,192,108264,1,0,0:0:0:0:
192,192,108345,1,0,0:0:0:0:
320,192,108345,1,0,0:0:0:0:
448,192,108427,1,8,0:0:0:0:
64,192,108427,1,2,0:0:0:0:
64,192,108590,1,0,0:0:0:0:
320,192,108590,1,0,0:0:0:0:
448,192,108753,1,0,0:0:0:0:
192,192,108753,1,2,0:0:0:0:
64,192,108916,1,0,0:0:0:0:
448,192,109079,1,2,0:0:0:0:
320,192,109079,1,0,0:0:0:0:
192,192,109079,1,8,0:0:0:0:
64,192,109161,1,0,0:0:0:0:
320,192,109242,1,0,0:0:0:0:
192,192,109324,1,0,0:0:0:0:
448,192,109405,1,2,0:0:0:0:
64,192,109405,1,0,0:0:0:0:
320,192,109487,1,0,0:0:0:0:
192,192,109568,1,0,0:0:0:0:
320,192,109650,1,0,0:0:0:0:
192,192,109731,1,8,0:0:0:0:
64,192,109731,1,0,0:0:0:0:
448,192,109731,1,2,0:0:0:0:
320,192,109894,1,0,0:0:0:0:
192,192,109976,1,0,0:0:0:0:
448,192,110057,1,2,0:0:0:0:
64,192,110057,1,0,0:0:0:0:
192,192,110139,1,0,0:0:0:0:
448,192,110220,1,0,0:0:0:0:
448,192,110302,1,0,0:0:0:0:
192,192,110383,1,2,0:0:0:0:
64,192,110383,1,8,0:0:0:0:
320,192,110383,1,0,0:0:0:0:
448,192,110465,1,0,0:0:0:0:
448,192,110546,1,0,0:0:0:0:
192,192,110710,1,2,0:0:0:0:
64,192,110710,1,0,0:0:0:0:
320,192,110791,1,0,0:0:0:0:
64,192,110873,1,2,0:0:0:0:
448,192,110873,1,0,0:0:0:0:
192,192,110954,1,0,0:0:0:0:
320,192,111036,1,2,0:0:0:0:
448,192,111036,1,8,0:0:0:0:
192,192,111117,1,2,0:0:0:0:
64,192,111117,1,0,0:0:0:0:
320,192,111199,1,2,0:0:0:0:
448,192,111199,1,0,0:0:0:0:
320,192,111280,1,2,0:0:0:0:
448,192,111280,1,0,0:0:0:0:
192,192,111362,1,2,0:0:0:0:
64,192,111362,1,0,0:0:0:0:
192,192,111525,1,0,0:0:0:0:
320,192,111688,1,8,0:0:0:0:
448,192,111688,1,2,0:0:0:0:
64,192,111688,1,0,0:0:0:0:
192,192,111851,1,4,0:0:0:0:
448,192,111851,1,2,0:0:0:0:
64,192,111851,1,0,0:0:0:0:
64,192,111932,1,0,0:0:0:0:
192,192,111932,1,0,0:0:0:0:
448,192,112095,1,0,0:0:0:0:
320,192,112095,1,0,0:0:0:0:
448,192,112177,1,2,0:0:0:0:
320,192,112177,1,4,0:0:0:0:
64,192,112177,1,0,0:0:0:0:
192,192,112258,1,0,0:0:0:0:
320,192,112340,1,8,0:0:0:0:
448,192,112340,1,2,0:0:0:0:
64,192,112421,1,0,0:0:0:0:
448,192,112503,1,0,0:0:0:0:
320,192,112503,1,2,0:0:0:0:
192,192,112503,1,4,0:0:0:0:
64,192,112585,1,0,0:0:0:0:
448,192,112666,1,0,0:0:0:0:
192,192,112829,1,0,0:0:0:0:
320,192,112911,1,0,0:0:0:0:
448,192,112992,1,0,0:0:0:0:
64,192,112992,1,2,0:0:0:0:
192,192,112992,1,8,0:0:0:0:
320,192,113155,1,2,0:0:0:0:
64,192,113155,1,0,0:0:0:0:
448,192,113155,1,0,0:0:0:0:
320,192,113237,1,0,0:0:0:0:
448,192,113237,1,0,0:0:0:0:
192,192,113400,1,0,0:0:0:0:
64,192,113400,1,0,0:0:0:0:
192,192,113481,1,2,0:0:0:0:
448,192,113481,1,0,0:0:0:0:
64,192,113481,1,0,0:0:0:0:
320,192,113644,1,8,0:0:0:0:
448,192,113644,1,2,0:0:0:0:
64,192,113644,1,0,0:0:0:0:
192,192,113726,1,2,0:0:0:0:
64,192,113807,1,2,0:0:0:0:
448,192,113807,1,0,0:0:0:0:
320,192,113889,1,0,0:0:0:0:
192,192,113889,1,2,0:0:0:0:
64,192,114133,1,0,0:0:0:0:
192,192,114215,1,0,0:0:0:0:
320,192,114296,1,8,0:0:0:0:
448,192,114296,1,2,0:0:0:0:
64,192,114296,1,0,0:0:0:0:
192,192,114378,1,0,0:0:0:0:
448,192,114460,1,0,0:0:0:0:
320,192,114541,1,0,0:0:0:0:
192,192,114623,1,0,0:0:0:0:
64,192,114623,1,2,0:0:0:0:
320,192,114704,1,0,0:0:0:0:
64,192,114786,1,0,0:0:0:0:
192,192,114867,1,0,0:0:0:0:
320,192,114949,1,8,0:0:0:0:
448,192,114949,1,2,0:0:0:0:
64,192,114949,1,0,0:0:0:0:
192,192,115030,1,0,0:0:0:0:
320,192,115112,1,0,0:0:0:0:
192,192,115193,1,0,0:0:0:0:
448,192,115275,1,8,0:0:0:0:
320,192,115275,1,2,0:0:0:0:
64,192,115275,1,0,0:0:0:0:
192,192,115356,1,0,0:0:0:0:
320,192,115438,1,2,0:0:0:0:
448,192,115438,1,8,0:0:0:0:
64,192,115519,1,0,0:0:0:0:
192,192,115601,1,0,0:0:0:0:
320,192,115601,1,2,0:0:0:0:
448,192,115601,1,8,0:0:0:0:
64,192,115682,1,0,0:0:0:0:
192,192,115764,1,2,0:0:0:0:
448,192,115764,1,8,0:0:0:0:
320,192,115845,1,0,0:0:0:0:
448,192,115927,1,8,0:0:0:0:
64,192,115927,1,0,0:0:0:0:
192,192,115927,1,2,0:0:0:0:
320,192,116008,1,0,0:0:0:0:
64,192,116090,1,8,0:0:0:0:
192,192,116090,1,2,0:0:0:0:
448,192,116171,1,0,0:0:0:0:
320,192,116253,1,8,0:0:0:0:
192,192,116253,1,2,0:0:0:0:
64,192,116253,1,0,0:0:0:0:
448,192,116335,1,0,0:0:0:0:
64,192,116416,1,8,0:0:0:0:
320,192,116416,1,2,0:0:0:0:
192,192,116498,1,0,0:0:0:0:
320,192,116579,1,2,0:0:0:0:
448,192,116579,1,0,0:0:0:0:
192,192,116661,1,2,0:0:0:0:
64,192,116661,1,0,0:0:0:0:
448,192,116742,1,8,0:0:0:0:
320,192,116783,1,8,0:0:0:0:
64,192,116824,1,8,0:0:0:0:
192,192,116864,1,8,0:0:0:0:
320,192,116905,1,2,0:0:0:0:
448,192,116905,1,8,0:0:0:0:
192,192,116987,1,2,0:0:0:0:
64,192,116987,1,0,0:0:0:0:
320,192,117068,1,8,0:0:0:0:
448,192,117109,1,8,0:0:0:0:
192,192,117150,1,8,0:0:0:0:
64,192,117191,1,8,0:0:0:0:
320,192,117231,1,2,0:0:0:0:
448,192,117231,1,8,0:0:0:0:
192,192,117313,1,2,0:0:0:0:
64,192,117313,1,0,0:0:0:0:
448,192,117394,1,8,0:0:0:0:
320,192,117435,1,8,0:0:0:0:
192,192,117476,1,8,0:0:0:0:
64,192,117517,1,8,0:0:0:0:
448,192,117557,1,8,0:0:0:0:
320,192,117557,1,2,0:0:0:0:
192,192,117639,1,2,0:0:0:0:
64,192,117639,1,0,0:0:0:0:
448,192,117720,1,8,0:0:0:0:
320,192,117761,1,8,0:0:0:0:
64,192,117802,1,8,0:0:0:0:
192,192,117843,1,8,0:0:0:0:
320,192,117883,1,2,0:0:0:0:
448,192,117883,1,8,0:0:0:0:
192,192,117965,1,2,0:0:0:0:
64,192,117965,1,0,0:0:0:0:
320,192,118046,1,8,0:0:0:0:
448,192,118087,1,8,0:0:0:0:
192,192,118128,1,8,0:0:0:0:
64,192,118169,1,8,0:0:0:0:
320,192,118210,1,2,0:0:0:0:
448,192,118210,1,8,0:0:0:0:
192,192,118291,1,2,0:0:0:0:
64,192,118291,1,0,0:0:0:0:
448,192,118373,1,8,0:0:0:0:
320,192,118413,1,8,0:0:0:0:
192,192,118454,1,8,0:0:0:0:
64,192,118495,1,8,0:0:0:0:
448,192,118536,1,8,0:0:0:0:
320,192,118536,1,2,0:0:0:0:
448,192,118699,1,0,0:0:0:0:
320,192,118699,1,2,0:0:0:0:
192,192,118780,1,0,0:0:0:0:
64,192,118862,128,0,119025:0:0:0:0:
448,192,119188,128,2,120166:0:0:0:0:
64,192,119188,128,0,121633:0:0:0:0:
320,192,119514,1,0,0:0:0:0:
192,192,119840,1,8,0:0:0:0:
192,192,120166,1,0,0:0:0:0:
320,192,120166,1,0,0:0:0:0:
192,192,120329,128,0,121307:0:0:0:0:
320,192,120329,1,0,0:0:0:0:
448,192,120492,1,0,0:0:0:0:
320,192,120818,1,0,0:0:0:0:
320,192,120981,1,0,0:0:0:0:
448,192,121144,128,8,121470:0:0:0:0:
320,192,121470,128,0,121633:0:0:0:0:
448,192,121633,128,0,122612:0:0:0:0:
64,192,121796,128,0,123101:0:0:0:0:
320,192,122123,1,0,0:0:0:0:
320,192,122286,1,0,0:0:0:0:
192,192,122449,1,8,0:0:0:0:
320,192,122612,1,0,0:0:0:0:
320,192,122775,1,0,0:0:0:0:
448,192,122938,1,8,0:0:0:0:
448,192,123101,128,0,123427:0:0:0:0:
192,192,123101,128,0,123753:0:0:0:0:
64,192,123427,128,8,123753:0:0:0:0:
320,192,123753,128,8,124405:0:0:0:0:
448,192,123916,1,8,0:0:0:0:
64,192,123970,1,8,0:0:0:0:
192,192,124025,1,8,0:0:0:0:
448,192,124079,128,8,124405:0:0:0:0:
64,192,124188,1,8,0:0:0:0:
192,192,124296,1,8,0:0:0:0:
64,192,124405,128,8,126199:0:0:0:0:
192,192,124731,1,0,0:0:0:0:
448,192,125057,1,8,0:0:0:0:
320,192,125383,1,0,0:0:0:0:
320,192,125546,128,0,126362:0:0:0:0:
448,192,125873,1,8,0:0:0:0:
192,192,126036,1,8,0:0:0:0:
448,192,126199,1,0,0:0:0:0:
192,192,126280,1,0,0:0:0:0:
64,192,126362,1,8,0:0:0:0:
448,192,126362,1,2,0:0:0:0:
320,192,126606,1,2,0:0:0:0:
64,192,126606,1,8,0:0:0:0:
192,192,126851,1,2,0:0:0:0:
64,192,126851,1,8,0:0:0:0:
448,192,127014,128,0,127340:0:0:0:0:
64,192,127340,1,8,0:0:0:0:
320,192,127340,1,2,0:0:0:0:
192,192,127421,1,0,0:0:0:0:
320,192,127503,1,2,0:0:0:0:
448,192,127503,1,0,0:0:0:0:
192,192,127585,1,0,0:0:0:0:
448,192,127666,128,0,127992:0:0:0:0:
64,192,127666,1,2,0:0:0:0:
192,192,127829,1,2,0:0:0:0:
320,192,127829,1,0,0:0:0:0:
64,192,127992,1,0,0:0:0:0:
192,192,127992,1,2,0:0:0:0:
320,192,128074,1,2,0:0:0:0:
448,192,128074,1,0,0:0:0:0:
64,192,128155,1,0,0:0:0:0:
192,192,128155,128,2,128481:0:0:0:0:
320,192,128237,1,2,0:0:0:0:
448,192,128237,1,0,0:0:0:0:
448,192,128481,1,0,0:0:0:0:
64,192,128481,1,2,0:0:0:0:
320,192,128481,1,4,0:0:0:0:
448,192,128644,128,0,128807:0:0:0:0:
64,192,128644,1,2,0:0:0:0:
320,192,128644,1,4,0:0:0:0:
64,192,128807,1,2,0:0:0:0:
192,192,128807,1,0,0:0:0:0:
320,192,128970,128,0,129133:0:0:0:0:
448,192,128970,1,2,0:0:0:0:
192,192,128970,1,4,0:0:0:0:
64,192,129133,1,8,0:0:0:0:
192,192,129174,1,8,0:0:0:0:
448,192,129215,1,8,0:0:0:0:
320,192,129256,1,8,0:0:0:0:
64,192,129296,1,8,0:0:0:0:
192,192,129296,1,2,0:0:0:0:
320,192,129378,1,2,0:0:0:0:
448,192,129378,1,0,0:0:0:0:
64,192,129460,1,8,0:0:0:0:
192,192,129500,1,8,0:0:0:0:
448,192,129541,1,8,0:0:0:0:
320,192,129582,1,8,0:0:0:0:
64,192,129623,128,0,129949:0:0:0:0:
320,192,129786,1,0,0:0:0:0:
448,192,129949,1,8,0:0:0:0:
320,192,129949,1,2,0:0:0:0:
192,192,129949,1,4,0:0:0:0:
448,192,130112,1,0,0:0:0:0:
64,192,130275,1,0,0:0:0:0:
192,192,130275,1,2,0:0:0:0:
320,192,130356,1,0,0:0:0:0:
192,192,130438,1,0,0:0:0:0:
320,192,130601,1,8,0:0:0:0:
64,192,130601,1,0,0:0:0:0:
448,192,130601,1,2,0:0:0:0:
192,192,130764,1,0,0:0:0:0:
320,192,130764,1,2,0:0:0:0:
448,192,130927,1,2,0:0:0:0:
64,192,130927,1,0,0:0:0:0:
320,192,131090,1,0,0:0:0:0:
192,192,131253,1,8,0:0:0:0:
64,192,131253,1,2,0:0:0:0:
448,192,131253,1,0,0:0:0:0:
320,192,131416,1,0,0:0:0:0:
192,192,131579,1,2,0:0:0:0:
448,192,131579,1,0,0:0:0:0:
64,192,131742,1,0,0:0:0:0:
320,192,131824,1,2,0:0:0:0:
448,192,131824,1,0,0:0:0:0:
64,192,131905,1,2,0:0:0:0:
192,192,131905,1,8,0:0:0:0:
192,192,132068,1,0,0:0:0:0:
320,192,132068,1,2,0:0:0:0:
448,192,132231,1,2,0:0:0:0:
64,192,132231,128,0,132557:0:0:0:0:
320,192,132394,1,0,0:0:0:0:
320,192,132557,1,2,0:0:0:0:
448,192,132557,1,8,0:0:0:0:
192,192,132557,1,0,0:0:0:0:
64,192,132720,1,0,0:0:0:0:
448,192,132883,1,0,0:0:0:0:
192,192,132883,1,2,0:0:0:0:
320,192,133046,1,0,0:0:0:0:
192,192,133128,1,0,0:0:0:0:
64,192,133210,1,0,0:0:0:0:
448,192,133210,1,2,0:0:0:0:
320,192,133210,1,8,0:0:0:0:
192,192,133373,1,2,0:0:0:0:
320,192,133373,1,0,0:0:0:0:
64,192,133536,1,0,0:0:0:0:
448,192,133536,1,2,0:0:0:0:
320,192,133699,1,0,0:0:0:0:
192,192,133862,1,2,0:0:0:0:
64,192,133862,1,8,0:0:0:0:
448,192,133862,1,0,0:0:0:0:
320,192,134025,1,0,0:0:0:0:
192,192,134188,1,2,0:0:0:0:
64,192,134188,1,0,0:0:0:0:
320,192,134351,1,0,0:0:0:0:
192,192,134351,1,2,0:0:0:0:
448,192,134514,1,2,0:0:0:0:
64,192,134514,1,8,0:0:0:0:
192,192,134595,1,0,0:0:0:0:
320,192,134595,1,2,0:0:0:0:
64,192,134677,1,0,0:0:0:0:
448,192,134677,1,2,0:0:0:0:
320,192,134758,1,2,0:0:0:0:
192,192,134758,1,0,0:0:0:0:
64,192,134840,1,0,0:0:0:0:
448,192,134840,1,2,0:0:0:0:
64,192,135003,1,0,0:0:0:0:
448,192,135003,1,2,0:0:0:0:
192,192,135166,1,2,0:0:0:0:
64,192,135166,1,8,0:0:0:0:
320,192,135248,1,2,0:0:0:0:
448,192,135248,1,0,0:0:0:0:
64,192,135329,1,0,0:0:0:0:
192,192,135329,1,2,0:0:0:0:
320,192,135411,1,2,0:0:0:0:
448,192,135411,1,0,0:0:0:0:
192,192,135492,1,2,0:0:0:0:
64,192,135492,1,0,0:0:0:0:
320,192,135655,1,0,0:0:0:0:
448,192,135737,1,0,0:0:0:0:
192,192,135737,1,0,0:0:0:0:
320,192,135818,1,8,0:0:0:0:
64,192,135818,1,2,0:0:0:0:
192,192,135981,1,0,0:0:0:0:
64,192,135981,1,0,0:0:0:0:
320,192,136144,1,2,0:0:0:0:
448,192,136144,1,0,0:0:0:0:
448,192,136307,1,2,0:0:0:0:
320,192,136307,1,0,0:0:0:0:
64,192,136470,1,2,0:0:0:0:
448,192,136470,1,8,0:0:0:0:
320,192,136552,1,2,0:0:0:0:
192,192,136552,1,0,0:0:0:0:
64,192,136633,1,0,0:0:0:0:
448,192,136633,1,2,0:0:0:0:
320,192,136715,1,2,0:0:0:0:
192,192,136715,1,0,0:0:0:0:
64,192,136796,1,0,0:0:0:0:
448,192,136796,1,2,0:0:0:0:
192,192,136960,1,0,0:0:0:0:
448,192,137041,1,0,0:0:0:0:
320,192,137041,1,0,0:0:0:0:
192,192,137123,1,8,0:0:0:0:
64,192,137123,1,2,0:0:0:0:
320,192,137204,1,0,0:0:0:0:
448,192,137286,1,0,0:0:0:0:
64,192,137367,1,0,0:0:0:0:
192,192,137449,1,2,0:0:0:0:
448,192,137449,128,0,137775:0:0:0:0:
320,192,137612,1,0,0:0:0:0:
192,192,137612,1,2,0:0:0:0:
64,192,137775,1,8,0:0:0:0:
320,192,137775,1,2,0:0:0:0:
192,192,137856,1,0,0:0:0:0:
64,192,137938,1,0,0:0:0:0:
448,192,137938,1,2,0:0:0:0:
320,192,138019,1,0,0:0:0:0:
192,192,138101,1,2,0:0:0:0:
64,192,138101,1,8,0:0:0:0:
448,192,138182,1,0,0:0:0:0:
320,192,138182,1,2,0:0:0:0:
192,192,138264,1,10,0:0:0:0:
64,192,138305,1,8,0:0:0:0:
320,192,138345,1,8,0:0:0:0:
448,192,138386,1,8,0:0:0:0:
192,192,138427,1,2,0:0:0:0:
64,192,138427,1,8,0:0:0:0:
320,192,138508,1,2,0:0:0:0:
448,192,138508,1,0,0:0:0:0:
64,192,138590,1,10,0:0:0:0:
192,192,138631,1,8,0:0:0:0:
448,192,138671,1,8,0:0:0:0:
320,192,138712,1,8,0:0:0:0:
64,192,138753,1,8,0:0:0:0:
192,192,138753,1,6,0:0:0:0:
448,192,138970,1,0,0:0:0:0:
64,192,138970,1,2,0:0:0:0:
320,192,138970,1,4,0:0:0:0:
448,192,139188,1,0,0:0:0:0:
320,192,139188,1,4,0:0:0:0:
192,192,139188,1,2,0:0:0:0:
192,192,139405,1,4,0:0:0:0:
320,192,139405,1,2,0:0:0:0:
64,192,139405,1,0,0:0:0:0:
64,192,139623,1,4,0:0:0:0:
448,192,139623,1,0,0:0:0:0:
320,192,139623,1,2,0:0:0:0:
448,192,139840,1,0,0:0:0:0:
64,192,139840,1,4,0:0:0:0:
320,192,139840,1,2,0:0:0:0:
64,192,140383,128,0,145275:0:0:0:0:
448,192,140383,1,4,0:0:0:0:
192,192,140383,1,2,0:0:0:0:
192,192,141362,1,0,0:0:0:0:
320,192,141525,1,0,0:0:0:0:
192,192,141796,1,0,0:0:0:0:
448,192,142014,1,0,0:0:0:0:
320,192,142258,1,0,0:0:0:0:
192,192,142503,1,0,0:0:0:0:
448,192,142666,128,0,147883:0:0:0:0:
192,192,142829,1,0,0:0:0:0:
320,192,142883,1,0,0:0:0:0:
192,192,143644,1,2,0:0:0:0:
320,192,143726,1,2,0:0:0:0:
192,192,143807,1,2,0:0:0:0:
320,192,143889,1,2,0:0:0:0:
192,192,143970,1,2,0:0:0:0:
320,192,144052,1,2,0:0:0:0:
192,192,144133,1,2,0:0:0:0:
320,192,144215,1,2,0:0:0:0:
192,192,144296,1,2,0:0:0:0:
320,192,144378,1,2,0:0:0:0:
192,192,144460,1,2,0:0:0:0:
320,192,144541,1,2,0:0:0:0:
192,192,144623,1,2,0:0:0:0:
320,192,144704,1,2,0:0:0:0:
192,192,144786,1,2,0:0:0:0:
320,192,144867,1,2,0:0:0:0:
192,192,144949,1,2,0:0:0:0:
320,192,145030,1,2,0:0:0:0:
192,192,145112,1,2,0:0:0:0:
320,192,145193,1,2,0:0:0:0:
192,192,145275,128,6,147883:0:0:0:0:
64,192,147883,1,0,0:0:0:0:
