osu file format v14

[General]
AudioFilename: audio.mp3
AudioLeadIn: 0
PreviewTime: -1
Countdown: 1
SampleSet: Normal
StackLeniency: 1
Mode: 3
LetterboxInBreaks: 0
SpecialStyle: 1
WidescreenStoryboard: 0

[Editor]
DistanceSpacing: 1.2
BeatDivisor: 4
GridSize: 4
TimelineZoom: 1

[Metadata]
Title:Magical Toy Box
TitleUnicode:Magical Toy Box
Artist:Shiron + Xi
ArtistUnicode:Shiron + Xi
Creator:qasv
Version:Magical
Source:VOEZ
Tags:VOEZ Magical Xi Shiron Yusuke Ishiwata
BeatmapID:1439571
BeatmapSetID:680874

[Difficulty]
HPDrainRate:10
CircleSize:4
OverallDifficulty:10
ApproachRate:10
SliderMultiplier:3.59999990463257
SliderTickRate:4

[Events]
//Background and Video events
0,0,"magicaltoybox.PNG",0,0
//Break Periods
2,61178,69984
2,127863,136506
//Storyboard Layer 0 (Background)
//Storyboard Layer 1 (Fail)
//Storyboard Layer 2 (Pass)
//Storyboard Layer 3 (Foreground)
//Storyboard Sound Samples

[TimingPoints]
0,326.086956521739,4,1,0,100,1,0

[HitObjects]
64,192,0,5,0,0:0:0:33:
192,192,0,1,0,0:0:0:33:
320,192,0,1,0,0:0:0:33:
448,192,0,1,0,0:0:0:33:
64,192,1304,1,0,0:0:0:33:
192,192,1304,1,0,0:0:0:33:
320,192,1304,1,0,0:0:0:33:
448,192,1304,1,0,0:0:0:33:
64,192,2608,1,0,0:0:0:33:
192,192,2608,1,0,0:0:0:33:
320,192,2608,1,0,0:0:0:33:
448,192,2608,1,0,0:0:0:33:
64,192,3913,1,0,0:0:0:33:
192,192,3913,1,0,0:0:0:33:
320,192,3913,1,0,0:0:0:33:
448,192,3913,1,0,0:0:0:33:
64,192,5217,1,0,0:0:0:66:
192,192,5217,1,0,0:0:0:66:
320,192,5258,1,0,0:0:0:133:
448,192,5298,128,0,6440:0:0:0:133:
320,192,6032,1,0,0:0:0:133:
192,192,6114,1,0,0:0:0:133:
64,192,6195,1,0,0:0:0:133:
192,192,6277,1,0,0:0:0:133:
64,192,6358,1,0,0:0:0:133:
320,192,6440,1,0,0:0:0:133:
64,192,6521,1,0,0:0:0:66:
320,192,6521,1,0,0:0:0:66:
448,192,6684,1,0,0:0:0:66:
64,192,6684,1,0,0:0:0:66:
64,192,7010,1,0,0:0:0:133:
192,192,7092,1,0,0:0:0:133:
320,192,7173,1,0,0:0:0:66:
448,192,7173,1,0,0:0:0:66:
320,192,7336,1,0,0:0:0:133:
448,192,7391,1,0,0:0:0:133:
64,192,7418,1,0,0:0:0:66:
192,192,7418,1,0,0:0:0:66:
320,192,7499,1,0,0:0:0:133:
448,192,7608,1,0,0:0:0:133:
320,192,7717,1,0,0:0:0:133:
192,192,7744,1,0,0:0:0:133:
64,192,7826,1,0,0:0:0:66:
448,192,7826,1,0,0:0:0:66:
320,192,7989,1,0,0:0:0:66:
64,192,7989,128,0,8478:0:0:0:66:
320,192,8315,1,0,0:0:0:133:
448,192,8396,1,0,0:0:0:133:
192,192,8478,1,0,0:0:0:133:
320,192,8532,1,0,0:0:0:133:
448,192,8586,1,0,0:0:0:133:
64,192,8641,1,0,0:0:0:133:
192,192,8695,1,0,0:0:0:133:
64,192,8804,1,0,0:0:0:133:
192,192,8858,1,0,0:0:0:133:
320,192,8913,1,0,0:0:0:133:
448,192,8967,1,0,0:0:0:133:
320,192,9048,1,0,0:0:0:133:
192,192,9130,1,0,0:0:0:133:
64,192,9211,1,0,0:0:0:133:
192,192,9293,1,0,0:0:0:133:
320,192,9374,1,0,0:0:0:133:
192,192,9456,1,0,0:0:0:133:
64,192,9538,1,0,0:0:0:133:
192,192,9619,1,0,0:0:0:133:
320,192,9701,1,0,0:0:0:133:
448,192,9782,1,0,0:0:0:133:
320,192,9864,1,0,0:0:0:133:
448,192,9945,1,0,0:0:0:133:
320,192,10027,1,0,0:0:0:133:
192,192,10108,1,0,0:0:0:133:
64,192,10190,1,0,0:0:0:133:
192,192,10271,1,0,0:0:0:133:
320,192,10353,1,0,0:0:0:133:
448,192,10434,1,0,0:0:0:66:
192,192,10434,1,0,0:0:0:66:
64,192,10597,1,0,0:0:0:66:
320,192,10597,1,0,0:0:0:66:
448,192,10760,1,0,0:0:0:66:
192,192,10760,1,0,0:0:0:66:
320,192,10923,1,0,0:0:0:44:
448,192,10923,1,0,0:0:0:44:
64,192,10923,128,0,11657:0:0:0:44:
320,192,11413,1,0,0:0:0:133:
192,192,11739,1,0,0:0:0:133:
320,192,11820,1,0,0:0:0:133:
448,192,11902,1,0,0:0:0:133:
320,192,11983,1,0,0:0:0:133:
192,192,12065,1,0,0:0:0:133:
64,192,12146,1,0,0:0:0:133:
192,192,12228,1,0,0:0:0:133:
320,192,12309,1,0,0:0:0:133:
448,192,12391,1,0,0:0:0:133:
320,192,12472,1,0,0:0:0:133:
192,192,12554,1,0,0:0:0:133:
64,192,12635,1,0,0:0:0:133:
192,192,12717,1,0,0:0:0:133:
320,192,12798,1,0,0:0:0:133:
448,192,12880,1,0,0:0:0:133:
320,192,12961,1,0,0:0:0:133:
192,192,13043,1,0,0:0:0:133:
64,192,13124,1,0,0:0:0:133:
192,192,13206,1,0,0:0:0:133:
320,192,13288,1,0,0:0:0:133:
448,192,13369,1,0,0:0:0:133:
320,192,13451,1,0,0:0:0:133:
192,192,13532,1,0,0:0:0:133:
64,192,13614,1,0,0:0:0:66:
448,192,13614,1,0,0:0:0:66:
192,192,13777,1,0,0:0:0:0:
320,192,13777,1,0,0:0:0:0:
64,192,14021,1,0,0:0:0:66:
192,192,14021,1,0,0:0:0:66:
192,192,14347,1,0,0:0:0:0:
320,192,14347,1,0,0:0:0:0:
448,192,14347,1,0,0:0:0:0:
64,192,14429,1,0,0:0:0:0:
192,192,14510,1,0,0:0:0:0:
320,192,14592,1,0,0:0:0:0:
448,192,14673,1,0,0:0:0:0:
320,192,14755,1,0,0:0:0:0:
192,192,14836,1,0,0:0:0:0:
64,192,14918,1,0,0:0:0:0:
192,192,14999,1,0,0:0:0:0:
320,192,15081,1,0,0:0:0:0:
448,192,15163,1,0,0:0:0:0:
320,192,15244,1,0,0:0:0:0:
192,192,15326,1,0,0:0:0:0:
64,192,15407,1,0,0:0:0:0:
192,192,15489,1,0,0:0:0:0:
320,192,15570,1,0,0:0:0:0:
448,192,15652,1,0,0:0:0:0:
320,192,15733,1,0,0:0:0:0:
192,192,15815,1,0,0:0:0:0:
64,192,15896,1,0,0:0:0:0:
192,192,15978,1,0,0:0:0:0:
320,192,16059,1,0,0:0:0:0:
448,192,16141,1,0,0:0:0:0:
320,192,16222,1,0,0:0:0:0:
192,192,16304,1,0,0:0:0:0:
64,192,16385,1,0,0:0:0:0:
192,192,16467,1,0,0:0:0:0:
320,192,16548,1,0,0:0:0:0:
448,192,16630,1,0,0:0:0:0:
192,192,16711,1,0,0:0:0:0:
64,192,16793,1,0,0:0:0:0:
192,192,16874,1,0,0:0:0:0:
64,192,16956,1,0,0:0:0:0:
192,192,17038,1,0,0:0:0:0:
320,192,17119,1,0,0:0:0:0:
448,192,17201,1,0,0:0:0:0:
320,192,17282,1,0,0:0:0:0:
192,192,17364,1,0,0:0:0:0:
64,192,17445,1,0,0:0:0:0:
192,192,17527,1,0,0:0:0:0:
320,192,17608,1,0,0:0:0:0:
448,192,17690,1,0,0:0:0:0:
320,192,17771,1,0,0:0:0:0:
192,192,17853,1,0,0:0:0:0:
64,192,17934,1,0,0:0:0:0:
192,192,18016,1,0,0:0:0:0:
320,192,18097,1,0,0:0:0:0:
448,192,18179,1,0,0:0:0:0:
320,192,18260,1,0,0:0:0:0:
192,192,18342,1,0,0:0:0:0:
64,192,18423,1,0,0:0:0:0:
192,192,18505,1,0,0:0:0:0:
320,192,18586,1,0,0:0:0:0:
448,192,18668,1,0,0:0:0:0:
320,192,18749,1,0,0:0:0:0:
192,192,18831,1,0,0:0:0:0:
64,192,18913,1,0,0:0:0:0:
192,192,18994,1,0,0:0:0:0:
320,192,19076,1,0,0:0:0:0:
448,192,19157,1,0,0:0:0:0:
320,192,19239,1,0,0:0:0:0:
448,192,19320,1,0,0:0:0:0:
320,192,19402,1,0,0:0:0:0:
192,192,19483,1,0,0:0:0:0:
448,192,19483,1,0,0:0:0:0:
64,192,19565,1,0,0:0:0:0:
192,192,19646,1,0,0:0:0:0:
320,192,19728,1,0,0:0:0:0:
320,192,19891,1,0,0:0:0:0:
448,192,19891,1,0,0:0:0:0:
192,192,19972,1,0,0:0:0:0:
192,192,20135,1,0,0:0:0:0:
320,192,20217,1,0,0:0:0:0:
64,192,20217,1,0,0:0:0:0:
320,192,20380,1,0,0:0:0:0:
192,192,20461,1,0,0:0:0:0:
448,192,20543,1,0,0:0:0:0:
192,192,20624,1,0,0:0:0:0:
320,192,20706,1,0,0:0:0:0:
320,192,20869,1,0,0:0:0:0:
64,192,20869,1,0,0:0:0:0:
192,192,20951,1,0,0:0:0:0:
192,192,21114,1,0,0:0:0:0:
320,192,21195,1,0,0:0:0:0:
448,192,21195,1,0,0:0:0:0:
320,192,21358,1,0,0:0:0:0:
192,192,21440,1,0,0:0:0:0:
64,192,21521,1,0,0:0:0:0:
192,192,21603,1,0,0:0:0:0:
320,192,21684,1,0,0:0:0:0:
320,192,21847,1,0,0:0:0:0:
448,192,21847,1,0,0:0:0:0:
192,192,21929,1,0,0:0:0:0:
192,192,22092,1,0,0:0:0:0:
64,192,22173,1,0,0:0:0:0:
448,192,22173,1,0,0:0:0:0:
320,192,22255,1,0,0:0:0:0:
192,192,22255,1,0,0:0:0:0:
64,192,22336,1,0,0:0:0:0:
448,192,22336,1,0,0:0:0:0:
192,192,22418,1,0,0:0:0:0:
320,192,22418,1,0,0:0:0:0:
64,192,22499,1,0,0:0:0:0:
448,192,22499,1,0,0:0:0:0:
320,192,22581,1,0,0:0:0:0:
192,192,22581,1,0,0:0:0:0:
64,192,22663,1,0,0:0:0:0:
448,192,22663,1,0,0:0:0:0:
192,192,22744,1,0,0:0:0:0:
320,192,22744,1,0,0:0:0:0:
64,192,22826,1,0,0:0:0:0:
448,192,22826,1,0,0:0:0:0:
320,192,22907,1,0,0:0:0:0:
192,192,22907,1,0,0:0:0:0:
64,192,22989,1,0,0:0:0:0:
448,192,22989,1,0,0:0:0:0:
192,192,23070,1,0,0:0:0:0:
320,192,23070,1,0,0:0:0:0:
64,192,23152,1,0,0:0:0:0:
448,192,23152,1,0,0:0:0:0:
192,192,23233,1,0,0:0:0:0:
320,192,23233,1,0,0:0:0:0:
64,192,23315,1,0,0:0:0:0:
448,192,23315,1,0,0:0:0:0:
192,192,23396,1,0,0:0:0:0:
320,192,23396,1,0,0:0:0:0:
448,192,23478,128,0,24048:0:0:0:0:
64,192,23478,128,0,24048:0:0:0:0:
192,192,24048,1,0,0:0:0:0:
320,192,24048,1,0,0:0:0:0:
192,192,24211,1,0,0:0:0:0:
320,192,24211,1,0,0:0:0:0:
320,192,24374,1,0,0:0:0:0:
448,192,24374,1,0,0:0:0:0:
64,192,24374,1,0,0:0:0:0:
192,192,24456,1,0,0:0:0:0:
320,192,24538,1,0,0:0:0:0:
192,192,24619,1,0,0:0:0:0:
320,192,24701,1,0,0:0:0:0:
64,192,24782,1,0,0:0:0:0:
448,192,24782,1,0,0:0:0:0:
192,192,24945,1,0,0:0:0:0:
320,192,25108,1,0,0:0:0:0:
448,192,25108,128,0,25434:0:0:0:0:
64,192,25434,1,0,0:0:0:0:
192,192,25597,1,0,0:0:0:0:
64,192,25760,1,0,0:0:0:0:
320,192,25760,1,0,0:0:0:0:
448,192,25760,1,0,0:0:0:0:
192,192,25923,128,0,26168:0:0:0:0:
64,192,25923,128,0,26168:0:0:0:0:
320,192,26249,128,0,26494:0:0:0:0:
448,192,26249,128,0,26494:0:0:0:0:
64,192,26576,128,0,26983:0:0:0:0:
192,192,26576,128,0,26983:0:0:0:0:
448,192,26576,128,0,26983:0:0:0:0:
320,192,26820,1,0,0:0:0:0:
320,192,27065,128,0,27391:0:0:0:0:
64,192,27391,1,0,0:0:0:0:
192,192,27391,1,0,0:0:0:0:
192,192,27717,1,0,0:0:0:0:
448,192,27717,1,0,0:0:0:0:
64,192,28043,1,0,0:0:0:0:
192,192,28043,1,0,0:0:0:0:
320,192,28206,1,0,0:0:0:0:
448,192,28206,1,0,0:0:0:0:
192,192,28206,1,0,0:0:0:0:
64,192,28532,1,0,0:0:0:0:
192,192,28532,1,0,0:0:0:0:
448,192,28532,1,0,0:0:0:0:
320,192,28858,1,0,0:0:0:0:
64,192,28940,1,0,0:0:0:0:
448,192,29184,1,0,0:0:0:0:
320,192,29184,1,0,0:0:0:0:
64,192,29510,1,0,0:0:0:0:
192,192,29510,1,0,0:0:0:0:
320,192,29836,1,0,0:0:0:0:
448,192,29836,1,0,0:0:0:0:
192,192,29877,1,0,0:0:0:0:
64,192,29877,1,0,0:0:0:0:
320,192,30326,1,0,0:0:0:0:
448,192,30489,1,0,0:0:0:0:
192,192,30652,1,0,0:0:0:0:
320,192,30652,1,0,0:0:0:0:
448,192,30815,1,0,0:0:0:0:
64,192,30815,1,0,0:0:0:0:
192,192,30896,1,0,0:0:0:0:
320,192,30978,1,0,0:0:0:0:
448,192,31059,1,0,0:0:0:0:
320,192,31141,1,0,0:0:0:0:
192,192,31222,1,0,0:0:0:0:
64,192,31304,1,0,0:0:0:0:
320,192,31304,1,0,0:0:0:0:
448,192,31304,1,0,0:0:0:0:
192,192,31467,1,0,0:0:0:0:
320,192,31467,1,0,0:0:0:0:
448,192,31467,1,0,0:0:0:0:
448,192,31630,1,0,0:0:0:0:
320,192,31630,1,0,0:0:0:0:
64,192,31630,128,0,32038:0:0:0:0:
192,192,32119,1,0,0:0:0:0:
320,192,32201,1,0,0:0:0:0:
448,192,32282,1,0,0:0:0:0:
320,192,32364,1,0,0:0:0:0:
192,192,32445,1,0,0:0:0:0:
64,192,32527,1,0,0:0:0:0:
64,192,32934,1,0,0:0:0:0:
320,192,32934,1,0,0:0:0:0:
64,192,33097,1,0,0:0:0:0:
320,192,33097,1,0,0:0:0:0:
448,192,33260,1,0,0:0:0:0:
192,192,33260,1,0,0:0:0:0:
448,192,33423,1,0,0:0:0:0:
320,192,33423,1,0,0:0:0:0:
64,192,33586,1,0,0:0:0:0:
64,192,33749,1,0,0:0:0:0:
192,192,33777,1,0,0:0:0:0:
320,192,33804,1,0,0:0:0:0:
448,192,33831,1,0,0:0:0:0:
64,192,33913,1,0,0:0:0:0:
192,192,33913,1,0,0:0:0:0:
64,192,34076,1,0,0:0:0:0:
320,192,34076,1,0,0:0:0:0:
448,192,34076,1,0,0:0:0:0:
64,192,34239,1,0,0:0:0:0:
192,192,34239,1,0,0:0:0:0:
64,192,34402,1,0,0:0:0:0:
320,192,34402,1,0,0:0:0:0:
448,192,34402,1,0,0:0:0:0:
448,192,34728,1,0,0:0:0:0:
320,192,34728,1,0,0:0:0:0:
192,192,34809,1,0,0:0:0:0:
64,192,34809,1,0,0:0:0:0:
320,192,34891,1,0,0:0:0:0:
448,192,34891,1,0,0:0:0:0:
64,192,35217,1,0,0:0:0:0:
192,192,35217,1,0,0:0:0:0:
320,192,35217,1,0,0:0:0:0:
448,192,35217,1,0,0:0:0:0:
320,192,35543,1,0,0:0:0:0:
448,192,35543,1,0,0:0:0:0:
192,192,35706,1,0,0:0:0:0:
64,192,35869,1,0,0:0:0:0:
320,192,36032,1,0,0:0:0:0:
192,192,36032,1,0,0:0:0:0:
64,192,36114,1,0,0:0:0:0:
320,192,36195,1,0,0:0:0:0:
448,192,36277,1,0,0:0:0:0:
64,192,36277,1,0,0:0:0:0:
320,192,36684,1,0,0:0:0:0:
448,192,36684,1,0,0:0:0:0:
192,192,36684,1,0,0:0:0:0:
192,192,37010,1,0,0:0:0:0:
448,192,37010,1,0,0:0:0:0:
64,192,37336,1,0,0:0:0:0:
448,192,37336,1,0,0:0:0:0:
320,192,37336,1,0,0:0:0:0:
192,192,37499,1,0,0:0:0:0:
320,192,37663,1,0,0:0:0:0:
448,192,37663,1,0,0:0:0:0:
64,192,37826,1,0,0:0:0:0:
192,192,37853,1,0,0:0:0:0:
320,192,37880,1,0,0:0:0:0:
448,192,37907,1,0,0:0:0:0:
448,192,38111,1,0,0:0:0:0:
320,192,38131,1,0,0:0:0:0:
192,192,38172,1,0,0:0:0:0:
64,192,38192,1,0,0:0:0:0:
64,192,38478,1,0,0:0:0:0:
320,192,38478,1,0,0:0:0:0:
192,192,38478,1,0,0:0:0:0:
448,192,38641,1,0,0:0:0:0:
320,192,38641,1,0,0:0:0:0:
192,192,38641,1,0,0:0:0:0:
64,192,38967,1,0,0:0:0:0:
320,192,38967,1,0,0:0:0:0:
192,192,39293,1,0,0:0:0:0:
320,192,39293,1,0,0:0:0:0:
448,192,39456,1,0,0:0:0:0:
192,192,39456,1,0,0:0:0:0:
64,192,39456,1,0,0:0:0:0:
320,192,39619,1,0,0:0:0:0:
192,192,39646,1,0,0:0:0:0:
64,192,39673,1,0,0:0:0:0:
448,192,39945,1,0,0:0:0:0:
320,192,39972,1,0,0:0:0:0:
192,192,39999,1,0,0:0:0:0:
64,192,40027,1,0,0:0:0:0:
192,192,40081,1,0,0:0:0:0:
320,192,40108,1,0,0:0:0:0:
448,192,40135,1,0,0:0:0:0:
448,192,40489,1,0,0:0:0:0:
320,192,40543,1,0,0:0:0:0:
192,192,40597,1,0,0:0:0:0:
64,192,40679,1,0,0:0:0:0:
448,192,40679,1,0,0:0:0:0:
192,192,40923,1,0,0:0:0:0:
64,192,40923,1,0,0:0:0:0:
64,192,41086,1,0,0:0:0:0:
320,192,41086,1,0,0:0:0:0:
448,192,41086,1,0,0:0:0:0:
192,192,41249,1,0,0:0:0:0:
320,192,41331,1,0,0:0:0:0:
448,192,41413,1,0,0:0:0:0:
64,192,41494,1,0,0:0:0:0:
192,192,41576,1,0,0:0:0:0:
320,192,41657,1,0,0:0:0:0:
448,192,41739,1,0,0:0:0:0:
192,192,41739,1,0,0:0:0:0:
64,192,41739,1,0,0:0:0:0:
192,192,41902,1,0,0:0:0:0:
448,192,41902,1,0,0:0:0:0:
64,192,42065,1,0,0:0:0:0:
320,192,42065,1,0,0:0:0:0:
448,192,42065,1,0,0:0:0:0:
192,192,42228,1,0,0:0:0:0:
320,192,42228,1,0,0:0:0:0:
448,192,42635,1,0,0:0:0:0:
192,192,42717,1,0,0:0:0:0:
64,192,42798,1,0,0:0:0:0:
192,192,42880,1,0,0:0:0:0:
64,192,43043,1,0,0:0:0:0:
320,192,43043,1,0,0:0:0:0:
64,192,43206,1,0,0:0:0:0:
320,192,43206,1,0,0:0:0:0:
192,192,43369,1,0,0:0:0:0:
448,192,43369,1,0,0:0:0:0:
192,192,43532,1,0,0:0:0:0:
448,192,43532,1,0,0:0:0:0:
320,192,43695,1,0,0:0:0:0:
64,192,43695,1,0,0:0:0:0:
320,192,43858,1,0,0:0:0:0:
64,192,43858,1,0,0:0:0:0:
448,192,44021,1,0,0:0:0:0:
192,192,44021,1,0,0:0:0:0:
448,192,44184,1,0,0:0:0:0:
192,192,44184,1,0,0:0:0:0:
64,192,44347,1,0,0:0:0:0:
448,192,44347,1,0,0:0:0:0:
192,192,44510,1,0,0:0:0:0:
320,192,44510,1,0,0:0:0:0:
192,192,44673,1,0,0:0:0:0:
320,192,44673,1,0,0:0:0:0:
448,192,44836,1,0,0:0:0:0:
64,192,44836,1,0,0:0:0:0:
64,192,45163,1,0,0:0:0:0:
192,192,45163,1,0,0:0:0:0:
320,192,45163,1,0,0:0:0:0:
448,192,45163,1,0,0:0:0:0:
64,192,45326,128,0,45896:0:0:0:0:
192,192,45353,1,0,0:0:0:0:
320,192,45380,1,0,0:0:0:0:
448,192,45407,1,0,0:0:0:0:
448,192,45652,1,0,0:0:0:0:
192,192,45652,1,0,0:0:0:0:
448,192,45896,1,0,0:0:0:0:
64,192,45978,1,0,0:0:0:0:
320,192,46059,1,0,0:0:0:0:
64,192,46141,1,0,0:0:0:0:
192,192,46222,1,0,0:0:0:0:
64,192,46304,1,0,0:0:0:0:
320,192,46385,1,0,0:0:0:0:
64,192,46467,1,0,0:0:0:0:
448,192,46548,1,0,0:0:0:0:
64,192,46630,1,0,0:0:0:0:
320,192,46711,1,0,0:0:0:0:
64,192,46793,1,0,0:0:0:0:
448,192,46874,1,0,0:0:0:0:
320,192,46956,1,0,0:0:0:0:
192,192,46956,1,0,0:0:0:0:
64,192,46956,128,0,47445:0:0:0:0:
192,192,47445,1,0,0:0:0:0:
320,192,47445,128,0,47934:0:0:0:0:
448,192,47934,1,0,0:0:0:0:
192,192,47934,128,0,48423:0:0:0:0:
320,192,48423,1,0,0:0:0:0:
448,192,48505,1,0,0:0:0:0:
320,192,48546,1,0,0:0:0:0:
192,192,48586,1,0,0:0:0:0:
64,192,48627,128,0,49524:0:0:0:0:
192,192,48913,1,0,0:0:0:0:
448,192,49076,1,0,0:0:0:0:
320,192,49116,128,0,49524:0:0:0:0:
192,192,49157,1,0,0:0:0:0:
192,192,49524,1,0,0:0:0:0:
448,192,49524,1,0,0:0:0:0:
448,192,49891,1,0,0:0:0:0:
448,192,49999,1,0,0:0:0:0:
448,192,50108,1,0,0:0:0:0:
448,192,50217,1,0,0:0:0:0:
192,192,50217,1,0,0:0:0:0:
448,192,50543,1,0,0:0:0:0:
448,192,50652,1,0,0:0:0:0:
448,192,50760,1,0,0:0:0:0:
448,192,50869,1,0,0:0:0:0:
64,192,50869,1,0,0:0:0:0:
320,192,50869,1,0,0:0:0:0:
448,192,51195,1,0,0:0:0:0:
448,192,51304,1,0,0:0:0:0:
448,192,51413,1,0,0:0:0:0:
448,192,51521,1,0,0:0:0:0:
320,192,51521,1,0,0:0:0:0:
64,192,51521,1,0,0:0:0:0:
448,192,51630,1,0,0:0:0:0:
448,192,51739,1,0,0:0:0:0:
320,192,51739,1,0,0:0:0:0:
192,192,51739,1,0,0:0:0:0:
448,192,51847,1,0,0:0:0:0:
448,192,51956,1,0,0:0:0:0:
64,192,51956,1,0,0:0:0:0:
192,192,51956,1,0,0:0:0:0:
448,192,52065,1,0,0:0:0:0:
448,192,52173,1,0,0:0:0:0:
64,192,52173,1,0,0:0:0:0:
320,192,52173,1,0,0:0:0:0:
192,192,52173,1,0,0:0:0:0:
448,192,52499,1,0,0:0:0:0:
448,192,52608,1,0,0:0:0:0:
448,192,52717,1,0,0:0:0:0:
448,192,52826,1,0,0:0:0:0:
192,192,52826,1,0,0:0:0:0:
320,192,52826,1,0,0:0:0:0:
448,192,53152,1,0,0:0:0:0:
448,192,53260,1,0,0:0:0:0:
448,192,53369,1,0,0:0:0:0:
448,192,53478,1,0,0:0:0:0:
64,192,53478,1,0,0:0:0:0:
192,192,53478,1,0,0:0:0:0:
448,192,53804,1,0,0:0:0:0:
448,192,53913,1,0,0:0:0:0:
448,192,54021,1,0,0:0:0:0:
448,192,54130,128,0,54456:0:0:0:0:
64,192,54130,1,0,0:0:0:0:
192,192,54130,1,0,0:0:0:0:
320,192,54293,128,0,54619:0:0:0:0:
192,192,54538,128,0,54782:0:0:0:0:
320,192,54782,128,0,55923:0:0:0:0:
192,192,55108,128,0,55353:0:0:0:0:
448,192,55271,128,0,55760:0:0:0:0:
192,192,55597,1,0,0:0:0:0:
64,192,55760,1,0,0:0:0:0:
192,192,55923,1,0,0:0:0:0:
320,192,56086,1,0,0:0:0:0:
448,192,56086,1,0,0:0:0:0:
64,192,56290,1,0,0:0:0:0:
192,192,56290,1,0,0:0:0:0:
320,192,56494,1,0,0:0:0:0:
448,192,56494,1,0,0:0:0:0:
64,192,56698,1,0,0:0:0:0:
192,192,56698,1,0,0:0:0:0:
320,192,56902,1,0,0:0:0:0:
448,192,56902,1,0,0:0:0:0:
64,192,57105,1,0,0:0:0:0:
192,192,57105,1,0,0:0:0:0:
64,192,57309,1,0,0:0:0:0:
448,192,57309,1,0,0:0:0:0:
320,192,57309,1,0,0:0:0:0:
192,192,57391,1,0,0:0:0:0:
320,192,57472,1,0,0:0:0:0:
64,192,57554,1,0,0:0:0:0:
192,192,57635,1,0,0:0:0:0:
448,192,57717,1,0,0:0:0:0:
192,192,57798,1,0,0:0:0:0:
64,192,57880,1,0,0:0:0:0:
320,192,57880,1,0,0:0:0:0:
448,192,57880,1,0,0:0:0:0:
192,192,57961,1,0,0:0:0:0:
64,192,58043,1,0,0:0:0:0:
192,192,58124,1,0,0:0:0:0:
320,192,58206,1,0,0:0:0:0:
320,192,58369,1,0,0:0:0:0:
448,192,58369,1,0,0:0:0:0:
64,192,58369,1,0,0:0:0:0:
192,192,58451,1,0,0:0:0:0:
64,192,58532,1,0,0:0:0:0:
64,192,58858,1,0,0:0:0:0:
192,192,58899,1,0,0:0:0:0:
320,192,58940,1,0,0:0:0:0:
448,192,58980,1,0,0:0:0:0:
192,192,59347,1,0,0:0:0:0:
448,192,59347,1,0,0:0:0:0:
64,192,59429,1,0,0:0:0:0:
192,192,59510,1,0,0:0:0:0:
320,192,59592,1,0,0:0:0:0:
448,192,59673,1,0,0:0:0:0:
192,192,59673,1,0,0:0:0:0:
64,192,59755,1,0,0:0:0:0:
320,192,59836,1,0,0:0:0:0:
192,192,59836,1,0,0:0:0:0:
448,192,59918,1,0,0:0:0:0:
320,192,59999,1,0,0:0:0:0:
192,192,59999,128,0,60244:0:0:0:0:
64,192,60244,1,0,0:0:0:0:
320,192,60326,1,0,0:0:0:0:
448,192,60407,1,0,0:0:0:0:
192,192,60407,1,0,0:0:0:0:
64,192,60489,1,0,0:0:0:0:
320,192,60570,1,0,0:0:0:0:
192,192,60652,1,0,0:0:0:0:
448,192,60815,1,0,0:0:0:0:
320,192,60815,1,0,0:0:0:0:
64,192,60978,1,0,0:0:0:0:
192,192,60978,1,0,0:0:0:0:
448,192,70434,132,0,71331:0:0:0:0:
192,192,70434,1,0,0:0:0:0:
320,192,71413,128,0,72309:0:0:0:0:
192,192,71413,1,0,0:0:0:0:
192,192,71576,128,0,72635:0:0:0:0:
64,192,71576,1,0,0:0:0:0:
320,192,72635,1,0,0:0:0:0:
448,192,72717,128,0,73206:0:0:0:0:
64,192,72880,128,0,73858:0:0:0:0:
448,192,73858,1,0,0:0:0:0:
320,192,73858,1,0,0:0:0:0:
192,192,74021,1,0,0:0:0:0:
64,192,74021,1,0,0:0:0:0:
320,192,74184,1,0,0:0:0:0:
448,192,74184,1,0,0:0:0:0:
64,192,74347,128,0,74592:0:0:0:0:
192,192,74347,1,0,0:0:0:0:
192,192,74673,128,0,74918:0:0:0:0:
320,192,74673,1,0,0:0:0:0:
320,192,74999,128,0,75244:0:0:0:0:
448,192,74999,1,0,0:0:0:0:
448,192,75326,128,0,75570:0:0:0:0:
64,192,75570,128,0,76548:0:0:0:0:
192,192,75570,1,0,0:0:0:0:
448,192,76630,128,0,76956:0:0:0:0:
320,192,76630,1,0,0:0:0:0:
192,192,76793,128,0,77527:0:0:0:0:
448,192,77527,128,0,78097:0:0:0:0:
320,192,77527,1,0,0:0:0:0:
64,192,77771,128,0,78342:0:0:0:0:
192,192,77771,1,0,0:0:0:0:
192,192,78097,128,0,78586:0:0:0:0:
320,192,78097,1,0,0:0:0:0:
320,192,78260,128,0,78831:0:0:0:0:
448,192,78260,1,0,0:0:0:0:
64,192,78668,1,0,0:0:0:0:
448,192,78749,1,0,0:0:0:0:
192,192,78831,1,0,0:0:0:0:
64,192,78913,1,0,0:0:0:0:
320,192,78994,1,0,0:0:0:0:
192,192,79076,1,0,0:0:0:0:
320,192,79157,1,0,0:0:0:0:
192,192,79239,1,0,0:0:0:0:
64,192,79320,128,0,79646:0:0:0:0:
320,192,79646,128,0,79972:0:0:0:0:
192,192,80054,1,0,0:0:0:0:
64,192,80135,1,0,0:0:0:0:
320,192,80217,1,0,0:0:0:0:
448,192,80217,1,0,0:0:0:0:
64,192,80298,1,0,0:0:0:0:
192,192,80326,1,0,0:0:0:0:
320,192,80353,1,0,0:0:0:0:
448,192,80380,1,0,0:0:0:0:
64,192,80461,1,0,0:0:0:0:
192,192,80543,1,0,0:0:0:0:
448,192,80624,1,0,0:0:0:0:
320,192,80652,1,0,0:0:0:0:
192,192,80679,1,0,0:0:0:0:
64,192,80706,1,0,0:0:0:0:
448,192,80706,128,0,81766:0:0:0:0:
320,192,81317,1,0,0:0:0:0:
192,192,81358,1,0,0:0:0:0:
64,192,81399,1,0,0:0:0:0:
64,192,81521,1,0,0:0:0:0:
192,192,81521,1,0,0:0:0:0:
320,192,81766,1,0,0:0:0:0:
64,192,81766,1,0,0:0:0:0:
192,192,82010,1,0,0:0:0:0:
320,192,82010,1,0,0:0:0:0:
448,192,82173,1,0,0:0:0:0:
64,192,82173,128,0,83070:0:0:0:0:
192,192,82826,128,0,84048:0:0:0:0:
448,192,83478,128,0,84538:0:0:0:0:
64,192,84048,1,0,0:0:0:0:
320,192,84293,1,0,0:0:0:0:
64,192,84538,1,0,0:0:0:0:
192,192,84538,1,0,0:0:0:0:
64,192,84728,1,0,0:0:0:0:
192,192,84728,1,0,0:0:0:0:
448,192,84728,1,0,0:0:0:0:
192,192,85434,1,0,0:0:0:0:
192,192,85679,1,0,0:0:0:0:
320,192,85760,1,0,0:0:0:0:
448,192,85842,1,0,0:0:0:0:
320,192,85923,1,0,0:0:0:0:
192,192,86005,1,0,0:0:0:0:
64,192,86086,1,0,0:0:0:0:
320,192,86086,1,0,0:0:0:0:
192,192,86249,1,0,0:0:0:0:
448,192,86249,1,0,0:0:0:0:
64,192,86576,1,0,0:0:0:0:
320,192,86576,1,0,0:0:0:0:
448,192,86657,1,0,0:0:0:0:
320,192,86657,1,0,0:0:0:0:
64,192,86739,1,0,0:0:0:0:
448,192,86739,1,0,0:0:0:0:
192,192,86902,1,0,0:0:0:0:
320,192,86902,1,0,0:0:0:0:
64,192,87173,1,0,0:0:0:0:
448,192,87173,1,0,0:0:0:0:
192,192,87336,1,0,0:0:0:0:
320,192,87336,1,0,0:0:0:0:
64,192,87554,1,0,0:0:0:0:
448,192,87554,1,0,0:0:0:0:
192,192,87554,1,0,0:0:0:0:
448,192,87798,1,0,0:0:0:0:
320,192,87880,1,0,0:0:0:0:
192,192,87961,1,0,0:0:0:0:
64,192,88043,1,0,0:0:0:0:
192,192,88124,1,0,0:0:0:0:
320,192,88206,1,0,0:0:0:0:
448,192,88288,1,0,0:0:0:0:
64,192,88369,1,0,0:0:0:0:
192,192,88451,1,0,0:0:0:0:
64,192,88532,1,0,0:0:0:0:
448,192,88614,1,0,0:0:0:0:
64,192,88695,1,0,0:0:0:0:
192,192,88777,1,0,0:0:0:0:
448,192,88777,1,0,0:0:0:0:
64,192,88858,1,0,0:0:0:0:
320,192,88940,1,0,0:0:0:0:
64,192,89021,1,0,0:0:0:0:
320,192,89103,1,0,0:0:0:0:
448,192,89184,1,0,0:0:0:0:
192,192,89266,1,0,0:0:0:0:
448,192,89347,1,0,0:0:0:0:
64,192,89429,1,0,0:0:0:0:
448,192,89510,1,0,0:0:0:0:
192,192,89592,5,0,0:0:0:0:
448,192,89673,5,0,0:0:0:0:
64,192,89755,1,0,0:0:0:0:
448,192,89836,1,0,0:0:0:0:
320,192,89836,1,0,0:0:0:0:
64,192,89999,5,0,0:0:0:0:
192,192,89999,1,0,0:0:0:0:
320,192,90163,1,0,0:0:0:0:
448,192,90163,1,0,0:0:0:0:
192,192,90326,1,0,0:0:0:0:
320,192,90326,1,0,0:0:0:0:
192,192,90489,1,0,0:0:0:0:
448,192,90489,1,0,0:0:0:0:
320,192,90489,128,0,91222:0:0:0:0:
64,192,90489,128,0,90978:0:0:0:0:
192,192,90978,1,0,0:0:0:0:
448,192,90978,1,0,0:0:0:0:
64,192,91304,1,0,0:0:0:0:
192,192,91304,128,0,91956:0:0:0:0:
448,192,91304,128,0,91548:0:0:0:0:
448,192,91630,128,0,92282:0:0:0:0:
64,192,91630,1,0,0:0:0:0:
320,192,91630,1,0,0:0:0:0:
64,192,91956,1,0,0:0:0:0:
320,192,91956,128,0,92771:0:0:0:0:
192,192,92282,1,0,0:0:0:0:
64,192,92282,128,0,92771:0:0:0:0:
192,192,92771,5,0,0:0:0:66:
448,192,92771,1,0,0:0:0:0:
320,192,93016,1,0,0:0:0:66:
448,192,93016,1,0,0:0:0:66:
192,192,93260,1,0,0:0:0:66:
320,192,93260,1,0,0:0:0:66:
64,192,93505,5,0,0:0:0:66:
448,192,93505,1,0,0:0:0:66:
192,192,93749,1,0,0:0:0:66:
320,192,93749,1,0,0:0:0:66:
64,192,93913,128,0,95815:0:0:0:133:
192,192,93994,1,0,0:0:0:133:
320,192,94076,1,0,0:0:0:133:
448,192,94157,1,0,0:0:0:133:
192,192,94239,1,0,0:0:0:133:
448,192,94320,1,0,0:0:0:133:
192,192,94402,1,0,0:0:0:133:
320,192,94483,1,0,0:0:0:133:
448,192,94565,1,0,0:0:0:133:
192,192,94646,1,0,0:0:0:133:
320,192,94728,1,0,0:0:0:133:
448,192,94809,1,0,0:0:0:133:
320,192,94891,1,0,0:0:0:133:
192,192,94972,1,0,0:0:0:133:
320,192,95054,1,0,0:0:0:133:
448,192,95135,1,0,0:0:0:133:
192,192,95217,1,0,0:0:0:66:
320,192,95217,1,0,0:0:0:66:
448,192,95298,1,0,0:0:0:133:
320,192,95380,1,0,0:0:0:133:
448,192,95461,1,0,0:0:0:66:
192,192,95461,1,0,0:0:0:66:
320,192,95543,1,0,0:0:0:133:
448,192,95624,128,0,96032:0:0:0:0:
320,192,96032,1,0,0:0:0:0:
192,192,96114,1,0,0:0:0:0:
64,192,96195,1,0,0:0:0:0:
192,192,96277,1,0,0:0:0:0:
320,192,96358,1,0,0:0:0:0:
448,192,96358,128,0,96603:0:0:0:0:
192,192,96603,1,0,0:0:0:133:
64,192,96684,1,0,0:0:0:133:
192,192,96766,1,0,0:0:0:133:
320,192,96847,1,0,0:0:0:133:
448,192,96929,1,0,0:0:0:133:
192,192,97010,1,0,0:0:0:133:
64,192,97092,1,0,0:0:0:66:
448,192,97092,1,0,0:0:0:66:
320,192,97173,1,0,0:0:0:133:
192,192,97255,1,0,0:0:0:133:
64,192,97336,1,0,0:0:0:133:
448,192,97418,1,0,0:0:0:133:
320,192,97499,1,0,0:0:0:133:
192,192,97581,1,0,0:0:0:133:
64,192,97663,1,0,0:0:0:133:
64,192,97826,1,0,0:0:0:66:
448,192,97826,1,0,0:0:0:66:
64,192,98070,1,0,0:0:0:44:
192,192,98070,1,0,0:0:0:44:
320,192,98070,1,0,0:0:0:44:
320,192,98152,1,0,0:0:0:44:
64,192,98152,1,0,0:0:0:44:
448,192,98152,1,0,0:0:0:44:
64,192,98478,128,0,98641:0:0:0:66:
320,192,98478,128,0,98641:0:0:0:66:
448,192,98804,128,0,99048:0:0:0:66:
64,192,98804,128,0,99048:0:0:0:66:
192,192,99130,1,0,0:0:0:66:
320,192,99130,1,0,0:0:0:66:
192,192,99293,1,0,0:0:0:133:
64,192,99374,1,0,0:0:0:66:
448,192,99374,1,0,0:0:0:66:
192,192,99456,1,0,0:0:0:133:
320,192,99538,1,0,0:0:0:133:
448,192,99619,1,0,0:0:0:133:
320,192,99701,1,0,0:0:0:66:
64,192,99701,1,0,0:0:0:66:
192,192,99782,1,0,0:0:0:66:
448,192,99782,1,0,0:0:0:66:
320,192,99864,1,0,0:0:0:133:
192,192,99945,1,0,0:0:0:133:
320,192,100027,1,0,0:0:0:133:
448,192,100108,1,0,0:0:0:133:
64,192,100190,1,0,0:0:0:133:
192,192,100271,1,0,0:0:0:133:
320,192,100353,1,0,0:0:0:133:
448,192,100434,128,0,100760:0:0:0:0:
64,192,100434,128,0,100597:0:0:0:0:
320,192,100597,128,0,100679:0:0:0:66:
192,192,100597,128,0,100760:0:0:0:0:
64,192,100760,128,0,100923:0:0:0:0:
320,192,100923,128,0,101086:0:0:0:0:
448,192,100923,128,0,101168:0:0:0:0:
192,192,101249,1,0,0:0:0:66:
320,192,101249,1,0,0:0:0:66:
64,192,101331,1,0,0:0:0:66:
448,192,101331,1,0,0:0:0:66:
192,192,101413,1,0,0:0:0:66:
320,192,101413,1,0,0:0:0:66:
64,192,101494,1,0,0:0:0:66:
448,192,101494,1,0,0:0:0:66:
320,192,101576,1,0,0:0:0:66:
192,192,101576,1,0,0:0:0:66:
448,192,101657,1,0,0:0:0:133:
320,192,101739,1,0,0:0:0:133:
64,192,101820,1,0,0:0:0:133:
192,192,101902,1,0,0:0:0:133:
448,192,101983,1,0,0:0:0:133:
320,192,102065,1,0,0:0:0:133:
64,192,102146,1,0,0:0:0:133:
192,192,102228,1,0,0:0:0:133:
448,192,102309,1,0,0:0:0:133:
320,192,102391,1,0,0:0:0:133:
64,192,102472,1,0,0:0:0:133:
192,192,102554,1,0,0:0:0:133:
320,192,102635,1,0,0:0:0:133:
448,192,102717,1,0,0:0:0:133:
192,192,102798,1,0,0:0:0:133:
64,192,102880,1,0,0:0:0:133:
320,192,102961,1,0,0:0:0:133:
448,192,103043,1,0,0:0:0:133:
64,192,103124,1,0,0:0:0:133:
192,192,103206,1,0,0:0:0:133:
320,192,103288,1,0,0:0:0:133:
448,192,103369,1,0,0:0:0:133:
64,192,103451,1,0,0:0:0:133:
192,192,103532,1,0,0:0:0:133:
320,192,103614,1,0,0:0:0:133:
448,192,103695,1,0,0:0:0:133:
320,192,103777,1,0,0:0:0:133:
64,192,103858,1,0,0:0:0:133:
192,192,103879,1,0,0:0:0:133:
320,192,103899,1,0,0:0:0:133:
448,192,103919,1,0,0:0:0:133:
320,192,103940,1,0,0:0:0:133:
192,192,103960,1,0,0:0:0:133:
64,192,103980,1,0,0:0:0:133:
192,192,104001,1,0,0:0:0:133:
320,192,104021,1,0,0:0:0:133:
448,192,104042,1,0,0:0:0:133:
320,192,104062,1,0,0:0:0:133:
192,192,104082,1,0,0:0:0:133:
64,192,104103,1,0,0:0:0:133:
192,192,104123,1,0,0:0:0:133:
320,192,104144,1,0,0:0:0:133:
448,192,104164,1,0,0:0:0:133:
320,192,104347,1,0,0:0:0:133:
448,192,104429,1,0,0:0:0:66:
192,192,104429,1,0,0:0:0:66:
64,192,104510,1,0,0:0:0:133:
320,192,104592,1,0,0:0:0:133:
64,192,104673,1,0,0:0:0:133:
192,192,104755,1,0,0:0:0:133:
320,192,104836,1,0,0:0:0:133:
448,192,104918,1,0,0:0:0:66:
64,192,104918,1,0,0:0:0:66:
192,192,104999,1,0,0:0:0:133:
320,192,105081,1,0,0:0:0:133:
192,192,105163,1,0,0:0:0:133:
64,192,105244,1,0,0:0:0:66:
320,192,105244,1,0,0:0:0:66:
448,192,105326,1,0,0:0:0:133:
192,192,105407,1,0,0:0:0:133:
320,192,105489,1,0,0:0:0:66:
448,192,105489,1,0,0:0:0:66:
192,192,105570,1,0,0:0:0:66:
64,192,105570,1,0,0:0:0:66:
320,192,105652,1,0,0:0:0:133:
448,192,105733,1,0,0:0:0:133:
320,192,105815,1,0,0:0:0:133:
192,192,105896,1,0,0:0:0:66:
64,192,105896,1,0,0:0:0:66:
320,192,105978,1,0,0:0:0:66:
448,192,105978,1,0,0:0:0:66:
192,192,106059,1,0,0:0:0:133:
64,192,106141,1,0,0:0:0:66:
320,192,106141,1,0,0:0:0:66:
448,192,106222,1,0,0:0:0:133:
320,192,106304,1,0,0:0:0:133:
192,192,106385,1,0,0:0:0:66:
64,192,106385,1,0,0:0:0:66:
320,192,106467,1,0,0:0:0:133:
448,192,106548,1,0,0:0:0:133:
192,192,106630,1,0,0:0:0:66:
64,192,106630,1,0,0:0:0:66:
192,192,106711,1,0,0:0:0:66:
64,192,106711,1,0,0:0:0:66:
320,192,106793,128,0,107771:0:0:0:133:
64,192,106956,1,0,0:0:0:0:
192,192,106956,1,0,0:0:0:0:
64,192,107282,1,0,0:0:0:0:
192,192,107282,1,0,0:0:0:0:
192,192,107608,1,0,0:0:0:133:
64,192,107690,1,0,0:0:0:133:
192,192,107771,1,0,0:0:0:133:
448,192,107853,1,0,0:0:0:133:
448,192,107934,1,0,0:0:0:133:
192,192,108016,1,0,0:0:0:133:
64,192,108097,1,0,0:0:0:133:
64,192,108179,1,0,0:0:0:133:
448,192,108423,1,0,0:0:0:66:
192,192,108423,1,0,0:0:0:66:
448,192,108505,1,0,0:0:0:66:
192,192,108505,1,0,0:0:0:66:
64,192,108586,1,0,0:0:0:66:
320,192,108586,1,0,0:0:0:66:
192,192,108668,1,0,0:0:0:133:
320,192,108749,1,0,0:0:0:133:
448,192,108831,1,0,0:0:0:66:
192,192,108831,1,0,0:0:0:66:
64,192,108913,1,0,0:0:0:66:
320,192,108913,1,0,0:0:0:66:
448,192,108994,1,0,0:0:0:66:
192,192,108994,1,0,0:0:0:66:
448,192,109076,1,0,0:0:0:66:
192,192,109076,1,0,0:0:0:66:
448,192,109157,1,0,0:0:0:66:
192,192,109157,1,0,0:0:0:66:
192,192,109239,1,0,0:0:0:66:
448,192,109239,1,0,0:0:0:66:
64,192,109320,1,0,0:0:0:133:
320,192,109402,1,0,0:0:0:133:
448,192,109483,1,0,0:0:0:133:
192,192,109565,1,0,0:0:0:133:
64,192,109646,1,0,0:0:0:133:
320,192,109728,1,0,0:0:0:133:
448,192,109809,1,0,0:0:0:133:
192,192,109891,1,0,0:0:0:133:
64,192,109972,1,0,0:0:0:133:
192,192,110054,1,0,0:0:0:133:
192,192,110217,1,0,0:0:0:66:
64,192,110217,1,0,0:0:0:66:
320,192,110298,1,0,0:0:0:66:
448,192,110298,1,0,0:0:0:66:
192,192,110380,1,0,0:0:0:133:
320,192,110461,1,0,0:0:0:133:
448,192,110543,1,0,0:0:0:66:
64,192,110543,1,0,0:0:0:66:
192,192,110597,1,0,0:0:0:133:
320,192,110652,1,0,0:0:0:133:
448,192,110706,1,0,0:0:0:133:
320,192,110788,128,0,111114:0:0:0:0:
64,192,111114,1,0,0:0:0:66:
192,192,111114,1,0,0:0:0:66:
192,192,111195,1,0,0:0:0:66:
320,192,111195,1,0,0:0:0:0:
320,192,111277,1,0,0:0:0:66:
448,192,111277,1,0,0:0:0:66:
320,192,111440,1,0,0:0:0:133:
192,192,111521,1,0,0:0:0:133:
448,192,111603,1,0,0:0:0:133:
64,192,111684,1,0,0:0:0:66:
320,192,111684,1,0,0:0:0:66:
192,192,111766,1,0,0:0:0:133:
320,192,111847,1,0,0:0:0:133:
448,192,111929,1,0,0:0:0:133:
192,192,112010,1,0,0:0:0:66:
320,192,112010,1,0,0:0:0:66:
64,192,112092,1,0,0:0:0:133:
192,192,112173,1,0,0:0:0:44:
320,192,112173,1,0,0:0:0:44:
448,192,112173,1,0,0:0:0:44:
448,192,112336,1,0,0:0:0:133:
320,192,112418,1,0,0:0:0:133:
192,192,112499,1,0,0:0:0:133:
64,192,112581,1,0,0:0:0:133:
192,192,112663,1,0,0:0:0:133:
320,192,112744,1,0,0:0:0:133:
448,192,112826,1,0,0:0:0:133:
320,192,112907,1,0,0:0:0:133:
192,192,112989,1,0,0:0:0:133:
64,192,113070,1,0,0:0:0:133:
192,192,113152,1,0,0:0:0:133:
320,192,113233,1,0,0:0:0:133:
448,192,113315,1,0,0:0:0:133:
320,192,113396,1,0,0:0:0:133:
192,192,113478,1,0,0:0:0:133:
64,192,113559,1,0,0:0:0:133:
320,192,113641,1,0,0:0:0:133:
192,192,113722,1,0,0:0:0:133:
320,192,113804,1,0,0:0:0:133:
192,192,113885,1,0,0:0:0:133:
320,192,113967,1,0,0:0:0:133:
192,192,114048,1,0,0:0:0:133:
320,192,114130,1,0,0:0:0:133:
192,192,114211,1,0,0:0:0:133:
320,192,114293,1,0,0:0:0:133:
448,192,114374,1,0,0:0:0:133:
192,192,114456,1,0,0:0:0:133:
64,192,114538,1,0,0:0:0:133:
192,192,114619,1,0,0:0:0:44:
320,192,114619,1,0,0:0:0:44:
448,192,114619,1,0,0:0:0:44:
64,192,114701,1,0,0:0:0:133:
448,192,114864,1,0,0:0:0:133:
320,192,114891,1,0,0:0:0:133:
192,192,114918,1,0,0:0:0:133:
64,192,114945,1,0,0:0:0:133:
448,192,115217,1,0,0:0:0:133:
320,192,115230,1,0,0:0:0:133:
192,192,115251,1,0,0:0:0:133:
64,192,115271,1,0,0:0:0:133:
64,192,115597,1,0,0:0:0:133:
192,192,115624,1,0,0:0:0:133:
320,192,115652,1,0,0:0:0:133:
448,192,115679,1,0,0:0:0:133:
64,192,115923,1,0,0:0:0:133:
192,192,115951,1,0,0:0:0:133:
320,192,115978,1,0,0:0:0:133:
448,192,116005,1,0,0:0:0:133:
448,192,116249,1,0,0:0:0:133:
320,192,116277,1,0,0:0:0:133:
192,192,116304,1,0,0:0:0:133:
64,192,116331,1,0,0:0:0:133:
448,192,116576,1,0,0:0:0:133:
320,192,116603,1,0,0:0:0:133:
192,192,116630,1,0,0:0:0:133:
64,192,116657,1,0,0:0:0:133:
64,192,116902,1,0,0:0:0:0:
448,192,116902,1,0,0:0:0:0:
192,192,116902,1,0,0:0:0:0:
320,192,116902,1,0,0:0:0:0:
448,192,117065,1,0,0:0:0:0:
192,192,117065,1,0,0:0:0:0:
320,192,117065,1,0,0:0:0:0:
64,192,117065,1,0,0:0:0:0:
192,192,117391,128,0,118369:0:0:0:66:
448,192,117391,128,0,118369:0:0:0:66:
64,192,118369,1,0,0:0:0:66:
320,192,118369,1,0,0:0:0:66:
192,192,118532,1,0,0:0:0:33:
448,192,118532,1,0,0:0:0:33:
64,192,118532,128,0,119673:0:0:0:33:
320,192,118532,128,0,119673:0:0:0:33:
192,192,119673,1,0,0:0:0:66:
448,192,119673,1,0,0:0:0:66:
64,192,119836,1,0,0:0:0:33:
320,192,119836,1,0,0:0:0:33:
192,192,119836,128,0,120570:0:0:0:33:
448,192,119836,128,0,120570:0:0:0:33:
64,192,120815,1,0,0:0:0:44:
192,192,120815,1,0,0:0:0:44:
448,192,120815,1,0,0:0:0:44:
320,192,120978,1,0,0:0:0:44:
448,192,120978,1,0,0:0:0:44:
192,192,120978,1,0,0:0:0:44:
64,192,121141,1,0,0:0:0:44:
320,192,121141,1,0,0:0:0:44:
448,192,121141,1,0,0:0:0:44:
320,192,121304,1,0,0:0:0:44:
448,192,121304,128,0,122608:0:0:0:44:
192,192,121304,128,0,121630:0:0:0:44:
64,192,121630,128,0,121956:0:0:0:0:
320,192,121956,128,0,122201:0:0:0:0:
192,192,122282,128,0,122527:0:0:0:0:
320,192,122445,128,0,122690:0:0:0:66:
64,192,122445,128,0,122690:0:0:0:66:
192,192,122608,128,0,123749:0:0:0:133:
64,192,123586,1,0,0:0:0:133:
320,192,123749,1,0,0:0:0:44:
448,192,123749,1,0,0:0:0:44:
64,192,123749,128,0,124483:0:0:0:44:
192,192,124565,128,0,124728:0:0:0:66:
320,192,124565,128,0,124728:0:0:0:66:
64,192,124809,128,0,124972:0:0:0:66:
448,192,124809,128,0,124972:0:0:0:66:
192,192,124972,128,0,125380:0:0:0:66:
320,192,124972,128,0,125380:0:0:0:66:
64,192,125217,128,0,125380:0:0:0:66:
448,192,125217,128,0,125380:0:0:0:66:
192,192,125543,1,0,0:0:0:133:
64,192,125624,1,0,0:0:0:66:
320,192,125624,1,0,0:0:0:66:
448,192,125706,1,0,0:0:0:133:
320,192,125788,1,0,0:0:0:133:
192,192,125869,1,0,0:0:0:133:
320,192,125951,1,0,0:0:0:133:
448,192,126032,1,0,0:0:0:133:
64,192,126114,1,0,0:0:0:133:
320,192,126195,1,0,0:0:0:133:
192,192,126277,1,0,0:0:0:66:
448,192,126277,1,0,0:0:0:66:
320,192,126358,1,0,0:0:0:133:
64,192,126440,1,0,0:0:0:133:
192,192,126521,1,0,0:0:0:133:
320,192,126603,1,0,0:0:0:133:
448,192,126684,1,0,0:0:0:133:
320,192,126766,1,0,0:0:0:133:
192,192,126847,1,0,0:0:0:133:
64,192,126929,1,0,0:0:0:133:
448,192,127255,1,0,0:0:0:0:
320,192,127282,1,0,0:0:0:0:
192,192,127309,1,0,0:0:0:0:
64,192,127336,1,0,0:0:0:0:
448,192,127581,1,0,0:0:0:0:
320,192,127608,1,0,0:0:0:0:
192,192,127635,1,0,0:0:0:0:
64,192,127663,1,0,0:0:0:0:
192,192,136956,132,0,137119:0:0:0:66:
448,192,136956,128,0,137119:0:0:0:66:
64,192,137201,128,0,137364:0:0:0:66:
320,192,137201,128,0,137364:0:0:0:66:
192,192,137364,128,0,137527:0:0:0:66:
448,192,137364,128,0,137527:0:0:0:66:
320,192,137608,128,0,137771:0:0:0:66:
64,192,137608,128,0,137771:0:0:0:66:
448,192,137771,128,0,137934:0:0:0:66:
192,192,137771,128,0,137934:0:0:0:66:
64,192,138016,128,0,138586:0:0:0:133:
192,192,138586,128,0,139402:0:0:0:0:
320,192,138586,128,0,139565:0:0:0:0:
448,192,138586,128,0,139157:0:0:0:0:
64,192,139565,1,0,0:0:0:133:
64,192,139809,1,0,0:0:0:133:
192,192,139809,1,0,0:0:0:0:
448,192,139809,1,0,0:0:0:0:
320,192,139999,1,0,0:0:0:0:
192,192,139999,1,0,0:0:0:0:
448,192,140163,1,0,0:0:0:0:
192,192,140163,1,0,0:0:0:0:
320,192,140163,1,0,0:0:0:0:
320,192,140326,1,0,0:0:0:0:
192,192,140326,1,0,0:0:0:0:
64,192,140326,1,0,0:0:0:0:
64,192,140489,1,0,0:0:0:0:
320,192,140489,1,0,0:0:0:0:
448,192,140489,1,0,0:0:0:0:
192,192,140652,1,0,0:0:0:0:
320,192,140652,1,0,0:0:0:0:
448,192,140815,1,0,0:0:0:0:
192,192,140815,1,0,0:0:0:0:
320,192,140815,1,0,0:0:0:0:
448,192,140951,1,0,0:0:0:66:
192,192,140951,1,0,0:0:0:66:
64,192,141032,1,0,0:0:0:66:
320,192,141032,1,0,0:0:0:66:
192,192,141114,1,0,0:0:0:66:
448,192,141114,1,0,0:0:0:66:
64,192,141195,1,0,0:0:0:66:
320,192,141195,1,0,0:0:0:66:
192,192,141277,1,0,0:0:0:133:
320,192,141358,1,0,0:0:0:133:
448,192,141440,1,0,0:0:0:66:
192,192,141440,1,0,0:0:0:66:
320,192,141521,1,0,0:0:0:66:
64,192,141521,1,0,0:0:0:66:
192,192,141603,1,0,0:0:0:133:
320,192,141684,1,0,0:0:0:66:
64,192,141684,1,0,0:0:0:66:
448,192,141766,1,0,0:0:0:66:
192,192,141766,1,0,0:0:0:66:
320,192,141847,1,0,0:0:0:133:
448,192,141929,1,0,0:0:0:66:
192,192,141929,1,0,0:0:0:66:
64,192,142010,1,0,0:0:0:66:
320,192,142010,1,0,0:0:0:66:
448,192,142092,1,0,0:0:0:66:
192,192,142092,1,0,0:0:0:66:
64,192,142173,1,0,0:0:0:133:
448,192,142255,1,0,0:0:0:66:
192,192,142255,1,0,0:0:0:66:
64,192,142336,1,0,0:0:0:66:
320,192,142336,1,0,0:0:0:66:
448,192,142418,1,0,0:0:0:66:
192,192,142418,1,0,0:0:0:66:
320,192,142499,1,0,0:0:0:133:
192,192,142581,1,0,0:0:0:133:
64,192,142663,1,0,0:0:0:66:
320,192,142663,1,0,0:0:0:66:
192,192,142744,1,0,0:0:0:133:
64,192,142826,1,0,0:0:0:66:
320,192,142826,1,0,0:0:0:66:
448,192,142907,1,0,0:0:0:133:
64,192,142989,1,0,0:0:0:66:
320,192,142989,1,0,0:0:0:66:
448,192,143070,1,0,0:0:0:66:
192,192,143070,1,0,0:0:0:66:
64,192,143152,1,0,0:0:0:66:
320,192,143152,1,0,0:0:0:66:
192,192,143233,1,0,0:0:0:133:
320,192,143315,1,0,0:0:0:133:
448,192,143396,128,0,146005:0:0:0:33:
320,192,143396,128,0,145842:0:0:0:33:
192,192,143396,128,0,145679:0:0:0:33:
64,192,143396,128,0,145516:0:0:0:33:
320,192,146086,1,0,0:0:0:0:
64,192,148410,1,0,0:0:0:0:
192,192,148410,1,0,0:0:0:0:
320,192,148410,1,0,0:0:0:0:
448,192,148410,1,0,0:0:0:0:
64,192,148451,1,0,0:0:0:0:
192,192,148451,1,0,0:0:0:0:
320,192,148451,1,0,0:0:0:0:
448,192,148451,1,0,0:0:0:0:
