osu file format v14

[General]
AudioFilename: audio.mp3
AudioLeadIn: 0
PreviewTime: 101975
Countdown: 0
SampleSet: Soft
StackLeniency: 0.7
Mode: 3
LetterboxInBreaks: 0
SpecialStyle: 0
WidescreenStoryboard: 1

[Editor]
DistanceSpacing: 2
BeatDivisor: 4
GridSize: 8
TimelineZoom: 1

[Metadata]
Title:Demise Quartet
TitleUnicode:Demise Quartet
Artist:Shiron + Kofu x Morimori Atsushi to Teikyo de okuri shimasu
ArtistUnicode:Shiron+こふ×モリモリあつしと提供でお送りします。
Creator:walao
Version:ADVANCED
Source:SOUND VOLTEX III GRAVITY WARS
Tags:SDVX
BeatmapID:1065550
BeatmapSetID:500673

[Difficulty]
HPDrainRate:7
CircleSize:4
OverallDifficulty:8
ApproachRate:5
SliderMultiplier:1.4
SliderTickRate:1

[Events]
//Background and Video events
0,0,"bg.png",0,0
//Break Periods
//Storyboard Layer 0 (Background)
//Storyboard Layer 1 (Fail)
//Storyboard Layer 2 (Pass)
//Storyboard Layer 3 (Foreground)
//Storyboard Sound Samples

[TimingPoints]
-25,300,4,2,1,30,1,0
10775,-100,4,2,1,40,0,0
61175,-100,4,2,1,40,0,1
80075,-100,4,2,1,40,0,0
80675,-100,4,2,1,40,0,1
90050,-100,4,2,1,5,0,0
92375,-100,4,2,1,40,0,0
101975,-100,4,2,1,40,0,1
112250,-100,4,2,1,40,0,0

[HitObjects]
64,192,575,5,0,0:0:0:0:
448,192,1175,1,0,0:0:0:0:
192,192,1175,1,0,0:0:0:0:
64,192,1775,1,0,0:0:0:0:
320,192,1775,1,0,0:0:0:0:
192,192,2075,1,0,0:0:0:0:
320,192,2225,1,0,0:0:0:0:
448,192,2375,1,0,0:0:0:0:
192,192,2375,1,0,0:0:0:0:
320,192,2675,1,0,0:0:0:0:
192,192,2825,1,0,0:0:0:0:
448,192,2975,1,0,0:0:0:0:
64,192,2975,1,0,0:0:0:0:
320,192,3125,1,0,0:0:0:0:
192,192,3425,1,0,0:0:0:0:
192,192,3575,1,0,0:0:0:0:
320,192,3575,1,0,0:0:0:0:
448,192,4025,1,0,0:0:0:0:
320,192,4100,1,0,0:0:0:0:
192,192,4175,1,0,0:0:0:0:
64,192,4175,1,0,0:0:0:0:
448,192,4775,1,0,0:0:0:0:
64,192,4775,1,0,0:0:0:0:
192,192,5075,1,0,0:0:0:0:
320,192,5225,1,0,0:0:0:0:
192,192,5375,1,0,0:0:0:0:
448,192,5375,1,0,0:0:0:0:
64,192,5525,1,0,0:0:0:0:
192,192,5675,1,0,0:0:0:0:
448,192,5825,1,0,0:0:0:0:
320,192,5975,1,0,0:0:0:0:
64,192,5975,1,0,0:0:0:0:
448,192,6425,1,0,0:0:0:0:
320,192,6500,1,0,0:0:0:0:
192,192,6575,1,0,0:0:0:0:
64,192,6575,1,0,0:0:0:0:
192,192,7175,1,0,0:0:0:0:
448,192,7175,1,0,0:0:0:0:
64,192,7475,1,0,0:0:0:0:
192,192,7625,1,0,0:0:0:0:
448,192,7775,1,0,0:0:0:0:
320,192,7775,1,0,0:0:0:0:
192,192,7925,1,0,0:0:0:0:
64,192,8225,1,0,0:0:0:0:
64,192,8375,1,0,0:0:0:0:
320,192,8375,1,0,0:0:0:0:
448,192,8975,1,0,0:0:0:0:
192,192,8975,1,0,0:0:0:0:
64,192,9425,1,0,0:0:0:0:
192,192,9500,1,0,0:0:0:0:
320,192,9575,128,0,10175:0:0:0:0:
448,192,9575,128,0,10475:0:0:0:0:
64,192,10175,128,0,10775:0:0:0:0:
192,192,10475,128,0,10775:0:0:0:0:
320,192,10775,128,0,11000:0:0:0:0:
448,192,10775,1,0,0:0:0:0:
192,192,11000,128,0,11225:0:0:0:0:
64,192,11225,128,0,11675:0:0:0:0:
448,192,11375,1,0,0:0:0:0:
320,192,11675,128,0,11975:0:0:0:0:
192,192,11975,1,0,0:0:0:0:
448,192,11975,128,0,12425:0:0:0:0:
192,192,12425,1,0,0:0:0:0:
320,192,12575,128,0,12875:0:0:0:0:
64,192,12875,128,0,13175:0:0:0:0:
192,192,12875,1,0,0:0:0:0:
448,192,13175,128,0,13400:0:0:0:0:
320,192,13175,1,0,0:0:0:0:
192,192,13400,128,0,13625:0:0:0:0:
320,192,13625,1,0,0:0:0:0:
448,192,13775,128,0,14000:0:0:0:0:
64,192,14000,128,0,14225:0:0:0:0:
192,192,14225,1,0,0:0:0:0:
320,192,14375,1,0,0:0:0:0:
448,192,14375,1,0,0:0:0:0:
192,192,14600,1,0,0:0:0:0:
320,192,14600,1,0,0:0:0:0:
192,192,14825,1,0,0:0:0:0:
64,192,14825,1,0,0:0:0:0:
320,192,14975,1,0,0:0:0:0:
448,192,14975,1,0,0:0:0:0:
64,192,15200,1,0,0:0:0:0:
192,192,15200,1,0,0:0:0:0:
320,192,15425,1,0,0:0:0:0:
192,192,15425,1,0,0:0:0:0:
320,192,15575,1,0,0:0:0:0:
448,192,15575,1,0,0:0:0:0:
64,192,15725,1,0,0:0:0:0:
192,192,15800,1,0,0:0:0:0:
320,192,15875,1,0,0:0:0:0:
448,192,15950,1,0,0:0:0:0:
64,192,16025,1,0,0:0:0:0:
448,192,16175,1,0,0:0:0:0:
320,192,16325,1,0,0:0:0:0:
64,192,16475,1,0,0:0:0:0:
192,192,16550,1,0,0:0:0:0:
448,192,16625,1,0,0:0:0:0:
320,192,16700,1,0,0:0:0:0:
192,192,16775,1,0,0:0:0:0:
64,192,16925,1,0,0:0:0:0:
320,192,17075,1,0,0:0:0:0:
192,192,17225,1,0,0:0:0:0:
448,192,17375,1,0,0:0:0:0:
320,192,17450,1,0,0:0:0:0:
192,192,17525,1,0,0:0:0:0:
64,192,17600,1,0,0:0:0:0:
448,192,17675,1,0,0:0:0:0:
320,192,17750,1,0,0:0:0:0:
192,192,17825,1,0,0:0:0:0:
64,192,17900,1,0,0:0:0:0:
320,192,17975,1,0,0:0:0:0:
448,192,17975,1,0,0:0:0:0:
64,192,18125,1,0,0:0:0:0:
192,192,18200,1,0,0:0:0:0:
320,192,18275,1,0,0:0:0:0:
448,192,18350,1,0,0:0:0:0:
192,192,18425,1,0,0:0:0:0:
64,192,18425,1,0,0:0:0:0:
448,192,18575,1,0,0:0:0:0:
320,192,18650,1,0,0:0:0:0:
192,192,18725,1,0,0:0:0:0:
64,192,18800,1,0,0:0:0:0:
320,192,18875,1,0,0:0:0:0:
448,192,18875,1,0,0:0:0:0:
448,192,19025,1,0,0:0:0:0:
320,192,19100,1,0,0:0:0:0:
192,192,19175,1,0,0:0:0:0:
64,192,19175,1,0,0:0:0:0:
64,192,19400,1,0,0:0:0:0:
192,192,19400,1,0,0:0:0:0:
448,192,19625,1,0,0:0:0:0:
320,192,19625,1,0,0:0:0:0:
448,192,19775,1,0,0:0:0:0:
320,192,19775,1,0,0:0:0:0:
64,192,19925,1,0,0:0:0:0:
192,192,20000,1,0,0:0:0:0:
448,192,20075,1,0,0:0:0:0:
320,192,20150,1,0,0:0:0:0:
192,192,20225,1,0,0:0:0:0:
64,192,20300,1,0,0:0:0:0:
320,192,20375,1,4,0:0:0:0:
448,192,20375,1,0,0:0:0:0:
192,192,20525,1,0,0:0:0:0:
64,192,20675,1,0,0:0:0:0:
448,192,20825,1,0,0:0:0:0:
192,192,20975,1,0,0:0:0:0:
320,192,21125,1,0,0:0:0:0:
192,192,21275,1,0,0:0:0:0:
64,192,21425,1,4,0:0:0:0:
448,192,21425,1,0,0:0:0:0:
320,192,21575,1,0,0:0:0:0:
448,192,21725,1,0,0:0:0:0:
64,192,21875,1,0,0:0:0:0:
192,192,22025,1,0,0:0:0:0:
320,192,22175,1,0,0:0:0:0:
64,192,22325,1,0,0:0:0:0:
192,192,22475,1,0,0:0:0:0:
320,192,22625,1,0,0:0:0:0:
448,192,22775,1,4,0:0:0:0:
64,192,22775,1,0,0:0:0:0:
192,192,22925,1,0,0:0:0:0:
64,192,23075,1,0,0:0:0:0:
448,192,23225,1,0,0:0:0:0:
192,192,23375,1,0,0:0:0:0:
320,192,23525,1,0,0:0:0:0:
64,192,23675,1,0,0:0:0:0:
448,192,23825,1,4,0:0:0:0:
320,192,23825,1,0,0:0:0:0:
192,192,23975,1,0,0:0:0:0:
320,192,24125,1,0,0:0:0:0:
64,192,24275,1,0,0:0:0:0:
448,192,24425,1,0,0:0:0:0:
192,192,24575,1,0,0:0:0:0:
448,192,24725,1,0,0:0:0:0:
64,192,24725,1,0,0:0:0:0:
192,192,24875,1,0,0:0:0:0:
320,192,25025,1,0,0:0:0:0:
448,192,25025,1,0,0:0:0:0:
64,192,25175,1,0,0:0:0:0:
192,192,25175,1,4,0:0:0:0:
320,192,25325,1,0,0:0:0:0:
448,192,25475,1,0,0:0:0:0:
64,192,25625,1,0,0:0:0:0:
192,192,25775,1,0,0:0:0:0:
320,192,25925,1,0,0:0:0:0:
64,192,26075,1,0,0:0:0:0:
192,192,26225,1,0,0:0:0:0:
448,192,26225,128,0,26375:0:0:0:0:
64,192,26375,1,0,0:0:0:0:
192,192,26525,128,0,26675:0:0:0:0:
320,192,26525,1,0,0:0:0:0:
448,192,26675,1,0,0:0:0:0:
320,192,26825,128,0,26975:0:0:0:0:
64,192,26825,1,0,0:0:0:0:
448,192,26975,1,0,0:0:0:0:
192,192,27125,1,0,0:0:0:0:
64,192,27125,128,0,27275:0:0:0:0:
448,192,27275,1,0,0:0:0:0:
192,192,27425,1,0,0:0:0:0:
320,192,27500,1,0,0:0:0:0:
448,192,27575,1,0,0:0:0:0:
320,192,27650,1,0,0:0:0:0:
192,192,27725,1,0,0:0:0:0:
64,192,27800,1,0,0:0:0:0:
192,192,27875,1,0,0:0:0:0:
320,192,27950,1,0,0:0:0:0:
448,192,28025,1,0,0:0:0:0:
320,192,28100,1,0,0:0:0:0:
192,192,28175,1,0,0:0:0:0:
64,192,28250,1,0,0:0:0:0:
448,192,28325,1,0,0:0:0:0:
320,192,28400,1,0,0:0:0:0:
64,192,28475,1,0,0:0:0:0:
192,192,28550,1,0,0:0:0:0:
320,192,28625,1,0,0:0:0:0:
448,192,28775,1,0,0:0:0:0:
64,192,28775,1,0,0:0:0:0:
192,192,29075,1,0,0:0:0:0:
320,192,29075,1,0,0:0:0:0:
64,192,29375,1,4,0:0:0:0:
448,192,29375,1,0,0:0:0:0:
448,192,29675,1,4,0:0:0:0:
320,192,29675,1,0,0:0:0:0:
64,192,29975,1,0,0:0:0:0:
192,192,29975,1,0,0:0:0:0:
448,192,30125,1,0,0:0:0:0:
192,192,30275,1,0,0:0:0:0:
320,192,30275,1,0,0:0:0:0:
64,192,30425,1,0,0:0:0:0:
320,192,30575,1,0,0:0:0:0:
448,192,30575,1,0,0:0:0:0:
64,192,30725,1,0,0:0:0:0:
192,192,30800,1,0,0:0:0:0:
448,192,30950,1,0,0:0:0:0:
320,192,31025,1,0,0:0:0:0:
192,192,31250,1,0,0:0:0:0:
64,192,31325,1,0,0:0:0:0:
320,192,31475,1,0,0:0:0:0:
448,192,31550,1,0,0:0:0:0:
192,192,31700,1,0,0:0:0:0:
64,192,31775,1,0,0:0:0:0:
320,192,31925,1,0,0:0:0:0:
448,192,32000,1,0,0:0:0:0:
64,192,32150,1,0,0:0:0:0:
192,192,32225,1,0,0:0:0:0:
320,192,32300,1,0,0:0:0:0:
448,192,32375,1,0,0:0:0:0:
64,192,32375,1,0,0:0:0:0:
192,192,32525,1,0,0:0:0:0:
64,192,32675,1,0,0:0:0:0:
320,192,32675,1,0,0:0:0:0:
448,192,32825,1,0,0:0:0:0:
192,192,32975,1,0,0:0:0:0:
64,192,32975,1,0,0:0:0:0:
448,192,33125,1,0,0:0:0:0:
320,192,33200,1,0,0:0:0:0:
64,192,33350,1,0,0:0:0:0:
192,192,33425,1,0,0:0:0:0:
320,192,33650,1,0,0:0:0:0:
448,192,33725,1,0,0:0:0:0:
192,192,33875,1,0,0:0:0:0:
64,192,33950,1,0,0:0:0:0:
320,192,34100,1,0,0:0:0:0:
448,192,34175,1,0,0:0:0:0:
192,192,34325,1,0,0:0:0:0:
64,192,34400,1,0,0:0:0:0:
448,192,34550,1,0,0:0:0:0:
320,192,34625,1,0,0:0:0:0:
192,192,34700,1,0,0:0:0:0:
448,192,34775,1,0,0:0:0:0:
64,192,34775,1,0,0:0:0:0:
320,192,34925,1,0,0:0:0:0:
192,192,35075,1,0,0:0:0:0:
64,192,35075,1,0,0:0:0:0:
448,192,35225,1,0,0:0:0:0:
64,192,35375,1,0,0:0:0:0:
320,192,35375,1,0,0:0:0:0:
192,192,35525,1,0,0:0:0:0:
448,192,35675,1,0,0:0:0:0:
320,192,35675,1,0,0:0:0:0:
64,192,35825,128,0,35975:0:0:0:0:
320,192,35975,1,0,0:0:0:0:
192,192,35975,1,0,0:0:0:0:
448,192,36125,1,0,0:0:0:0:
64,192,36275,1,0,0:0:0:0:
320,192,36275,1,0,0:0:0:0:
192,192,36425,1,0,0:0:0:0:
448,192,36575,1,0,0:0:0:0:
320,192,36575,1,0,0:0:0:0:
192,192,36725,1,0,0:0:0:0:
64,192,36875,1,0,0:0:0:0:
448,192,36875,1,0,0:0:0:0:
320,192,37025,1,0,0:0:0:0:
192,192,37175,1,0,0:0:0:0:
64,192,37175,1,0,0:0:0:0:
320,192,37325,1,0,0:0:0:0:
192,192,37400,1,0,0:0:0:0:
448,192,37475,1,0,0:0:0:0:
64,192,37550,1,0,0:0:0:0:
192,192,37625,1,0,0:0:0:0:
320,192,37700,1,0,0:0:0:0:
64,192,37775,1,4,0:0:0:0:
192,192,37775,1,0,0:0:0:0:
448,192,37925,1,0,0:0:0:0:
320,192,37925,1,4,0:0:0:0:
192,192,38225,128,0,38525:0:0:0:0:
64,192,38225,128,0,38525:0:0:0:0:
448,192,38525,1,0,0:0:0:0:
320,192,38600,1,0,0:0:0:0:
192,192,38675,1,0,0:0:0:0:
64,192,38750,1,0,0:0:0:0:
448,192,38825,1,0,0:0:0:0:
320,192,38900,1,0,0:0:0:0:
64,192,38975,1,0,0:0:0:0:
192,192,39050,1,0,0:0:0:0:
320,192,39125,1,0,0:0:0:0:
448,192,39200,1,0,0:0:0:0:
64,192,39575,1,4,0:0:0:0:
448,192,39575,1,0,0:0:0:0:
192,192,39725,1,0,0:0:0:0:
320,192,39875,1,0,0:0:0:0:
448,192,40025,1,0,0:0:0:0:
192,192,40175,1,0,0:0:0:0:
320,192,40175,1,0,0:0:0:0:
64,192,40325,1,0,0:0:0:0:
448,192,40475,1,0,0:0:0:0:
320,192,40625,1,0,0:0:0:0:
64,192,40775,1,0,0:0:0:0:
448,192,40775,1,0,0:0:0:0:
192,192,40925,1,0,0:0:0:0:
320,192,41075,1,0,0:0:0:0:
448,192,41225,1,0,0:0:0:0:
320,192,41375,1,0,0:0:0:0:
64,192,41375,1,0,0:0:0:0:
192,192,41525,1,0,0:0:0:0:
448,192,41675,1,0,0:0:0:0:
320,192,41825,1,0,0:0:0:0:
448,192,41975,1,0,0:0:0:0:
192,192,41975,1,0,0:0:0:0:
64,192,42125,1,0,0:0:0:0:
192,192,42275,1,0,0:0:0:0:
320,192,42425,1,0,0:0:0:0:
448,192,42575,1,0,0:0:0:0:
192,192,42575,1,0,0:0:0:0:
64,192,42725,1,0,0:0:0:0:
320,192,42875,1,0,0:0:0:0:
448,192,43025,1,0,0:0:0:0:
64,192,43175,1,0,0:0:0:0:
192,192,43175,1,0,0:0:0:0:
320,192,43325,1,0,0:0:0:0:
192,192,43475,1,0,0:0:0:0:
320,192,43625,1,0,0:0:0:0:
448,192,43775,1,0,0:0:0:0:
192,192,43775,1,0,0:0:0:0:
64,192,43925,1,0,0:0:0:0:
192,192,44000,1,0,0:0:0:0:
320,192,44075,1,0,0:0:0:0:
448,192,44150,1,0,0:0:0:0:
64,192,44225,1,0,0:0:0:0:
192,192,44300,1,0,0:0:0:0:
448,192,44375,1,4,0:0:0:0:
320,192,44375,1,0,0:0:0:0:
64,192,44475,1,0,0:0:0:0:
192,192,44575,1,0,0:0:0:0:
320,192,44675,1,0,0:0:0:0:
448,192,44775,1,0,0:0:0:0:
192,192,44875,1,0,0:0:0:0:
64,192,44975,1,4,0:0:0:0:
448,192,45075,1,0,0:0:0:0:
320,192,45175,1,0,0:0:0:0:
64,192,45275,1,0,0:0:0:0:
192,192,45375,1,0,0:0:0:0:
320,192,45475,1,0,0:0:0:0:
448,192,45575,1,4,0:0:0:0:
64,192,45575,1,0,0:0:0:0:
192,192,45675,1,0,0:0:0:0:
320,192,45775,1,0,0:0:0:0:
192,192,45875,1,0,0:0:0:0:
64,192,45975,1,0,0:0:0:0:
192,192,46075,1,0,0:0:0:0:
320,192,46175,1,4,0:0:0:0:
448,192,46275,1,0,0:0:0:0:
320,192,46375,1,0,0:0:0:0:
192,192,46475,1,0,0:0:0:0:
320,192,46575,1,0,0:0:0:0:
448,192,46675,1,0,0:0:0:0:
192,192,46775,1,4,0:0:0:0:
64,192,46775,1,0,0:0:0:0:
320,192,46875,1,0,0:0:0:0:
448,192,46975,1,0,0:0:0:0:
64,192,47075,1,0,0:0:0:0:
192,192,47175,1,0,0:0:0:0:
320,192,47275,1,0,0:0:0:0:
448,192,47375,1,4,0:0:0:0:
192,192,47475,1,0,0:0:0:0:
320,192,47575,1,0,0:0:0:0:
64,192,47675,1,0,0:0:0:0:
320,192,47775,1,0,0:0:0:0:
192,192,47875,1,0,0:0:0:0:
448,192,47975,1,0,0:0:0:0:
320,192,47975,1,0,0:0:0:0:
64,192,48075,1,0,0:0:0:0:
192,192,48175,1,0,0:0:0:0:
448,192,48275,1,0,0:0:0:0:
320,192,48375,1,0,0:0:0:0:
192,192,48475,1,0,0:0:0:0:
64,192,48575,1,0,0:0:0:0:
448,192,48575,1,0,0:0:0:0:
192,192,48675,1,0,0:0:0:0:
320,192,48775,1,0,0:0:0:0:
448,192,48875,1,0,0:0:0:0:
192,192,48975,1,0,0:0:0:0:
64,192,49075,1,0,0:0:0:0:
320,192,49175,1,0,0:0:0:0:
448,192,49275,1,0,0:0:0:0:
320,192,49375,1,0,0:0:0:0:
192,192,49475,1,0,0:0:0:0:
192,192,49775,1,0,0:0:0:0:
64,192,49875,1,0,0:0:0:0:
192,192,49975,1,0,0:0:0:0:
320,192,50075,1,0,0:0:0:0:
192,192,50275,1,0,0:0:0:0:
320,192,50375,1,0,0:0:0:0:
192,192,50475,1,0,0:0:0:0:
320,192,50575,1,0,0:0:0:0:
192,192,50675,1,0,0:0:0:0:
64,192,50875,1,0,0:0:0:0:
448,192,50975,1,0,0:0:0:0:
64,192,51075,1,0,0:0:0:0:
448,192,51175,1,0,0:0:0:0:
64,192,51275,1,0,0:0:0:0:
448,192,51375,1,0,0:0:0:0:
64,192,51475,1,0,0:0:0:0:
448,192,51575,1,0,0:0:0:0:
320,192,51675,1,0,0:0:0:0:
192,192,51775,1,0,0:0:0:0:
64,192,51875,1,0,0:0:0:0:
64,192,52175,1,0,0:0:0:0:
192,192,52275,1,0,0:0:0:0:
320,192,52375,1,0,0:0:0:0:
448,192,52475,1,0,0:0:0:0:
320,192,52675,1,0,0:0:0:0:
192,192,52775,1,0,0:0:0:0:
64,192,52875,1,0,0:0:0:0:
320,192,52975,1,0,0:0:0:0:
448,192,53075,1,0,0:0:0:0:
192,192,53175,1,0,0:0:0:0:
64,192,53275,1,0,0:0:0:0:
448,192,53375,1,0,0:0:0:0:
320,192,53475,1,0,0:0:0:0:
64,192,53575,1,0,0:0:0:0:
192,192,53675,1,0,0:0:0:0:
448,192,53775,1,0,0:0:0:0:
320,192,53875,1,0,0:0:0:0:
64,192,53975,1,0,0:0:0:0:
448,192,53975,1,0,0:0:0:0:
192,192,54075,1,0,0:0:0:0:
320,192,54175,1,0,0:0:0:0:
64,192,54275,1,0,0:0:0:0:
320,192,54475,1,0,0:0:0:0:
192,192,54575,1,0,0:0:0:0:
320,192,54675,1,0,0:0:0:0:
448,192,54775,1,0,0:0:0:0:
64,192,54875,1,0,0:0:0:0:
320,192,55075,1,0,0:0:0:0:
448,192,55175,1,4,0:0:0:0:
64,192,55175,1,0,0:0:0:0:
320,192,55275,1,0,0:0:0:0:
192,192,55375,1,0,0:0:0:0:
64,192,55475,1,0,0:0:0:0:
448,192,55575,1,0,0:0:0:0:
320,192,55675,1,0,0:0:0:0:
192,192,55775,1,0,0:0:0:0:
64,192,55875,1,0,0:0:0:0:
192,192,55975,1,0,0:0:0:0:
320,192,56075,1,0,0:0:0:0:
448,192,56175,1,0,0:0:0:0:
320,192,56275,1,0,0:0:0:0:
192,192,56375,1,0,0:0:0:0:
64,192,56375,1,0,0:0:0:0:
448,192,56525,1,0,0:0:0:0:
320,192,56600,1,0,0:0:0:0:
192,192,56675,1,0,0:0:0:0:
64,192,56825,1,0,0:0:0:0:
192,192,56900,1,0,0:0:0:0:
320,192,56975,1,0,0:0:0:0:
448,192,57125,1,0,0:0:0:0:
320,192,57200,1,0,0:0:0:0:
192,192,57275,1,0,0:0:0:0:
64,192,57425,1,0,0:0:0:0:
448,192,57425,1,0,0:0:0:0:
448,192,57725,1,4,0:0:0:0:
192,192,57725,1,0,0:0:0:0:
320,192,57875,1,4,0:0:0:0:
64,192,57875,1,0,0:0:0:0:
192,192,58025,1,0,0:0:0:0:
448,192,58175,1,0,0:0:0:0:
320,192,58250,1,0,0:0:0:0:
192,192,58325,1,0,0:0:0:0:
64,192,58400,1,0,0:0:0:0:
448,192,58475,1,0,0:0:0:0:
320,192,58475,1,0,0:0:0:0:
64,192,58625,1,0,0:0:0:0:
448,192,58625,1,0,0:0:0:0:
192,192,58925,1,4,0:0:0:0:
320,192,58925,1,0,0:0:0:0:
448,192,59075,1,0,0:0:0:0:
64,192,59075,1,4,0:0:0:0:
192,192,59225,1,0,0:0:0:0:
448,192,59375,1,0,0:0:0:0:
320,192,59450,1,0,0:0:0:0:
64,192,59525,1,0,0:0:0:0:
192,192,59600,1,0,0:0:0:0:
320,192,59675,1,0,0:0:0:0:
448,192,59675,1,0,0:0:0:0:
448,192,59825,1,0,0:0:0:0:
320,192,59825,1,0,0:0:0:0:
64,192,59825,1,0,0:0:0:0:
192,192,60125,1,4,0:0:0:0:
64,192,60125,1,0,0:0:0:0:
448,192,60125,1,0,0:0:0:0:
192,192,60275,1,4,0:0:0:0:
64,192,60275,1,0,0:0:0:0:
448,192,60275,1,0,0:0:0:0:
320,192,60575,1,0,0:0:0:0:
64,192,60725,1,0,0:0:0:0:
192,192,60800,1,0,0:0:0:0:
320,192,60875,1,0,0:0:0:0:
448,192,60950,1,0,0:0:0:0:
320,192,61025,1,0,0:0:0:0:
192,192,61100,1,0,0:0:0:0:
64,192,61175,1,0,0:0:0:0:
448,192,61175,1,0,0:0:0:0:
192,192,61325,1,0,0:0:0:0:
320,192,61400,1,0,0:0:0:0:
448,192,61475,1,0,0:0:0:0:
320,192,61625,1,0,0:0:0:0:
192,192,61700,1,0,0:0:0:0:
64,192,61775,1,0,0:0:0:0:
448,192,61925,1,0,0:0:0:0:
320,192,62000,1,0,0:0:0:0:
64,192,62075,1,0,0:0:0:0:
192,192,62150,1,0,0:0:0:0:
320,192,62225,1,0,0:0:0:0:
448,192,62300,1,0,0:0:0:0:
64,192,62375,1,0,0:0:0:0:
192,192,62525,1,0,0:0:0:0:
320,192,62600,1,0,0:0:0:0:
448,192,62675,1,0,0:0:0:0:
320,192,62825,1,0,0:0:0:0:
448,192,62900,1,0,0:0:0:0:
192,192,62975,1,0,0:0:0:0:
320,192,63050,1,0,0:0:0:0:
64,192,63125,1,0,0:0:0:0:
192,192,63200,1,0,0:0:0:0:
320,192,63275,128,0,63575:0:0:0:0:
448,192,63275,128,0,63575:0:0:0:0:
64,192,63575,128,0,63875:0:0:0:0:
192,192,63575,128,0,63875:0:0:0:0:
448,192,63875,1,0,0:0:0:0:
320,192,63950,1,0,0:0:0:0:
64,192,64025,1,0,0:0:0:0:
192,192,64100,1,0,0:0:0:0:
448,192,64175,1,0,0:0:0:0:
320,192,64175,1,0,0:0:0:0:
64,192,64325,1,0,0:0:0:0:
192,192,64325,1,0,0:0:0:0:
64,192,64475,1,0,0:0:0:0:
448,192,64475,1,0,0:0:0:0:
192,192,64625,1,0,0:0:0:0:
320,192,64625,1,0,0:0:0:0:
448,192,64775,1,0,0:0:0:0:
320,192,64775,1,0,0:0:0:0:
64,192,64925,1,0,0:0:0:0:
192,192,65000,1,0,0:0:0:0:
448,192,65225,1,0,0:0:0:0:
320,192,65300,1,0,0:0:0:0:
64,192,65375,1,0,0:0:0:0:
192,192,65450,1,0,0:0:0:0:
320,192,65525,1,0,0:0:0:0:
448,192,65600,1,0,0:0:0:0:
192,192,65675,128,0,65975:0:0:0:0:
320,192,65675,128,0,65975:0:0:0:0:
448,192,65975,1,0,0:0:0:0:
64,192,65975,1,0,0:0:0:0:
192,192,66125,1,0,0:0:0:0:
320,192,66275,1,0,0:0:0:0:
64,192,66425,1,0,0:0:0:0:
448,192,66575,1,0,0:0:0:0:
192,192,66575,1,0,0:0:0:0:
320,192,66725,1,0,0:0:0:0:
192,192,66875,1,0,0:0:0:0:
64,192,67025,1,0,0:0:0:0:
192,192,67175,1,0,0:0:0:0:
448,192,67175,1,0,0:0:0:0:
320,192,67325,1,0,0:0:0:0:
64,192,67475,1,0,0:0:0:0:
192,192,67625,1,0,0:0:0:0:
448,192,67775,1,0,0:0:0:0:
320,192,67775,1,0,0:0:0:0:
64,192,68075,1,0,0:0:0:0:
192,192,68150,1,0,0:0:0:0:
320,192,68225,1,0,0:0:0:0:
448,192,68300,1,0,0:0:0:0:
64,192,68375,128,0,68675:0:0:0:0:
192,192,68375,1,0,0:0:0:0:
448,192,68675,1,0,0:0:0:0:
320,192,68750,1,0,0:0:0:0:
192,192,68825,1,0,0:0:0:0:
64,192,68900,1,0,0:0:0:0:
448,192,68975,1,0,0:0:0:0:
320,192,68975,1,0,0:0:0:0:
64,192,69125,1,0,0:0:0:0:
192,192,69200,1,0,0:0:0:0:
448,192,69350,1,0,0:0:0:0:
320,192,69425,1,0,0:0:0:0:
64,192,69575,128,0,70775:0:0:0:0:
192,192,69575,1,0,0:0:0:0:
448,192,69725,1,0,0:0:0:0:
320,192,69800,1,0,0:0:0:0:
192,192,69875,1,0,0:0:0:0:
192,192,70025,1,0,0:0:0:0:
320,192,70100,1,0,0:0:0:0:
448,192,70175,1,0,0:0:0:0:
448,192,70325,1,0,0:0:0:0:
320,192,70400,1,0,0:0:0:0:
192,192,70475,1,0,0:0:0:0:
320,192,70550,1,0,0:0:0:0:
448,192,70625,1,0,0:0:0:0:
320,192,70700,1,0,0:0:0:0:
192,192,70775,1,0,0:0:0:0:
64,192,71000,1,0,0:0:0:0:
448,192,71000,1,0,0:0:0:0:
320,192,71225,1,0,0:0:0:0:
192,192,71225,1,0,0:0:0:0:
448,192,71375,1,0,0:0:0:0:
320,192,71375,1,0,0:0:0:0:
64,192,71525,1,0,0:0:0:0:
192,192,71600,1,0,0:0:0:0:
448,192,71675,1,0,0:0:0:0:
320,192,71750,1,0,0:0:0:0:
192,192,71825,1,0,0:0:0:0:
64,192,71900,1,0,0:0:0:0:
448,192,71975,1,0,0:0:0:0:
320,192,71975,1,0,0:0:0:0:
320,192,72200,1,0,0:0:0:0:
192,192,72200,1,0,0:0:0:0:
320,192,72425,1,0,0:0:0:0:
448,192,72425,1,0,0:0:0:0:
64,192,72575,1,0,0:0:0:0:
192,192,72575,1,0,0:0:0:0:
448,192,72725,1,0,0:0:0:0:
320,192,72800,1,0,0:0:0:0:
192,192,72875,1,0,0:0:0:0:
64,192,72875,1,0,0:0:0:0:
320,192,72950,1,0,0:0:0:0:
448,192,73025,1,0,0:0:0:0:
320,192,73100,1,0,0:0:0:0:
64,192,73175,5,0,0:0:0:0:
192,192,73175,1,0,0:0:0:0:
64,192,73400,1,0,0:0:0:0:
448,192,73400,1,0,0:0:0:0:
320,192,73625,1,0,0:0:0:0:
448,192,73625,1,0,0:0:0:0:
64,192,73775,5,0,0:0:0:0:
192,192,73775,1,0,0:0:0:0:
192,192,73925,1,0,0:0:0:0:
320,192,73925,1,0,0:0:0:0:
448,192,74075,1,0,0:0:0:0:
320,192,74075,1,0,0:0:0:0:
448,192,74225,1,0,0:0:0:0:
64,192,74225,1,0,0:0:0:0:
192,192,74375,1,0,0:0:0:0:
320,192,74375,1,0,0:0:0:0:
192,192,74600,1,0,0:0:0:0:
320,192,74600,1,0,0:0:0:0:
448,192,74825,1,0,0:0:0:0:
64,192,74825,1,0,0:0:0:0:
192,192,74975,1,0,0:0:0:0:
320,192,74975,1,0,0:0:0:0:
64,192,75125,1,0,0:0:0:0:
192,192,75275,1,0,0:0:0:0:
448,192,75275,1,0,0:0:0:0:
64,192,75425,1,0,0:0:0:0:
192,192,75500,1,0,0:0:0:0:
320,192,75575,1,0,0:0:0:0:
192,192,75725,1,0,0:0:0:0:
448,192,75875,1,0,0:0:0:0:
64,192,76025,1,0,0:0:0:0:
192,192,76100,1,0,0:0:0:0:
448,192,76175,1,0,0:0:0:0:
320,192,76250,1,0,0:0:0:0:
192,192,76325,1,0,0:0:0:0:
64,192,76400,1,0,0:0:0:0:
320,192,76475,1,0,0:0:0:0:
64,192,76625,1,0,0:0:0:0:
192,192,76625,1,0,0:0:0:0:
320,192,76775,1,0,0:0:0:0:
448,192,76775,1,0,0:0:0:0:
64,192,76925,1,0,0:0:0:0:
192,192,77075,1,0,0:0:0:0:
448,192,77225,1,0,0:0:0:0:
320,192,77375,1,0,0:0:0:0:
64,192,77475,1,0,0:0:0:0:
192,192,77575,1,0,0:0:0:0:
448,192,77675,1,0,0:0:0:0:
320,192,77775,1,0,0:0:0:0:
192,192,77875,1,0,0:0:0:0:
64,192,77975,1,0,0:0:0:0:
448,192,77975,1,0,0:0:0:0:
192,192,78125,1,0,0:0:0:0:
320,192,78200,1,0,0:0:0:0:
448,192,78275,1,0,0:0:0:0:
320,192,78425,1,0,0:0:0:0:
192,192,78500,1,0,0:0:0:0:
64,192,78575,1,0,0:0:0:0:
448,192,78725,1,0,0:0:0:0:
320,192,78800,1,0,0:0:0:0:
192,192,78875,1,0,0:0:0:0:
64,192,79025,1,0,0:0:0:0:
192,192,79100,1,0,0:0:0:0:
320,192,79175,1,0,0:0:0:0:
64,192,79325,1,0,0:0:0:0:
192,192,79400,1,0,0:0:0:0:
448,192,79475,1,0,0:0:0:0:
320,192,79625,1,0,0:0:0:0:
448,192,79700,1,0,0:0:0:0:
64,192,79775,1,0,0:0:0:0:
320,192,79925,1,0,0:0:0:0:
192,192,80000,1,0,0:0:0:0:
64,192,80075,128,0,80375:0:0:0:0:
192,192,80225,128,0,80375:0:0:0:0:
448,192,80375,128,0,80525:0:0:0:0:
320,192,80525,1,0,0:0:0:0:
192,192,80600,1,0,0:0:0:0:
64,192,80675,1,4,0:0:0:0:
320,192,80675,1,0,0:0:0:0:
192,192,80825,1,0,0:0:0:0:
320,192,80900,1,0,0:0:0:0:
448,192,80975,1,0,0:0:0:0:
64,192,81125,1,0,0:0:0:0:
320,192,81200,1,0,0:0:0:0:
192,192,81275,1,0,0:0:0:0:
448,192,81425,1,0,0:0:0:0:
320,192,81425,1,0,0:0:0:0:
64,192,81575,1,0,0:0:0:0:
192,192,81575,1,0,0:0:0:0:
320,192,81725,1,0,0:0:0:0:
192,192,81875,1,0,0:0:0:0:
448,192,82025,1,0,0:0:0:0:
320,192,82100,1,0,0:0:0:0:
192,192,82175,1,0,0:0:0:0:
64,192,82325,1,0,0:0:0:0:
192,192,82475,1,0,0:0:0:0:
320,192,82625,1,0,0:0:0:0:
448,192,82700,1,0,0:0:0:0:
320,192,82775,1,0,0:0:0:0:
192,192,82925,1,0,0:0:0:0:
64,192,83075,1,0,0:0:0:0:
192,192,83225,1,0,0:0:0:0:
320,192,83375,1,0,0:0:0:0:
448,192,83525,1,0,0:0:0:0:
64,192,83675,1,0,0:0:0:0:
192,192,83825,1,0,0:0:0:0:
448,192,83975,1,0,0:0:0:0:
320,192,84050,5,0,0:0:0:0:
192,192,84125,1,0,0:0:0:0:
448,192,84275,1,0,0:0:0:0:
64,192,84425,1,0,0:0:0:0:
320,192,84575,1,0,0:0:0:0:
448,192,84725,1,0,0:0:0:0:
64,192,84875,1,0,0:0:0:0:
192,192,85025,1,0,0:0:0:0:
448,192,85175,5,0,0:0:0:0:
320,192,85175,1,0,0:0:0:0:
64,192,85275,1,0,0:0:0:0:
192,192,85375,1,0,0:0:0:0:
320,192,85475,1,0,0:0:0:0:
64,192,85575,1,0,0:0:0:0:
192,192,85675,1,0,0:0:0:0:
448,192,85775,1,0,0:0:0:0:
320,192,85875,1,0,0:0:0:0:
192,192,85975,1,0,0:0:0:0:
64,192,86075,1,0,0:0:0:0:
320,192,86175,1,0,0:0:0:0:
448,192,86275,1,0,0:0:0:0:
64,192,86375,1,0,0:0:0:0:
320,192,86475,1,0,0:0:0:0:
192,192,86575,1,0,0:0:0:0:
448,192,86675,1,0,0:0:0:0:
192,192,86775,1,0,0:0:0:0:
320,192,86875,1,0,0:0:0:0:
64,192,86975,1,0,0:0:0:0:
320,192,87075,1,0,0:0:0:0:
192,192,87175,1,0,0:0:0:0:
448,192,87275,1,0,0:0:0:0:
192,192,87375,1,0,0:0:0:0:
320,192,87475,1,0,0:0:0:0:
64,192,87575,1,0,0:0:0:0:
320,192,87725,1,0,0:0:0:0:
448,192,87875,1,0,0:0:0:0:
64,192,87875,1,0,0:0:0:0:
192,192,88025,1,0,0:0:0:0:
320,192,88100,1,0,0:0:0:0:
192,192,88175,1,0,0:0:0:0:
320,192,88325,1,0,0:0:0:0:
192,192,88400,1,0,0:0:0:0:
64,192,88475,1,0,0:0:0:0:
448,192,88550,1,0,0:0:0:0:
320,192,88625,1,0,0:0:0:0:
192,192,88700,1,0,0:0:0:0:
448,192,88775,1,0,0:0:0:0:
64,192,88775,1,0,0:0:0:0:
320,192,88925,1,0,0:0:0:0:
192,192,89075,1,0,0:0:0:0:
448,192,89075,1,0,0:0:0:0:
64,192,89225,1,0,0:0:0:0:
320,192,89375,1,0,0:0:0:0:
192,192,89375,1,0,0:0:0:0:
448,192,89525,1,0,0:0:0:0:
320,192,89675,128,0,89975:0:0:0:0:
64,192,89675,1,0,0:0:0:0:
192,192,89975,128,4,92375:0:0:0:0:
448,192,89975,1,0,0:0:0:0:
64,192,90650,1,0,0:0:0:0:
320,192,90875,1,0,0:0:0:0:
64,192,91100,1,0,0:0:0:0:
320,192,91325,5,0,0:0:0:0:
64,192,91550,1,0,0:0:0:0:
320,192,91775,1,0,0:0:0:0:
64,192,92000,1,0,0:0:0:0:
320,192,92225,1,0,0:0:0:0:
448,192,92375,5,0,0:0:0:0:
320,192,92475,1,0,0:0:0:0:
192,192,92575,1,0,0:0:0:0:
64,192,92675,1,0,0:0:0:0:
192,192,92775,1,0,0:0:0:0:
320,192,92875,1,0,0:0:0:0:
448,192,92975,1,0,0:0:0:0:
320,192,93075,1,0,0:0:0:0:
192,192,93175,1,0,0:0:0:0:
64,192,93275,1,0,0:0:0:0:
192,192,93375,1,0,0:0:0:0:
320,192,93475,1,0,0:0:0:0:
448,192,93575,1,0,0:0:0:0:
320,192,93675,1,0,0:0:0:0:
192,192,93775,1,0,0:0:0:0:
64,192,93875,1,0,0:0:0:0:
192,192,93975,1,0,0:0:0:0:
320,192,94075,1,0,0:0:0:0:
448,192,94175,1,0,0:0:0:0:
320,192,94275,1,0,0:0:0:0:
192,192,94375,1,0,0:0:0:0:
64,192,94475,1,0,0:0:0:0:
192,192,94575,1,0,0:0:0:0:
320,192,94675,1,0,0:0:0:0:
448,192,94775,1,0,0:0:0:0:
192,192,94875,1,0,0:0:0:0:
320,192,94975,1,0,0:0:0:0:
64,192,95075,1,0,0:0:0:0:
320,192,95175,1,0,0:0:0:0:
192,192,95275,1,0,0:0:0:0:
448,192,95375,1,0,0:0:0:0:
192,192,95475,1,0,0:0:0:0:
320,192,95575,1,0,0:0:0:0:
64,192,95675,1,0,0:0:0:0:
320,192,95775,1,0,0:0:0:0:
192,192,95875,1,0,0:0:0:0:
448,192,95975,1,0,0:0:0:0:
192,192,96075,1,0,0:0:0:0:
320,192,96175,1,0,0:0:0:0:
64,192,96275,1,0,0:0:0:0:
320,192,96375,1,0,0:0:0:0:
192,192,96475,1,0,0:0:0:0:
448,192,96575,1,0,0:0:0:0:
192,192,96675,1,0,0:0:0:0:
320,192,96775,1,0,0:0:0:0:
64,192,96875,1,0,0:0:0:0:
320,192,96975,1,0,0:0:0:0:
192,192,97075,1,0,0:0:0:0:
64,192,97175,1,0,0:0:0:0:
448,192,97175,1,0,0:0:0:0:
320,192,97175,1,0,0:0:0:0:
192,192,97775,1,0,0:0:0:0:
320,192,97775,1,0,0:0:0:0:
448,192,97775,1,0,0:0:0:0:
64,192,98375,1,0,0:0:0:0:
192,192,98375,1,0,0:0:0:0:
448,192,98375,1,0,0:0:0:0:
64,192,98975,1,0,0:0:0:0:
192,192,98975,1,0,0:0:0:0:
320,192,98975,1,0,0:0:0:0:
448,192,99275,1,0,0:0:0:0:
64,192,99275,1,0,0:0:0:0:
192,192,99425,1,0,0:0:0:0:
320,192,99500,1,0,0:0:0:0:
192,192,99575,1,0,0:0:0:0:
64,192,99575,1,0,0:0:0:0:
448,192,99575,1,0,0:0:0:0:
192,192,99875,1,0,0:0:0:0:
320,192,99875,1,0,0:0:0:0:
320,192,100175,1,0,0:0:0:0:
448,192,100175,1,0,0:0:0:0:
64,192,100175,1,0,0:0:0:0:
192,192,100475,1,0,0:0:0:0:
64,192,100475,1,0,0:0:0:0:
320,192,100775,1,0,0:0:0:0:
448,192,100775,1,0,0:0:0:0:
64,192,100775,1,0,0:0:0:0:
192,192,100925,1,0,0:0:0:0:
320,192,101075,1,0,0:0:0:0:
448,192,101075,1,0,0:0:0:0:
64,192,101225,1,0,0:0:0:0:
320,192,101375,1,0,0:0:0:0:
448,192,101450,1,0,0:0:0:0:
64,192,101525,1,0,0:0:0:0:
192,192,101600,1,0,0:0:0:0:
320,192,101675,1,0,0:0:0:0:
448,192,101750,1,0,0:0:0:0:
64,192,101825,1,0,0:0:0:0:
192,192,101900,1,0,0:0:0:0:
448,192,101975,1,0,0:0:0:0:
320,192,101975,1,4,0:0:0:0:
192,192,102125,1,0,0:0:0:0:
64,192,102125,1,0,0:0:0:0:
448,192,102275,1,0,0:0:0:0:
320,192,102350,1,0,0:0:0:0:
192,192,102425,1,0,0:0:0:0:
64,192,102500,1,0,0:0:0:0:
448,192,102575,1,4,0:0:0:0:
320,192,102650,1,0,0:0:0:0:
64,192,102725,1,0,0:0:0:0:
192,192,102800,1,0,0:0:0:0:
320,192,102875,1,4,0:0:0:0:
448,192,102950,1,0,0:0:0:0:
192,192,103025,1,0,0:0:0:0:
64,192,103100,1,0,0:0:0:0:
320,192,103175,1,4,0:0:0:0:
448,192,103175,1,0,0:0:0:0:
64,192,103325,1,0,0:0:0:0:
192,192,103325,1,0,0:0:0:0:
448,192,103475,1,0,0:0:0:0:
320,192,103550,1,0,0:0:0:0:
192,192,103625,1,0,0:0:0:0:
64,192,103700,1,0,0:0:0:0:
320,192,103775,1,4,0:0:0:0:
448,192,103850,1,0,0:0:0:0:
192,192,103925,1,0,0:0:0:0:
64,192,104000,1,0,0:0:0:0:
192,192,104075,1,0,0:0:0:0:
320,192,104150,1,0,0:0:0:0:
448,192,104225,1,0,0:0:0:0:
320,192,104300,1,0,0:0:0:0:
64,192,104375,1,0,0:0:0:0:
192,192,104375,1,0,0:0:0:0:
448,192,104525,1,0,0:0:0:0:
320,192,104525,1,0,0:0:0:0:
64,192,104675,1,0,0:0:0:0:
192,192,104750,1,0,0:0:0:0:
448,192,104825,1,0,0:0:0:0:
320,192,104900,1,0,0:0:0:0:
192,192,104975,1,4,0:0:0:0:
64,192,105050,1,0,0:0:0:0:
192,192,105125,1,0,0:0:0:0:
320,192,105200,1,0,0:0:0:0:
448,192,105275,1,4,0:0:0:0:
192,192,105350,1,0,0:0:0:0:
64,192,105425,1,0,0:0:0:0:
320,192,105500,1,0,0:0:0:0:
448,192,105575,1,0,0:0:0:0:
192,192,105675,1,0,0:0:0:0:
320,192,105775,1,0,0:0:0:0:
64,192,105875,1,0,0:0:0:0:
192,192,105975,1,0,0:0:0:0:
448,192,106075,1,0,0:0:0:0:
320,192,106175,1,0,0:0:0:0:
192,192,106275,1,0,0:0:0:0:
320,192,106375,1,0,0:0:0:0:
64,192,106475,1,0,0:0:0:0:
448,192,106575,1,0,0:0:0:0:
192,192,106675,1,0,0:0:0:0:
448,192,106775,1,0,0:0:0:0:
320,192,106775,1,0,0:0:0:0:
192,192,106925,1,0,0:0:0:0:
64,192,107075,1,0,0:0:0:0:
320,192,107225,1,0,0:0:0:0:
448,192,107375,1,0,0:0:0:0:
192,192,107375,1,0,0:0:0:0:
64,192,107525,1,0,0:0:0:0:
448,192,107675,1,0,0:0:0:0:
320,192,107825,1,0,0:0:0:0:
192,192,107975,1,0,0:0:0:0:
64,192,107975,1,0,0:0:0:0:
448,192,108125,1,0,0:0:0:0:
192,192,108275,1,0,0:0:0:0:
320,192,108425,1,0,0:0:0:0:
64,192,108575,1,0,0:0:0:0:
448,192,108575,1,0,0:0:0:0:
192,192,108725,1,0,0:0:0:0:
448,192,108875,1,0,0:0:0:0:
192,192,109025,1,0,0:0:0:0:
64,192,109175,1,0,0:0:0:0:
448,192,109175,1,0,0:0:0:0:
192,192,109250,1,0,0:0:0:0:
320,192,109325,1,0,0:0:0:0:
64,192,109400,1,0,0:0:0:0:
192,192,109475,1,0,0:0:0:0:
320,192,109550,1,0,0:0:0:0:
448,192,109625,1,0,0:0:0:0:
320,192,109700,1,0,0:0:0:0:
192,192,109775,1,0,0:0:0:0:
64,192,109850,1,0,0:0:0:0:
192,192,109925,1,0,0:0:0:0:
448,192,110000,1,0,0:0:0:0:
320,192,110075,1,0,0:0:0:0:
192,192,110150,1,0,0:0:0:0:
64,192,110225,1,0,0:0:0:0:
320,192,110300,1,0,0:0:0:0:
448,192,110375,1,0,0:0:0:0:
320,192,110450,1,0,0:0:0:0:
192,192,110525,1,0,0:0:0:0:
64,192,110600,1,0,0:0:0:0:
192,192,110675,1,0,0:0:0:0:
320,192,110750,1,0,0:0:0:0:
448,192,110825,1,0,0:0:0:0:
320,192,110900,1,0,0:0:0:0:
192,192,110975,1,0,0:0:0:0:
64,192,110975,1,0,0:0:0:0:
448,192,111075,1,0,0:0:0:0:
320,192,111075,1,0,0:0:0:0:
192,192,111175,1,0,0:0:0:0:
64,192,111175,1,0,0:0:0:0:
448,192,111275,1,0,0:0:0:0:
320,192,111275,1,0,0:0:0:0:
64,192,111375,1,0,0:0:0:0:
192,192,111375,1,0,0:0:0:0:
320,192,111475,1,0,0:0:0:0:
448,192,111475,1,0,0:0:0:0:
64,192,112175,128,0,116675:0:0:0:0:
448,192,112175,128,0,116675:0:0:0:0:
320,192,112175,128,0,116675:0:0:0:0:
